999
dxfrw 0.5.10
0
SECTION
2
HEADER
9
$ACADVER
1
AC1021
9
$HANDSEED
5
20000
9
$DWGCODEPAGE
3
ANSI_1252
9
$INSBASE
10
0
20
0
30
0
9
$EXTMIN
10
-12.4338834765
20
-18.25
30
0
9
$EXTMAX
10
34.8
20
27.125
30
0
9
$LIMMIN
10
0
20
0
9
$LIMMAX
10
420
20
297
9
$ORTHOMODE
70
0
9
$LTSCALE
40
1
9
$TEXTSTYLE
7
STANDARD
9
$CLAYER
8
DIM
9
$DIMASZ
40
1.5
9
$DIMLFAC
40
1
9
$DIMSCALE
40
1
9
$DIMEXO
40
0.625
9
$DIMEXE
40
1.25
9
$DIMTXT
40
1.5
9
$DIMTSZ
40
0
9
$DIMAUNIT
70
0
9
$DIMADEC
70
2
9
$DIMLUNIT
70
2
9
$DIMSTYLE
2
STANDARD
9
$DIMGAP
40
0.625
9
$DIMTIH
70
0
9
$LUNITS
70
2
9
$LUPREC
70
1
9
$AUNITS
70
0
9
$AUPREC
70
2
9
$SPLINESEGS
70
8
9
$GRIDMODE
70
1
9
$SNAPSTYLE
70
0
9
$GRIDUNIT
10
0
20
0
9
$PINSBASE
10
0
20
0
30
0
9
$PLIMMIN
10
0
20
0
9
$PLIMMAX
10
210
20
297
9
$INSUNITS
70
4
9
$PSVPSCALE
40
1
0
ENDSEC
0
SECTION
2
CLASSES
0
ENDSEC
0
SECTION
2
TABLES
0
TABLE
2
VPORT
5
8
330
0
100
AcDbSymbolTable
70
1
0
VPORT
5
31
330
2
100
AcDbSymbolTableRecord
100
AcDbViewportTableRecord
2
*ACTIVE
70
0
10
0
20
0
11
1
21
1
12
29.9985613811
22
13.8678069054
13
0
23
0
14
10
24
10
15
10
25
10
16
0
26
0
36
1
17
0
27
0
37
0
40
46.5354859335
41
2.09725685786
42
50
43
0
44
0
50
0
51
0
71
0
72
100
73
1
74
3
75
0
76
1
77
0
78
0
281
0
65
1
110
0
120
0
130
0
111
1
121
0
131
0
112
0
122
1
132
0
79
0
146
0
348
10020
60
7
61
5
292
1
282
1
141
0
142
0
63
250
421
3358443
0
ENDTAB
0
TABLE
2
LTYPE
5
5
330
0
100
AcDbSymbolTable
70
4
0
LTYPE
5
14
330
5
100
AcDbSymbolTableRecord
100
AcDbLinetypeTableRecord
2
ByBlock
70
0
3

72
65
73
0
40
0
0
LTYPE
5
15
330
5
100
AcDbSymbolTableRecord
100
AcDbLinetypeTableRecord
2
ByLayer
70
0
3

72
65
73
0
40
0
0
LTYPE
5
16
330
5
100
AcDbSymbolTableRecord
100
AcDbLinetypeTableRecord
2
Continuous
70
0
3
Solid line
72
65
73
0
40
0
0
LTYPE
5
32
330
5
100
AcDbSymbolTableRecord
100
AcDbLinetypeTableRecord
2
DOT
70
0
3
Dot . . . . . . . . . . . . . . . . . . . . . .
72
65
73
2
40
6.35
49
0
74
0
49
-6.35
74
0
0
LTYPE
5
33
330
5
100
AcDbSymbolTableRecord
100
AcDbLinetypeTableRecord
2
DOT2
70
0
3
Dot (.5x) .....................................
72
65
73
2
40
3.175
49
0
74
0
49
-3.175
74
0
0
LTYPE
5
34
330
5
100
AcDbSymbolTableRecord
100
AcDbLinetypeTableRecord
2
DOTX2
70
0
3
Dot (2x) .  .  .  .  .  .  .  .  .  .  .  .  .
72
65
73
2
40
12.7
49
0
74
0
49
-12.7
74
0
0
LTYPE
5
35
330
5
100
AcDbSymbolTableRecord
100
AcDbLinetypeTableRecord
2
DASHED
70
0
3
Dot . . . . . . . . . . . . . . . . . . . . . .
72
65
73
2
40
19.05
49
12.7
74
0
49
-6.35
74
0
0
LTYPE
5
36
330
5
100
AcDbSymbolTableRecord
100
AcDbLinetypeTableRecord
2
DASHED2
70
0
3
Dashed (.5x) _ _ _ _ _ _ _ _ _ _ _ _ _ _ _ _ _
72
65
73
2
40
9.525
49
6.35
74
0
49
-3.175
74
0
0
LTYPE
5
37
330
5
100
AcDbSymbolTableRecord
100
AcDbLinetypeTableRecord
2
DASHEDX2
70
0
3
Dashed (2x) ____  ____  ____  ____  ____  ___
72
65
73
2
40
38.1
49
25.4
74
0
49
-12.7
74
0
0
LTYPE
5
38
330
5
100
AcDbSymbolTableRecord
100
AcDbLinetypeTableRecord
2
DASHDOT
70
0
3
Dash dot __ . __ . __ . __ . __ . __ . __ . __
72
65
73
4
40
25.4
49
12.7
74
0
49
-6.35
74
0
49
0
74
0
49
-6.35
74
0
0
LTYPE
5
39
330
5
100
AcDbSymbolTableRecord
100
AcDbLinetypeTableRecord
2
DASHDOT2
70
0
3
Dash dot (.5x) _._._._._._._._._._._._._._._.
72
65
73
4
40
12.7
49
6.35
74
0
49
-3.175
74
0
49
0
74
0
49
-3.175
74
0
0
LTYPE
5
3A
330
5
100
AcDbSymbolTableRecord
100
AcDbLinetypeTableRecord
2
DASHDOTX2
70
0
3
Dash dot (2x) ____  .  ____  .  ____  .  ___
72
65
73
4
40
50.8
49
25.4
74
0
49
-12.7
74
0
49
0
74
0
49
-12.7
74
0
0
LTYPE
5
3B
330
5
100
AcDbSymbolTableRecord
100
AcDbLinetypeTableRecord
2
DIVIDE
70
0
3
Divide ____ . . ____ . . ____ . . ____ . . ____
72
65
73
6
40
31.75
49
12.7
74
0
49
-6.35
74
0
49
0
74
0
49
-6.35
74
0
49
0
74
0
49
-6.35
74
0
0
LTYPE
5
3C
330
5
100
AcDbSymbolTableRecord
100
AcDbLinetypeTableRecord
2
DIVIDE2
70
0
3
Divide (.5x) __..__..__..__..__..__..__..__.._
72
65
73
6
40
15.875
49
6.35
74
0
49
-3.175
74
0
49
0
74
0
49
-3.175
74
0
49
0
74
0
49
-3.175
74
0
0
LTYPE
5
3D
330
5
100
AcDbSymbolTableRecord
100
AcDbLinetypeTableRecord
2
DIVIDEX2
70
0
3
Divide (2x) ________  .  .  ________  .  .  _
72
65
73
6
40
63.5
49
25.4
74
0
49
-12.7
74
0
49
0
74
0
49
-12.7
74
0
49
0
74
0
49
-12.7
74
0
0
LTYPE
5
3E
330
5
100
AcDbSymbolTableRecord
100
AcDbLinetypeTableRecord
2
BORDER
70
0
3
Border __ __ . __ __ . __ __ . __ __ . __ __ .
72
65
73
6
40
44.45
49
12.7
74
0
49
-6.35
74
0
49
12.7
74
0
49
-6.35
74
0
49
0
74
0
49
-6.35
74
0
0
LTYPE
5
3F
330
5
100
AcDbSymbolTableRecord
100
AcDbLinetypeTableRecord
2
BORDER2
70
0
3
Border (.5x) __.__.__.__.__.__.__.__.__.__.__.
72
65
73
6
40
22.225
49
6.35
74
0
49
-3.175
74
0
49
6.35
74
0
49
-3.175
74
0
49
0
74
0
49
-3.175
74
0
0
LTYPE
5
40
330
5
100
AcDbSymbolTableRecord
100
AcDbLinetypeTableRecord
2
BORDERX2
70
0
3
Border (2x) ____  ____  .  ____  ____  .  ___
72
65
73
6
40
88.9
49
25.4
74
0
49
-12.7
74
0
49
25.4
74
0
49
-12.7
74
0
49
0
74
0
49
-12.7
74
0
0
LTYPE
5
41
330
5
100
AcDbSymbolTableRecord
100
AcDbLinetypeTableRecord
2
CENTER
70
0
3
Center ____ _ ____ _ ____ _ ____ _ ____ _ ____
72
65
73
4
40
50.8
49
31.75
74
0
49
-6.35
74
0
49
6.35
74
0
49
-6.35
74
0
0
LTYPE
5
42
330
5
100
AcDbSymbolTableRecord
100
AcDbLinetypeTableRecord
2
CENTER2
70
0
3
Center (.5x) ___ _ ___ _ ___ _ ___ _ ___ _ ___
72
65
73
4
40
28.575
49
19.05
74
0
49
-3.175
74
0
49
3.175
74
0
49
-3.175
74
0
0
LTYPE
5
43
330
5
100
AcDbSymbolTableRecord
100
AcDbLinetypeTableRecord
2
CENTERX2
70
0
3
Center (2x) ________  __  ________  __  _____
72
65
73
4
40
101.6
49
63.5
74
0
49
-12.7
74
0
49
12.7
74
0
49
-12.7
74
0
0
ENDTAB
0
TABLE
2
LAYER
5
2
330
0
100
AcDbSymbolTable
70
1
0
LAYER
5
10
330
2
100
AcDbSymbolTableRecord
100
AcDbLayerTableRecord
2
0
70
0
62
7
6
CONTINUOUS
370
0
390
F
0
LAYER
5
44
330
2
100
AcDbSymbolTableRecord
100
AcDbLayerTableRecord
2
DIM
70
0
62
5
6
CONTINUOUS
370
25
390
F
0
LAYER
5
45
330
2
100
AcDbSymbolTableRecord
100
AcDbLayerTableRecord
2
hidden
70
0
62
1
6
DASHED2
370
0
390
F
0
ENDTAB
0
TABLE
2
STYLE
5
3
330
0
100
AcDbSymbolTable
70
3
0
STYLE
5
46
330
2
100
AcDbSymbolTableRecord
100
AcDbTextStyleTableRecord
2
Standard
70
0
40
0
41
1
50
0
71
0
42
1
3
txt
4

0
ENDTAB
0
TABLE
2
VIEW
5
6
330
0
100
AcDbSymbolTable
70
0
0
ENDTAB
0
TABLE
2
UCS
5
7
330
0
100
AcDbSymbolTable
70
0
0
ENDTAB
0
TABLE
2
APPID
5
9
330
0
100
AcDbSymbolTable
70
1
0
APPID
5
12
330
9
100
AcDbSymbolTableRecord
100
AcDbRegAppTableRecord
2
ACAD
70
0
0
ENDTAB
0
TABLE
2
DIMSTYLE
5
A
330
0
100
AcDbSymbolTable
70
1
100
AcDbDimStyleTable
71
1
0
DIMSTYLE
105
47
330
A
100
AcDbSymbolTableRecord
100
AcDbDimStyleTableRecord
2
Standard
70
0
40
1
41
1.5
42
0.625
43
0.38
44
1.25
45
0
46
0
47
0
48
0
140
1.5
141
0.09
142
0
143
25.4
144
1
145
0
146
1
147
0.625
148
0
71
0
72
0
73
0
74
1
75
0
76
0
77
0
78
0
79
0
170
0
171
2
172
0
173
0
174
0
175
0
176
0
177
0
178
0
179
0
271
4
272
4
273
2
274
2
275
0
276
0
277
2
278
46
279
0
280
0
281
0
282
0
283
1
284
0
285
0
286
0
288
0
289
3
340
Standard
341

371
-2
372
-2
0
ENDTAB
0
TABLE
2
BLOCK_RECORD
5
1
330
0
100
AcDbSymbolTable
70
2
0
BLOCK_RECORD
5
1F
330
1
100
AcDbSymbolTableRecord
100
AcDbBlockTableRecord
2
*Model_Space
70
0
280
1
281
0
0
BLOCK_RECORD
5
1E
330
1
100
AcDbSymbolTableRecord
100
AcDbBlockTableRecord
2
*Paper_Space
70
0
280
1
281
0
0
BLOCK_RECORD
5
48
330
1
100
AcDbSymbolTableRecord
100
AcDbBlockTableRecord
2
*D5
70
0
280
1
281
0
0
BLOCK_RECORD
5
4B
330
1
100
AcDbSymbolTableRecord
100
AcDbBlockTableRecord
2
*D14
70
0
280
1
281
0
0
BLOCK_RECORD
5
4E
330
1
100
AcDbSymbolTableRecord
100
AcDbBlockTableRecord
2
*D12
70
0
280
1
281
0
0
BLOCK_RECORD
5
51
330
1
100
AcDbSymbolTableRecord
100
AcDbBlockTableRecord
2
*D7
70
0
280
1
281
0
0
BLOCK_RECORD
5
54
330
1
100
AcDbSymbolTableRecord
100
AcDbBlockTableRecord
2
*D8
70
0
280
1
281
0
0
BLOCK_RECORD
5
57
330
1
100
AcDbSymbolTableRecord
100
AcDbBlockTableRecord
2
*D18
70
0
280
1
281
0
0
BLOCK_RECORD
5
5A
330
1
100
AcDbSymbolTableRecord
100
AcDbBlockTableRecord
2
*D15
70
0
280
1
281
0
0
BLOCK_RECORD
5
5D
330
1
100
AcDbSymbolTableRecord
100
AcDbBlockTableRecord
2
*D10
70
0
280
1
281
0
0
BLOCK_RECORD
5
60
330
1
100
AcDbSymbolTableRecord
100
AcDbBlockTableRecord
2
*D1
70
0
280
1
281
0
0
BLOCK_RECORD
5
63
330
1
100
AcDbSymbolTableRecord
100
AcDbBlockTableRecord
2
*D19
70
0
280
1
281
0
0
BLOCK_RECORD
5
66
330
1
100
AcDbSymbolTableRecord
100
AcDbBlockTableRecord
2
*D9
70
0
280
1
281
0
0
BLOCK_RECORD
5
69
330
1
100
AcDbSymbolTableRecord
100
AcDbBlockTableRecord
2
*D17
70
0
280
1
281
0
0
BLOCK_RECORD
5
6C
330
1
100
AcDbSymbolTableRecord
100
AcDbBlockTableRecord
2
*D16
70
0
280
1
281
0
0
BLOCK_RECORD
5
6F
330
1
100
AcDbSymbolTableRecord
100
AcDbBlockTableRecord
2
*D2
70
0
280
1
281
0
0
BLOCK_RECORD
5
72
330
1
100
AcDbSymbolTableRecord
100
AcDbBlockTableRecord
2
*D3
70
0
280
1
281
0
0
BLOCK_RECORD
5
75
330
1
100
AcDbSymbolTableRecord
100
AcDbBlockTableRecord
2
*D11
70
0
280
1
281
0
0
BLOCK_RECORD
5
78
330
1
100
AcDbSymbolTableRecord
100
AcDbBlockTableRecord
2
*D13
70
0
280
1
281
0
0
BLOCK_RECORD
5
7B
330
1
100
AcDbSymbolTableRecord
100
AcDbBlockTableRecord
2
*D4
70
0
280
1
281
0
0
BLOCK_RECORD
5
7E
330
1
100
AcDbSymbolTableRecord
100
AcDbBlockTableRecord
2
*D6
70
0
280
1
281
0
0
ENDTAB
0
ENDSEC
0
SECTION
2
BLOCKS
0
BLOCK
5
20
330
1F
100
AcDbEntity
8
0
100
AcDbBlockBegin
2
*Model_Space
70
0
10
0
20
0
30
0
3
*Model_Space
1

0
ENDBLK
5
21
330
1F
100
AcDbEntity
8
0
100
AcDbBlockEnd
0
BLOCK
5
1C
330
1B
100
AcDbEntity
8
0
100
AcDbBlockBegin
2
*Paper_Space
70
0
10
0
20
0
30
0
3
*Paper_Space
1

0
ENDBLK
5
1D
330
1F
100
AcDbEntity
8
0
100
AcDbBlockEnd
0
BLOCK
5
49
330
48
100
AcDbEntity
8
0
100
AcDbBlockBegin
2
*D5
70
1
10
0
20
0
3
*D5
1

0
LINE
5
81
100
AcDbEntity
8
DIM
6
CONTINUOUS
62
7
370
0
100
AcDbLine
10
14
20
-8
11
14
21
-2.39808173319e-16
0
SOLID
5
82
100
AcDbEntity
8
DIM
6
CONTINUOUS
62
7
370
0
100
AcDbTrace
10
14
20
-8
30
0
11
13.7502292053
21
-6.5
31
0
12
14.2497707947
22
-6.5
32
0
13
14.2497707947
23
-6.5
33
0
0
SOLID
5
83
100
AcDbEntity
8
DIM
6
CONTINUOUS
62
7
370
0
100
AcDbTrace
10
14
20
-2.39808173319e-16
30
0
11
14.2497707947
21
-1.5
31
0
12
13.7502292053
22
-1.5
32
0
13
13.7502292053
23
-1.5
33
0
0
MTEXT
5
84
100
AcDbEntity
8
DIM
6
CONTINUOUS
62
7
370
0
100
AcDbMText
10
12.625
20
-4
30
0
40
1.5
41
0.666666666667
71
5
72
1
1
8
7
standard
210
0
220
0
230
1
50
90
73
2
44
1
0
LINE
5
85
100
AcDbEntity
8
DIM
6
CONTINUOUS
62
7
370
0
100
AcDbLine
10
11.625
20
-8
11
15.25
21
-8
0
LINE
5
86
100
AcDbEntity
8
DIM
6
CONTINUOUS
62
7
370
0
100
AcDbLine
10
10.125
20
2.77555756156e-16
11
15.25
21
3.15303338994e-16
0
ENDBLK
5
4A
330
48
100
AcDbEntity
8
0
100
AcDbBlockEnd
0
BLOCK
5
4C
330
4B
100
AcDbEntity
8
0
100
AcDbBlockBegin
2
*D14
70
1
10
0
20
0
3
*D14
1

0
LINE
5
87
100
AcDbEntity
8
DIM
6
CONTINUOUS
62
7
370
0
100
AcDbLine
10
-6
20
15
11
-6
21
2.44
0
SOLID
5
88
100
AcDbEntity
8
DIM
6
CONTINUOUS
62
7
370
0
100
AcDbTrace
10
-6
20
15
30
0
11
-5.75022920534
21
13.5
31
0
12
-6.24977079466
22
13.5
32
0
13
-6.24977079466
23
13.5
33
0
0
SOLID
5
89
100
AcDbEntity
8
DIM
6
CONTINUOUS
62
7
370
0
100
AcDbTrace
10
-6
20
2.44
30
0
11
-6.24977079466
21
3.94
31
0
12
-5.75022920534
22
3.94
32
0
13
-5.75022920534
23
3.94
33
0
0
MTEXT
5
8A
100
AcDbEntity
8
DIM
6
CONTINUOUS
62
7
370
0
100
AcDbMText
10
-7.375
20
8.72
30
0
40
1.5
41
3.16666666667
71
5
72
1
1
12.6
7
standard
210
0
220
0
230
1
50
90
73
2
44
1
0
LINE
5
8B
100
AcDbEntity
8
DIM
6
CONTINUOUS
62
7
370
0
100
AcDbLine
10
-3.125
20
15
11
-7.25
21
15
0
LINE
5
8C
100
AcDbEntity
8
DIM
6
CONTINUOUS
62
7
370
0
100
AcDbLine
10
-3.125
20
2.44
11
-7.25
21
2.44
0
ENDBLK
5
4D
330
4B
100
AcDbEntity
8
0
100
AcDbBlockEnd
0
BLOCK
5
4F
330
4E
100
AcDbEntity
8
0
100
AcDbBlockBegin
2
*D12
70
1
10
0
20
0
3
*D12
1

0
LINE
5
8D
100
AcDbEntity
8
DIM
6
CONTINUOUS
62
7
370
0
100
AcDbLine
10
-10
20
17
11
-10
21
-4.9
0
SOLID
5
8E
100
AcDbEntity
8
DIM
6
CONTINUOUS
62
7
370
0
100
AcDbTrace
10
-10
20
17
30
0
11
-9.75022920534
21
15.5
31
0
12
-10.2497707947
22
15.5
32
0
13
-10.2497707947
23
15.5
33
0
0
SOLID
5
8F
100
AcDbEntity
8
DIM
6
CONTINUOUS
62
7
370
0
100
AcDbTrace
10
-10
20
-4.9
30
0
11
-10.2497707947
21
-3.4
31
0
12
-9.75022920534
22
-3.4
32
0
13
-9.75022920534
23
-3.4
33
0
0
MTEXT
5
90
100
AcDbEntity
8
DIM
6
CONTINUOUS
62
7
370
0
100
AcDbMText
10
-11.375
20
6.05
30
0
40
1.5
41
3.16666666667
71
5
72
1
1
21.9
7
standard
210
0
220
0
230
1
50
90
73
2
44
1
0
LINE
5
91
100
AcDbEntity
8
DIM
6
CONTINUOUS
62
7
370
0
100
AcDbLine
10
-4.625
20
17
11
-11.25
21
17
0
LINE
5
92
100
AcDbEntity
8
DIM
6
CONTINUOUS
62
7
370
0
100
AcDbLine
10
-4.625
20
-4.9
11
-11.25
21
-4.9
0
ENDBLK
5
50
330
4E
100
AcDbEntity
8
0
100
AcDbBlockEnd
0
BLOCK
5
52
330
51
100
AcDbEntity
8
0
100
AcDbBlockBegin
2
*D7
70
1
10
0
20
0
3
*D7
1

0
LINE
5
93
100
AcDbEntity
8
DIM
6
CONTINUOUS
62
7
370
0
100
AcDbLine
10
14
20
12
11
14
21
20
0
SOLID
5
94
100
AcDbEntity
8
DIM
6
CONTINUOUS
62
7
370
0
100
AcDbTrace
10
14
20
15
30
0
11
14.2497707947
21
13.5
31
0
12
13.7502292053
22
13.5
32
0
13
13.7502292053
23
13.5
33
0
0
SOLID
5
95
100
AcDbEntity
8
DIM
6
CONTINUOUS
62
7
370
0
100
AcDbTrace
10
14
20
17
30
0
11
13.7502292053
21
18.5
31
0
12
14.2497707947
22
18.5
32
0
13
14.2497707947
23
18.5
33
0
0
MTEXT
5
96
100
AcDbEntity
8
DIM
6
CONTINUOUS
62
7
370
0
100
AcDbMText
10
12.625
20
16
30
0
40
1.5
41
0.666666666667
71
5
72
1
1
2
7
standard
210
0
220
0
230
1
50
90
73
2
44
1
0
LINE
5
97
100
AcDbEntity
8
DIM
6
CONTINUOUS
62
7
370
0
100
AcDbLine
10
10.125
20
15
11
15.25
21
15
0
LINE
5
98
100
AcDbEntity
8
DIM
6
CONTINUOUS
62
7
370
0
100
AcDbLine
10
11.625
20
17
11
15.25
21
17
0
ENDBLK
5
53
330
51
100
AcDbEntity
8
0
100
AcDbBlockEnd
0
BLOCK
5
55
330
54
100
AcDbEntity
8
0
100
AcDbBlockBegin
2
*D8
70
1
10
0
20
0
3
*D8
1

0
LINE
5
99
100
AcDbEntity
8
DIM
6
CONTINUOUS
62
7
370
0
100
AcDbLine
10
17
20
17
11
17
21
-8
0
SOLID
5
9A
100
AcDbEntity
8
DIM
6
CONTINUOUS
62
7
370
0
100
AcDbTrace
10
17
20
17
30
0
11
17.2497707947
21
15.5
31
0
12
16.7502292053
22
15.5
32
0
13
16.7502292053
23
15.5
33
0
0
SOLID
5
9B
100
AcDbEntity
8
DIM
6
CONTINUOUS
62
7
370
0
100
AcDbTrace
10
17
20
-8
30
0
11
16.7502292053
21
-6.5
31
0
12
17.2497707947
22
-6.5
32
0
13
17.2497707947
23
-6.5
33
0
0
MTEXT
5
9C
100
AcDbEntity
8
DIM
6
CONTINUOUS
62
7
370
0
100
AcDbMText
10
15.625
20
4.5
30
0
40
1.5
41
1.83333333333
71
5
72
1
1
25
7
standard
210
0
220
0
230
1
50
90
73
2
44
1
0
LINE
5
9D
100
AcDbEntity
8
DIM
6
CONTINUOUS
62
7
370
0
100
AcDbLine
10
11.625
20
17
11
18.25
21
17
0
LINE
5
9E
100
AcDbEntity
8
DIM
6
CONTINUOUS
62
7
370
0
100
AcDbLine
10
11.625
20
-8
11
18.25
21
-8
0
ENDBLK
5
56
330
54
100
AcDbEntity
8
0
100
AcDbBlockEnd
0
BLOCK
5
58
330
57
100
AcDbEntity
8
0
100
AcDbBlockBegin
2
*D18
70
1
10
0
20
0
3
*D18
1

0
LINE
5
9F
100
AcDbEntity
8
DIM
6
CONTINUOUS
62
7
370
0
100
AcDbLine
10
28
20
-11
11
28
21
-1.9
0
SOLID
5
A0
100
AcDbEntity
8
DIM
6
CONTINUOUS
62
7
370
0
100
AcDbTrace
10
28
20
-8
30
0
11
28.2497707947
21
-9.5
31
0
12
27.7502292053
22
-9.5
32
0
13
27.7502292053
23
-9.5
33
0
0
SOLID
5
A1
100
AcDbEntity
8
DIM
6
CONTINUOUS
62
7
370
0
100
AcDbTrace
10
28
20
-4.9
30
0
11
27.7502292053
21
-3.4
31
0
12
28.2497707947
22
-3.4
32
0
13
28.2497707947
23
-3.4
33
0
0
MTEXT
5
A2
100
AcDbEntity
8
DIM
6
CONTINUOUS
62
7
370
0
100
AcDbMText
10
26.625
20
-6.45
30
0
40
1.5
41
2
71
5
72
1
1
3.1
7
standard
210
0
220
0
230
1
50
90
73
2
44
1
0
LINE
5
A3
100
AcDbEntity
8
DIM
6
CONTINUOUS
62
7
370
0
100
AcDbLine
10
30.375
20
-8
11
26.75
21
-8
0
LINE
5
A4
100
AcDbEntity
8
DIM
6
CONTINUOUS
62
7
370
0
100
AcDbLine
10
30.375
20
-4.9
11
26.75
21
-4.9
0
ENDBLK
5
59
330
57
100
AcDbEntity
8
0
100
AcDbBlockEnd
0
BLOCK
5
5B
330
5A
100
AcDbEntity
8
0
100
AcDbBlockBegin
2
*D15
70
1
10
0
20
0
3
*D15
1

0
LINE
5
A5
100
AcDbEntity
8
DIM
6
CONTINUOUS
62
7
370
0
100
AcDbLine
10
-4.44194173824
20
-5.34194173824
11
-12.4338834765
21
-13.3338834765
0
LINE
5
A6
100
AcDbEntity
8
DIM
6
CONTINUOUS
62
7
370
0
100
AcDbLine
10
-1.34194173824
20
-8.44194173824
11
-9.33388347648
21
-16.4338834765
0
LINE
5
A7
100
AcDbEntity
8
DIM
6
CONTINUOUS
62
7
370
0
100
AcDbLine
10
-11.55
20
-12.45
11
-8.45
21
-15.55
0
SOLID
5
A8
100
AcDbEntity
8
DIM
6
CONTINUOUS
62
7
370
0
100
AcDbTrace
10
-11.55
20
-12.45
30
0
11
-10.3127252056
21
-13.3340455491
31
0
12
-10.6659544509
22
-13.6872747944
32
0
13
-10.6659544509
23
-13.6872747944
33
0
0
SOLID
5
A9
100
AcDbEntity
8
DIM
6
CONTINUOUS
62
7
370
0
100
AcDbTrace
10
-8.45
20
-15.55
30
0
11
-9.68727479443
21
-14.6659544509
31
0
12
-9.33404554913
22
-14.3127252056
32
0
13
-9.33404554913
23
-14.3127252056
33
0
0
MTEXT
5
AA
100
AcDbEntity
8
DIM
6
CONTINUOUS
62
7
370
0
100
AcDbMText
10
-9.02772817587
20
-13.0277281759
30
0
40
1.5
41
2.66666666667
71
5
72
1
1
4.4
7
standard
210
0
220
0
230
1
50
315
73
2
44
1
0
ENDBLK
5
5C
330
5A
100
AcDbEntity
8
0
100
AcDbBlockEnd
0
BLOCK
5
5E
330
5D
100
AcDbEntity
8
0
100
AcDbBlockBegin
2
*D10
70
1
10
0
20
0
3
*D10
1

0
LINE
5
AB
100
AcDbEntity
8
DIM
6
CONTINUOUS
62
7
370
0
100
AcDbLine
10
14
20
-12
11
6.5
21
-12
0
SOLID
5
AC
100
AcDbEntity
8
DIM
6
CONTINUOUS
62
7
370
0
100
AcDbTrace
10
11
20
-12
30
0
11
12.5
21
-11.7502292053
31
0
12
12.5
22
-12.2497707947
32
0
13
12.5
23
-12.2497707947
33
0
0
SOLID
5
AD
100
AcDbEntity
8
DIM
6
CONTINUOUS
62
7
370
0
100
AcDbTrace
10
9.5
20
-12
30
0
11
8
21
-12.2497707947
31
0
12
8
22
-11.7502292053
32
0
13
8
23
-11.7502292053
33
0
0
MTEXT
5
AE
100
AcDbEntity
8
DIM
6
CONTINUOUS
62
7
370
0
100
AcDbMText
10
12.625
20
-10.625
30
0
40
1.5
41
2
71
5
72
1
1
1.5
7
standard
210
0
220
0
230
1
50
360
73
2
44
1
0
LINE
5
AF
100
AcDbEntity
8
DIM
6
CONTINUOUS
62
7
370
0
100
AcDbLine
10
11
20
-8.625
11
11
21
-13.25
0
LINE
5
B0
100
AcDbEntity
8
DIM
6
CONTINUOUS
62
7
370
0
100
AcDbLine
10
9.5
20
-0.625
11
9.5
21
-13.25
0
ENDBLK
5
5F
330
5D
100
AcDbEntity
8
0
100
AcDbBlockEnd
0
BLOCK
5
61
330
60
100
AcDbEntity
8
0
100
AcDbBlockBegin
2
*D1
70
1
10
0
20
0
3
*D1
1

0
LINE
5
B1
100
AcDbEntity
8
DIM
6
CONTINUOUS
62
7
370
0
100
AcDbLine
10
-4
20
25
11
11
21
25
0
SOLID
5
B2
100
AcDbEntity
8
DIM
6
CONTINUOUS
62
7
370
0
100
AcDbTrace
10
-4
20
25
30
0
11
-2.5
21
25.2497707947
31
0
12
-2.5
22
24.7502292053
32
0
13
-2.5
23
24.7502292053
33
0
0
SOLID
5
B3
100
AcDbEntity
8
DIM
6
CONTINUOUS
62
7
370
0
100
AcDbTrace
10
11
20
25
30
0
11
9.5
21
24.7502292053
31
0
12
9.5
22
25.2497707947
32
0
13
9.5
23
25.2497707947
33
0
0
MTEXT
5
B4
100
AcDbEntity
8
DIM
6
CONTINUOUS
62
7
370
0
100
AcDbMText
10
3.5
20
26.375
30
0
40
1.5
41
1.5
71
5
72
1
1
15
7
standard
210
0
220
0
230
1
50
0
73
2
44
1
0
LINE
5
B5
100
AcDbEntity
8
DIM
6
CONTINUOUS
62
7
370
0
100
AcDbLine
10
-4
20
17.625
11
-4
21
26.25
0
LINE
5
B6
100
AcDbEntity
8
DIM
6
CONTINUOUS
62
7
370
0
100
AcDbLine
10
11
20
17.625
11
11
21
26.25
0
ENDBLK
5
62
330
60
100
AcDbEntity
8
0
100
AcDbBlockEnd
0
BLOCK
5
64
330
63
100
AcDbEntity
8
0
100
AcDbBlockBegin
2
*D19
70
1
10
0
20
0
3
*D19
1

0
LINE
5
B7
100
AcDbEntity
8
DIM
6
CONTINUOUS
62
7
370
0
100
AcDbLine
10
28
20
-4.9
11
28
21
17
0
SOLID
5
B8
100
AcDbEntity
8
DIM
6
CONTINUOUS
62
7
370
0
100
AcDbTrace
10
28
20
-4.9
30
0
11
27.7502292053
21
-3.4
31
0
12
28.2497707947
22
-3.4
32
0
13
28.2497707947
23
-3.4
33
0
0
SOLID
5
B9
100
AcDbEntity
8
DIM
6
CONTINUOUS
62
7
370
0
100
AcDbTrace
10
28
20
17
30
0
11
28.2497707947
21
15.5
31
0
12
27.7502292053
22
15.5
32
0
13
27.7502292053
23
15.5
33
0
0
MTEXT
5
BA
100
AcDbEntity
8
DIM
6
CONTINUOUS
62
7
370
0
100
AcDbMText
10
26.625
20
6.05
30
0
40
1.5
41
3.16666666667
71
5
72
1
1
21.9
7
standard
210
0
220
0
230
1
50
90
73
2
44
1
0
LINE
5
BB
100
AcDbEntity
8
DIM
6
CONTINUOUS
62
7
370
0
100
AcDbLine
10
30.375
20
-4.9
11
26.75
21
-4.9
0
LINE
5
BC
100
AcDbEntity
8
DIM
6
CONTINUOUS
62
7
370
0
100
AcDbLine
10
30.375
20
17
11
26.75
21
17
0
ENDBLK
5
65
330
63
100
AcDbEntity
8
0
100
AcDbBlockEnd
0
BLOCK
5
67
330
66
100
AcDbEntity
8
0
100
AcDbBlockBegin
2
*D9
70
1
10
0
20
0
3
*D9
1

0
LINE
5
BD
100
AcDbEntity
8
DIM
6
CONTINUOUS
62
7
370
0
100
AcDbLine
10
11
20
-17
11
-1
21
-17
0
SOLID
5
BE
100
AcDbEntity
8
DIM
6
CONTINUOUS
62
7
370
0
100
AcDbTrace
10
11
20
-17
30
0
11
9.5
21
-17.2497707947
31
0
12
9.5
22
-16.7502292053
32
0
13
9.5
23
-16.7502292053
33
0
0
SOLID
5
BF
100
AcDbEntity
8
DIM
6
CONTINUOUS
62
7
370
0
100
AcDbTrace
10
-1
20
-17
30
0
11
0.5
21
-16.7502292053
31
0
12
0.5
22
-17.2497707947
32
0
13
0.5
23
-17.2497707947
33
0
0
MTEXT
5
C0
100
AcDbEntity
8
DIM
6
CONTINUOUS
62
7
370
0
100
AcDbMText
10
5
20
-15.625
30
0
40
1.5
41
1.5
71
5
72
1
1
12
7
standard
210
0
220
0
230
1
50
360
73
2
44
1
0
LINE
5
C1
100
AcDbEntity
8
DIM
6
CONTINUOUS
62
7
370
0
100
AcDbLine
10
11
20
-8.625
11
11
21
-18.25
0
LINE
5
C2
100
AcDbEntity
8
DIM
6
CONTINUOUS
62
7
370
0
100
AcDbLine
10
-1
20
-8.625
11
-1
21
-18.25
0
ENDBLK
5
68
330
66
100
AcDbEntity
8
0
100
AcDbBlockEnd
0
BLOCK
5
6A
330
69
100
AcDbEntity
8
0
100
AcDbBlockBegin
2
*D17
70
1
10
0
20
0
3
*D17
1

0
LINE
5
C3
100
AcDbEntity
8
DIM
6
CONTINUOUS
62
7
370
0
100
AcDbLine
10
28
20
19
11
34.8
21
19
0
SOLID
5
C4
100
AcDbEntity
8
DIM
6
CONTINUOUS
62
7
370
0
100
AcDbTrace
10
31
20
19
30
0
11
29.5
21
18.7502292053
31
0
12
29.5
22
19.2497707947
32
0
13
29.5
23
19.2497707947
33
0
0
SOLID
5
C5
100
AcDbEntity
8
DIM
6
CONTINUOUS
62
7
370
0
100
AcDbTrace
10
31.8
20
19
30
0
11
33.3
21
19.2497707947
31
0
12
33.3
22
18.7502292053
32
0
13
33.3
23
18.7502292053
33
0
0
MTEXT
5
C6
100
AcDbEntity
8
DIM
6
CONTINUOUS
62
7
370
0
100
AcDbMText
10
33.5916666667
20
20.375
30
0
40
1.5
41
2.33333333333
71
5
72
1
1
0.8
7
standard
210
0
220
0
230
1
50
0
73
2
44
1
0
LINE
5
C7
100
AcDbEntity
8
DIM
6
CONTINUOUS
62
7
370
0
100
AcDbLine
10
31
20
17.625
11
31
21
20.25
0
LINE
5
C8
100
AcDbEntity
8
DIM
6
CONTINUOUS
62
7
370
0
100
AcDbLine
10
31.8
20
17.625
11
31.8
21
20.25
0
ENDBLK
5
6B
330
69
100
AcDbEntity
8
0
100
AcDbBlockEnd
0
BLOCK
5
6D
330
6C
100
AcDbEntity
8
0
100
AcDbBlockBegin
2
*D16
70
1
10
0
20
0
3
*D16
1

0
LINE
5
C9
100
AcDbEntity
8
DIM
6
CONTINUOUS
62
7
370
0
100
AcDbLine
10
-2.06345817315
20
2.88727646194
11
1.38419512901
21
6.41970812399
0
LINE
5
CA
100
AcDbEntity
8
DIM
6
CONTINUOUS
62
7
370
0
100
AcDbLine
10
0.436541826854
20
0.447276461941
11
3.88419512901
21
3.97970812399
0
LINE
5
CB
100
AcDbEntity
8
DIM
6
CONTINUOUS
62
7
370
0
100
AcDbLine
10
-1.63581554201
20
7.62055596901
11
5.15803849262
21
0.989754431203
0
SOLID
5
CC
100
AcDbEntity
8
DIM
6
CONTINUOUS
62
7
370
0
100
AcDbTrace
10
0.511111475302
20
5.5251552001
30
0
11
-0.736808671752
21
6.39410902882
31
0
12
-0.38789539496
22
6.75160214029
32
0
13
-0.38789539496
23
6.75160214029
33
0
0
SOLID
5
CD
100
AcDbEntity
8
DIM
6
CONTINUOUS
62
7
370
0
100
AcDbTrace
10
3.0111114753
20
3.0851552001
30
0
11
4.25903162236
21
2.21620137139
31
0
12
3.91011834557
22
1.85870825992
32
0
13
3.91011834557
23
1.85870825992
33
0
0
MTEXT
5
CE
100
AcDbEntity
8
DIM
6
CONTINUOUS
62
7
370
0
100
AcDbMText
10
2.72150349438
20
5.28916341638
30
0
40
1.5
41
2.33333333333
71
5
72
1
1
3.5
7
standard
210
0
220
0
230
1
50
315.69586594
73
2
44
1
0
ENDBLK
5
6E
330
6C
100
AcDbEntity
8
0
100
AcDbBlockEnd
0
BLOCK
5
70
330
6F
100
AcDbEntity
8
0
100
AcDbBlockBegin
2
*D2
70
1
10
0
20
0
3
*D2
1

0
LINE
5
CF
100
AcDbEntity
8
DIM
6
CONTINUOUS
62
7
370
0
100
AcDbLine
10
-7
20
22
11
0.5
21
22
0
SOLID
5
D0
100
AcDbEntity
8
DIM
6
CONTINUOUS
62
7
370
0
100
AcDbTrace
10
-4
20
22
30
0
11
-5.5
21
21.7502292053
31
0
12
-5.5
22
22.2497707947
32
0
13
-5.5
23
22.2497707947
33
0
0
SOLID
5
D1
100
AcDbEntity
8
DIM
6
CONTINUOUS
62
7
370
0
100
AcDbTrace
10
-2.5
20
22
30
0
11
-1
21
22.2497707947
31
0
12
-1
22
21.7502292053
32
0
13
-1
23
21.7502292053
33
0
0
MTEXT
5
D2
100
AcDbEntity
8
DIM
6
CONTINUOUS
62
7
370
0
100
AcDbMText
10
-0.875
20
23.375
30
0
40
1.5
41
2
71
5
72
1
1
1.5
7
standard
210
0
220
0
230
1
50
0
73
2
44
1
0
LINE
5
D3
100
AcDbEntity
8
DIM
6
CONTINUOUS
62
7
370
0
100
AcDbLine
10
-4
20
17.625
11
-4
21
23.25
0
LINE
5
D4
100
AcDbEntity
8
DIM
6
CONTINUOUS
62
7
370
0
100
AcDbLine
10
-2.5
20
15.625
11
-2.5
21
23.25
0
ENDBLK
5
71
330
6F
100
AcDbEntity
8
0
100
AcDbBlockEnd
0
BLOCK
5
73
330
72
100
AcDbEntity
8
0
100
AcDbBlockBegin
2
*D3
70
1
10
0
20
0
3
*D3
1

0
LINE
5
D5
100
AcDbEntity
8
DIM
6
CONTINUOUS
62
7
370
0
100
AcDbLine
10
6.5
20
22
11
14
21
22
0
SOLID
5
D6
100
AcDbEntity
8
DIM
6
CONTINUOUS
62
7
370
0
100
AcDbTrace
10
9.5
20
22
30
0
11
8
21
21.7502292053
31
0
12
8
22
22.2497707947
32
0
13
8
23
22.2497707947
33
0
0
SOLID
5
D7
100
AcDbEntity
8
DIM
6
CONTINUOUS
62
7
370
0
100
AcDbTrace
10
11
20
22
30
0
11
12.5
21
22.2497707947
31
0
12
12.5
22
21.7502292053
32
0
13
12.5
23
21.7502292053
33
0
0
MTEXT
5
D8
100
AcDbEntity
8
DIM
6
CONTINUOUS
62
7
370
0
100
AcDbMText
10
12.625
20
23.375
30
0
40
1.5
41
2
71
5
72
1
1
1.5
7
standard
210
0
220
0
230
1
50
0
73
2
44
1
0
LINE
5
D9
100
AcDbEntity
8
DIM
6
CONTINUOUS
62
7
370
0
100
AcDbLine
10
9.5
20
15.625
11
9.5
21
23.25
0
LINE
5
DA
100
AcDbEntity
8
DIM
6
CONTINUOUS
62
7
370
0
100
AcDbLine
10
11
20
17.625
11
11
21
23.25
0
ENDBLK
5
74
330
72
100
AcDbEntity
8
0
100
AcDbBlockEnd
0
BLOCK
5
76
330
75
100
AcDbEntity
8
0
100
AcDbBlockBegin
2
*D11
70
1
10
0
20
0
3
*D11
1

0
LINE
5
DB
100
AcDbEntity
8
DIM
6
CONTINUOUS
62
7
370
0
100
AcDbLine
10
9.5
20
-12
11
9.86076131526e-32
21
-12
0
SOLID
5
DC
100
AcDbEntity
8
DIM
6
CONTINUOUS
62
7
370
0
100
AcDbTrace
10
9.5
20
-12
30
0
11
8
21
-12.2497707947
31
0
12
8
22
-11.7502292053
32
0
13
8
23
-11.7502292053
33
0
0
SOLID
5
DD
100
AcDbEntity
8
DIM
6
CONTINUOUS
62
7
370
0
100
AcDbTrace
10
9.86076131526e-32
20
-12
30
0
11
1.5
21
-11.7502292053
31
0
12
1.5
22
-12.2497707947
32
0
13
1.5
23
-12.2497707947
33
0
0
MTEXT
5
DE
100
AcDbEntity
8
DIM
6
CONTINUOUS
62
7
370
0
100
AcDbMText
10
4.75
20
-10.625
30
0
40
1.5
41
2.33333333333
71
5
72
1
1
9.5
7
standard
210
0
220
0
230
1
50
360
73
2
44
1
0
LINE
5
DF
100
AcDbEntity
8
DIM
6
CONTINUOUS
62
7
370
0
100
AcDbLine
10
9.5
20
-0.625
11
9.5
21
-13.25
0
LINE
5
E0
100
AcDbEntity
8
DIM
6
CONTINUOUS
62
7
370
0
100
AcDbLine
10
-1.1481063742e-16
20
-0.625
11
-2.2962127484e-16
21
-13.25
0
ENDBLK
5
77
330
75
100
AcDbEntity
8
0
100
AcDbBlockEnd
0
BLOCK
5
79
330
78
100
AcDbEntity
8
0
100
AcDbBlockBegin
2
*D13
70
1
10
0
20
0
3
*D13
1

0
LINE
5
E1
100
AcDbEntity
8
DIM
6
CONTINUOUS
62
7
370
0
100
AcDbLine
10
-6
20
20
11
-6
21
12
0
SOLID
5
E2
100
AcDbEntity
8
DIM
6
CONTINUOUS
62
7
370
0
100
AcDbTrace
10
-6
20
17
30
0
11
-6.24977079466
21
18.5
31
0
12
-5.75022920534
22
18.5
32
0
13
-5.75022920534
23
18.5
33
0
0
SOLID
5
E3
100
AcDbEntity
8
DIM
6
CONTINUOUS
62
7
370
0
100
AcDbTrace
10
-6
20
15
30
0
11
-5.75022920534
21
13.5
31
0
12
-6.24977079466
22
13.5
32
0
13
-6.24977079466
23
13.5
33
0
0
MTEXT
5
E4
100
AcDbEntity
8
DIM
6
CONTINUOUS
62
7
370
0
100
AcDbMText
10
-7.375
20
16
30
0
40
1.5
41
0.666666666667
71
5
72
1
1
2
7
standard
210
0
220
0
230
1
50
90
73
2
44
1
0
LINE
5
E5
100
AcDbEntity
8
DIM
6
CONTINUOUS
62
7
370
0
100
AcDbLine
10
-4.625
20
17
11
-7.25
21
17
0
LINE
5
E6
100
AcDbEntity
8
DIM
6
CONTINUOUS
62
7
370
0
100
AcDbLine
10
-3.125
20
15
11
-7.25
21
15
0
ENDBLK
5
7A
330
78
100
AcDbEntity
8
0
100
AcDbBlockEnd
0
BLOCK
5
7C
330
7B
100
AcDbEntity
8
0
100
AcDbBlockBegin
2
*D4
70
1
10
0
20
0
3
*D4
1

0
LINE
5
E7
100
AcDbEntity
8
DIM
6
CONTINUOUS
62
7
370
0
100
AcDbLine
10
-2.5
20
19
11
9.5
21
19
0
SOLID
5
E8
100
AcDbEntity
8
DIM
6
CONTINUOUS
62
7
370
0
100
AcDbTrace
10
-2.5
20
19
30
0
11
-1
21
19.2497707947
31
0
12
-1
22
18.7502292053
32
0
13
-1
23
18.7502292053
33
0
0
SOLID
5
E9
100
AcDbEntity
8
DIM
6
CONTINUOUS
62
7
370
0
100
AcDbTrace
10
9.5
20
19
30
0
11
8
21
18.7502292053
31
0
12
8
22
19.2497707947
32
0
13
8
23
19.2497707947
33
0
0
MTEXT
5
EA
100
AcDbEntity
8
DIM
6
CONTINUOUS
62
7
370
0
100
AcDbMText
10
3.5
20
20.375
30
0
40
1.5
41
1.5
71
5
72
1
1
12
7
standard
210
0
220
0
230
1
50
0
73
2
44
1
0
LINE
5
EB
100
AcDbEntity
8
DIM
6
CONTINUOUS
62
7
370
0
100
AcDbLine
10
-2.5
20
15.625
11
-2.5
21
20.25
0
LINE
5
EC
100
AcDbEntity
8
DIM
6
CONTINUOUS
62
7
370
0
100
AcDbLine
10
9.5
20
15.625
11
9.5
21
20.25
0
ENDBLK
5
7D
330
7B
100
AcDbEntity
8
0
100
AcDbBlockEnd
0
BLOCK
5
7F
330
7E
100
AcDbEntity
8
0
100
AcDbBlockBegin
2
*D6
70
1
10
0
20
0
3
*D6
1

0
LINE
5
ED
100
AcDbEntity
8
DIM
6
CONTINUOUS
62
7
370
0
100
AcDbLine
10
14
20
0
11
14
21
15
0
SOLID
5
EE
100
AcDbEntity
8
DIM
6
CONTINUOUS
62
7
370
0
100
AcDbTrace
10
14
20
0
30
0
11
13.7502292053
21
1.5
31
0
12
14.2497707947
22
1.5
32
0
13
14.2497707947
23
1.5
33
0
0
SOLID
5
EF
100
AcDbEntity
8
DIM
6
CONTINUOUS
62
7
370
0
100
AcDbTrace
10
14
20
15
30
0
11
14.2497707947
21
13.5
31
0
12
13.7502292053
22
13.5
32
0
13
13.7502292053
23
13.5
33
0
0
MTEXT
5
F0
100
AcDbEntity
8
DIM
6
CONTINUOUS
62
7
370
0
100
AcDbMText
10
12.625
20
7.5
30
0
40
1.5
41
1.5
71
5
72
1
1
15
7
standard
210
0
220
0
230
1
50
90
73
2
44
1
0
LINE
5
F1
100
AcDbEntity
8
DIM
6
CONTINUOUS
62
7
370
0
100
AcDbLine
10
10.125
20
0
11
15.25
21
0
0
LINE
5
F2
100
AcDbEntity
8
DIM
6
CONTINUOUS
62
7
370
0
100
AcDbLine
10
10.125
20
15
11
15.25
21
15
0
ENDBLK
5
80
330
7E
100
AcDbEntity
8
0
100
AcDbBlockEnd
0
ENDSEC
0
SECTION
2
ENTITIES
0
LINE
5
F3
100
AcDbEntity
8
0
6
ByLayer
62
256
370
-1
100
AcDbLine
10
0
20
0
11
9.5
21
0
0
LINE
5
F4
100
AcDbEntity
8
0
6
ByLayer
62
256
370
-1
100
AcDbLine
10
9.5
20
0
11
9.5
21
15
0
LINE
5
F5
100
AcDbEntity
8
0
6
ByLayer
62
256
370
-1
100
AcDbLine
10
9.5
20
15
11
-2.5
21
15
0
LINE
5
F6
100
AcDbEntity
8
0
6
ByLayer
62
256
370
-1
100
AcDbLine
10
-2.5
20
15
11
-2.5
21
2.44
0
LINE
5
F7
100
AcDbEntity
8
0
6
ByLayer
62
256
370
-1
100
AcDbLine
10
-2.5
20
2.44
11
0
21
0
0
LINE
5
F8
100
AcDbEntity
8
0
6
ByLayer
62
256
370
-1
100
AcDbLine
10
11
20
17
11
-4
21
17
0
LINE
5
F9
100
AcDbEntity
8
0
6
ByLayer
62
256
370
-1
100
AcDbLine
10
11
20
-8
11
11
21
17
0
LINE
5
FA
100
AcDbEntity
8
0
6
ByLayer
62
256
370
-1
100
AcDbLine
10
-0.9
20
-8
11
11
21
-8
0
LINE
5
FB
100
AcDbEntity
8
0
6
ByLayer
62
256
370
-1
100
AcDbLine
10
-4
20
-4.9
11
-0.9
21
-8
0
LINE
5
FC
100
AcDbEntity
8
0
6
ByLayer
62
256
370
-1
100
AcDbLine
10
-4
20
17
11
-4
21
-4.9
0
DIMENSION
5
FD
100
AcDbEntity
8
DIM
6
ByLayer
62
256
370
-1
100
AcDbDimension
2
*D1
10
11
20
25
30
0
11
3.5
21
26.375
31
0
70
32
71
5
3
Standard
53
0
210
0
220
0
230
1
100
AcDbAlignedDimension
13
-4
23
17
33
0
14
11
24
17
34
0
100
AcDbRotatedDimension
0
DIMENSION
5
FE
100
AcDbEntity
8
DIM
6
ByLayer
62
256
370
-1
100
AcDbDimension
2
*D2
10
-2.5
20
22
30
0
11
-3.25
21
23.375
31
0
70
32
71
5
3
Standard
53
0
210
0
220
0
230
1
100
AcDbAlignedDimension
13
-4
23
17
33
0
14
-2.5
24
15
34
0
100
AcDbRotatedDimension
0
DIMENSION
5
FF
100
AcDbEntity
8
DIM
6
ByLayer
62
256
370
-1
100
AcDbDimension
2
*D3
10
11
20
22
30
0
11
10.25
21
23.375
31
0
70
32
71
5
3
Standard
53
0
210
0
220
0
230
1
100
AcDbAlignedDimension
13
9.5
23
15
33
0
14
11
24
17
34
0
100
AcDbRotatedDimension
0
DIMENSION
5
100
100
AcDbEntity
8
DIM
6
ByLayer
62
256
370
-1
100
AcDbDimension
2
*D4
10
9.5
20
19
30
0
11
3.5
21
20.375
31
0
70
32
71
5
3
Standard
53
0
210
0
220
0
230
1
100
AcDbAlignedDimension
13
-2.5
23
15
33
0
14
9.5
24
15
34
0
100
AcDbRotatedDimension
0
DIMENSION
5
101
100
AcDbEntity
8
DIM
6
ByLayer
62
256
370
-1
100
AcDbDimension
2
*D5
10
14
20
-5.51091059616e-16
30
0
11
12.625
21
-4
31
0
70
32
71
5
3
Standard
53
0
210
0
220
0
230
1
100
AcDbAlignedDimension
13
11
23
-8
33
0
14
9.5
24
0
34
0
50
90
100
AcDbRotatedDimension
0
DIMENSION
5
102
100
AcDbEntity
8
DIM
6
ByLayer
62
256
370
-1
100
AcDbDimension
2
*D6
10
14
20
15
30
0
11
12.625
21
7.5
31
0
70
32
71
5
3
Standard
53
0
210
0
220
0
230
1
100
AcDbAlignedDimension
13
9.5
23
0
33
0
14
9.5
24
15
34
0
50
90
100
AcDbRotatedDimension
0
DIMENSION
5
103
100
AcDbEntity
8
DIM
6
ByLayer
62
256
370
-1
100
AcDbDimension
2
*D7
10
14
20
17
30
0
11
12.625
21
16
31
0
70
32
71
5
3
Standard
53
0
210
0
220
0
230
1
100
AcDbAlignedDimension
13
9.5
23
15
33
0
14
11
24
17
34
0
50
90
100
AcDbRotatedDimension
0
DIMENSION
5
104
100
AcDbEntity
8
DIM
6
ByLayer
62
256
370
-1
100
AcDbDimension
2
*D8
10
17
20
-8
30
0
11
15.625
21
4.5
31
0
70
32
71
5
3
Standard
53
0
210
0
220
0
230
1
100
AcDbAlignedDimension
13
11
23
17
33
0
14
11
24
-8
34
0
50
90
100
AcDbRotatedDimension
0
DIMENSION
5
105
100
AcDbEntity
8
DIM
6
ByLayer
62
256
370
-1
100
AcDbDimension
2
*D9
10
-1
20
-17
30
0
11
5
21
-15.625
31
0
70
32
71
5
3
Standard
53
0
210
0
220
0
230
1
100
AcDbAlignedDimension
13
11
23
-8
33
0
14
-1
24
-8
34
0
100
AcDbRotatedDimension
0
DIMENSION
5
106
100
AcDbEntity
8
DIM
6
ByLayer
62
256
370
-1
100
AcDbDimension
2
*D10
10
9.5
20
-12
30
0
11
10.25
21
-10.625
31
0
70
32
71
5
3
Standard
53
0
210
0
220
0
230
1
100
AcDbAlignedDimension
13
11
23
-8
33
0
14
9.5
24
0
34
0
100
AcDbRotatedDimension
0
DIMENSION
5
107
100
AcDbEntity
8
DIM
6
ByLayer
62
256
370
-1
100
AcDbDimension
2
*D11
10
-7.34788079488e-16
20
-12
30
0
11
4.75
21
-10.625
31
0
70
32
71
5
3
Standard
53
0
210
0
220
0
230
1
100
AcDbAlignedDimension
13
9.5
23
0
33
0
14
0
24
0
34
0
100
AcDbRotatedDimension
0
DIMENSION
5
108
100
AcDbEntity
8
DIM
6
ByLayer
62
256
370
-1
100
AcDbDimension
2
*D12
10
-10
20
-4.9
30
0
11
-11.375
21
6.05
31
0
70
32
71
5
3
Standard
53
0
210
0
220
0
230
1
100
AcDbAlignedDimension
13
-4
23
17
33
0
14
-4
24
-4.9
34
0
50
90
100
AcDbRotatedDimension
0
DIMENSION
5
109
100
AcDbEntity
8
DIM
6
ByLayer
62
256
370
-1
100
AcDbDimension
2
*D13
10
-6
20
15
30
0
11
-7.375
21
16
31
0
70
32
71
5
3
Standard
53
0
210
0
220
0
230
1
100
AcDbAlignedDimension
13
-4
23
17
33
0
14
-2.5
24
15
34
0
50
90
100
AcDbRotatedDimension
0
DIMENSION
5
10A
100
AcDbEntity
8
DIM
6
ByLayer
62
256
370
-1
100
AcDbDimension
2
*D14
10
-6
20
2.44
30
0
11
-7.375
21
8.72
31
0
70
32
71
5
3
Standard
53
0
210
0
220
0
230
1
100
AcDbAlignedDimension
13
-2.5
23
15
33
0
14
-2.5
24
2.44
34
0
50
90
100
AcDbRotatedDimension
0
DIMENSION
5
10B
100
AcDbEntity
8
DIM
6
ByLayer
62
256
370
-1
100
AcDbDimension
2
*D15
10
-8.45
20
-15.55
30
0
11
-9.02772817587
21
-13.0277281759
31
0
70
33
71
5
3
Standard
53
0
210
0
220
0
230
1
100
AcDbAlignedDimension
13
-4
23
-4.9
33
0
14
-0.9
24
-8
34
0
0
DIMENSION
5
10C
100
AcDbEntity
8
DIM
6
ByLayer
62
256
370
-1
100
AcDbDimension
2
*D16
10
3.0111114753
20
3.0851552001
30
0
11
2.72150349438
21
5.28916341638
31
0
70
33
71
5
3
Standard
53
0
210
0
220
0
230
1
100
AcDbAlignedDimension
13
-2.5
23
2.44
33
0
14
0
24
0
34
0
0
LINE
5
10D
100
AcDbEntity
8
0
6
ByLayer
62
256
370
-1
100
AcDbLine
10
31
20
17
11
31.8
21
17
0
LINE
5
10E
100
AcDbEntity
8
0
6
ByLayer
62
256
370
-1
100
AcDbLine
10
31.8
20
17
11
31.8
21
-8
0
LINE
5
10F
100
AcDbEntity
8
0
6
ByLayer
62
256
370
-1
100
AcDbLine
10
31.8
20
-8
11
31
21
-8
0
LINE
5
110
100
AcDbEntity
8
0
6
ByLayer
62
256
370
-1
100
AcDbLine
10
31
20
-8
11
31
21
17
0
LINE
5
111
100
AcDbEntity
8
0
6
ByLayer
62
256
370
-1
100
AcDbLine
10
31
20
-4.9
11
31.8
21
-4.9
0
LINE
5
112
100
AcDbEntity
8
hidden
6
ByLayer
62
256
370
-1
100
AcDbLine
10
31
20
0
11
31.8
21
0
0
LINE
5
113
100
AcDbEntity
8
hidden
6
ByLayer
62
256
370
-1
100
AcDbLine
10
31
20
15
11
31.8
21
15
0
LINE
5
114
100
AcDbEntity
8
hidden
6
ByLayer
62
256
370
-1
100
AcDbLine
10
31
20
2.44
11
31.8
21
2.44
0
DIMENSION
5
115
100
AcDbEntity
8
DIM
6
ByLayer
62
256
370
-1
100
AcDbDimension
2
*D17
10
31.8
20
19
30
0
11
31.4
21
20.375
31
0
70
32
71
5
3
Standard
53
0
210
0
220
0
230
1
100
AcDbAlignedDimension
13
31
23
17
33
0
14
31.8
24
17
34
0
100
AcDbRotatedDimension
0
DIMENSION
5
116
100
AcDbEntity
8
DIM
6
ByLayer
62
256
370
-1
100
AcDbDimension
2
*D18
10
28
20
-4.9
30
0
11
26.625
21
-6.45
31
0
70
32
71
5
3
Standard
53
0
210
0
220
0
230
1
100
AcDbAlignedDimension
13
31
23
-8
33
0
14
31
24
-4.9
34
0
50
90
100
AcDbRotatedDimension
0
DIMENSION
5
117
100
AcDbEntity
8
DIM
6
ByLayer
62
256
370
-1
100
AcDbDimension
2
*D19
10
28
20
17
30
0
11
26.625
21
6.05
31
0
70
32
71
5
3
Standard
53
0
210
0
220
0
230
1
100
AcDbAlignedDimension
13
31
23
-4.9
33
0
14
31
24
17
34
0
50
90
100
AcDbRotatedDimension
0
ENDSEC
0
SECTION
2
OBJECTS
0
DICTIONARY
5
C
330
0
100
AcDbDictionary
281
1
3
ACAD_GROUP
350
D
0
DICTIONARY
5
D
330
C
100
AcDbDictionary
281
1
0
ENDSEC
0
EOF
