999
dxfrw 0.5.11
0
SECTION
2
HEADER
9
$ACADVER
1
AC1021
9
$HANDSEED
5
20000
9
$DWGCODEPAGE
3
ANSI_1252
9
$INSBASE
10
0
20
0
30
0
9
$EXTMIN
10
3.06479153218
20
-7.34240246436
30
0
9
$EXTMAX
10
302.226910393
20
233.711217496
30
0
9
$LIMMIN
10
0
20
0
9
$LIMMAX
10
420
20
297
9
$ORTHOMODE
70
0
9
$LTSCALE
40
1
9
$TEXTSTYLE
7
STANDARD
9
$CLAYER
8
Dim
9
$DIMASZ
40
2
9
$DIMLFAC
40
1
9
$DIMSCALE
40
1
9
$DIMEXO
40
-0.025
9
$DIMEXE
40
0.05
9
$DIMTXT
40
4
9
$DIMTSZ
40
0
9
$DIMAUNIT
70
0
9
$DIMADEC
70
2
9
$DIMLUNIT
70
2
9
$DIMSTYLE
2
STANDARD
9
$DIMGAP
40
1
9
$DIMTIH
70
0
9
$LUNITS
70
2
9
$LUPREC
70
0
9
$AUNITS
70
0
9
$AUPREC
70
2
9
$SPLINESEGS
70
8
9
$GRIDMODE
70
1
9
$SNAPSTYLE
70
0
9
$GRIDUNIT
10
0
20
0
9
$PINSBASE
10
120.677935023
20
403.160140754
30
0
9
$PLIMMIN
10
0
20
0
9
$PLIMMAX
10
609.6
20
914.4
9
$INSUNITS
70
2
9
$PSVPSCALE
40
1
0
ENDSEC
0
SECTION
2
CLASSES
0
ENDSEC
0
SECTION
2
TABLES
0
TABLE
2
VPORT
5
8
330
0
100
AcDbSymbolTable
70
1
0
VPORT
5
31
330
2
100
AcDbSymbolTableRecord
100
AcDbViewportTableRecord
2
*ACTIVE
70
0
10
0
20
0
11
1
21
1
12
178.422451276
22
118.388184708
13
0
23
0
14
10
24
10
15
10
25
10
16
0
26
0
36
1
17
0
27
0
37
0
40
247.163977881
41
1.64771322621
42
50
43
0
44
0
50
0
51
0
71
0
72
100
73
1
74
3
75
0
76
1
77
0
78
0
281
0
65
1
110
0
120
0
130
0
111
1
121
0
131
0
112
0
122
1
132
0
79
0
146
0
348
10020
60
7
61
5
292
1
282
1
141
0
142
0
63
250
421
3358443
0
ENDTAB
0
TABLE
2
LTYPE
5
5
330
0
100
AcDbSymbolTable
70
4
0
LTYPE
5
14
330
5
100
AcDbSymbolTableRecord
100
AcDbLinetypeTableRecord
2
ByBlock
70
0
3

72
65
73
0
40
0
0
LTYPE
5
15
330
5
100
AcDbSymbolTableRecord
100
AcDbLinetypeTableRecord
2
ByLayer
70
0
3

72
65
73
0
40
0
0
LTYPE
5
16
330
5
100
AcDbSymbolTableRecord
100
AcDbLinetypeTableRecord
2
Continuous
70
0
3
Solid line
72
65
73
0
40
0
0
LTYPE
5
32
330
5
100
AcDbSymbolTableRecord
100
AcDbLinetypeTableRecord
2
DOT
70
0
3
Dot . . . . . . . . . . . . . . . . . . . . . .
72
65
73
2
40
6.35
49
0
74
0
49
-6.35
74
0
0
LTYPE
5
33
330
5
100
AcDbSymbolTableRecord
100
AcDbLinetypeTableRecord
2
DOT2
70
0
3
Dot (.5x) .....................................
72
65
73
2
40
3.175
49
0
74
0
49
-3.175
74
0
0
LTYPE
5
34
330
5
100
AcDbSymbolTableRecord
100
AcDbLinetypeTableRecord
2
DOTX2
70
0
3
Dot (2x) .  .  .  .  .  .  .  .  .  .  .  .  .
72
65
73
2
40
12.7
49
0
74
0
49
-12.7
74
0
0
LTYPE
5
35
330
5
100
AcDbSymbolTableRecord
100
AcDbLinetypeTableRecord
2
DASHED
70
0
3
Dot . . . . . . . . . . . . . . . . . . . . . .
72
65
73
2
40
19.05
49
12.7
74
0
49
-6.35
74
0
0
LTYPE
5
36
330
5
100
AcDbSymbolTableRecord
100
AcDbLinetypeTableRecord
2
DASHED2
70
0
3
Dashed (.5x) _ _ _ _ _ _ _ _ _ _ _ _ _ _ _ _ _
72
65
73
2
40
9.525
49
6.35
74
0
49
-3.175
74
0
0
LTYPE
5
37
330
5
100
AcDbSymbolTableRecord
100
AcDbLinetypeTableRecord
2
DASHEDX2
70
0
3
Dashed (2x) ____  ____  ____  ____  ____  ___
72
65
73
2
40
38.1
49
25.4
74
0
49
-12.7
74
0
0
LTYPE
5
38
330
5
100
AcDbSymbolTableRecord
100
AcDbLinetypeTableRecord
2
DASHDOT
70
0
3
Dash dot __ . __ . __ . __ . __ . __ . __ . __
72
65
73
4
40
25.4
49
12.7
74
0
49
-6.35
74
0
49
0
74
0
49
-6.35
74
0
0
LTYPE
5
39
330
5
100
AcDbSymbolTableRecord
100
AcDbLinetypeTableRecord
2
DASHDOT2
70
0
3
Dash dot (.5x) _._._._._._._._._._._._._._._.
72
65
73
4
40
12.7
49
6.35
74
0
49
-3.175
74
0
49
0
74
0
49
-3.175
74
0
0
LTYPE
5
3A
330
5
100
AcDbSymbolTableRecord
100
AcDbLinetypeTableRecord
2
DASHDOTX2
70
0
3
Dash dot (2x) ____  .  ____  .  ____  .  ___
72
65
73
4
40
50.8
49
25.4
74
0
49
-12.7
74
0
49
0
74
0
49
-12.7
74
0
0
LTYPE
5
3B
330
5
100
AcDbSymbolTableRecord
100
AcDbLinetypeTableRecord
2
DIVIDE
70
0
3
Divide ____ . . ____ . . ____ . . ____ . . ____
72
65
73
6
40
31.75
49
12.7
74
0
49
-6.35
74
0
49
0
74
0
49
-6.35
74
0
49
0
74
0
49
-6.35
74
0
0
LTYPE
5
3C
330
5
100
AcDbSymbolTableRecord
100
AcDbLinetypeTableRecord
2
DIVIDE2
70
0
3
Divide (.5x) __..__..__..__..__..__..__..__.._
72
65
73
6
40
15.875
49
6.35
74
0
49
-3.175
74
0
49
0
74
0
49
-3.175
74
0
49
0
74
0
49
-3.175
74
0
0
LTYPE
5
3D
330
5
100
AcDbSymbolTableRecord
100
AcDbLinetypeTableRecord
2
DIVIDEX2
70
0
3
Divide (2x) ________  .  .  ________  .  .  _
72
65
73
6
40
63.5
49
25.4
74
0
49
-12.7
74
0
49
0
74
0
49
-12.7
74
0
49
0
74
0
49
-12.7
74
0
0
LTYPE
5
3E
330
5
100
AcDbSymbolTableRecord
100
AcDbLinetypeTableRecord
2
BORDER
70
0
3
Border __ __ . __ __ . __ __ . __ __ . __ __ .
72
65
73
6
40
44.45
49
12.7
74
0
49
-6.35
74
0
49
12.7
74
0
49
-6.35
74
0
49
0
74
0
49
-6.35
74
0
0
LTYPE
5
3F
330
5
100
AcDbSymbolTableRecord
100
AcDbLinetypeTableRecord
2
BORDER2
70
0
3
Border (.5x) __.__.__.__.__.__.__.__.__.__.__.
72
65
73
6
40
22.225
49
6.35
74
0
49
-3.175
74
0
49
6.35
74
0
49
-3.175
74
0
49
0
74
0
49
-3.175
74
0
0
LTYPE
5
40
330
5
100
AcDbSymbolTableRecord
100
AcDbLinetypeTableRecord
2
BORDERX2
70
0
3
Border (2x) ____  ____  .  ____  ____  .  ___
72
65
73
6
40
88.9
49
25.4
74
0
49
-12.7
74
0
49
25.4
74
0
49
-12.7
74
0
49
0
74
0
49
-12.7
74
0
0
LTYPE
5
41
330
5
100
AcDbSymbolTableRecord
100
AcDbLinetypeTableRecord
2
CENTER
70
0
3
Center ____ _ ____ _ ____ _ ____ _ ____ _ ____
72
65
73
4
40
50.8
49
31.75
74
0
49
-6.35
74
0
49
6.35
74
0
49
-6.35
74
0
0
LTYPE
5
42
330
5
100
AcDbSymbolTableRecord
100
AcDbLinetypeTableRecord
2
CENTER2
70
0
3
Center (.5x) ___ _ ___ _ ___ _ ___ _ ___ _ ___
72
65
73
4
40
28.575
49
19.05
74
0
49
-3.175
74
0
49
3.175
74
0
49
-3.175
74
0
0
LTYPE
5
43
330
5
100
AcDbSymbolTableRecord
100
AcDbLinetypeTableRecord
2
CENTERX2
70
0
3
Center (2x) ________  __  ________  __  _____
72
65
73
4
40
101.6
49
63.5
74
0
49
-12.7
74
0
49
12.7
74
0
49
-12.7
74
0
0
ENDTAB
0
TABLE
2
LAYER
5
2
330
0
100
AcDbSymbolTable
70
1
0
LAYER
5
10
330
2
100
AcDbSymbolTableRecord
100
AcDbLayerTableRecord
2
0
70
0
62
7
6
CONTINUOUS
370
0
390
F
0
LAYER
5
44
330
2
100
AcDbSymbolTableRecord
100
AcDbLayerTableRecord
2
Car Port
70
0
62
7
6
CONTINUOUS
370
0
390
F
0
LAYER
5
45
330
2
100
AcDbSymbolTableRecord
100
AcDbLayerTableRecord
2
Dim
70
0
62
7
6
CONTINUOUS
370
0
390
F
0
LAYER
5
46
330
2
100
AcDbSymbolTableRecord
100
AcDbLayerTableRecord
2
Garage
70
0
62
7
6
CONTINUOUS
370
0
390
F
0
LAYER
5
47
330
2
100
AcDbSymbolTableRecord
100
AcDbLayerTableRecord
2
Main House
70
0
62
7
6
CONTINUOUS
370
0
390
F
0
LAYER
5
48
330
2
100
AcDbSymbolTableRecord
100
AcDbLayerTableRecord
2
Plumbing
70
0
62
7
6
CONTINUOUS
370
0
390
F
0
LAYER
5
49
330
2
100
AcDbSymbolTableRecord
100
AcDbLayerTableRecord
2
Suite
70
0
62
7
6
CONTINUOUS
370
0
390
F
0
ENDTAB
0
TABLE
2
STYLE
5
3
330
0
100
AcDbSymbolTable
70
3
0
STYLE
5
4A
330
2
100
AcDbSymbolTableRecord
100
AcDbTextStyleTableRecord
2
cursive
70
0
40
0
41
1
50
0
71
0
42
1
3
cursive
4

0
STYLE
5
4B
330
2
100
AcDbSymbolTableRecord
100
AcDbTextStyleTableRecord
2
Standard
70
0
40
0
41
1
50
0
71
0
42
1
3
txt
4

0
ENDTAB
0
TABLE
2
VIEW
5
6
330
0
100
AcDbSymbolTable
70
0
0
ENDTAB
0
TABLE
2
UCS
5
7
330
0
100
AcDbSymbolTable
70
0
0
ENDTAB
0
TABLE
2
APPID
5
9
330
0
100
AcDbSymbolTable
70
1
0
APPID
5
12
330
9
100
AcDbSymbolTableRecord
100
AcDbRegAppTableRecord
2
ACAD
70
0
0
ENDTAB
0
TABLE
2
DIMSTYLE
5
A
330
0
100
AcDbSymbolTable
70
1
100
AcDbDimStyleTable
71
1
0
DIMSTYLE
105
4C
330
A
100
AcDbSymbolTableRecord
100
AcDbDimStyleTableRecord
2
Standard
70
0
40
1
41
2
42
-0.025
43
0.38
44
0.05
45
0
46
0
47
0
48
0
140
4
141
0.09
142
0
143
25.4
144
1
145
0
146
1
147
1
148
0
71
0
72
0
73
0
74
1
75
0
76
0
77
0
78
0
79
0
170
0
171
2
172
0
173
0
174
0
175
0
176
0
177
0
178
0
179
0
271
4
272
4
273
2
274
2
275
0
276
0
277
2
278
46
279
0
280
0
281
0
282
0
283
1
284
0
285
0
286
0
288
0
289
3
340
Standard
341

371
-2
372
-2
0
ENDTAB
0
TABLE
2
BLOCK_RECORD
5
1
330
0
100
AcDbSymbolTable
70
2
0
BLOCK_RECORD
5
1F
330
1
100
AcDbSymbolTableRecord
100
AcDbBlockTableRecord
2
*Model_Space
70
0
280
1
281
0
0
BLOCK_RECORD
5
1E
330
1
100
AcDbSymbolTableRecord
100
AcDbBlockTableRecord
2
*Paper_Space
70
0
280
1
281
0
0
BLOCK_RECORD
5
4D
330
1
100
AcDbSymbolTableRecord
100
AcDbBlockTableRecord
2
*D2
70
0
280
1
281
0
0
BLOCK_RECORD
5
50
330
1
100
AcDbSymbolTableRecord
100
AcDbBlockTableRecord
2
*D1
70
0
280
1
281
0
0
BLOCK_RECORD
5
53
330
1
100
AcDbSymbolTableRecord
100
AcDbBlockTableRecord
2
*D5
70
0
280
1
281
0
0
BLOCK_RECORD
5
56
330
1
100
AcDbSymbolTableRecord
100
AcDbBlockTableRecord
2
*D10
70
0
280
1
281
0
0
BLOCK_RECORD
5
59
330
1
100
AcDbSymbolTableRecord
100
AcDbBlockTableRecord
2
*D11
70
0
280
1
281
0
0
BLOCK_RECORD
5
5C
330
1
100
AcDbSymbolTableRecord
100
AcDbBlockTableRecord
2
*D16
70
0
280
1
281
0
0
BLOCK_RECORD
5
5F
330
1
100
AcDbSymbolTableRecord
100
AcDbBlockTableRecord
2
*D13
70
0
280
1
281
0
0
BLOCK_RECORD
5
62
330
1
100
AcDbSymbolTableRecord
100
AcDbBlockTableRecord
2
*D17
70
0
280
1
281
0
0
BLOCK_RECORD
5
65
330
1
100
AcDbSymbolTableRecord
100
AcDbBlockTableRecord
2
*D7
70
0
280
1
281
0
0
BLOCK_RECORD
5
68
330
1
100
AcDbSymbolTableRecord
100
AcDbBlockTableRecord
2
*D4
70
0
280
1
281
0
0
BLOCK_RECORD
5
6B
330
1
100
AcDbSymbolTableRecord
100
AcDbBlockTableRecord
2
*D8
70
0
280
1
281
0
0
BLOCK_RECORD
5
6E
330
1
100
AcDbSymbolTableRecord
100
AcDbBlockTableRecord
2
*D15
70
0
280
1
281
0
0
BLOCK_RECORD
5
71
330
1
100
AcDbSymbolTableRecord
100
AcDbBlockTableRecord
2
*D14
70
0
280
1
281
0
0
BLOCK_RECORD
5
74
330
1
100
AcDbSymbolTableRecord
100
AcDbBlockTableRecord
2
*D12
70
0
280
1
281
0
0
BLOCK_RECORD
5
77
330
1
100
AcDbSymbolTableRecord
100
AcDbBlockTableRecord
2
*D6
70
0
280
1
281
0
0
BLOCK_RECORD
5
7A
330
1
100
AcDbSymbolTableRecord
100
AcDbBlockTableRecord
2
*D3
70
0
280
1
281
0
0
BLOCK_RECORD
5
7D
330
1
100
AcDbSymbolTableRecord
100
AcDbBlockTableRecord
2
*D9
70
0
280
1
281
0
0
ENDTAB
0
ENDSEC
0
SECTION
2
BLOCKS
0
BLOCK
5
20
330
1F
100
AcDbEntity
8
0
100
AcDbBlockBegin
2
*Model_Space
70
0
10
0
20
0
30
0
3
*Model_Space
1

0
ENDBLK
5
21
330
1F
100
AcDbEntity
8
0
100
AcDbBlockEnd
0
BLOCK
5
1C
330
1B
100
AcDbEntity
8
0
100
AcDbBlockBegin
2
*Paper_Space
70
0
10
0
20
0
30
0
3
*Paper_Space
1

0
ENDBLK
5
1D
330
1F
100
AcDbEntity
8
0
100
AcDbBlockEnd
0
BLOCK
5
4E
330
4D
100
AcDbEntity
8
0
100
AcDbBlockBegin
2
*D2
70
1
10
0
20
0
3
*D2
1

0
LINE
5
80
100
AcDbEntity
8
Dim
6
CONTINUOUS
62
7
370
0
100
AcDbLine
10
100.898889863
20
182.677789116
11
180.898857863
21
182.677789116
0
SOLID
5
81
100
AcDbEntity
8
Dim
6
CONTINUOUS
62
7
370
0
100
AcDbTrace
10
100.898889863
20
182.677789116
30
0
11
102.898889863
21
183.010816842
31
0
12
102.898889863
22
182.344761389
32
0
13
102.898889863
23
182.344761389
33
0
0
SOLID
5
82
100
AcDbEntity
8
Dim
6
CONTINUOUS
62
7
370
0
100
AcDbTrace
10
180.898857863
20
182.677789116
30
0
11
178.898857863
21
182.344761389
31
0
12
178.898857863
22
183.010816842
32
0
13
178.898857863
23
183.010816842
33
0
0
MTEXT
5
83
100
AcDbEntity
8
Dim
6
CONTINUOUS
62
7
370
0
100
AcDbMText
10
140.898873863
20
185.677789116
30
0
40
4
41
4.88888888889
71
5
72
1
1
80
7
standard
210
0
220
0
230
1
50
0
73
2
44
1
0
LINE
5
84
100
AcDbEntity
8
Dim
6
CONTINUOUS
62
7
370
0
100
AcDbLine
10
100.898889863
20
172.652793116
11
100.898889863
21
182.727789116
0
LINE
5
85
100
AcDbEntity
8
Dim
6
CONTINUOUS
62
7
370
0
100
AcDbLine
10
180.898857863
20
172.652793116
11
180.898857863
21
182.727789116
0
ENDBLK
5
4F
330
4D
100
AcDbEntity
8
0
100
AcDbBlockEnd
0
BLOCK
5
51
330
50
100
AcDbEntity
8
0
100
AcDbBlockBegin
2
*D1
70
1
10
0
20
0
3
*D1
1

0
LINE
5
86
100
AcDbEntity
8
Dim
6
CONTINUOUS
62
7
370
0
100
AcDbLine
10
90.8988938632
20
172.677793116
11
90.8988938632
21
72.6778331156
0
SOLID
5
87
100
AcDbEntity
8
Dim
6
CONTINUOUS
62
7
370
0
100
AcDbTrace
10
90.8988938632
20
172.677793116
30
0
11
91.2319215894
21
170.677793116
31
0
12
90.565866137
22
170.677793116
32
0
13
90.565866137
23
170.677793116
33
0
0
SOLID
5
88
100
AcDbEntity
8
Dim
6
CONTINUOUS
62
7
370
0
100
AcDbTrace
10
90.8988938632
20
72.6778331156
30
0
11
90.565866137
21
74.6778331156
31
0
12
91.2319215894
22
74.6778331156
32
0
13
91.2319215894
23
74.6778331156
33
0
0
MTEXT
5
89
100
AcDbEntity
8
Dim
6
CONTINUOUS
62
7
370
0
100
AcDbMText
10
87.8988938632
20
122.677813116
30
0
40
4
41
7.11111111111
71
5
72
1
1
100
7
standard
210
0
220
0
230
1
50
90
73
2
44
1
0
LINE
5
8A
100
AcDbEntity
8
Dim
6
CONTINUOUS
62
7
370
0
100
AcDbLine
10
100.923889863
20
172.677793116
11
90.8488938632
21
172.677793116
0
LINE
5
8B
100
AcDbEntity
8
Dim
6
CONTINUOUS
62
7
370
0
100
AcDbLine
10
100.923889863
20
72.6778331156
11
90.8488938632
21
72.6778331156
0
ENDBLK
5
52
330
50
100
AcDbEntity
8
0
100
AcDbBlockEnd
0
BLOCK
5
54
330
53
100
AcDbEntity
8
0
100
AcDbBlockBegin
2
*D5
70
1
10
0
20
0
3
*D5
1

0
LINE
5
8C
100
AcDbEntity
8
Dim
6
CONTINUOUS
62
7
370
0
100
AcDbLine
10
109.298211192
20
79.6778319156
11
109.298211192
21
68.6778331156
0
SOLID
5
8D
100
AcDbEntity
8
Dim
6
CONTINUOUS
62
7
370
0
100
AcDbTrace
10
109.298211192
20
75.6778319156
30
0
11
108.965183466
21
77.6778319156
31
0
12
109.631238918
22
77.6778319156
32
0
13
109.631238918
23
77.6778319156
33
0
0
SOLID
5
8E
100
AcDbEntity
8
Dim
6
CONTINUOUS
62
7
370
0
100
AcDbTrace
10
109.298211192
20
72.6778331156
30
0
11
109.631238918
21
70.6778331156
31
0
12
108.965183466
22
70.6778331156
32
0
13
108.965183466
23
70.6778331156
33
0
0
MTEXT
5
8F
100
AcDbEntity
8
Dim
6
CONTINUOUS
62
7
370
0
100
AcDbMText
10
106.298211192
20
74.1778325156
30
0
40
4
41
1.77777777778
71
5
72
1
1
3
7
standard
210
0
220
0
230
1
50
90
73
2
44
1
0
LINE
5
90
100
AcDbEntity
8
Dim
6
CONTINUOUS
62
7
370
0
100
AcDbLine
10
106.918185734
20
75.6778319156
11
109.348211192
21
75.6778319156
0
LINE
5
91
100
AcDbEntity
8
Dim
6
CONTINUOUS
62
7
370
0
100
AcDbLine
10
106.956478623
20
72.6778331156
11
109.348211192
21
72.6778331156
0
ENDBLK
5
55
330
53
100
AcDbEntity
8
0
100
AcDbBlockEnd
0
BLOCK
5
57
330
56
100
AcDbEntity
8
0
100
AcDbBlockBegin
2
*D10
70
1
10
0
20
0
3
*D10
1

0
LINE
5
92
100
AcDbEntity
8
Dim
6
CONTINUOUS
62
7
370
0
100
AcDbLine
10
148.861084939
20
73.2839869656
11
170.941228627
21
73.2839869656
0
SOLID
5
93
100
AcDbEntity
8
Dim
6
CONTINUOUS
62
7
370
0
100
AcDbTrace
10
148.861084939
20
73.2839869656
30
0
11
150.861084939
21
73.6170146919
31
0
12
150.861084939
22
72.9509592394
32
0
13
150.861084939
23
72.9509592394
33
0
0
SOLID
5
94
100
AcDbEntity
8
Dim
6
CONTINUOUS
62
7
370
0
100
AcDbTrace
10
170.941228627
20
73.2839869656
30
0
11
168.941228627
21
72.9509592394
31
0
12
168.941228627
22
73.6170146919
32
0
13
168.941228627
23
73.6170146919
33
0
0
MTEXT
5
95
100
AcDbEntity
8
Dim
6
CONTINUOUS
62
7
370
0
100
AcDbMText
10
159.901156783
20
76.2839869656
30
0
40
4
41
4.88888888889
71
5
72
1
1
22
7
standard
210
0
220
0
230
1
50
0
73
2
44
1
0
LINE
5
96
100
AcDbEntity
8
Dim
6
CONTINUOUS
62
7
370
0
100
AcDbLine
10
148.861084939
20
75.7028319156
11
148.861084939
21
73.2339869656
0
LINE
5
97
100
AcDbEntity
8
Dim
6
CONTINUOUS
62
7
370
0
100
AcDbLine
10
170.941228627
20
75.6998290356
11
170.941228627
21
73.2339869656
0
ENDBLK
5
58
330
56
100
AcDbEntity
8
0
100
AcDbBlockEnd
0
BLOCK
5
5A
330
59
100
AcDbEntity
8
0
100
AcDbBlockBegin
2
*D11
70
1
10
0
20
0
3
*D11
1

0
LINE
5
98
100
AcDbEntity
8
Dim
6
CONTINUOUS
62
7
370
0
100
AcDbLine
10
163.85553949
20
123.027936016
11
170.85553949
21
123.027936016
0
SOLID
5
99
100
AcDbEntity
8
Dim
6
CONTINUOUS
62
7
370
0
100
AcDbTrace
10
163.85553949
20
123.027936016
30
0
11
165.85553949
21
123.360963742
31
0
12
165.85553949
22
122.694908289
32
0
13
165.85553949
23
122.694908289
33
0
0
SOLID
5
9A
100
AcDbEntity
8
Dim
6
CONTINUOUS
62
7
370
0
100
AcDbTrace
10
170.85553949
20
123.027936016
30
0
11
168.85553949
21
122.694908289
31
0
12
168.85553949
22
123.360963742
32
0
13
168.85553949
23
123.360963742
33
0
0
MTEXT
5
9B
100
AcDbEntity
8
Dim
6
CONTINUOUS
62
7
370
0
100
AcDbMText
10
167.35553949
20
126.027936016
30
0
40
4
41
1.77777777778
71
5
72
1
1
7
7
standard
210
0
220
0
230
1
50
0
73
2
44
1
0
LINE
5
9C
100
AcDbEntity
8
Dim
6
CONTINUOUS
62
7
370
0
100
AcDbLine
10
163.85553949
20
122.093705656
11
163.85553949
21
123.077936016
0
LINE
5
9D
100
AcDbEntity
8
Dim
6
CONTINUOUS
62
7
370
0
100
AcDbLine
10
170.85553949
20
122.093705656
11
170.85553949
21
123.077936016
0
ENDBLK
5
5B
330
59
100
AcDbEntity
8
0
100
AcDbBlockEnd
0
BLOCK
5
5D
330
5C
100
AcDbEntity
8
0
100
AcDbBlockBegin
2
*D16
70
1
10
0
20
0
3
*D16
1

0
LINE
5
9E
100
AcDbEntity
8
0
6
CONTINUOUS
62
7
370
0
100
AcDbLine
10
121.516819676
20
75.9378630556
11
72.5997705112
21
106.662621206
0
SOLID
5
9F
100
AcDbEntity
8
0
6
CONTINUOUS
62
7
370
0
100
AcDbTrace
10
121.516819676
20
75.9378630556
30
0
11
119.646053903
21
76.7196193395
31
0
12
120.000318713
22
77.2836462092
32
0
13
120.000318713
23
77.2836462092
33
0
0
ENDBLK
5
5E
330
5C
100
AcDbEntity
8
0
100
AcDbBlockEnd
0
BLOCK
5
60
330
5F
100
AcDbEntity
8
0
100
AcDbBlockBegin
2
*D13
70
1
10
0
20
0
3
*D13
1

0
LINE
5
A0
100
AcDbEntity
8
0
6
CONTINUOUS
62
7
370
0
100
AcDbLine
10
60.8989058632
20
212.677777116
11
120.898881863
21
212.677777116
0
SOLID
5
A1
100
AcDbEntity
8
0
6
CONTINUOUS
62
7
370
0
100
AcDbTrace
10
60.8989058632
20
212.677777116
30
0
11
62.8989058632
21
213.010804842
31
0
12
62.8989058632
22
212.344749389
32
0
13
62.8989058632
23
212.344749389
33
0
0
ENDBLK
5
61
330
5F
100
AcDbEntity
8
0
100
AcDbBlockEnd
0
BLOCK
5
63
330
62
100
AcDbEntity
8
0
100
AcDbBlockBegin
2
*D17
70
1
10
0
20
0
3
*D17
1

0
LINE
5
A2
100
AcDbEntity
8
0
6
CONTINUOUS
62
7
370
0
100
AcDbLine
10
171.646688242
20
150.324119636
11
192.264618056
21
149.111300236
0
SOLID
5
A3
100
AcDbEntity
8
0
6
CONTINUOUS
62
7
370
0
100
AcDbTrace
10
171.646688242
20
150.324119636
30
0
11
173.66279305
21
150.539128636
31
0
12
173.623680927
22
149.874222547
32
0
13
173.623680927
23
149.874222547
33
0
0
ENDBLK
5
64
330
62
100
AcDbEntity
8
0
100
AcDbBlockEnd
0
BLOCK
5
66
330
65
100
AcDbEntity
8
0
100
AcDbBlockBegin
2
*D7
70
1
10
0
20
0
3
*D7
1

0
LINE
5
A4
100
AcDbEntity
8
Dim
6
CONTINUOUS
62
7
370
0
100
AcDbLine
10
173.239956589
20
138.118696056
11
173.239956589
21
114.118705656
0
SOLID
5
A5
100
AcDbEntity
8
Dim
6
CONTINUOUS
62
7
370
0
100
AcDbTrace
10
173.239956589
20
138.118696056
30
0
11
173.572984315
21
136.118696056
31
0
12
172.906928863
22
136.118696056
32
0
13
172.906928863
23
136.118696056
33
0
0
SOLID
5
A6
100
AcDbEntity
8
Dim
6
CONTINUOUS
62
7
370
0
100
AcDbTrace
10
173.239956589
20
114.118705656
30
0
11
172.906928863
21
116.118705656
31
0
12
173.572984315
22
116.118705656
32
0
13
173.572984315
23
116.118705656
33
0
0
MTEXT
5
A7
100
AcDbEntity
8
Dim
6
CONTINUOUS
62
7
370
0
100
AcDbMText
10
170.239956589
20
126.118700856
30
0
40
4
41
5.33333333333
71
5
72
1
1
24
7
standard
210
0
220
0
230
1
50
90
73
2
44
1
0
LINE
5
A8
100
AcDbEntity
8
Dim
6
CONTINUOUS
62
7
370
0
100
AcDbLine
10
170.854822985
20
138.118696056
11
173.289956589
21
138.118696056
0
LINE
5
A9
100
AcDbEntity
8
Dim
6
CONTINUOUS
62
7
370
0
100
AcDbLine
10
170.83053949
20
114.118705656
11
173.289956589
21
114.118705656
0
ENDBLK
5
67
330
65
100
AcDbEntity
8
0
100
AcDbBlockEnd
0
BLOCK
5
69
330
68
100
AcDbEntity
8
0
100
AcDbBlockBegin
2
*D4
70
1
10
0
20
0
3
*D4
1

0
LINE
5
AA
100
AcDbEntity
8
Dim
6
CONTINUOUS
62
7
370
0
100
AcDbLine
10
180.898857863
20
162.452313646
11
170.898861863
21
162.452313646
0
SOLID
5
AB
100
AcDbEntity
8
Dim
6
CONTINUOUS
62
7
370
0
100
AcDbTrace
10
180.898857863
20
162.452313646
30
0
11
178.898857863
21
162.119285919
31
0
12
178.898857863
22
162.785341372
32
0
13
178.898857863
23
162.785341372
33
0
0
SOLID
5
AC
100
AcDbEntity
8
Dim
6
CONTINUOUS
62
7
370
0
100
AcDbTrace
10
170.898861863
20
162.452313646
30
0
11
172.898861863
21
162.785341372
31
0
12
172.898861863
22
162.119285919
32
0
13
172.898861863
23
162.119285919
33
0
0
MTEXT
5
AD
100
AcDbEntity
8
Dim
6
CONTINUOUS
62
7
370
0
100
AcDbMText
10
175.898859863
20
165.452313646
30
0
40
4
41
4
71
5
72
1
1
10
7
standard
210
0
220
0
230
1
50
360
73
2
44
1
0
LINE
5
AE
100
AcDbEntity
8
Dim
6
CONTINUOUS
62
7
370
0
100
AcDbLine
10
180.898857863
20
172.702793116
11
180.898857863
21
162.402313646
0
LINE
5
AF
100
AcDbEntity
8
Dim
6
CONTINUOUS
62
7
370
0
100
AcDbLine
10
170.898861863
20
172.702793116
11
170.898861863
21
162.402313646
0
ENDBLK
5
6A
330
68
100
AcDbEntity
8
0
100
AcDbBlockEnd
0
BLOCK
5
6C
330
6B
100
AcDbEntity
8
0
100
AcDbBlockBegin
2
*D8
70
1
10
0
20
0
3
*D8
1

0
LINE
5
B0
100
AcDbEntity
8
Dim
6
CONTINUOUS
62
7
370
0
100
AcDbLine
10
173.31133646
20
114.118705656
11
173.31133646
21
103.118710056
0
SOLID
5
B1
100
AcDbEntity
8
Dim
6
CONTINUOUS
62
7
370
0
100
AcDbTrace
10
173.31133646
20
114.118705656
30
0
11
173.644364186
21
112.118705656
31
0
12
172.978308734
22
112.118705656
32
0
13
172.978308734
23
112.118705656
33
0
0
SOLID
5
B2
100
AcDbEntity
8
Dim
6
CONTINUOUS
62
7
370
0
100
AcDbTrace
10
173.31133646
20
103.118710056
30
0
11
172.978308734
21
105.118710056
31
0
12
173.644364186
22
105.118710056
32
0
13
173.644364186
23
105.118710056
33
0
0
MTEXT
5
B3
100
AcDbEntity
8
Dim
6
CONTINUOUS
62
7
370
0
100
AcDbMText
10
170.31133646
20
108.618707856
30
0
40
4
41
3.11111111111
71
5
72
1
1
11
7
standard
210
0
220
0
230
1
50
90
73
2
44
1
0
LINE
5
B4
100
AcDbEntity
8
Dim
6
CONTINUOUS
62
7
370
0
100
AcDbLine
10
170.83053949
20
114.118705656
11
173.36133646
21
114.118705656
0
LINE
5
B5
100
AcDbEntity
8
Dim
6
CONTINUOUS
62
7
370
0
100
AcDbLine
10
170.83053949
20
103.118710056
11
173.36133646
21
103.118710056
0
ENDBLK
5
6D
330
6B
100
AcDbEntity
8
0
100
AcDbBlockEnd
0
BLOCK
5
6F
330
6E
100
AcDbEntity
8
0
100
AcDbBlockBegin
2
*D15
70
1
10
0
20
0
3
*D15
1

0
LINE
5
B6
100
AcDbEntity
8
0
6
CONTINUOUS
62
7
370
0
100
AcDbLine
10
100.898889863
20
163.702796706
11
80.8988978632
21
153.702800706
0
SOLID
5
B7
100
AcDbEntity
8
0
6
CONTINUOUS
62
7
370
0
100
AcDbTrace
10
100.898889863
20
163.702796706
30
0
11
99.258970008
21
162.510500461
31
0
12
98.9611009543
22
163.106238568
32
0
13
98.9611009543
23
163.106238568
33
0
0
ENDBLK
5
70
330
6E
100
AcDbEntity
8
0
100
AcDbBlockEnd
0
BLOCK
5
72
330
71
100
AcDbEntity
8
0
100
AcDbBlockBegin
2
*D14
70
1
10
0
20
0
3
*D14
1

0
LINE
5
B8
100
AcDbEntity
8
0
6
CONTINUOUS
62
7
370
0
100
AcDbLine
10
240.898833863
20
43.7028447056
11
240.898833863
21
93.7028247056
0
SOLID
5
B9
100
AcDbEntity
8
0
6
CONTINUOUS
62
7
370
0
100
AcDbTrace
10
240.898833863
20
43.7028447056
30
0
11
240.565806137
21
45.7028447056
31
0
12
241.231861589
22
45.7028447056
32
0
13
241.231861589
23
45.7028447056
33
0
0
ENDBLK
5
73
330
71
100
AcDbEntity
8
0
100
AcDbBlockEnd
0
BLOCK
5
75
330
74
100
AcDbEntity
8
0
100
AcDbBlockBegin
2
*D12
70
1
10
0
20
0
3
*D12
1

0
LINE
5
BA
100
AcDbEntity
8
Dim
6
CONTINUOUS
62
7
370
0
100
AcDbLine
10
162.518213068
20
122.118705656
11
162.518213068
21
114.118705656
0
SOLID
5
BB
100
AcDbEntity
8
Dim
6
CONTINUOUS
62
7
370
0
100
AcDbTrace
10
162.518213068
20
122.118705656
30
0
11
162.851240794
21
120.118705656
31
0
12
162.185185342
22
120.118705656
32
0
13
162.185185342
23
120.118705656
33
0
0
SOLID
5
BC
100
AcDbEntity
8
Dim
6
CONTINUOUS
62
7
370
0
100
AcDbTrace
10
162.518213068
20
114.118705656
30
0
11
162.185185342
21
116.118705656
31
0
12
162.851240794
22
116.118705656
32
0
13
162.851240794
23
116.118705656
33
0
0
MTEXT
5
BD
100
AcDbEntity
8
Dim
6
CONTINUOUS
62
7
370
0
100
AcDbMText
10
159.518213068
20
118.118705656
30
0
40
4
41
1.77777777778
71
5
72
1
1
8
7
standard
210
0
220
0
230
1
50
90
73
2
44
1
0
LINE
5
BE
100
AcDbEntity
8
Dim
6
CONTINUOUS
62
7
370
0
100
AcDbLine
10
163.88053949
20
122.118705656
11
162.468213068
21
122.118705656
0
LINE
5
BF
100
AcDbEntity
8
Dim
6
CONTINUOUS
62
7
370
0
100
AcDbLine
10
163.88053949
20
114.118705656
11
162.468213068
21
114.118705656
0
ENDBLK
5
76
330
74
100
AcDbEntity
8
0
100
AcDbBlockEnd
0
BLOCK
5
78
330
77
100
AcDbEntity
8
0
100
AcDbBlockBegin
2
*D6
70
1
10
0
20
0
3
*D6
1

0
LINE
5
C0
100
AcDbEntity
8
Dim
6
CONTINUOUS
62
7
370
0
100
AcDbLine
10
150.87986987
20
139.702806306
11
170.879822985
21
139.702806306
0
SOLID
5
C1
100
AcDbEntity
8
Dim
6
CONTINUOUS
62
7
370
0
100
AcDbTrace
10
150.87986987
20
139.702806306
30
0
11
152.87986987
21
140.035834032
31
0
12
152.87986987
22
139.369778579
32
0
13
152.87986987
23
139.369778579
33
0
0
SOLID
5
C2
100
AcDbEntity
8
Dim
6
CONTINUOUS
62
7
370
0
100
AcDbTrace
10
170.879822985
20
139.702806306
30
0
11
168.879822985
21
139.369778579
31
0
12
168.879822985
22
140.035834032
32
0
13
168.879822985
23
140.035834032
33
0
0
MTEXT
5
C3
100
AcDbEntity
8
Dim
6
CONTINUOUS
62
7
370
0
100
AcDbMText
10
160.879846428
20
142.702806306
30
0
40
4
41
4.88888888889
71
5
72
1
1
20
7
standard
210
0
220
0
230
1
50
0
73
2
44
1
0
LINE
5
C4
100
AcDbEntity
8
Dim
6
CONTINUOUS
62
7
370
0
100
AcDbLine
10
150.87986987
20
138.093696056
11
150.87986987
21
139.752806306
0
LINE
5
C5
100
AcDbEntity
8
Dim
6
CONTINUOUS
62
7
370
0
100
AcDbLine
10
170.879822985
20
138.093696056
11
170.879822985
21
139.752806306
0
ENDBLK
5
79
330
77
100
AcDbEntity
8
0
100
AcDbBlockEnd
0
BLOCK
5
7B
330
7A
100
AcDbEntity
8
0
100
AcDbBlockBegin
2
*D3
70
1
10
0
20
0
3
*D3
1

0
LINE
5
C6
100
AcDbEntity
8
Dim
6
CONTINUOUS
62
7
370
0
100
AcDbLine
10
90.8988938632
20
72.7028331056
11
90.8988938632
21
52.7028411056
0
SOLID
5
C7
100
AcDbEntity
8
Dim
6
CONTINUOUS
62
7
370
0
100
AcDbTrace
10
90.8988938632
20
72.7028331056
30
0
11
91.2319215894
21
70.7028331056
31
0
12
90.565866137
22
70.7028331056
32
0
13
90.565866137
23
70.7028331056
33
0
0
SOLID
5
C8
100
AcDbEntity
8
Dim
6
CONTINUOUS
62
7
370
0
100
AcDbTrace
10
90.8988938632
20
52.7028411056
30
0
11
90.565866137
21
54.7028411056
31
0
12
91.2319215894
22
54.7028411056
32
0
13
91.2319215894
23
54.7028411056
33
0
0
MTEXT
5
C9
100
AcDbEntity
8
Dim
6
CONTINUOUS
62
7
370
0
100
AcDbMText
10
87.8988938632
20
62.7028371056
30
0
40
4
41
4.88888888889
71
5
72
1
1
20
7
standard
210
0
220
0
230
1
50
90
73
2
44
1
0
LINE
5
CA
100
AcDbEntity
8
Dim
6
CONTINUOUS
62
7
370
0
100
AcDbLine
10
100.923889863
20
72.7028331056
11
90.8488938632
21
72.7028331056
0
LINE
5
CB
100
AcDbEntity
8
Dim
6
CONTINUOUS
62
7
370
0
100
AcDbLine
10
100.923889863
20
52.7028411056
11
90.8488938632
21
52.7028411056
0
ENDBLK
5
7C
330
7A
100
AcDbEntity
8
0
100
AcDbBlockEnd
0
BLOCK
5
7E
330
7D
100
AcDbEntity
8
0
100
AcDbBlockBegin
2
*D9
70
1
10
0
20
0
3
*D9
1

0
LINE
5
CC
100
AcDbEntity
8
Dim
6
CONTINUOUS
62
7
370
0
100
AcDbLine
10
173.332070697
20
103.118710056
11
173.332070697
21
75.6778319156
0
SOLID
5
CD
100
AcDbEntity
8
Dim
6
CONTINUOUS
62
7
370
0
100
AcDbTrace
10
173.332070697
20
103.118710056
30
0
11
173.665098423
21
101.118710056
31
0
12
172.999042971
22
101.118710056
32
0
13
172.999042971
23
101.118710056
33
0
0
SOLID
5
CE
100
AcDbEntity
8
Dim
6
CONTINUOUS
62
7
370
0
100
AcDbTrace
10
173.332070697
20
75.6778319156
30
0
11
172.999042971
21
77.6778319156
31
0
12
173.665098423
22
77.6778319156
32
0
13
173.665098423
23
77.6778319156
33
0
0
MTEXT
5
CF
100
AcDbEntity
8
Dim
6
CONTINUOUS
62
7
370
0
100
AcDbMText
10
170.332070697
20
89.3982709856
30
0
40
4
41
4.88888888889
71
5
72
1
1
27
7
standard
210
0
220
0
230
1
50
90
73
2
44
1
0
LINE
5
D0
100
AcDbEntity
8
Dim
6
CONTINUOUS
62
7
370
0
100
AcDbLine
10
170.842441581
20
103.118710056
11
173.382070697
21
103.118710056
0
LINE
5
D1
100
AcDbEntity
8
Dim
6
CONTINUOUS
62
7
370
0
100
AcDbLine
10
170.873861863
20
75.6778319156
11
173.382070697
21
75.6778319156
0
ENDBLK
5
7F
330
7D
100
AcDbEntity
8
0
100
AcDbBlockEnd
0
ENDSEC
0
SECTION
2
ENTITIES
0
DIMENSION
5
D2
100
AcDbEntity
8
Dim
6
ByLayer
62
256
370
-1
100
AcDbDimension
2
*D1
10
90.8988938632
20
72.6778331156
30
0
11
87.8988938632
21
122.677813116
31
0
70
32
71
5
3
Standard
53
0
210
0
220
0
230
1
100
AcDbAlignedDimension
13
100.898889863
23
172.677793116
33
0
14
100.898889863
24
72.6778331156
34
0
50
90
100
AcDbRotatedDimension
0
DIMENSION
5
D3
100
AcDbEntity
8
Dim
6
ByLayer
62
256
370
-1
100
AcDbDimension
2
*D2
10
180.898857863
20
182.677789116
30
0
11
140.898873863
21
185.677789116
31
0
70
32
71
5
3
Standard
53
0
210
0
220
0
230
1
100
AcDbAlignedDimension
13
100.898889863
23
172.677793116
33
0
14
180.898857863
24
172.677793116
34
0
100
AcDbRotatedDimension
0
DIMENSION
5
D4
100
AcDbEntity
8
Dim
6
ByLayer
62
256
370
-1
100
AcDbDimension
2
*D3
10
90.8988938632
20
53.7028407056
30
0
11
87.8988938632
21
62.7028371056
31
0
70
32
71
5
3
Standard
53
0
210
0
220
0
230
1
100
AcDbAlignedDimension
13
100.898889863
23
72.7028331056
33
0
14
100.898889863
24
52.7028411056
34
0
50
90
100
AcDbRotatedDimension
0
DIMENSION
5
D5
100
AcDbEntity
8
Dim
6
ByLayer
62
256
370
-1
100
AcDbDimension
2
*D4
10
170.898861863
20
162.452313646
30
0
11
175.898859863
21
165.452313646
31
0
70
32
71
5
3
Standard
53
0
210
0
220
0
230
1
100
AcDbAlignedDimension
13
180.898857863
23
172.677793116
33
0
14
170.898861863
24
172.677793116
34
0
100
AcDbRotatedDimension
0
DIMENSION
5
D6
100
AcDbEntity
8
Dim
6
ByLayer
62
256
370
-1
100
AcDbDimension
2
*D5
10
109.298211192
20
72.6778331156
30
0
11
106.298211192
21
74.1778325156
31
0
70
32
71
5
3
Standard
53
0
210
0
220
0
230
1
100
AcDbAlignedDimension
13
106.943185734
23
75.6778319156
33
0
14
106.981478623
24
72.6778331156
34
0
50
90
100
AcDbRotatedDimension
0
LINE
5
D7
100
AcDbEntity
8
Main House
6
ByLayer
62
256
370
-1
100
AcDbLine
10
134.379837585
20
138.118696056
11
134.379837585
21
136.618696656
0
LINE
5
D8
100
AcDbEntity
8
Main House
6
ByLayer
62
256
370
-1
100
AcDbLine
10
134.379837585
20
136.618696656
11
129.879839385
21
136.618696656
0
LINE
5
D9
100
AcDbEntity
8
Main House
6
ByLayer
62
256
370
-1
100
AcDbLine
10
129.879839385
20
136.618696656
11
129.879839385
21
147.118692456
0
LINE
5
DA
100
AcDbEntity
8
Main House
6
ByLayer
62
256
370
-1
100
AcDbLine
10
129.879839385
20
147.118692456
11
107.879848185
21
147.118692456
0
LINE
5
DB
100
AcDbEntity
8
Main House
6
ByLayer
62
256
370
-1
100
AcDbLine
10
107.879848185
20
147.118692456
11
107.879848185
21
112.118706456
0
DIMENSION
5
DC
100
AcDbEntity
8
Dim
6
ByLayer
62
256
370
-1
100
AcDbDimension
2
*D6
10
170.879822985
20
139.702806306
30
0
11
160.879846428
21
142.702806306
31
0
70
32
71
5
72
0
3
Standard
53
0
210
0
220
0
230
1
100
AcDbAlignedDimension
13
150.87986987
23
138.118696056
33
0
14
170.879822985
24
138.118696056
34
0
100
AcDbRotatedDimension
0
LINE
5
DD
100
AcDbEntity
8
Main House
6
ByLayer
62
256
370
-1
100
AcDbLine
10
150.899191286
20
138.118696056
11
134.379837585
21
138.118696056
0
MTEXT
5
DE
100
AcDbEntity
8
Car Port
6
ByLayer
62
256
370
-1
100
AcDbMText
10
159.337500589
20
105.420691166
30
0
40
0.7499997
41
6.39897914171
71
2
72
1
1
225 Sq, ft.
7
cursive
210
0
220
0
230
1
50
0
73
2
44
1
0
MTEXT
5
DF
100
AcDbEntity
8
Main House
6
ByLayer
62
256
370
-1
100
AcDbMText
10
117.891562229
20
127.755778216
30
0
40
1.9999992
41
17.5161530383
71
1
72
1
1
Main House
7
cursive
210
0
220
0
230
1
50
0
73
2
44
1
0
MTEXT
5
E0
100
AcDbEntity
8
Car Port
6
ByLayer
62
256
370
-1
100
AcDbMText
10
153.795527022
20
109.639514486
30
0
40
1.9999992
41
13.3407280316
71
1
72
1
1
Car Port
7
cursive
210
0
220
0
230
1
50
0
73
2
44
1
0
MTEXT
5
E1
100
AcDbEntity
8
Garage
6
ByLayer
62
256
370
-1
100
AcDbMText
10
153.187519699
20
93.8313240756
30
0
40
1.9999992
41
14.153451044
71
1
72
1
1
Proposed\PGarage
7
cursive
210
0
220
0
230
1
50
0
73
2
44
1
0
MTEXT
5
E2
100
AcDbEntity
8
Garage
6
ByLayer
62
256
370
-1
100
AcDbMText
10
159.419594766
20
85.6232252056
30
0
40
0.7499997
41
6.30642124788
71
2
72
1
1
625 Sq, ft.
7
cursive
210
0
220
0
230
1
50
0
73
2
44
1
0
LINE
5
E3
100
AcDbEntity
8
Plumbing
6
ByLayer
62
256
370
-1
100
AcDbLine
10
146.195435476
20
75.7431061956
11
120.051120558
21
111.767540116
0
LINE
5
E4
100
AcDbEntity
8
Plumbing
6
ByLayer
62
256
370
-1
100
AcDbLine
10
171.898861463
20
127.702811106
11
171.898861463
21
112.702817106
0
LINE
5
E5
100
AcDbEntity
8
Plumbing
6
ByLayer
62
256
370
-1
100
AcDbLine
10
171.898861463
20
112.702817106
11
141.46174108
21
82.2656967256
0
MTEXT
5
E6
100
AcDbEntity
8
Main House
6
ByLayer
62
256
370
-1
100
AcDbMText
10
125.33682335
20
123.763096376
30
0
40
0.7499997
41
6.57179348219
71
2
72
1
1
1307 Sq, ft.
7
cursive
210
0
220
0
230
1
50
0
73
2
44
1
0
LINE
5
E7
100
AcDbEntity
8
Dim
6
ByLayer
62
256
370
-1
100
AcDbLine
10
170.85553949
20
138.118696056
11
170.85553949
21
114.118705656
0
LINE
5
E8
100
AcDbEntity
8
Dim
6
ByLayer
62
256
370
-1
100
AcDbLine
10
150.87986987
20
114.118705656
11
170.85553949
21
114.118705656
0
DIMENSION
5
E9
100
AcDbEntity
8
Dim
6
ByLayer
62
256
370
-1
100
AcDbDimension
2
*D7
10
173.239956589
20
114.118705656
30
0
11
170.239956589
21
126.118700856
31
0
70
32
71
5
3
Standard
53
0
210
0
220
0
230
1
100
AcDbAlignedDimension
13
170.879822985
23
138.118696056
33
0
14
170.85553949
24
114.118705656
34
0
50
90
100
AcDbRotatedDimension
0
LINE
5
EA
100
AcDbEntity
8
Car Port
6
ByLayer
62
256
370
-1
100
AcDbLine
10
170.85553949
20
114.118705656
11
170.85553949
21
103.118710056
0
LINE
5
EB
100
AcDbEntity
8
Car Port
6
ByLayer
62
256
370
-1
100
AcDbLine
10
170.85553949
20
114.118705656
11
148.85554829
21
114.118705656
0
LINE
5
EC
100
AcDbEntity
8
Car Port
6
ByLayer
62
256
370
-1
100
AcDbLine
10
148.85554829
20
114.118705656
11
148.85554829
21
103.118710056
0
LINE
5
ED
100
AcDbEntity
8
Car Port
6
ByLayer
62
256
370
-1
100
AcDbLine
10
148.85554829
20
103.118710056
11
170.85553949
21
103.118710056
0
DIMENSION
5
EE
100
AcDbEntity
8
Dim
6
ByLayer
62
256
370
-1
100
AcDbDimension
2
*D8
10
173.31133646
20
103.118710056
30
0
11
170.31133646
21
108.618707856
31
0
70
32
71
5
3
Standard
53
0
210
0
220
0
230
1
100
AcDbAlignedDimension
13
170.85553949
23
114.118705656
33
0
14
170.85553949
24
103.118710056
34
0
50
90
100
AcDbRotatedDimension
0
LINE
5
EF
100
AcDbEntity
8
Garage
6
ByLayer
62
256
370
-1
100
AcDbLine
10
170.898861863
20
75.6778319156
11
170.867441581
21
103.118710056
0
LINE
5
F0
100
AcDbEntity
8
Garage
6
ByLayer
62
256
370
-1
100
AcDbLine
10
170.867441581
20
103.118710056
11
148.85554829
21
103.118710056
0
DIMENSION
5
F1
100
AcDbEntity
8
Dim
6
ByLayer
62
256
370
-1
100
AcDbDimension
2
*D9
10
173.332070697
20
75.6778319156
30
0
11
170.332070697
21
89.3982709856
31
0
70
32
71
5
3
Standard
53
0
210
0
220
0
230
1
100
AcDbAlignedDimension
13
170.867441581
23
103.118710056
33
0
14
170.898861863
24
75.6778319156
34
0
50
90
100
AcDbRotatedDimension
0
LINE
5
F2
100
AcDbEntity
8
Garage
6
ByLayer
62
256
370
-1
100
AcDbLine
10
170.898861863
20
75.6778319156
11
148.861084939
21
75.6778319156
0
LINE
5
F3
100
AcDbEntity
8
Garage
6
ByLayer
62
256
370
-1
100
AcDbLine
10
148.85554829
20
103.118710056
11
148.861084939
21
75.6778319156
0
DIMENSION
5
F4
100
AcDbEntity
8
Dim
6
ByLayer
62
256
370
-1
100
AcDbDimension
2
*D10
10
170.941228627
20
73.2839869656
30
0
11
159.901156783
21
76.2839869656
31
0
70
32
71
5
3
Standard
53
0
210
0
220
0
230
1
100
AcDbAlignedDimension
13
148.861084939
23
75.6778319156
33
0
14
170.941228627
24
75.6748290356
34
0
100
AcDbRotatedDimension
0
LINE
5
F5
100
AcDbEntity
8
Main House
6
ByLayer
62
256
370
-1
100
AcDbLine
10
150.899191286
20
138.118696056
11
150.880642719
21
114.118705656
0
LINE
5
F6
100
AcDbEntity
8
Main House
6
ByLayer
62
256
370
-1
100
AcDbLine
10
107.879848185
20
112.118706456
11
148.85554829
21
112.118706456
0
LINE
5
F7
100
AcDbEntity
8
Main House
6
ByLayer
62
256
370
-1
100
AcDbLine
10
148.85554829
20
112.118706456
11
148.85554829
21
112.952039456
0
LINE
5
F8
100
AcDbEntity
8
Main House
6
ByLayer
62
256
370
-1
100
AcDbLine
10
148.85554829
20
114.118705656
11
150.880642719
21
114.118705656
0
LINE
5
F9
100
AcDbEntity
8
Main House
6
ByLayer
62
256
370
-1
100
AcDbLine
10
148.85554829
20
112.118706456
11
148.85554829
21
114.118705656
0
DIMENSION
5
FA
100
AcDbEntity
8
Dim
6
ByLayer
62
256
370
-1
100
AcDbDimension
2
*D11
10
170.85553949
20
123.027936016
30
0
11
167.35553949
21
126.027936016
31
0
70
32
71
5
72
0
3
Standard
53
0
210
0
220
0
230
1
100
AcDbAlignedDimension
13
163.85553949
23
122.118705656
33
0
14
170.85553949
24
122.118705656
34
0
100
AcDbRotatedDimension
0
DIMENSION
5
FB
100
AcDbEntity
8
Dim
6
ByLayer
62
256
370
-1
100
AcDbDimension
2
*D12
10
162.518213068
20
114.118705656
30
0
11
159.518213068
21
118.118705656
31
0
70
32
71
5
72
0
3
Standard
53
0
210
0
220
0
230
1
100
AcDbAlignedDimension
13
163.85553949
23
122.118705656
33
0
14
163.85553949
24
114.118705656
34
0
50
90
100
AcDbRotatedDimension
0
MTEXT
5
FC
100
AcDbEntity
8
0
6
ByLayer
62
256
370
-1
100
AcDbMText
10
130.898877863
20
212.677777116
30
0
40
2.9999988
41
28.182795371
71
1
72
1
1
Palmdale Dr
7
cursive
210
0
220
0
230
1
50
0
73
2
44
1
0
LEADER
5
FD
100
AcDbEntity
8
0
6
ByLayer
62
256
370
-1
100
AcDbLeader
3
Standard
71
1
72
0
73
3
74
0
75
0
40
1
41
10
76
2
76
2
10
60.8989058632
20
212.677777116
30
0
10
120.898881863
20
212.677777116
30
0
0
MTEXT
5
FE
100
AcDbEntity
8
0
6
ByLayer
62
256
370
-1
100
AcDbMText
10
130.898877863
20
233.702768706
30
0
40
4.999998
41
24.9845090949
71
1
72
1
1
NORTH
7
cursive
210
0
220
0
230
1
50
0
73
2
44
1
0
MTEXT
5
FF
100
AcDbEntity
8
0
6
ByLayer
62
256
370
-1
100
AcDbMText
10
240.898833863
20
133.702808706
30
0
40
2.9999988
41
28.0417605036
71
1
72
1
1
Dateland Dr\P
7
cursive
210
0
220
0
230
1
50
270
73
2
44
1
0
LEADER
5
100
100
AcDbEntity
8
0
6
ByLayer
62
256
370
-1
100
AcDbLeader
3
Standard
71
1
72
0
73
3
74
0
75
0
40
1
41
10
76
2
76
2
10
240.898833863
20
43.7028447056
30
0
10
240.898833863
20
93.7028247056
30
0
0
MTEXT
5
101
100
AcDbEntity
8
0
6
ByLayer
62
256
370
-1
100
AcDbMText
10
130.898877863
20
63.7028367056
30
0
40
2.9999988
41
11.1901785647
71
1
72
1
1
Alley
7
cursive
210
0
220
0
230
1
50
0
73
2
44
1
0
MTEXT
5
102
100
AcDbEntity
8
0
6
ByLayer
62
256
370
-1
100
AcDbMText
10
30.8989178632
20
153.702800706
30
0
40
2.9999988
41
42.685473906
71
1
72
1
1
Property boundry
7
cursive
210
0
220
0
230
1
50
0
73
2
44
1
0
LEADER
5
103
100
AcDbEntity
8
0
6
ByLayer
62
256
370
-1
100
AcDbLeader
3
Standard
71
1
72
0
73
3
74
0
75
0
40
1
41
10
76
2
76
2
10
100.898889863
20
163.702796706
30
0
10
80.8988978632
20
153.702800706
30
0
0
LINE
5
104
100
AcDbEntity
8
0
6
ByLayer
62
256
370
-1
100
AcDbLine
10
147.129585307
20
101.322090616
11
147.129585307
21
101.322090616
0
LINE
5
105
100
AcDbEntity
8
0
6
ByLayer
62
256
370
-1
100
AcDbLine
10
147.129585307
20
101.322090616
11
147.129585307
21
101.322090616
0
LINE
5
106
100
AcDbEntity
8
0
6
ByLayer
62
256
370
-1
100
AcDbLine
10
147.129585307
20
101.322090616
11
147.129585307
21
101.322090616
0
LINE
5
107
100
AcDbEntity
8
0
6
ByLayer
62
256
370
-1
100
AcDbLine
10
147.129585307
20
101.322090616
11
147.129585307
21
101.322090616
0
LINE
5
108
100
AcDbEntity
8
0
6
ByLayer
62
256
370
-1
100
AcDbLine
10
147.129585307
20
101.322090616
11
147.129585307
21
101.322090616
0
LINE
5
109
100
AcDbEntity
8
0
6
ByLayer
62
256
370
-1
100
AcDbLine
10
147.129585307
20
101.322090616
11
147.129585307
21
101.322090616
0
LINE
5
10A
100
AcDbEntity
8
0
6
ByLayer
62
256
370
-1
100
AcDbLine
10
147.129585307
20
101.322090616
11
147.129585307
21
101.322090616
0
LINE
5
10B
100
AcDbEntity
8
0
6
ByLayer
62
256
370
-1
100
AcDbLine
10
147.129585307
20
101.322090616
11
147.129585307
21
101.322090616
0
LINE
5
10C
100
AcDbEntity
8
0
6
ByLayer
62
256
370
-1
100
AcDbLine
10
100.898889863
20
172.771179116
11
101.12742794
21
72.6715011456
0
LINE
5
10D
100
AcDbEntity
8
0
6
ByLayer
62
256
370
-1
100
AcDbLine
10
100.898889863
20
72.6778331156
11
180.898857863
21
72.6778331156
0
LINE
5
10E
100
AcDbEntity
8
0
6
DASHED2
62
256
370
-1
100
AcDbLine
10
61.4352322602
20
52.7028411056
11
224.898840263
21
52.7028411056
0
LEADER
5
10F
100
AcDbEntity
8
0
6
ByLayer
62
256
370
-1
100
AcDbLeader
3
Standard
71
1
72
0
73
3
74
0
75
0
40
1
41
10
76
2
76
2
10
121.516819676
20
75.9378630556
30
0
10
72.5997705112
20
106.662621206
30
0
0
MTEXT
5
110
100
AcDbEntity
8
0
6
ByLayer
62
256
370
-1
100
AcDbMText
10
57.6416645682
20
113.535264486
30
0
40
2.9999988
41
20.2972214505
71
1
72
1
1
Set Back
7
cursive
210
0
220
0
230
1
50
0
73
2
44
1
0
LINE
5
111
100
AcDbEntity
8
0
6
ByLayer
62
256
370
-1
100
AcDbLine
10
3.06479153218
20
23.7866288256
11
302.226910393
21
23.7866288256
0
LINE
5
112
100
AcDbEntity
8
0
6
ByLayer
62
256
370
-1
100
AcDbLine
10
302.226910393
20
23.7866288256
11
302.226910393
21
-6.12958306436
0
LINE
5
113
100
AcDbEntity
8
0
6
ByLayer
62
256
370
-1
100
AcDbLine
10
302.226910393
20
-6.12958306436
11
3.06479153218
21
-6.12958306436
0
LINE
5
114
100
AcDbEntity
8
0
6
ByLayer
62
256
370
-1
100
AcDbLine
10
3.06479153218
20
-6.12958306436
11
3.06479153218
21
23.7866288256
0
LINE
5
115
100
AcDbEntity
8
0
6
ByLayer
62
256
370
-1
100
AcDbLine
10
61.6843959042
20
23.7866288256
11
61.2801227702
21
-7.34240246436
0
LINE
5
116
100
AcDbEntity
8
0
6
ByLayer
62
256
370
-1
100
AcDbLine
10
240.777394087
20
24.1909019556
11
240.777394087
21
-6.53385619436
0
MTEXT
5
117
100
AcDbEntity
8
0
6
ByLayer
62
256
370
-1
100
AcDbMText
10
22.8741750782
20
11.2541616856
30
0
40
2.9999988
41
21.4372643766
71
1
72
1
1
Site Plan\PV 0.2
7
cursive
210
0
220
0
230
1
50
0
73
2
44
1
0
MTEXT
5
118
100
AcDbEntity
8
0
6
ByLayer
62
256
370
-1
100
AcDbMText
10
269.480786572
20
12.0627079456
30
0
40
2.9999988
41
40.1013282148
71
2
72
1
1
Date\PDecember 3, 2014
7
cursive
210
0
220
0
230
1
50
0
73
2
44
1
0
LINE
5
119
100
AcDbEntity
8
0
6
ByLayer
62
256
370
-1
100
AcDbLine
10
180.898857863
20
172.677793116
11
180.898857863
21
72.6778331156
0
LINE
5
11A
100
AcDbEntity
8
0
6
ByLayer
62
256
370
-1
100
AcDbLine
10
180.898857863
20
172.677793116
11
100.898889863
21
172.677793116
0
LINE
5
11B
100
AcDbEntity
8
Suite
6
ByLayer
62
256
370
-1
100
AcDbLine
10
170.879822985
20
138.118696056
11
150.879830985
21
138.118696056
0
MTEXT
5
11C
100
AcDbEntity
8
0
6
ByLayer
62
256
370
-1
100
AcDbMText
10
199.54153446
20
151.536939036
30
0
40
2.9999988
41
20.2972214505
71
1
72
1
1
Set Back
7
cursive
210
0
220
0
230
1
50
0
73
2
44
1
0
LEADER
5
11D
100
AcDbEntity
8
0
6
ByLayer
62
256
370
-1
100
AcDbLeader
3
Standard
71
1
72
0
73
3
74
0
75
0
40
1
41
10
76
2
76
2
10
171.646688242
20
150.324119636
30
0
10
192.264618056
20
149.111300236
30
0
0
LINE
5
11E
100
AcDbEntity
8
0
6
DOT2
62
256
370
-1
100
AcDbLine
10
170.898861863
20
75.6778319156
11
148.861084592
21
75.6795516856
0
LINE
5
11F
100
AcDbEntity
8
0
6
ByLayer
62
256
370
-1
100
AcDbLine
10
148.861084939
20
75.6778319156
11
149.694417939
21
75.6778319156
0
LINE
5
120
100
AcDbEntity
8
0
6
DOT2
62
256
370
-1
100
AcDbLine
10
148.861120678
20
75.6795485856
11
108.042877634
21
75.7136058356
0
LINE
5
121
100
AcDbEntity
8
0
6
DOT2
62
256
370
-1
100
AcDbLine
10
107.821247094
20
172.786793076
11
108.042877634
21
75.7136058356
0
LINE
5
122
100
AcDbEntity
8
0
6
DOT2
62
256
370
-1
100
AcDbLine
10
170.748706611
20
75.6612863856
11
170.914635466
21
172.677793116
0
LINE
5
123
100
AcDbEntity
8
Suite
6
ByLayer
62
256
370
-1
100
AcDbLine
10
170.879822985
20
138.118696056
11
170.85553949
21
114.118705656
0
LINE
5
124
100
AcDbEntity
8
0
6
ByLayer
62
256
370
-1
100
AcDbLine
10
130.898877863
20
212.677777116
11
131.732210863
21
212.677777116
0
LINE
5
125
100
AcDbEntity
8
0
6
ByLayer
62
256
370
-1
100
AcDbLine
10
240.937881425
20
146.797178026
11
240.937881425
21
196.005905476
0
ARC
5
126
100
AcDbEntity
8
0
6
ByLayer
62
256
370
-1
100
AcDbCircle
10
224.271221425
20
196.005905476
40
16.66666
100
AcDbArc
50
0
51
90
0
LINE
5
127
100
AcDbEntity
8
0
6
ByLayer
62
256
370
-1
100
AcDbLine
10
166.794765057
20
212.672565476
11
224.271221425
21
212.672565476
0
MTEXT
5
128
100
AcDbEntity
8
Suite
6
ByLayer
62
256
370
-1
100
AcDbMText
10
160.530002115
20
128.696332036
30
0
40
1.9999992
41
7.69178339492
71
2
72
1
1
Suite
7
cursive
210
0
220
0
230
1
50
0
73
2
44
1
0
MTEXT
5
129
100
AcDbEntity
8
Suite
6
ByLayer
62
256
370
-1
100
AcDbMText
10
160.725971981
20
125.373915096
30
0
40
0.7499997
41
6.12069242337
71
2
72
1
1
480 Sq, ft.
7
cursive
210
0
220
0
230
1
50
0
73
2
44
1
0
LINE
5
12A
100
AcDbEntity
8
Suite
6
CONTINUOUS
62
256
370
-1
100
AcDbLine
10
150.87986987
20
138.118706946
11
150.87986987
21
114.118705656
0
LINE
5
12B
100
AcDbEntity
8
Suite
6
ByLayer
62
256
370
-1
100
AcDbLine
10
150.87986987
20
114.118705656
11
170.85553949
21
114.118705656
0
LINE
5
12C
100
AcDbEntity
8
Suite
6
ByLayer
62
256
370
-1
100
AcDbLine
10
170.85553949
20
114.118705656
11
170.85553949
21
122.118705656
0
LINE
5
12D
100
AcDbEntity
8
Suite
6
ByLayer
62
256
370
-1
100
AcDbLine
10
163.85553949
20
114.118705656
11
170.85553949
21
114.118705656
0
MTEXT
5
12E
100
AcDbEntity
8
Suite
6
ByLayer
62
256
370
-1
100
AcDbMText
10
165.563439363
20
119.560599146
30
0
40
1
41
3.61947813034
71
1
72
1
1
Bath\PRoom
7
cursive
210
0
220
0
230
1
50
0
73
2
44
1
0
ENDSEC
0
SECTION
2
OBJECTS
0
DICTIONARY
5
C
330
0
100
AcDbDictionary
281
1
3
ACAD_GROUP
350
D
0
DICTIONARY
5
D
330
C
100
AcDbDictionary
281
1
0
ENDSEC
0
EOF
