999
dxfrw 0.5.11
0
SECTION
2
HEADER
9
$ACADVER
1
AC1021
9
$HANDSEED
5
20000
9
$DWGCODEPAGE
3
ANSI_1252
9
$INSBASE
10
0
20
0
30
0
9
$EXTMIN
10
-203
20
-254
30
0
9
$EXTMAX
10
883
20
1311.7
30
0
9
$LIMMIN
10
0
20
0
9
$LIMMAX
10
420
20
297
9
$ORTHOMODE
70
0
9
$LTSCALE
40
1
9
$TEXTSTYLE
7
STANDARD
9
$CLAYER
8
Dim
9
$DIMASZ
40
2
9
$DIMLFAC
40
1
9
$DIMSCALE
40
1
9
$DIMEXO
40
0.025
9
$DIMEXE
40
0.05
9
$DIMTXT
40
5
9
$DIMTSZ
40
0
9
$DIMAUNIT
70
0
9
$DIMADEC
70
2
9
$DIMLUNIT
70
2
9
$DIMSTYLE
2
STANDARD
9
$DIMGAP
40
1
9
$DIMTIH
70
0
9
$LUNITS
70
2
9
$LUPREC
70
2
9
$AUNITS
70
0
9
$AUPREC
70
2
9
$SPLINESEGS
70
8
9
$GRIDMODE
70
1
9
$SNAPSTYLE
70
0
9
$GRIDUNIT
10
0
20
0
9
$PINSBASE
10
3.88290681878
20
2.39120029371
30
0
9
$PLIMMIN
10
0
20
0
9
$PLIMMAX
10
0.916666666667
20
0.708333333333
9
$INSUNITS
70
2
9
$PSVPSCALE
40
0.03125
0
ENDSEC
0
SECTION
2
CLASSES
0
ENDSEC
0
SECTION
2
TABLES
0
TABLE
2
VPORT
5
8
330
0
100
AcDbSymbolTable
70
1
0
VPORT
5
31
330
2
100
AcDbSymbolTableRecord
100
AcDbViewportTableRecord
2
*ACTIVE
70
0
10
0
20
0
11
1
21
1
12
406.788150458
22
280.994986394
13
0
23
0
14
10
24
10
15
10
25
10
16
0
26
0
36
1
17
0
27
0
37
0
40
185.938613549
41
2.06326530612
42
50
43
0
44
0
50
0
51
0
71
0
72
100
73
1
74
3
75
0
76
1
77
0
78
0
281
0
65
1
110
0
120
0
130
0
111
1
121
0
131
0
112
0
122
1
132
0
79
0
146
0
348
10020
60
7
61
5
292
1
282
1
141
0
142
0
63
250
421
3358443
0
ENDTAB
0
TABLE
2
LTYPE
5
5
330
0
100
AcDbSymbolTable
70
4
0
LTYPE
5
14
330
5
100
AcDbSymbolTableRecord
100
AcDbLinetypeTableRecord
2
ByBlock
70
0
3

72
65
73
0
40
0
0
LTYPE
5
15
330
5
100
AcDbSymbolTableRecord
100
AcDbLinetypeTableRecord
2
ByLayer
70
0
3

72
65
73
0
40
0
0
LTYPE
5
16
330
5
100
AcDbSymbolTableRecord
100
AcDbLinetypeTableRecord
2
Continuous
70
0
3
Solid line
72
65
73
0
40
0
0
LTYPE
5
32
330
5
100
AcDbSymbolTableRecord
100
AcDbLinetypeTableRecord
2
DOT
70
0
3
Dot . . . . . . . . . . . . . . . . . . . . . .
72
65
73
2
40
6.35
49
0
74
0
49
-6.35
74
0
0
LTYPE
5
33
330
5
100
AcDbSymbolTableRecord
100
AcDbLinetypeTableRecord
2
DOT2
70
0
3
Dot (.5x) .....................................
72
65
73
2
40
3.175
49
0
74
0
49
-3.175
74
0
0
LTYPE
5
34
330
5
100
AcDbSymbolTableRecord
100
AcDbLinetypeTableRecord
2
DOTX2
70
0
3
Dot (2x) .  .  .  .  .  .  .  .  .  .  .  .  .
72
65
73
2
40
12.7
49
0
74
0
49
-12.7
74
0
0
LTYPE
5
35
330
5
100
AcDbSymbolTableRecord
100
AcDbLinetypeTableRecord
2
DASHED
70
0
3
Dot . . . . . . . . . . . . . . . . . . . . . .
72
65
73
2
40
19.05
49
12.7
74
0
49
-6.35
74
0
0
LTYPE
5
36
330
5
100
AcDbSymbolTableRecord
100
AcDbLinetypeTableRecord
2
DASHED2
70
0
3
Dashed (.5x) _ _ _ _ _ _ _ _ _ _ _ _ _ _ _ _ _
72
65
73
2
40
9.525
49
6.35
74
0
49
-3.175
74
0
0
LTYPE
5
37
330
5
100
AcDbSymbolTableRecord
100
AcDbLinetypeTableRecord
2
DASHEDX2
70
0
3
Dashed (2x) ____  ____  ____  ____  ____  ___
72
65
73
2
40
38.1
49
25.4
74
0
49
-12.7
74
0
0
LTYPE
5
38
330
5
100
AcDbSymbolTableRecord
100
AcDbLinetypeTableRecord
2
DASHDOT
70
0
3
Dash dot __ . __ . __ . __ . __ . __ . __ . __
72
65
73
4
40
25.4
49
12.7
74
0
49
-6.35
74
0
49
0
74
0
49
-6.35
74
0
0
LTYPE
5
39
330
5
100
AcDbSymbolTableRecord
100
AcDbLinetypeTableRecord
2
DASHDOT2
70
0
3
Dash dot (.5x) _._._._._._._._._._._._._._._.
72
65
73
4
40
12.7
49
6.35
74
0
49
-3.175
74
0
49
0
74
0
49
-3.175
74
0
0
LTYPE
5
3A
330
5
100
AcDbSymbolTableRecord
100
AcDbLinetypeTableRecord
2
DASHDOTX2
70
0
3
Dash dot (2x) ____  .  ____  .  ____  .  ___
72
65
73
4
40
50.8
49
25.4
74
0
49
-12.7
74
0
49
0
74
0
49
-12.7
74
0
0
LTYPE
5
3B
330
5
100
AcDbSymbolTableRecord
100
AcDbLinetypeTableRecord
2
DIVIDE
70
0
3
Divide ____ . . ____ . . ____ . . ____ . . ____
72
65
73
6
40
31.75
49
12.7
74
0
49
-6.35
74
0
49
0
74
0
49
-6.35
74
0
49
0
74
0
49
-6.35
74
0
0
LTYPE
5
3C
330
5
100
AcDbSymbolTableRecord
100
AcDbLinetypeTableRecord
2
DIVIDE2
70
0
3
Divide (.5x) __..__..__..__..__..__..__..__.._
72
65
73
6
40
15.875
49
6.35
74
0
49
-3.175
74
0
49
0
74
0
49
-3.175
74
0
49
0
74
0
49
-3.175
74
0
0
LTYPE
5
3D
330
5
100
AcDbSymbolTableRecord
100
AcDbLinetypeTableRecord
2
DIVIDEX2
70
0
3
Divide (2x) ________  .  .  ________  .  .  _
72
65
73
6
40
63.5
49
25.4
74
0
49
-12.7
74
0
49
0
74
0
49
-12.7
74
0
49
0
74
0
49
-12.7
74
0
0
LTYPE
5
3E
330
5
100
AcDbSymbolTableRecord
100
AcDbLinetypeTableRecord
2
BORDER
70
0
3
Border __ __ . __ __ . __ __ . __ __ . __ __ .
72
65
73
6
40
44.45
49
12.7
74
0
49
-6.35
74
0
49
12.7
74
0
49
-6.35
74
0
49
0
74
0
49
-6.35
74
0
0
LTYPE
5
3F
330
5
100
AcDbSymbolTableRecord
100
AcDbLinetypeTableRecord
2
BORDER2
70
0
3
Border (.5x) __.__.__.__.__.__.__.__.__.__.__.
72
65
73
6
40
22.225
49
6.35
74
0
49
-3.175
74
0
49
6.35
74
0
49
-3.175
74
0
49
0
74
0
49
-3.175
74
0
0
LTYPE
5
40
330
5
100
AcDbSymbolTableRecord
100
AcDbLinetypeTableRecord
2
BORDERX2
70
0
3
Border (2x) ____  ____  .  ____  ____  .  ___
72
65
73
6
40
88.9
49
25.4
74
0
49
-12.7
74
0
49
25.4
74
0
49
-12.7
74
0
49
0
74
0
49
-12.7
74
0
0
LTYPE
5
41
330
5
100
AcDbSymbolTableRecord
100
AcDbLinetypeTableRecord
2
CENTER
70
0
3
Center ____ _ ____ _ ____ _ ____ _ ____ _ ____
72
65
73
4
40
50.8
49
31.75
74
0
49
-6.35
74
0
49
6.35
74
0
49
-6.35
74
0
0
LTYPE
5
42
330
5
100
AcDbSymbolTableRecord
100
AcDbLinetypeTableRecord
2
CENTER2
70
0
3
Center (.5x) ___ _ ___ _ ___ _ ___ _ ___ _ ___
72
65
73
4
40
28.575
49
19.05
74
0
49
-3.175
74
0
49
3.175
74
0
49
-3.175
74
0
0
LTYPE
5
43
330
5
100
AcDbSymbolTableRecord
100
AcDbLinetypeTableRecord
2
CENTERX2
70
0
3
Center (2x) ________  __  ________  __  _____
72
65
73
4
40
101.6
49
63.5
74
0
49
-12.7
74
0
49
12.7
74
0
49
-12.7
74
0
0
ENDTAB
0
TABLE
2
LAYER
5
2
330
0
100
AcDbSymbolTable
70
1
0
LAYER
5
10
330
2
100
AcDbSymbolTableRecord
100
AcDbLayerTableRecord
2
0
70
1
62
7
6
CONTINUOUS
370
0
390
F
0
LAYER
5
44
330
2
100
AcDbSymbolTableRecord
100
AcDbLayerTableRecord
2
Car Port
70
0
62
7
6
CONTINUOUS
370
0
390
F
0
LAYER
5
45
330
2
100
AcDbSymbolTableRecord
100
AcDbLayerTableRecord
2
Dim
70
0
62
7
6
CONTINUOUS
370
0
390
F
0
LAYER
5
46
330
2
100
AcDbSymbolTableRecord
100
AcDbLayerTableRecord
2
Garage
70
1
62
7
6
CONTINUOUS
370
0
390
F
0
LAYER
5
47
330
2
100
AcDbSymbolTableRecord
100
AcDbLayerTableRecord
2
Main House
70
0
62
7
6
CONTINUOUS
370
0
390
F
0
LAYER
5
48
330
2
100
AcDbSymbolTableRecord
100
AcDbLayerTableRecord
2
Plumbing
70
1
62
7
6
CONTINUOUS
370
0
390
F
0
LAYER
5
49
330
2
100
AcDbSymbolTableRecord
100
AcDbLayerTableRecord
2
Suite
70
0
62
7
6
CONTINUOUS
370
0
390
F
0
ENDTAB
0
TABLE
2
STYLE
5
3
330
0
100
AcDbSymbolTable
70
3
0
STYLE
5
4A
330
2
100
AcDbSymbolTableRecord
100
AcDbTextStyleTableRecord
2
cursive
70
0
40
0
41
1
50
0
71
0
42
1
3
cursive
4

0
STYLE
5
4B
330
2
100
AcDbSymbolTableRecord
100
AcDbTextStyleTableRecord
2
Standard
70
0
40
0
41
1
50
0
71
0
42
1
3
txt
4

0
ENDTAB
0
TABLE
2
VIEW
5
6
330
0
100
AcDbSymbolTable
70
0
0
ENDTAB
0
TABLE
2
UCS
5
7
330
0
100
AcDbSymbolTable
70
0
0
ENDTAB
0
TABLE
2
APPID
5
9
330
0
100
AcDbSymbolTable
70
1
0
APPID
5
12
330
9
100
AcDbSymbolTableRecord
100
AcDbRegAppTableRecord
2
ACAD
70
0
0
ENDTAB
0
TABLE
2
DIMSTYLE
5
A
330
0
100
AcDbSymbolTable
70
1
100
AcDbDimStyleTable
71
1
0
DIMSTYLE
105
4C
330
A
100
AcDbSymbolTableRecord
100
AcDbDimStyleTableRecord
2
Standard
70
0
40
1
41
2
42
0.025
43
0.38
44
0.05
45
0
46
0
47
0
48
0
140
5
141
0.09
142
0
143
25.4
144
1
145
0
146
1
147
1
148
0
71
0
72
0
73
0
74
1
75
0
76
0
77
0
78
0
79
0
170
0
171
2
172
0
173
0
174
0
175
0
176
0
177
0
178
0
179
0
271
4
272
4
273
2
274
2
275
0
276
0
277
2
278
46
279
0
280
0
281
0
282
0
283
1
284
0
285
0
286
0
288
0
289
3
340
Standard
341

371
-2
372
-2
0
ENDTAB
0
TABLE
2
BLOCK_RECORD
5
1
330
0
100
AcDbSymbolTable
70
2
0
BLOCK_RECORD
5
1F
330
1
100
AcDbSymbolTableRecord
100
AcDbBlockTableRecord
2
*Model_Space
70
0
280
1
281
0
0
BLOCK_RECORD
5
1E
330
1
100
AcDbSymbolTableRecord
100
AcDbBlockTableRecord
2
*Paper_Space
70
0
280
1
281
0
0
BLOCK_RECORD
5
4D
330
1
100
AcDbSymbolTableRecord
100
AcDbBlockTableRecord
2
*D4
70
0
280
1
281
0
0
BLOCK_RECORD
5
50
330
1
100
AcDbSymbolTableRecord
100
AcDbBlockTableRecord
2
*D3
70
0
280
1
281
0
0
BLOCK_RECORD
5
53
330
1
100
AcDbSymbolTableRecord
100
AcDbBlockTableRecord
2
*D8
70
0
280
1
281
0
0
BLOCK_RECORD
5
56
330
1
100
AcDbSymbolTableRecord
100
AcDbBlockTableRecord
2
*D13
70
0
280
1
281
0
0
BLOCK_RECORD
5
59
330
1
100
AcDbSymbolTableRecord
100
AcDbBlockTableRecord
2
*D12
70
0
280
1
281
0
0
BLOCK_RECORD
5
5C
330
1
100
AcDbSymbolTableRecord
100
AcDbBlockTableRecord
2
*D7
70
0
280
1
281
0
0
BLOCK_RECORD
5
5F
330
1
100
AcDbSymbolTableRecord
100
AcDbBlockTableRecord
2
*D2
70
0
280
1
281
0
0
BLOCK_RECORD
5
62
330
1
100
AcDbSymbolTableRecord
100
AcDbBlockTableRecord
2
*D14
70
0
280
1
281
0
0
BLOCK_RECORD
5
65
330
1
100
AcDbSymbolTableRecord
100
AcDbBlockTableRecord
2
*D9
70
0
280
1
281
0
0
BLOCK_RECORD
5
68
330
1
100
AcDbSymbolTableRecord
100
AcDbBlockTableRecord
2
*D1
70
0
280
1
281
0
0
BLOCK_RECORD
5
6B
330
1
100
AcDbSymbolTableRecord
100
AcDbBlockTableRecord
2
*D10
70
0
280
1
281
0
0
BLOCK_RECORD
5
6E
330
1
100
AcDbSymbolTableRecord
100
AcDbBlockTableRecord
2
*D5
70
0
280
1
281
0
0
BLOCK_RECORD
5
71
330
1
100
AcDbSymbolTableRecord
100
AcDbBlockTableRecord
2
*D6
70
0
280
1
281
0
0
BLOCK_RECORD
5
74
330
1
100
AcDbSymbolTableRecord
100
AcDbBlockTableRecord
2
*D11
70
0
280
1
281
0
0
BLOCK_RECORD
5
77
330
1
100
AcDbSymbolTableRecord
100
AcDbBlockTableRecord
2
*D15
70
0
280
1
281
0
0
ENDTAB
0
ENDSEC
0
SECTION
2
BLOCKS
0
BLOCK
5
20
330
1F
100
AcDbEntity
8
0
100
AcDbBlockBegin
2
*Model_Space
70
0
10
0
20
0
30
0
3
*Model_Space
1

0
ENDBLK
5
21
330
1F
100
AcDbEntity
8
0
100
AcDbBlockEnd
0
BLOCK
5
1C
330
1B
100
AcDbEntity
8
0
100
AcDbBlockBegin
2
*Paper_Space
70
0
10
0
20
0
30
0
3
*Paper_Space
1

0
ENDBLK
5
1D
330
1F
100
AcDbEntity
8
0
100
AcDbBlockEnd
0
BLOCK
5
4E
330
4D
100
AcDbEntity
8
0
100
AcDbBlockBegin
2
*D4
70
1
10
0
20
0
3
*D4
1

0
LINE
5
7A
100
AcDbEntity
8
0
6
CONTINUOUS
62
7
370
0
100
AcDbLine
10
1603
20
-362
11
1603
21
238
0
SOLID
5
7B
100
AcDbEntity
8
0
6
CONTINUOUS
62
7
370
0
100
AcDbTrace
10
1603
20
-362
30
0
11
1602.66697227
21
-360
31
0
12
1603.33302773
22
-360
32
0
13
1603.33302773
23
-360
33
0
0
ENDBLK
5
4F
330
4D
100
AcDbEntity
8
0
100
AcDbBlockEnd
0
BLOCK
5
51
330
50
100
AcDbEntity
8
0
100
AcDbBlockBegin
2
*D3
70
1
10
0
20
0
3
*D3
1

0
LINE
5
7C
100
AcDbEntity
8
0
6
CONTINUOUS
62
7
370
0
100
AcDbLine
10
1603
20
1558
11
1603
21
838
0
SOLID
5
7D
100
AcDbEntity
8
0
6
CONTINUOUS
62
7
370
0
100
AcDbTrace
10
1603
20
1558
30
0
11
1603.33302773
21
1556
31
0
12
1602.66697227
22
1556
32
0
13
1602.66697227
23
1556
33
0
0
ENDBLK
5
52
330
50
100
AcDbEntity
8
0
100
AcDbBlockEnd
0
BLOCK
5
54
330
53
100
AcDbEntity
8
0
100
AcDbBlockBegin
2
*D8
70
1
10
0
20
0
3
*D8
1

0
LINE
5
7E
100
AcDbEntity
8
Dim
6
CONTINUOUS
62
7
370
0
100
AcDbLine
10
-77
20
1305.7
11
883
21
1305.7
0
SOLID
5
7F
100
AcDbEntity
8
Dim
6
CONTINUOUS
62
7
370
0
100
AcDbTrace
10
-77
20
1305.7
30
0
11
-75
21
1306.03302773
31
0
12
-75
22
1305.36697227
32
0
13
-75
23
1305.36697227
33
0
0
SOLID
5
80
100
AcDbEntity
8
Dim
6
CONTINUOUS
62
7
370
0
100
AcDbTrace
10
883
20
1305.7
30
0
11
881
21
1305.36697227
31
0
12
881
22
1306.03302773
32
0
13
881
23
1306.03302773
33
0
0
MTEXT
5
81
100
AcDbEntity
8
Dim
6
CONTINUOUS
62
7
370
0
100
AcDbMText
10
403
20
1309.2
30
0
40
5
41
19.4444444444
71
5
72
1
1
960.00
7
standard
210
0
220
0
230
1
50
0
73
2
44
1
0
LINE
5
82
100
AcDbEntity
8
Dim
6
CONTINUOUS
62
7
370
0
100
AcDbLine
10
-77
20
1185.725
11
-77
21
1305.75
0
LINE
5
83
100
AcDbEntity
8
Dim
6
CONTINUOUS
62
7
370
0
100
AcDbLine
10
883
20
1185.725
11
883
21
1305.75
0
ENDBLK
5
55
330
53
100
AcDbEntity
8
0
100
AcDbBlockEnd
0
BLOCK
5
57
330
56
100
AcDbEntity
8
0
100
AcDbBlockBegin
2
*D13
70
1
10
0
20
0
3
*D13
1

0
LINE
5
84
100
AcDbEntity
8
0
6
CONTINUOUS
62
7
370
0
100
AcDbLine
10
771.973920142
20
917.455810936
11
1019.38917687
21
902.901972305
0
SOLID
5
85
100
AcDbEntity
8
0
6
CONTINUOUS
62
7
370
0
100
AcDbTrace
10
771.973920142
20
917.455810936
30
0
11
773.99002495
21
917.670819937
31
0
12
773.950912827
22
917.005913847
32
0
13
773.950912827
23
917.005913847
33
0
0
ENDBLK
5
58
330
56
100
AcDbEntity
8
0
100
AcDbBlockEnd
0
BLOCK
5
5A
330
59
100
AcDbEntity
8
0
100
AcDbBlockBegin
2
*D12
70
1
10
0
20
0
3
*D12
1

0
LINE
5
86
100
AcDbEntity
8
Dim
6
CONTINUOUS
62
7
370
0
100
AcDbLine
10
522.772
20
790
11
762.771533381
21
790
0
SOLID
5
87
100
AcDbEntity
8
Dim
6
CONTINUOUS
62
7
370
0
100
AcDbTrace
10
522.772
20
790
30
0
11
524.772
21
790.333027726
31
0
12
524.772
22
789.666972274
32
0
13
524.772
23
789.666972274
33
0
0
SOLID
5
88
100
AcDbEntity
8
Dim
6
CONTINUOUS
62
7
370
0
100
AcDbTrace
10
762.771533381
20
790
30
0
11
760.771533381
21
789.666972274
31
0
12
760.771533381
22
790.333027726
32
0
13
760.771533381
23
790.333027726
33
0
0
MTEXT
5
89
100
AcDbEntity
8
Dim
6
CONTINUOUS
62
7
370
0
100
AcDbMText
10
642.771766691
20
793.5
30
0
40
5
41
20
71
5
72
1
1
240.00
7
standard
210
0
220
0
230
1
50
0
73
2
44
1
0
LINE
5
8A
100
AcDbEntity
8
Dim
6
CONTINUOUS
62
7
370
0
100
AcDbLine
10
522.772
20
771.015669296
11
522.772
21
790.05
0
LINE
5
8B
100
AcDbEntity
8
Dim
6
CONTINUOUS
62
7
370
0
100
AcDbLine
10
762.771533381
20
771.015669296
11
762.771533381
21
790.05
0
ENDBLK
5
5B
330
59
100
AcDbEntity
8
0
100
AcDbBlockEnd
0
BLOCK
5
5D
330
5C
100
AcDbEntity
8
0
100
AcDbBlockBegin
2
*D7
70
1
10
0
20
0
3
*D7
1

0
LINE
5
8C
100
AcDbEntity
8
Dim
6
CONTINUOUS
62
7
370
0
100
AcDbLine
10
-197
20
1185.7
11
-197
21
-14.3
0
SOLID
5
8D
100
AcDbEntity
8
Dim
6
CONTINUOUS
62
7
370
0
100
AcDbTrace
10
-197
20
1185.7
30
0
11
-196.666972274
21
1183.7
31
0
12
-197.333027726
22
1183.7
32
0
13
-197.333027726
23
1183.7
33
0
0
SOLID
5
8E
100
AcDbEntity
8
Dim
6
CONTINUOUS
62
7
370
0
100
AcDbTrace
10
-197
20
-14.3
30
0
11
-197.333027726
21
-12.3
31
0
12
-196.666972274
22
-12.3
32
0
13
-196.666972274
23
-12.3
33
0
0
MTEXT
5
8F
100
AcDbEntity
8
Dim
6
CONTINUOUS
62
7
370
0
100
AcDbMText
10
-200.5
20
585.7
30
0
40
5
41
22.2222222222
71
5
72
1
1
1200.00
7
standard
210
0
220
0
230
1
50
90
73
2
44
1
0
LINE
5
90
100
AcDbEntity
8
Dim
6
CONTINUOUS
62
7
370
0
100
AcDbLine
10
-77.025
20
1185.7
11
-197.05
21
1185.7
0
LINE
5
91
100
AcDbEntity
8
Dim
6
CONTINUOUS
62
7
370
0
100
AcDbLine
10
-77.025
20
-14.3
11
-197.05
21
-14.3
0
ENDBLK
5
5E
330
5C
100
AcDbEntity
8
0
100
AcDbBlockEnd
0
BLOCK
5
60
330
5F
100
AcDbEntity
8
0
100
AcDbBlockBegin
2
*D2
70
1
10
0
20
0
3
*D2
1

0
LINE
5
92
100
AcDbEntity
8
0
6
CONTINUOUS
62
7
370
0
100
AcDbLine
10
1363
20
1678
11
763
21
1678
0
SOLID
5
93
100
AcDbEntity
8
0
6
CONTINUOUS
62
7
370
0
100
AcDbTrace
10
1363
20
1678
30
0
11
1361
21
1677.66697227
31
0
12
1361
22
1678.33302773
32
0
13
1361
23
1678.33302773
33
0
0
ENDBLK
5
61
330
5F
100
AcDbEntity
8
0
100
AcDbBlockEnd
0
BLOCK
5
63
330
62
100
AcDbEntity
8
0
100
AcDbBlockBegin
2
*D14
70
1
10
0
20
0
3
*D14
1

0
LINE
5
94
100
AcDbEntity
8
Dim
6
CONTINUOUS
62
7
370
0
100
AcDbLine
10
791.566581344
20
481.637819879
11
791.566581344
21
346.47270661
0
SOLID
5
95
100
AcDbEntity
8
Dim
6
CONTINUOUS
62
7
370
0
100
AcDbTrace
10
791.566581344
20
481.637819879
30
0
11
791.89960907
21
479.637819879
31
0
12
791.233553618
22
479.637819879
32
0
13
791.233553618
23
479.637819879
33
0
0
SOLID
5
96
100
AcDbEntity
8
Dim
6
CONTINUOUS
62
7
370
0
100
AcDbTrace
10
791.566581344
20
346.47270661
30
0
11
791.233553618
21
348.47270661
31
0
12
791.89960907
22
348.47270661
32
0
13
791.89960907
23
348.47270661
33
0
0
MTEXT
5
97
100
AcDbEntity
8
Dim
6
CONTINUOUS
62
7
370
0
100
AcDbMText
10
788.066581344
20
414.055263245
30
0
40
5
41
17.2222222222
71
5
72
1
1
135.17
7
standard
210
0
220
0
230
1
50
90
73
2
44
1
0
LINE
5
98
100
AcDbEntity
8
Dim
6
CONTINUOUS
62
7
370
0
100
AcDbLine
10
762.796194259
20
481.637819879
11
791.616581344
21
481.637819879
0
LINE
5
99
100
AcDbEntity
8
Dim
6
CONTINUOUS
62
7
370
0
100
AcDbLine
10
762.676445118
20
346.47270661
11
791.616581344
21
346.47270661
0
ENDBLK
5
64
330
62
100
AcDbEntity
8
0
100
AcDbBlockEnd
0
BLOCK
5
66
330
65
100
AcDbEntity
8
0
100
AcDbBlockBegin
2
*D9
70
1
10
0
20
0
3
*D9
1

0
LINE
5
9A
100
AcDbEntity
8
Dim
6
CONTINUOUS
62
7
370
0
100
AcDbLine
10
-197
20
-14
11
-197
21
-254
0
SOLID
5
9B
100
AcDbEntity
8
Dim
6
CONTINUOUS
62
7
370
0
100
AcDbTrace
10
-197
20
-14
30
0
11
-196.666972274
21
-16
31
0
12
-197.333027726
22
-16
32
0
13
-197.333027726
23
-16
33
0
0
SOLID
5
9C
100
AcDbEntity
8
Dim
6
CONTINUOUS
62
7
370
0
100
AcDbTrace
10
-197
20
-254
30
0
11
-197.333027726
21
-252
31
0
12
-196.666972274
22
-252
32
0
13
-196.666972274
23
-252
33
0
0
MTEXT
5
9D
100
AcDbEntity
8
Dim
6
CONTINUOUS
62
7
370
0
100
AcDbMText
10
-200.5
20
-134
30
0
40
5
41
20
71
5
72
1
1
240.00
7
standard
210
0
220
0
230
1
50
90
73
2
44
1
0
LINE
5
9E
100
AcDbEntity
8
Dim
6
CONTINUOUS
62
7
370
0
100
AcDbLine
10
-77.025
20
-14
11
-197.05
21
-14
0
LINE
5
9F
100
AcDbEntity
8
Dim
6
CONTINUOUS
62
7
370
0
100
AcDbLine
10
-77.025
20
-254
11
-197.05
21
-254
0
ENDBLK
5
67
330
65
100
AcDbEntity
8
0
100
AcDbBlockEnd
0
BLOCK
5
69
330
68
100
AcDbEntity
8
0
100
AcDbBlockBegin
2
*D1
70
1
10
0
20
0
3
*D1
1

0
LINE
5
A0
100
AcDbEntity
8
0
6
CONTINUOUS
62
7
370
0
100
AcDbLine
10
-557
20
1665.7
11
163
21
1665.7
0
SOLID
5
A1
100
AcDbEntity
8
0
6
CONTINUOUS
62
7
370
0
100
AcDbTrace
10
-557
20
1665.7
30
0
11
-555
21
1666.03302773
31
0
12
-555
22
1665.36697227
32
0
13
-555
23
1665.36697227
33
0
0
ENDBLK
5
6A
330
68
100
AcDbEntity
8
0
100
AcDbBlockEnd
0
BLOCK
5
6C
330
6B
100
AcDbEntity
8
0
100
AcDbBlockBegin
2
*D10
70
1
10
0
20
0
3
*D10
1

0
LINE
5
A2
100
AcDbEntity
8
Dim
6
CONTINUOUS
62
7
370
0
100
AcDbLine
10
883
20
1062.99419724
11
763
21
1062.99419724
0
SOLID
5
A3
100
AcDbEntity
8
Dim
6
CONTINUOUS
62
7
370
0
100
AcDbTrace
10
883
20
1062.99419724
30
0
11
881
21
1062.66116952
31
0
12
881
22
1063.32722497
32
0
13
881
23
1063.32722497
33
0
0
SOLID
5
A4
100
AcDbEntity
8
Dim
6
CONTINUOUS
62
7
370
0
100
AcDbTrace
10
763
20
1062.99419724
30
0
11
765
21
1063.32722497
31
0
12
765
22
1062.66116952
32
0
13
765
23
1062.66116952
33
0
0
MTEXT
5
A5
100
AcDbEntity
8
Dim
6
CONTINUOUS
62
7
370
0
100
AcDbMText
10
823
20
1066.49419724
30
0
40
5
41
18.3333333333
71
5
72
1
1
120.00
7
standard
210
0
220
0
230
1
50
360
73
2
44
1
0
LINE
5
A6
100
AcDbEntity
8
Dim
6
CONTINUOUS
62
7
370
0
100
AcDbLine
10
883
20
1185.675
11
883
21
1062.94419724
0
LINE
5
A7
100
AcDbEntity
8
Dim
6
CONTINUOUS
62
7
370
0
100
AcDbLine
10
763
20
1185.675
11
763
21
1062.94419724
0
ENDBLK
5
6D
330
6B
100
AcDbEntity
8
0
100
AcDbBlockEnd
0
BLOCK
5
6F
330
6E
100
AcDbEntity
8
0
100
AcDbBlockBegin
2
*D5
70
1
10
0
20
0
3
*D5
1

0
LINE
5
A8
100
AcDbEntity
8
0
6
CONTINUOUS
62
7
370
0
100
AcDbLine
10
-77
20
1078
11
-317
21
958
0
SOLID
5
A9
100
AcDbEntity
8
0
6
CONTINUOUS
62
7
370
0
100
AcDbTrace
10
-77
20
1078
30
0
11
-78.6399198552
21
1076.80770376
31
0
12
-78.9377889088
22
1077.40344186
32
0
13
-78.9377889088
23
1077.40344186
33
0
0
ENDBLK
5
70
330
6E
100
AcDbEntity
8
0
100
AcDbBlockEnd
0
BLOCK
5
72
330
71
100
AcDbEntity
8
0
100
AcDbBlockBegin
2
*D6
70
1
10
0
20
0
3
*D6
1

0
LINE
5
AA
100
AcDbEntity
8
0
6
CONTINUOUS
62
7
370
0
100
AcDbLine
10
170.415256727
20
24.8203749016
11
-416.589568057
21
393.51762022
0
SOLID
5
AB
100
AcDbEntity
8
0
6
CONTINUOUS
62
7
370
0
100
AcDbTrace
10
170.415256727
20
24.8203749016
30
0
11
168.544490954
21
25.6021311856
31
0
12
168.898755764
22
26.1661580552
32
0
13
168.898755764
23
26.1661580552
33
0
0
ENDBLK
5
73
330
71
100
AcDbEntity
8
0
100
AcDbBlockEnd
0
BLOCK
5
75
330
74
100
AcDbEntity
8
0
100
AcDbBlockBegin
2
*D11
70
1
10
0
20
0
3
*D11
1

0
LINE
5
AC
100
AcDbEntity
8
Dim
6
CONTINUOUS
62
7
370
0
100
AcDbLine
10
23.791896271
20
21.7
11
23.791896271
21
-14.3
0
SOLID
5
AD
100
AcDbEntity
8
Dim
6
CONTINUOUS
62
7
370
0
100
AcDbTrace
10
23.791896271
20
21.7
30
0
11
24.1249239972
21
19.7
31
0
12
23.4588685448
22
19.7
32
0
13
23.4588685448
23
19.7
33
0
0
SOLID
5
AE
100
AcDbEntity
8
Dim
6
CONTINUOUS
62
7
370
0
100
AcDbTrace
10
23.791896271
20
-14.3
30
0
11
23.4588685448
21
-12.3
31
0
12
24.1249239972
22
-12.3
32
0
13
24.1249239972
23
-12.3
33
0
0
MTEXT
5
AF
100
AcDbEntity
8
Dim
6
CONTINUOUS
62
7
370
0
100
AcDbMText
10
20.291896271
20
3.7
30
0
40
5
41
15.5555555556
71
5
72
1
1
36.00
7
standard
210
0
220
0
230
1
50
90
73
2
44
1
0
LINE
5
B0
100
AcDbEntity
8
Dim
6
CONTINUOUS
62
7
370
0
100
AcDbLine
10
-4.44342053692
20
21.7
11
23.841896271
21
21.7
0
LINE
5
B1
100
AcDbEntity
8
Dim
6
CONTINUOUS
62
7
370
0
100
AcDbLine
10
-3.98390568532
20
-14.3
11
23.841896271
21
-14.3
0
ENDBLK
5
76
330
74
100
AcDbEntity
8
0
100
AcDbBlockEnd
0
BLOCK
5
78
330
77
100
AcDbEntity
8
0
100
AcDbBlockBegin
2
*D15
70
1
10
0
20
0
3
*D15
1

0
LINE
5
B2
100
AcDbEntity
8
Dim
6
CONTINUOUS
62
7
370
0
100
AcDbLine
10
791.566581344
20
770.990669296
11
791.566581344
21
482.020598629
0
SOLID
5
B3
100
AcDbEntity
8
Dim
6
CONTINUOUS
62
7
370
0
100
AcDbTrace
10
791.566581344
20
770.990669296
30
0
11
791.89960907
21
768.990669296
31
0
12
791.233553618
22
768.990669296
32
0
13
791.233553618
23
768.990669296
33
0
0
SOLID
5
B4
100
AcDbEntity
8
Dim
6
CONTINUOUS
62
7
370
0
100
AcDbTrace
10
791.566581344
20
482.020598629
30
0
11
791.233553618
21
484.020598629
31
0
12
791.89960907
22
484.020598629
32
0
13
791.89960907
23
484.020598629
33
0
0
MTEXT
5
B5
100
AcDbEntity
8
Dim
6
CONTINUOUS
62
7
370
0
100
AcDbMText
10
788.066581344
20
626.505633962
30
0
40
5
41
19.4444444444
71
5
72
1
1
288.97
7
standard
210
0
220
0
230
1
50
90
73
2
44
1
0
LINE
5
B6
100
AcDbEntity
8
Dim
6
CONTINUOUS
62
7
370
0
100
AcDbLine
10
762.796533381
20
770.990669296
11
791.616581344
21
770.990669296
0
LINE
5
B7
100
AcDbEntity
8
Dim
6
CONTINUOUS
62
7
370
0
100
AcDbLine
10
762.796533381
20
482.020598629
11
791.616581344
21
482.020598629
0
ENDBLK
5
79
330
77
100
AcDbEntity
8
0
100
AcDbBlockEnd
0
ENDSEC
0
SECTION
2
ENTITIES
0
MTEXT
5
B8
100
AcDbEntity
8
0
6
ByLayer
62
256
370
-1
100
AcDbMText
10
283
20
1665.7
30
0
40
36
41
338.193679729
71
1
72
1
1
Palmdale Dr
7
cursive
210
0
220
0
230
1
50
0
73
2
44
1
0
LEADER
5
B9
100
AcDbEntity
8
0
6
ByLayer
62
256
370
-1
100
AcDbLeader
3
Standard
71
1
72
0
73
3
74
0
75
0
40
1
41
10
76
2
76
2
10
-557
20
1665.7
30
0
10
163
20
1665.7
30
0
0
MTEXT
5
BA
100
AcDbEntity
8
0
6
ByLayer
62
256
370
-1
100
AcDbMText
10
283
20
1918
30
0
40
60
41
299.814229064
71
1
72
1
1
NORTH
7
cursive
210
0
220
0
230
1
50
0
73
2
44
1
0
LEADER
5
BB
100
AcDbEntity
8
0
6
ByLayer
62
256
370
-1
100
AcDbLeader
3
Standard
71
1
72
0
73
3
74
0
75
0
40
1
41
10
76
2
76
2
10
1363
20
1678
30
0
10
763
20
1678
30
0
0
MTEXT
5
BC
100
AcDbEntity
8
0
6
ByLayer
62
256
370
-1
100
AcDbMText
10
1603
20
718
30
0
40
36
41
336.501260644
71
1
72
1
1
Dateland Dr\P
7
cursive
210
0
220
0
230
1
50
270
73
2
44
1
0
LEADER
5
BD
100
AcDbEntity
8
0
6
ByLayer
62
256
370
-1
100
AcDbLeader
3
Standard
71
1
72
0
73
3
74
0
75
0
40
1
41
10
76
2
76
2
10
1603
20
1558
30
0
10
1603
20
838
30
0
0
LEADER
5
BE
100
AcDbEntity
8
0
6
ByLayer
62
256
370
-1
100
AcDbLeader
3
Standard
71
1
72
0
73
3
74
0
75
0
40
1
41
10
76
2
76
2
10
1603
20
-362
30
0
10
1603
20
238
30
0
0
MTEXT
5
BF
100
AcDbEntity
8
0
6
ByLayer
62
256
370
-1
100
AcDbMText
10
283
20
-122
30
0
40
36
41
134.282196489
71
1
72
1
1
Alley
7
cursive
210
0
220
0
230
1
50
0
73
2
44
1
0
MTEXT
5
C0
100
AcDbEntity
8
0
6
ByLayer
62
256
370
-1
100
AcDbMText
10
-917
20
958
30
0
40
36
41
512.225891762
71
1
72
1
1
Property boundry
7
cursive
210
0
220
0
230
1
50
0
73
2
44
1
0
LEADER
5
C1
100
AcDbEntity
8
0
6
ByLayer
62
256
370
-1
100
AcDbLeader
3
Standard
71
1
72
0
73
3
74
0
75
0
40
1
41
10
76
2
76
2
10
-77
20
1078
30
0
10
-317
20
958
30
0
0
LINE
5
C2
100
AcDbEntity
8
0
6
ByLayer
62
256
370
-1
100
AcDbLine
10
477.768567244
20
329.431227392
11
477.768567244
21
329.431227392
0
LINE
5
C3
100
AcDbEntity
8
0
6
ByLayer
62
256
370
-1
100
AcDbLine
10
477.768567244
20
329.431227392
11
477.768567244
21
329.431227392
0
LINE
5
C4
100
AcDbEntity
8
0
6
ByLayer
62
256
370
-1
100
AcDbLine
10
477.768567244
20
329.431227392
11
477.768567244
21
329.431227392
0
LINE
5
C5
100
AcDbEntity
8
0
6
ByLayer
62
256
370
-1
100
AcDbLine
10
477.768567244
20
329.431227392
11
477.768567244
21
329.431227392
0
LINE
5
C6
100
AcDbEntity
8
0
6
ByLayer
62
256
370
-1
100
AcDbLine
10
477.768567244
20
329.431227392
11
477.768567244
21
329.431227392
0
LINE
5
C7
100
AcDbEntity
8
0
6
ByLayer
62
256
370
-1
100
AcDbLine
10
477.768567244
20
329.431227392
11
477.768567244
21
329.431227392
0
LINE
5
C8
100
AcDbEntity
8
0
6
ByLayer
62
256
370
-1
100
AcDbLine
10
477.768567244
20
329.431227392
11
477.768567244
21
329.431227392
0
LINE
5
C9
100
AcDbEntity
8
0
6
ByLayer
62
256
370
-1
100
AcDbLine
10
477.768567244
20
329.431227392
11
477.768567244
21
329.431227392
0
LINE
5
CA
100
AcDbEntity
8
0
6
DOT2
62
256
370
-1
100
AcDbLine
10
763
20
21.7
11
-67.37354
21
21.7648
0
LINE
5
CB
100
AcDbEntity
8
0
6
ByLayer
62
256
370
-1
100
AcDbLine
10
-77
20
1186.82063246
11
-74.2575419723
21
-14.3759836976
0
LINE
5
CC
100
AcDbEntity
8
0
6
ByLayer
62
256
370
-1
100
AcDbLine
10
-77
20
-14.3
11
883
21
-14.3
0
LINE
5
CD
100
AcDbEntity
8
0
6
ByLayer
62
256
370
-1
100
AcDbLine
10
-550.564080656
20
-254
11
-547.574115735
21
-460.307579464
0
LINE
5
CE
100
AcDbEntity
8
0
6
DASHED2
62
256
370
-1
100
AcDbLine
10
-550.564080656
20
-254
11
1411
21
-254
0
LEADER
5
CF
100
AcDbEntity
8
0
6
ByLayer
62
256
370
-1
100
AcDbLeader
3
Standard
71
1
72
0
73
3
74
0
75
0
40
1
41
10
76
2
76
2
10
170.415256727
20
24.8203749016
30
0
10
-416.589568057
20
393.51762022
30
0
0
MTEXT
5
D0
100
AcDbEntity
8
0
6
ByLayer
62
256
370
-1
100
AcDbMText
10
-596.086911172
20
475.989372462
30
0
40
36
41
243.566754833
71
1
72
1
1
Set Back
7
cursive
210
0
220
0
230
1
50
0
73
2
44
1
0
LINE
5
D1
100
AcDbEntity
8
0
6
ByLayer
62
256
370
-1
100
AcDbLine
10
-1251.00964957
20
-600.994686231
11
2338.93721274
21
-600.994686231
0
LINE
5
D2
100
AcDbEntity
8
0
6
ByLayer
62
256
370
-1
100
AcDbLine
10
2338.93721274
20
-600.994686231
11
2338.93721274
21
-959.989372462
0
LINE
5
D3
100
AcDbEntity
8
0
6
ByLayer
62
256
370
-1
100
AcDbLine
10
2338.93721274
20
-959.989372462
11
-1251.00964957
21
-959.989372462
0
LINE
5
D4
100
AcDbEntity
8
0
6
ByLayer
62
256
370
-1
100
AcDbLine
10
-1251.00964957
20
-959.989372462
11
-1251.00964957
21
-600.994686231
0
LINE
5
D5
100
AcDbEntity
8
0
6
ByLayer
62
256
370
-1
100
AcDbLine
10
-547.574115735
20
-600.994686231
11
-552.425395279
21
-974.543211093
0
LINE
5
D6
100
AcDbEntity
8
0
6
ByLayer
62
256
370
-1
100
AcDbLine
10
1601.54272211
20
-596.143406688
11
1601.54272211
21
-964.840652006
0
MTEXT
5
D7
100
AcDbEntity
8
0
6
ByLayer
62
256
370
-1
100
AcDbMText
10
-43.0410431943
20
-722.276674822
30
0
40
36
41
1286.89487665
71
1
72
1
1
103 W. Palmdale Dr, Tempe AZ\P\PJesus Delgado and Adrienne Decker Delgado
7
cursive
210
0
220
0
230
1
50
0
73
2
44
1
0
MTEXT
5
D8
100
AcDbEntity
8
0
6
ByLayer
62
256
370
-1
100
AcDbMText
10
-1013.29695193
20
-751.384352085
30
0
40
36
41
257.247275418
71
1
72
1
1
Site Plan\PV 0.2
7
cursive
210
0
220
0
230
1
50
0
73
2
44
1
0
MTEXT
5
D9
100
AcDbEntity
8
0
6
ByLayer
62
256
370
-1
100
AcDbMText
10
1945.9835697
20
-741.681792998
30
0
40
36
41
481.216131064
71
2
72
1
1
Date\PDecember 3, 2014
7
cursive
210
0
220
0
230
1
50
0
73
2
44
1
0
LINE
5
DA
100
AcDbEntity
8
0
6
DOT2
62
256
370
-1
100
AcDbLine
10
6.06832
20
1187.008
11
8.8108
21
-14.186
0
DIMENSION
5
DB
100
AcDbEntity
8
Dim
6
ByLayer
62
256
370
-1
100
AcDbDimension
2
*D7
10
-197
20
-14.3
30
0
11
-200.5
21
585.7
31
0
70
32
71
5
72
0
3
Standard
53
0
210
0
220
0
230
1
100
AcDbAlignedDimension
13
-77
23
1185.7
33
0
14
-77
24
-14.3
34
0
50
90
100
AcDbRotatedDimension
0
DIMENSION
5
DC
100
AcDbEntity
8
Dim
6
ByLayer
62
256
370
-1
100
AcDbDimension
2
*D8
10
883
20
1305.7
30
0
11
403
21
1309.2
31
0
70
32
71
5
72
0
3
Standard
53
0
210
0
220
0
230
1
100
AcDbAlignedDimension
13
-77
23
1185.7
33
0
14
883
24
1185.7
34
0
100
AcDbRotatedDimension
0
DIMENSION
5
DD
100
AcDbEntity
8
Dim
6
ByLayer
62
256
370
-1
100
AcDbDimension
2
*D9
10
-197
20
-242
30
0
11
-200.5
21
-134
31
0
70
32
71
5
72
0
3
Standard
53
0
210
0
220
0
230
1
100
AcDbAlignedDimension
13
-77
23
-14
33
0
14
-77
24
-254
34
0
50
90
100
AcDbRotatedDimension
0
DIMENSION
5
DE
100
AcDbEntity
8
Dim
6
ByLayer
62
256
370
-1
100
AcDbDimension
2
*D10
10
763
20
1062.99419724
30
0
11
823
21
1066.49419724
31
0
70
32
71
5
72
0
3
Standard
53
0
210
0
220
0
230
1
100
AcDbAlignedDimension
13
883
23
1185.7
33
0
14
763
24
1185.7
34
0
100
AcDbRotatedDimension
0
DIMENSION
5
DF
100
AcDbEntity
8
Dim
6
ByLayer
62
256
370
-1
100
AcDbDimension
2
*D11
10
23.791896271
20
-14.3
30
0
11
20.291896271
21
3.7
31
0
70
32
71
5
72
0
3
Standard
53
0
210
0
220
0
230
1
100
AcDbAlignedDimension
13
-4.46842053692
23
21.7
33
0
14
-4.00890568532
24
-14.3
34
0
50
90
100
AcDbRotatedDimension
0
LINE
5
E0
100
AcDbEntity
8
0
6
ByLayer
62
256
370
-1
100
AcDbLine
10
883
20
1185.7
11
883
21
-14.3
0
LINE
5
E1
100
AcDbEntity
8
0
6
ByLayer
62
256
370
-1
100
AcDbLine
10
883
20
1185.7
11
-77
21
1185.7
0
LINE
5
E2
100
AcDbEntity
8
Main House
6
ByLayer
62
256
370
-1
100
AcDbLine
10
324.771533381
20
770.990669296
11
324.771533381
21
752.990669296
0
LINE
5
E3
100
AcDbEntity
8
Main House
6
ByLayer
62
256
370
-1
100
AcDbLine
10
324.771533381
20
752.990669296
11
270.771533381
21
752.990669296
0
LINE
5
E4
100
AcDbEntity
8
Main House
6
ByLayer
62
256
370
-1
100
AcDbLine
10
270.771533381
20
752.990669296
11
270.771533381
21
878.990669296
0
LINE
5
E5
100
AcDbEntity
8
Main House
6
ByLayer
62
256
370
-1
100
AcDbLine
10
270.771533381
20
878.990669296
11
6.77153338096
21
878.990669296
0
LINE
5
E6
100
AcDbEntity
8
Main House
6
ByLayer
62
256
370
-1
100
AcDbLine
10
6.77153338096
20
878.990669296
11
6.77153338096
21
458.990669296
0
DIMENSION
5
E7
100
AcDbEntity
8
Dim
6
ByLayer
62
256
370
-1
100
AcDbDimension
2
*D12
10
762.771533381
20
790
30
0
11
642.771766691
21
793.5
31
0
70
32
71
5
3
Standard
53
0
210
0
220
0
230
1
100
AcDbAlignedDimension
13
522.772
23
770.990669296
33
0
14
762.771533381
24
770.990669296
34
0
100
AcDbRotatedDimension
0
LINE
5
E8
100
AcDbEntity
8
Main House
6
ByLayer
62
256
370
-1
100
AcDbLine
10
523.003857075
20
770.990669296
11
324.771533381
21
770.990669296
0
MTEXT
5
E9
100
AcDbEntity
8
Car Port
6
ByLayer
62
256
370
-1
100
AcDbMText
10
624.263609221
20
378.614453725
30
0
40
9
41
76.7877804156
71
2
72
1
1
225 Sq, ft.
7
cursive
210
0
220
0
230
1
50
0
73
2
44
1
0
LINE
5
EA
100
AcDbEntity
8
Suite
6
ByLayer
62
256
370
-1
100
AcDbLine
10
762.771533381
20
770.990669296
11
522.771533381
21
770.990669296
0
MTEXT
5
EB
100
AcDbEntity
8
Suite
6
ByLayer
62
256
370
-1
100
AcDbMText
10
638.573633261
20
657.92225592
30
0
40
24
41
195.300984864
71
2
72
1
1
Area to be\PRemodeled
7
cursive
210
0
220
0
230
1
50
0
73
2
44
1
0
LINE
5
EC
100
AcDbEntity
8
Garage
6
ByLayer
62
256
370
-1
100
AcDbLine
10
763
20
21.7
11
489.106377294
21
21.7
0
MTEXT
5
ED
100
AcDbEntity
8
0
6
ByLayer
62
256
370
-1
100
AcDbMText
10
1106.71220865
20
932.009649567
30
0
40
36
41
243.566754833
71
1
72
1
1
Set Back
7
cursive
210
0
220
0
230
1
50
0
73
2
44
1
0
LEADER
5
EE
100
AcDbEntity
8
0
6
ByLayer
62
256
370
-1
100
AcDbLeader
3
Standard
71
1
72
0
73
3
74
0
75
0
40
1
41
10
76
2
76
2
10
771.973920142
20
917.455810936
30
0
10
1019.38917687
20
902.901972305
30
0
0
LINE
5
EF
100
AcDbEntity
8
0
6
DOT2
62
256
370
-1
100
AcDbLine
10
763
20
21.7
11
762.1924
21
1185.7
0
LINE
5
F0
100
AcDbEntity
8
Car Port
6
ByLayer
62
256
370
-1
100
AcDbLine
10
762.651445118
20
346.47270661
11
489.106377294
21
346.47270661
0
LINE
5
F1
100
AcDbEntity
8
Garage
6
ByLayer
62
256
370
-1
100
AcDbLine
10
489.106377294
20
21.7
11
489.106377294
21
346.47270661
0
LINE
5
F2
100
AcDbEntity
8
Garage
6
ByLayer
62
256
370
-1
100
AcDbLine
10
763
20
21.7
11
762.628129618
21
346.47270661
0
LINE
5
F3
100
AcDbEntity
8
Garage
6
ByLayer
62
256
370
-1
100
AcDbLine
10
489.106377294
20
346.47270661
11
762.628129618
21
346.47270661
0
MTEXT
5
F4
100
AcDbEntity
8
Main House
6
ByLayer
62
256
370
-1
100
AcDbMText
10
126.912149962
20
646.635605554
30
0
40
24
41
210.193920537
71
1
72
1
1
Main House
7
cursive
210
0
220
0
230
1
50
0
73
2
44
1
0
MTEXT
5
F5
100
AcDbEntity
8
Car Port
6
ByLayer
62
256
370
-1
100
AcDbMText
10
557.759899819
20
429.240353832
30
0
40
24
41
160.088800414
71
1
72
1
1
Car Port
7
cursive
210
0
220
0
230
1
50
0
73
2
44
1
0
MTEXT
5
F6
100
AcDbEntity
8
Garage
6
ByLayer
62
256
370
-1
100
AcDbMText
10
550.463809017
20
239.541992966
30
0
40
24
41
169.841480465
71
1
72
1
1
Proposed\PGarage
7
cursive
210
0
220
0
230
1
50
0
73
2
44
1
0
MTEXT
5
F7
100
AcDbEntity
8
Garage
6
ByLayer
62
256
370
-1
100
AcDbMText
10
625.248739742
20
141.044767132
30
0
40
9
41
75.6770852454
71
2
72
1
1
625 Sq, ft.
7
cursive
210
0
220
0
230
1
50
0
73
2
44
1
0
LINE
5
F8
100
AcDbEntity
8
Plumbing
6
ByLayer
62
256
370
-1
100
AcDbLine
10
466.558764788
20
22.4832915913
11
152.826860279
21
454.776671641
0
LINE
5
F9
100
AcDbEntity
8
Plumbing
6
ByLayer
62
256
370
-1
100
AcDbLine
10
775
20
646
11
775
21
466
0
LINE
5
FA
100
AcDbEntity
8
Plumbing
6
ByLayer
62
256
370
-1
100
AcDbLine
10
775
20
466
11
409.754409311
21
100.754409311
0
LINE
5
FB
100
AcDbEntity
8
Suite
6
CONTINUOUS
62
256
370
-1
100
AcDbLine
10
522.772
20
770.9908
11
522.772
21
481.90501565
0
LINE
5
FC
100
AcDbEntity
8
Suite
6
ByLayer
62
256
370
-1
100
AcDbLine
10
762.771533381
20
770.990669296
11
762.771533381
21
482.020598629
0
LINE
5
FD
100
AcDbEntity
8
Suite
6
ByLayer
62
256
370
-1
100
AcDbLine
10
522.772
20
481.90501565
11
762.771533381
21
482.020598629
0
LINE
5
FE
100
AcDbEntity
8
Car Port
6
ByLayer
62
256
370
-1
100
AcDbLine
10
762.771194259
20
481.637819879
11
762.651445118
21
346.47270661
0
LINE
5
FF
100
AcDbEntity
8
Car Port
6
ByLayer
62
256
370
-1
100
AcDbLine
10
489.123028808
20
481.637819879
11
762.771194259
21
481.637819879
0
LINE
5
100
100
AcDbEntity
8
Car Port
6
ByLayer
62
256
370
-1
100
AcDbLine
10
489.106377294
20
346.47270661
11
489.123028808
21
481.637819879
0
DIMENSION
5
101
100
AcDbEntity
8
Dim
6
ByLayer
62
256
370
-1
100
AcDbDimension
2
*D14
10
791.566581344
20
346.47270661
30
0
11
788.066581344
21
414.055263245
31
0
70
32
71
5
3
Standard
53
0
210
0
220
0
230
1
100
AcDbAlignedDimension
13
762.771194259
23
481.637819879
33
0
14
762.651445118
24
346.47270661
34
0
50
90
100
AcDbRotatedDimension
0
DIMENSION
5
102
100
AcDbEntity
8
Dim
6
ByLayer
62
256
370
-1
100
AcDbDimension
2
*D15
10
791.566581344
20
482.020598629
30
0
11
788.066581344
21
626.505633962
31
0
70
32
71
5
3
Standard
53
0
210
0
220
0
230
1
100
AcDbAlignedDimension
13
762.771533381
23
770.990669296
33
0
14
762.771533381
24
482.020598629
34
0
50
90
100
AcDbRotatedDimension
0
LINE
5
103
100
AcDbEntity
8
Main House
6
ByLayer
62
256
370
-1
100
AcDbLine
10
488.959628301
20
481.904139416
11
522.780434596
21
481.904323601
0
LINE
5
104
100
AcDbEntity
8
Main House
6
ByLayer
62
256
370
-1
100
AcDbLine
10
523.003857075
20
770.990669296
11
522.780434596
21
481.904323601
0
MTEXT
5
105
100
AcDbEntity
8
Main House
6
ByLayer
62
256
370
-1
100
AcDbMText
10
216.255319149
20
598.723404255
30
0
40
9
41
78.861553331
71
2
72
1
1
1307 Sq, ft.
7
cursive
210
0
220
0
230
1
50
0
73
2
44
1
0
MTEXT
5
106
100
AcDbEntity
8
Suite
6
ByLayer
62
256
370
-1
100
AcDbMText
10
640.39344032
20
561.419206183
30
0
40
9
41
73.4483384598
71
2
72
1
1
480 Sq, ft.
7
cursive
210
0
220
0
230
1
50
0
73
2
44
1
0
LINE
5
107
100
AcDbEntity
8
Main House
6
ByLayer
62
256
370
-1
100
AcDbLine
10
488.959628301
20
481.904139416
11
488.959628301
21
458.990669296
0
LINE
5
108
100
AcDbEntity
8
Main House
6
ByLayer
62
256
370
-1
100
AcDbLine
10
6.77153338096
20
458.990669296
11
488.959628301
21
458.990669296
0
ENDSEC
0
SECTION
2
OBJECTS
0
DICTIONARY
5
C
330
0
100
AcDbDictionary
281
1
3
ACAD_GROUP
350
D
0
DICTIONARY
5
D
330
C
100
AcDbDictionary
281
1
0
ENDSEC
0
EOF
