999
dxfrw 0.5.12
0
SECTION
2
HEADER
9
$ACADVER
1
AC1021
9
$HANDSEED
5
20000
9
$DWGCODEPAGE
3
ANSI_1252
9
$INSBASE
10
0
20
0
30
0
9
$EXTMIN
10
-8.32667268469e-17
20
0
30
0
9
$EXTMAX
10
11
20
8.5
30
0
9
$LIMMIN
10
0
20
0
9
$LIMMAX
10
420
20
297
9
$ORTHOMODE
70
0
9
$LTSCALE
40
1
9
$TEXTSTYLE
7
STANDARD
9
$CLAYER
8
Hints
9
$DIMASZ
40
0.4
9
$DIMLFAC
40
1
9
$DIMSCALE
40
1
9
$DIMEXO
40
0.4
9
$DIMEXE
40
0.05
9
$DIMTXT
40
0.5
9
$DIMTSZ
40
0
9
$DIMAUNIT
70
0
9
$DIMADEC
70
2
9
$DIMLUNIT
70
2
9
$DIMSTYLE
2
STANDARD
9
$DIMGAP
40
0.25
9
$DIMTIH
70
0
9
$LUNITS
70
2
9
$LUPREC
70
4
9
$AUNITS
70
0
9
$AUPREC
70
2
9
$SPLINESEGS
70
8
9
$GRIDMODE
70
1
9
$SNAPSTYLE
70
0
9
$GRIDUNIT
10
0
20
0
9
$PINSBASE
10
8.32667268469e-17
20
0
30
0
9
$PLIMMIN
10
0
20
0
9
$PLIMMAX
10
11
20
8.5
9
$INSUNITS
70
1
9
$PSVPSCALE
40
1
0
ENDSEC
0
SECTION
2
CLASSES
0
ENDSEC
0
SECTION
2
TABLES
0
TABLE
2
VPORT
5
8
330
0
100
AcDbSymbolTable
70
1
0
VPORT
5
31
330
2
100
AcDbSymbolTableRecord
100
AcDbViewportTableRecord
2
*ACTIVE
70
0
10
0
20
0
11
1
21
1
12
7.55645808641
22
5.18080430081
13
0
23
0
14
10
24
10
15
10
25
10
16
0
26
0
36
1
17
0
27
0
37
0
40
13.0728067072
41
1.98357289528
42
50
43
0
44
0
50
0
51
0
71
0
72
100
73
1
74
3
75
0
76
1
77
0
78
0
281
0
65
1
110
0
120
0
130
0
111
1
121
0
131
0
112
0
122
1
132
0
79
0
146
0
348
10020
60
7
61
5
292
1
282
1
141
0
142
0
63
250
421
3358443
0
ENDTAB
0
TABLE
2
LTYPE
5
5
330
0
100
AcDbSymbolTable
70
4
0
LTYPE
5
14
330
5
100
AcDbSymbolTableRecord
100
AcDbLinetypeTableRecord
2
ByBlock
70
0
3

72
65
73
0
40
0
0
LTYPE
5
15
330
5
100
AcDbSymbolTableRecord
100
AcDbLinetypeTableRecord
2
ByLayer
70
0
3

72
65
73
0
40
0
0
LTYPE
5
16
330
5
100
AcDbSymbolTableRecord
100
AcDbLinetypeTableRecord
2
Continuous
70
0
3
Solid line
72
65
73
0
40
0
0
LTYPE
5
32
330
5
100
AcDbSymbolTableRecord
100
AcDbLinetypeTableRecord
2
DOT
70
0
3
Dot . . . . . . . . . . . . . . . . . . . . . .
72
65
73
2
40
6.35
49
0
74
0
49
-6.35
74
0
0
LTYPE
5
33
330
5
100
AcDbSymbolTableRecord
100
AcDbLinetypeTableRecord
2
DOT2
70
0
3
Dot (.5x) .....................................
72
65
73
2
40
3.175
49
0
74
0
49
-3.175
74
0
0
LTYPE
5
34
330
5
100
AcDbSymbolTableRecord
100
AcDbLinetypeTableRecord
2
DOTX2
70
0
3
Dot (2x) .  .  .  .  .  .  .  .  .  .  .  .  .
72
65
73
2
40
12.7
49
0
74
0
49
-12.7
74
0
0
LTYPE
5
35
330
5
100
AcDbSymbolTableRecord
100
AcDbLinetypeTableRecord
2
DASHED
70
0
3
Dot . . . . . . . . . . . . . . . . . . . . . .
72
65
73
2
40
19.05
49
12.7
74
0
49
-6.35
74
0
0
LTYPE
5
36
330
5
100
AcDbSymbolTableRecord
100
AcDbLinetypeTableRecord
2
DASHED2
70
0
3
Dashed (.5x) _ _ _ _ _ _ _ _ _ _ _ _ _ _ _ _ _
72
65
73
2
40
9.525
49
6.35
74
0
49
-3.175
74
0
0
LTYPE
5
37
330
5
100
AcDbSymbolTableRecord
100
AcDbLinetypeTableRecord
2
DASHEDX2
70
0
3
Dashed (2x) ____  ____  ____  ____  ____  ___
72
65
73
2
40
38.1
49
25.4
74
0
49
-12.7
74
0
0
LTYPE
5
38
330
5
100
AcDbSymbolTableRecord
100
AcDbLinetypeTableRecord
2
DASHDOT
70
0
3
Dash dot __ . __ . __ . __ . __ . __ . __ . __
72
65
73
4
40
25.4
49
12.7
74
0
49
-6.35
74
0
49
0
74
0
49
-6.35
74
0
0
LTYPE
5
39
330
5
100
AcDbSymbolTableRecord
100
AcDbLinetypeTableRecord
2
DASHDOT2
70
0
3
Dash dot (.5x) _._._._._._._._._._._._._._._.
72
65
73
4
40
12.7
49
6.35
74
0
49
-3.175
74
0
49
0
74
0
49
-3.175
74
0
0
LTYPE
5
3A
330
5
100
AcDbSymbolTableRecord
100
AcDbLinetypeTableRecord
2
DASHDOTX2
70
0
3
Dash dot (2x) ____  .  ____  .  ____  .  ___
72
65
73
4
40
50.8
49
25.4
74
0
49
-12.7
74
0
49
0
74
0
49
-12.7
74
0
0
LTYPE
5
3B
330
5
100
AcDbSymbolTableRecord
100
AcDbLinetypeTableRecord
2
DIVIDE
70
0
3
Divide ____ . . ____ . . ____ . . ____ . . ____
72
65
73
6
40
31.75
49
12.7
74
0
49
-6.35
74
0
49
0
74
0
49
-6.35
74
0
49
0
74
0
49
-6.35
74
0
0
LTYPE
5
3C
330
5
100
AcDbSymbolTableRecord
100
AcDbLinetypeTableRecord
2
DIVIDE2
70
0
3
Divide (.5x) __..__..__..__..__..__..__..__.._
72
65
73
6
40
15.875
49
6.35
74
0
49
-3.175
74
0
49
0
74
0
49
-3.175
74
0
49
0
74
0
49
-3.175
74
0
0
LTYPE
5
3D
330
5
100
AcDbSymbolTableRecord
100
AcDbLinetypeTableRecord
2
DIVIDEX2
70
0
3
Divide (2x) ________  .  .  ________  .  .  _
72
65
73
6
40
63.5
49
25.4
74
0
49
-12.7
74
0
49
0
74
0
49
-12.7
74
0
49
0
74
0
49
-12.7
74
0
0
LTYPE
5
3E
330
5
100
AcDbSymbolTableRecord
100
AcDbLinetypeTableRecord
2
BORDER
70
0
3
Border __ __ . __ __ . __ __ . __ __ . __ __ .
72
65
73
6
40
44.45
49
12.7
74
0
49
-6.35
74
0
49
12.7
74
0
49
-6.35
74
0
49
0
74
0
49
-6.35
74
0
0
LTYPE
5
3F
330
5
100
AcDbSymbolTableRecord
100
AcDbLinetypeTableRecord
2
BORDER2
70
0
3
Border (.5x) __.__.__.__.__.__.__.__.__.__.__.
72
65
73
6
40
22.225
49
6.35
74
0
49
-3.175
74
0
49
6.35
74
0
49
-3.175
74
0
49
0
74
0
49
-3.175
74
0
0
LTYPE
5
40
330
5
100
AcDbSymbolTableRecord
100
AcDbLinetypeTableRecord
2
BORDERX2
70
0
3
Border (2x) ____  ____  .  ____  ____  .  ___
72
65
73
6
40
88.9
49
25.4
74
0
49
-12.7
74
0
49
25.4
74
0
49
-12.7
74
0
49
0
74
0
49
-12.7
74
0
0
LTYPE
5
41
330
5
100
AcDbSymbolTableRecord
100
AcDbLinetypeTableRecord
2
CENTER
70
0
3
Center ____ _ ____ _ ____ _ ____ _ ____ _ ____
72
65
73
4
40
50.8
49
31.75
74
0
49
-6.35
74
0
49
6.35
74
0
49
-6.35
74
0
0
LTYPE
5
42
330
5
100
AcDbSymbolTableRecord
100
AcDbLinetypeTableRecord
2
CENTER2
70
0
3
Center (.5x) ___ _ ___ _ ___ _ ___ _ ___ _ ___
72
65
73
4
40
28.575
49
19.05
74
0
49
-3.175
74
0
49
3.175
74
0
49
-3.175
74
0
0
LTYPE
5
43
330
5
100
AcDbSymbolTableRecord
100
AcDbLinetypeTableRecord
2
CENTERX2
70
0
3
Center (2x) ________  __  ________  __  _____
72
65
73
4
40
101.6
49
63.5
74
0
49
-12.7
74
0
49
12.7
74
0
49
-12.7
74
0
0
ENDTAB
0
TABLE
2
LAYER
5
2
330
0
100
AcDbSymbolTable
70
1
0
LAYER
5
10
330
2
100
AcDbSymbolTableRecord
100
AcDbLayerTableRecord
2
0
70
5
62
7
6
CONTINUOUS
370
0
390
F
0
LAYER
5
44
330
2
100
AcDbSymbolTableRecord
100
AcDbLayerTableRecord
2
ColorRuler
70
1
62
4
6
CONTINUOUS
370
0
390
F
0
LAYER
5
45
330
2
100
AcDbSymbolTableRecord
100
AcDbLayerTableRecord
2
Content
70
0
62
7
6
CONTINUOUS
370
18
390
F
0
LAYER
5
46
330
2
100
AcDbSymbolTableRecord
100
AcDbLayerTableRecord
2
Hints
70
4
62
1
6
CONTINUOUS
290
0
370
0
390
F
0
LAYER
5
47
330
2
100
AcDbSymbolTableRecord
100
AcDbLayerTableRecord
2
Inch boxes
70
4
62
216
420
8388736
6
CONTINUOUS
370
13
390
F
0
LAYER
5
48
330
2
100
AcDbSymbolTableRecord
100
AcDbLayerTableRecord
2
PageSize
70
5
62
4
6
CONTINUOUS
290
0
370
0
390
F
0
ENDTAB
0
TABLE
2
STYLE
5
3
330
0
100
AcDbSymbolTable
70
3
0
STYLE
5
49
330
2
100
AcDbSymbolTableRecord
100
AcDbTextStyleTableRecord
2
Standard
70
0
40
0
41
1
50
0
71
0
42
1
3
txt
4

0
ENDTAB
0
TABLE
2
VIEW
5
6
330
0
100
AcDbSymbolTable
70
0
0
ENDTAB
0
TABLE
2
UCS
5
7
330
0
100
AcDbSymbolTable
70
0
0
ENDTAB
0
TABLE
2
APPID
5
9
330
0
100
AcDbSymbolTable
70
1
0
APPID
5
12
330
9
100
AcDbSymbolTableRecord
100
AcDbRegAppTableRecord
2
ACAD
70
0
0
ENDTAB
0
TABLE
2
DIMSTYLE
5
A
330
0
100
AcDbSymbolTable
70
1
100
AcDbDimStyleTable
71
1
0
DIMSTYLE
105
4A
330
A
100
AcDbSymbolTableRecord
100
AcDbDimStyleTableRecord
2
Standard
70
0
40
1
41
0.4
42
0.4
43
0.38
44
0.05
45
0
46
0
47
0
48
0
140
0.5
141
0.09
142
0
143
25.4
144
1
145
0
146
1
147
0.25
148
0
71
0
72
0
73
0
74
1
75
0
76
0
77
0
78
0
79
0
170
0
171
2
172
0
173
0
174
0
175
0
176
0
177
0
178
0
179
0
271
4
272
4
273
2
274
2
275
0
276
0
277
2
278
46
279
0
280
0
281
0
282
0
283
1
284
0
285
0
286
0
288
0
289
3
340
Standard
341

371
-2
372
-2
0
ENDTAB
0
TABLE
2
BLOCK_RECORD
5
1
330
0
100
AcDbSymbolTable
70
2
0
BLOCK_RECORD
5
1F
330
1
100
AcDbSymbolTableRecord
100
AcDbBlockTableRecord
2
*Model_Space
70
0
280
1
281
0
0
BLOCK_RECORD
5
1E
330
1
100
AcDbSymbolTableRecord
100
AcDbBlockTableRecord
2
*Paper_Space
70
0
280
1
281
0
0
BLOCK_RECORD
5
4B
330
1
100
AcDbSymbolTableRecord
100
AcDbBlockTableRecord
2
*D4
70
0
280
1
281
0
0
BLOCK_RECORD
5
4E
330
1
100
AcDbSymbolTableRecord
100
AcDbBlockTableRecord
2
*D1
70
0
280
1
281
0
0
BLOCK_RECORD
5
51
330
1
100
AcDbSymbolTableRecord
100
AcDbBlockTableRecord
2
*D3
70
0
280
1
281
0
0
BLOCK_RECORD
5
54
330
1
100
AcDbSymbolTableRecord
100
AcDbBlockTableRecord
2
*D5
70
0
280
1
281
0
0
BLOCK_RECORD
5
57
330
1
100
AcDbSymbolTableRecord
100
AcDbBlockTableRecord
2
*D2
70
0
280
1
281
0
0
BLOCK_RECORD
5
5A
330
1
100
AcDbSymbolTableRecord
100
AcDbBlockTableRecord
2
*D6
70
0
280
1
281
0
0
BLOCK_RECORD
5
5D
330
1
100
AcDbSymbolTableRecord
100
AcDbBlockTableRecord
2
*D7
70
0
280
1
281
0
0
BLOCK_RECORD
5
60
330
1
100
AcDbSymbolTableRecord
100
AcDbBlockTableRecord
2
Color Ruler Vt 8.5
70
0
280
1
281
0
0
BLOCK_RECORD
5
63
330
1
100
AcDbSymbolTableRecord
100
AcDbBlockTableRecord
2
Color Inch Vt
70
0
280
1
281
0
0
BLOCK_RECORD
5
66
330
1
100
AcDbSymbolTableRecord
100
AcDbBlockTableRecord
2
Color Ruler Hz 11
70
0
280
1
281
0
0
BLOCK_RECORD
5
69
330
1
100
AcDbSymbolTableRecord
100
AcDbBlockTableRecord
2
Color Inch Hz
70
0
280
1
281
0
0
BLOCK_RECORD
5
6C
330
1
100
AcDbSymbolTableRecord
100
AcDbBlockTableRecord
2
Color Ruler Hz 8.5
70
0
280
1
281
0
0
BLOCK_RECORD
5
6F
330
1
100
AcDbSymbolTableRecord
100
AcDbBlockTableRecord
2
Color Ruler Vt 11
70
0
280
1
281
0
0
ENDTAB
0
ENDSEC
0
SECTION
2
BLOCKS
0
BLOCK
5
20
330
1F
100
AcDbEntity
8
0
100
AcDbBlockBegin
2
*Model_Space
70
0
10
0
20
0
30
0
3
*Model_Space
1

0
ENDBLK
5
21
330
1F
100
AcDbEntity
8
0
100
AcDbBlockEnd
0
BLOCK
5
1C
330
1B
100
AcDbEntity
8
0
100
AcDbBlockBegin
2
*Paper_Space
70
0
10
0
20
0
30
0
3
*Paper_Space
1

0
ENDBLK
5
1D
330
1F
100
AcDbEntity
8
0
100
AcDbBlockEnd
0
BLOCK
5
4C
330
4B
100
AcDbEntity
8
0
100
AcDbBlockBegin
2
*D4
70
1
10
0
20
0
3
*D4
1

0
LINE
5
72
100
AcDbEntity
8
Content
6
CONTINUOUS
62
7
370
0
100
AcDbLine
10
9
20
5
11
9
21
2
0
SOLID
5
73
100
AcDbEntity
8
Content
6
CONTINUOUS
62
7
370
0
100
AcDbTrace
10
9
20
5
30
0
11
9.06660554524
21
4.6
31
0
12
8.93339445476
22
4.6
32
0
13
8.93339445476
23
4.6
33
0
0
SOLID
5
74
100
AcDbEntity
8
Content
6
CONTINUOUS
62
7
370
0
100
AcDbTrace
10
9
20
2
30
0
11
8.93339445476
21
2.4
31
0
12
9.06660554524
22
2.4
32
0
13
9.06660554524
23
2.4
33
0
0
MTEXT
5
75
100
AcDbEntity
8
Content
6
CONTINUOUS
62
7
370
0
100
AcDbMText
10
8.5
20
3.5
30
0
40
0.5
41
0.222222222222
71
5
72
1
1
3
7
standard
210
0
220
0
230
1
50
90
73
2
44
1
0
LINE
5
76
100
AcDbEntity
8
Content
6
CONTINUOUS
62
7
370
0
100
AcDbLine
10
8.4
20
5
11
9.05
21
5
0
LINE
5
77
100
AcDbEntity
8
Content
6
CONTINUOUS
62
7
370
0
100
AcDbLine
10
8.4
20
2
11
9.05
21
2
0
ENDBLK
5
4D
330
4B
100
AcDbEntity
8
0
100
AcDbBlockEnd
0
BLOCK
5
4F
330
4E
100
AcDbEntity
8
0
100
AcDbBlockBegin
2
*D1
70
1
10
0
20
0
3
*D1
1

0
LINE
5
78
100
AcDbEntity
8
PageSize
6
CONTINUOUS
62
7
370
0
100
AcDbLine
10
-1
20
8.5
11
-1
21
6.10622663544e-17
0
SOLID
5
79
100
AcDbEntity
8
PageSize
6
CONTINUOUS
62
7
370
0
100
AcDbTrace
10
-1
20
8.5
30
0
11
-0.933394454756
21
8.1
31
0
12
-1.06660554524
22
8.1
32
0
13
-1.06660554524
23
8.1
33
0
0
SOLID
5
7A
100
AcDbEntity
8
PageSize
6
CONTINUOUS
62
7
370
0
100
AcDbTrace
10
-1
20
6.10622663544e-17
30
0
11
-1.06660554524
21
0.4
31
0
12
-0.933394454756
22
0.4
32
0
13
-0.933394454756
23
0.4
33
0
0
MTEXT
5
7B
100
AcDbEntity
8
PageSize
6
CONTINUOUS
62
7
370
0
100
AcDbMText
10
-1.5
20
4.25
30
0
40
0.5
41
0.777777777778
71
5
72
1
1
8.5
7
standard
210
0
220
0
230
1
50
90
73
2
44
1
0
LINE
5
7C
100
AcDbEntity
8
PageSize
6
CONTINUOUS
62
7
370
0
100
AcDbLine
10
-0.4
20
8.5
11
-1.05
21
8.5
0
LINE
5
7D
100
AcDbEntity
8
PageSize
6
CONTINUOUS
62
7
370
0
100
AcDbLine
10
-0.4
20
4.89858719659e-17
11
-1.05
21
6.71855003501e-17
0
ENDBLK
5
50
330
4E
100
AcDbEntity
8
0
100
AcDbBlockEnd
0
BLOCK
5
52
330
51
100
AcDbEntity
8
0
100
AcDbBlockBegin
2
*D3
70
1
10
0
20
0
3
*D3
1

0
LINE
5
7E
100
AcDbEntity
8
Content
6
CONTINUOUS
62
7
370
0
100
AcDbLine
10
6
20
1
11
8
21
1
0
SOLID
5
7F
100
AcDbEntity
8
Content
6
CONTINUOUS
62
7
370
0
100
AcDbTrace
10
6
20
1
30
0
11
6.4
21
1.06660554524
31
0
12
6.4
22
0.933394454756
32
0
13
6.4
23
0.933394454756
33
0
0
SOLID
5
80
100
AcDbEntity
8
Content
6
CONTINUOUS
62
7
370
0
100
AcDbTrace
10
8
20
1
30
0
11
7.6
21
0.933394454756
31
0
12
7.6
22
1.06660554524
32
0
13
7.6
23
1.06660554524
33
0
0
MTEXT
5
81
100
AcDbEntity
8
Content
6
CONTINUOUS
62
7
370
0
100
AcDbMText
10
7
20
1.5
30
0
40
0.5
41
0.222222222222
71
5
72
1
1
2
7
standard
210
0
220
0
230
1
50
0
73
2
44
1
0
LINE
5
82
100
AcDbEntity
8
Content
6
CONTINUOUS
62
7
370
0
100
AcDbLine
10
6
20
1.6
11
6
21
0.95
0
LINE
5
83
100
AcDbEntity
8
Content
6
CONTINUOUS
62
7
370
0
100
AcDbLine
10
8
20
1.6
11
8
21
0.95
0
ENDBLK
5
53
330
51
100
AcDbEntity
8
0
100
AcDbBlockEnd
0
BLOCK
5
55
330
54
100
AcDbEntity
8
0
100
AcDbBlockBegin
2
*D5
70
1
10
0
20
0
3
*D5
1

0
LINE
5
84
100
AcDbEntity
8
Content
6
CONTINUOUS
62
7
370
0
100
AcDbLine
10
2.60776772972
20
7.07844645406
11
1.98943250468
21
7.20211349906
0
LINE
5
85
100
AcDbEntity
8
Content
6
CONTINUOUS
62
7
370
0
100
AcDbLine
10
1.60776772972
20
2.07844645406
11
0.989432504675
21
2.20211349906
0
LINE
5
86
100
AcDbEntity
8
Content
6
CONTINUOUS
62
7
370
0
100
AcDbLine
10
2.03846153846
20
7.19230769231
11
1.03846153846
21
2.19230769231
0
SOLID
5
87
100
AcDbEntity
8
Content
6
CONTINUOUS
62
7
370
0
100
AcDbTrace
10
2.03846153846
20
7.19230769231
30
0
11
2.02532719496
21
6.78701299992
31
0
12
1.89470297384
22
6.81313784414
32
0
13
1.89470297384
23
6.81313784414
33
0
0
SOLID
5
88
100
AcDbEntity
8
Content
6
CONTINUOUS
62
7
370
0
100
AcDbTrace
10
1.03846153846
20
2.19230769231
30
0
11
1.05159588196
21
2.5976023847
31
0
12
1.18222010307
22
2.57147754047
32
0
13
1.18222010307
23
2.57147754047
33
0
0
MTEXT
5
89
100
AcDbEntity
8
Content
6
CONTINUOUS
62
7
370
0
100
AcDbMText
10
1.04817120062
20
4.79036575988
30
0
40
0.5
41
1.55555555556
71
5
72
1
1
5.099
7
standard
210
0
220
0
230
1
50
78.690067526
73
2
44
1
0
ENDBLK
5
56
330
54
100
AcDbEntity
8
0
100
AcDbBlockEnd
0
BLOCK
5
58
330
57
100
AcDbEntity
8
0
100
AcDbBlockBegin
2
*D2
70
1
10
0
20
0
3
*D2
1

0
LINE
5
8A
100
AcDbEntity
8
PageSize
6
CONTINUOUS
62
7
370
0
100
AcDbLine
10
0
20
-1
11
11
21
-1
0
SOLID
5
8B
100
AcDbEntity
8
PageSize
6
CONTINUOUS
62
7
370
0
100
AcDbTrace
10
0
20
-1
30
0
11
0.4
21
-0.933394454756
31
0
12
0.4
22
-1.06660554524
32
0
13
0.4
23
-1.06660554524
33
0
0
SOLID
5
8C
100
AcDbEntity
8
PageSize
6
CONTINUOUS
62
7
370
0
100
AcDbTrace
10
11
20
-1
30
0
11
10.6
21
-1.06660554524
31
0
12
10.6
22
-0.933394454756
32
0
13
10.6
23
-0.933394454756
33
0
0
MTEXT
5
8D
100
AcDbEntity
8
PageSize
6
CONTINUOUS
62
7
370
0
100
AcDbMText
10
5.5
20
-1.5
30
0
40
0.5
41
0.388888888889
71
5
72
1
1
11
7
standard
210
0
220
0
230
1
50
0
73
2
44
1
0
LINE
5
8E
100
AcDbEntity
8
PageSize
6
CONTINUOUS
62
7
370
0
100
AcDbLine
10
-7.34788079488e-17
20
-0.4
11
-9.18485099361e-18
21
-1.05
0
LINE
5
8F
100
AcDbEntity
8
PageSize
6
CONTINUOUS
62
7
370
0
100
AcDbLine
10
11
20
-0.4
11
11
21
-1.05
0
ENDBLK
5
59
330
57
100
AcDbEntity
8
0
100
AcDbBlockEnd
0
BLOCK
5
5B
330
5A
100
AcDbEntity
8
0
100
AcDbBlockBegin
2
*D6
70
1
10
0
20
0
3
*D6
1

0
LINE
5
90
100
AcDbEntity
8
Content
6
CONTINUOUS
62
7
370
0
100
AcDbLine
10
3.33282011774
20
7.22188007849
11
3.73391020703
21
7.48927347135
0
LINE
5
91
100
AcDbEntity
8
Content
6
CONTINUOUS
62
7
370
0
100
AcDbLine
10
5.33282011774
20
4.22188007849
11
5.73391020703
21
4.48927347135
0
LINE
5
92
100
AcDbEntity
8
Content
6
CONTINUOUS
62
7
370
0
100
AcDbLine
10
3.69230769231
20
7.46153846154
11
5.69230769231
21
4.46153846154
0
SOLID
5
93
100
AcDbEntity
8
Content
6
CONTINUOUS
62
7
370
0
100
AcDbTrace
10
3.69230769231
20
7.46153846154
30
0
11
3.96960693432
21
7.16566445282
31
0
12
3.85876860728
22
7.09177223479
32
0
13
3.85876860728
23
7.09177223479
33
0
0
SOLID
5
94
100
AcDbEntity
8
Content
6
CONTINUOUS
62
7
370
0
100
AcDbTrace
10
5.69230769231
20
4.46153846154
30
0
11
5.4150084503
21
4.75741247026
31
0
12
5.52584677734
22
4.83130468829
32
0
13
5.52584677734
23
4.83130468829
33
0
0
MTEXT
5
95
100
AcDbEntity
8
Content
6
CONTINUOUS
62
7
370
0
100
AcDbMText
10
5.10833283948
20
6.23888855965
30
0
40
0.5
41
1.94444444444
71
5
72
1
1
3.6056
7
standard
210
0
220
0
230
1
50
303.690067526
73
2
44
1
0
ENDBLK
5
5C
330
5A
100
AcDbEntity
8
0
100
AcDbBlockEnd
0
BLOCK
5
5E
330
5D
100
AcDbEntity
8
0
100
AcDbBlockBegin
2
*D7
70
1
10
0
20
0
3
*D7
1

0
LINE
5
96
100
AcDbEntity
8
Content
6
CONTINUOUS
62
7
370
0
100
AcDbLine
10
2.22188007849
20
1.66717988226
11
2.79696577904
21
0.804551331435
0
LINE
5
97
100
AcDbEntity
8
Content
6
CONTINUOUS
62
7
370
0
100
AcDbLine
10
5.22188007849
20
3.66717988226
11
5.79696577904
21
2.80455133143
0
LINE
5
98
100
AcDbEntity
8
Content
6
CONTINUOUS
62
7
370
0
100
AcDbLine
10
2.76923076923
20
0.846153846152
11
5.76923076923
21
2.84615384615
0
SOLID
5
99
100
AcDbEntity
8
Content
6
CONTINUOUS
62
7
370
0
100
AcDbTrace
10
2.76923076923
20
0.846153846152
30
0
11
3.06510477795
21
1.12345308817
31
0
12
3.13899699598
22
1.01261476112
32
0
13
3.13899699598
23
1.01261476112
33
0
0
SOLID
5
9A
100
AcDbEntity
8
Content
6
CONTINUOUS
62
7
370
0
100
AcDbTrace
10
5.76923076923
20
2.84615384615
30
0
11
5.47335676051
21
2.56885460414
31
0
12
5.39946454248
22
2.67969293119
32
0
13
5.39946454248
23
2.67969293119
33
0
0
MTEXT
5
9B
100
AcDbEntity
8
Content
6
CONTINUOUS
62
7
370
0
100
AcDbMText
10
3.99188067112
20
2.26217899332
30
0
40
0.5
41
1.94444444444
71
5
72
1
1
3.6056
7
standard
210
0
220
0
230
1
50
33.690067526
73
2
44
1
0
ENDBLK
5
5F
330
5D
100
AcDbEntity
8
0
100
AcDbBlockEnd
0
BLOCK
5
61
330
60
100
AcDbEntity
8
0
100
AcDbBlockBegin
2
Color Ruler Vt 8.5
70
0
10
0
20
0
3
Color Ruler Vt 8.5
1

0
INSERT
5
9C
100
AcDbEntity
8
ColorRuler
6
ByLayer
62
256
370
-1
100
AcDbBlockReference
2
Color Inch Vt
10
0
20
-8.32667268469e-17
30
0
41
1
42
1
43
0
50
0
70
1
71
1
44
0
45
0
0
INSERT
5
9D
100
AcDbEntity
8
ColorRuler
6
ByLayer
62
256
370
-1
100
AcDbBlockReference
2
Color Inch Vt
10
0
20
1
30
0
41
1
42
1
43
0
50
0
70
1
71
7
44
1
45
1
0
LINE
5
9E
100
AcDbEntity
8
ColorRuler
6
ByLayer
62
48
420
4210688
370
-1
100
AcDbLine
10
-2.22044604925e-16
20
8.0625
11
0.2
21
8.0625
0
LINE
5
9F
100
AcDbEntity
8
ColorRuler
6
ByLayer
62
48
420
4210688
370
-1
100
AcDbLine
10
-2.22044604925e-16
20
8.1875
11
0.2
21
8.1875
0
LINE
5
A0
100
AcDbEntity
8
ColorRuler
6
ByLayer
62
48
420
4210688
370
-1
100
AcDbLine
10
-2.22044604925e-16
20
8.3125
11
0.2
21
8.3125
0
LINE
5
A1
100
AcDbEntity
8
ColorRuler
6
ByLayer
62
48
420
4210688
370
-1
100
AcDbLine
10
-2.22044604925e-16
20
8.4375
11
0.2
21
8.4375
0
LINE
5
A2
100
AcDbEntity
8
ColorRuler
6
ByLayer
62
56
420
8421376
370
-1
100
AcDbLine
10
-2.22044604925e-16
20
8.125
11
0.3
21
8.125
0
LINE
5
A3
100
AcDbEntity
8
ColorRuler
6
ByLayer
62
56
420
8421376
370
-1
100
AcDbLine
10
-2.22044604925e-16
20
8.375
11
0.3
21
8.375
0
LINE
5
A4
100
AcDbEntity
8
ColorRuler
6
ByLayer
62
52
420
12632064
370
-1
100
AcDbLine
10
0
20
8.25
11
0.5
21
8.25
0
LINE
5
A5
100
AcDbEntity
8
ColorRuler
6
ByLayer
62
52
420
12632064
370
-1
100
AcDbLine
10
0
20
8.5
11
0.5
21
8.5
0
LINE
5
A6
100
AcDbEntity
8
ColorRuler
6
ByLayer
62
256
370
-1
100
AcDbLine
10
0
20
8
11
0.7
21
8
0
LINE
5
A7
100
AcDbEntity
8
ColorRuler
6
ByLayer
62
256
370
-1
100
AcDbLine
10
0
20
0
11
-0.5
21
0
0
LINE
5
A8
100
AcDbEntity
8
ColorRuler
6
ByLayer
62
256
370
-1
100
AcDbLine
10
0
20
8.5
11
-0.5
21
8.5
0
LINE
5
A9
100
AcDbEntity
8
ColorRuler
6
ByLayer
62
256
370
-1
100
AcDbLine
10
0
20
8
11
0
21
8.5
0
LINE
5
AA
100
AcDbEntity
8
ColorRuler
6
ByLayer
62
256
370
-1
100
AcDbLine
10
2.55351295664e-15
20
8.5
11
-0.5
21
8.5
0
LINE
5
AB
100
AcDbEntity
8
ColorRuler
6
ByLayer
62
52
420
12632064
370
-1
100
AcDbLine
10
1.33226762955e-15
20
4.25
11
-0.5
21
4.25
0
ENDBLK
5
62
330
60
100
AcDbEntity
8
0
100
AcDbBlockEnd
0
BLOCK
5
64
330
63
100
AcDbEntity
8
0
100
AcDbBlockBegin
2
Color Inch Vt
70
0
10
0
20
0
3
Color Inch Vt
1

0
LINE
5
AC
100
AcDbEntity
8
ColorRuler
6
ByLayer
62
48
420
4210688
370
-1
100
AcDbLine
10
-2.22044604925e-16
20
0.0625
11
0.2
21
0.0625
0
LINE
5
AD
100
AcDbEntity
8
ColorRuler
6
ByLayer
62
48
420
4210688
370
-1
100
AcDbLine
10
-2.22044604925e-16
20
0.1875
11
0.2
21
0.1875
0
LINE
5
AE
100
AcDbEntity
8
ColorRuler
6
ByLayer
62
48
420
4210688
370
-1
100
AcDbLine
10
-2.22044604925e-16
20
0.3125
11
0.2
21
0.3125
0
LINE
5
AF
100
AcDbEntity
8
ColorRuler
6
ByLayer
62
48
420
4210688
370
-1
100
AcDbLine
10
-2.22044604925e-16
20
0.4375
11
0.2
21
0.4375
0
LINE
5
B0
100
AcDbEntity
8
ColorRuler
6
ByLayer
62
48
420
4210688
370
-1
100
AcDbLine
10
-2.22044604925e-16
20
0.5625
11
0.2
21
0.5625
0
LINE
5
B1
100
AcDbEntity
8
ColorRuler
6
ByLayer
62
48
420
4210688
370
-1
100
AcDbLine
10
-2.22044604925e-16
20
0.6875
11
0.2
21
0.6875
0
LINE
5
B2
100
AcDbEntity
8
ColorRuler
6
ByLayer
62
48
420
4210688
370
-1
100
AcDbLine
10
-2.22044604925e-16
20
0.8125
11
0.2
21
0.8125
0
LINE
5
B3
100
AcDbEntity
8
ColorRuler
6
ByLayer
62
48
420
4210688
370
-1
100
AcDbLine
10
-1.11022302463e-15
20
0.9375
11
0.2
21
0.9375
0
LINE
5
B4
100
AcDbEntity
8
ColorRuler
6
ByLayer
62
56
420
8421376
370
-1
100
AcDbLine
10
-2.22044604925e-16
20
0.125
11
0.3
21
0.125
0
LINE
5
B5
100
AcDbEntity
8
ColorRuler
6
ByLayer
62
56
420
8421376
370
-1
100
AcDbLine
10
-2.22044604925e-16
20
0.375
11
0.3
21
0.375
0
LINE
5
B6
100
AcDbEntity
8
ColorRuler
6
ByLayer
62
56
420
8421376
370
-1
100
AcDbLine
10
-2.22044604925e-16
20
0.625
11
0.3
21
0.625
0
LINE
5
B7
100
AcDbEntity
8
ColorRuler
6
ByLayer
62
56
420
8421376
370
-1
100
AcDbLine
10
-2.22044604925e-16
20
0.875
11
0.3
21
0.875
0
LINE
5
B8
100
AcDbEntity
8
ColorRuler
6
ByLayer
62
52
420
12632064
370
-1
100
AcDbLine
10
0
20
0.25
11
0.5
21
0.25
0
LINE
5
B9
100
AcDbEntity
8
ColorRuler
6
ByLayer
62
52
420
12632064
370
-1
100
AcDbLine
10
0
20
0.5
11
0.5
21
0.5
0
LINE
5
BA
100
AcDbEntity
8
ColorRuler
6
ByLayer
62
52
420
12632064
370
-1
100
AcDbLine
10
0
20
0.75
11
0.5
21
0.75
0
LINE
5
BB
100
AcDbEntity
8
ColorRuler
6
ByLayer
62
52
420
12632064
370
-1
100
AcDbLine
10
0
20
1
11
0.5
21
1
0
LINE
5
BC
100
AcDbEntity
8
ColorRuler
6
ByLayer
62
256
370
-1
100
AcDbLine
10
0
20
8.881784197e-16
11
0.7
21
8.881784197e-16
0
LINE
5
BD
100
AcDbEntity
8
ColorRuler
6
ByLayer
62
256
370
-1
100
AcDbLine
10
0
20
8.881784197e-16
11
0
21
1
0
ENDBLK
5
65
330
63
100
AcDbEntity
8
0
100
AcDbBlockEnd
0
BLOCK
5
67
330
66
100
AcDbEntity
8
0
100
AcDbBlockBegin
2
Color Ruler Hz 11
70
0
10
0
20
0
3
Color Ruler Hz 11
1

0
INSERT
5
BE
100
AcDbEntity
8
ColorRuler
6
ByLayer
62
256
370
-1
100
AcDbBlockReference
2
Color Inch Hz
10
2.49800180541e-16
20
-4.4408920985e-16
30
0
41
1
42
1
43
0
50
0
70
1
71
1
44
0
45
0
0
INSERT
5
BF
100
AcDbEntity
8
ColorRuler
6
ByLayer
62
256
370
-1
100
AcDbBlockReference
2
Color Inch Hz
10
1
20
4.4408920985e-16
30
0
41
1
42
1
43
0
50
0
70
10
71
1
44
1
45
1
0
LINE
5
C0
100
AcDbEntity
8
ColorRuler
6
ByLayer
62
256
370
-1
100
AcDbLine
10
2.49800180541e-16
20
4.4408920985e-16
11
-5.55111512313e-17
21
-0.5
0
LINE
5
C1
100
AcDbEntity
8
ColorRuler
6
ByLayer
62
256
370
-1
100
AcDbLine
10
11
20
1.33226762955e-15
11
11
21
-0.5
0
LINE
5
C2
100
AcDbEntity
8
ColorRuler
6
ByLayer
62
256
370
-1
100
AcDbLine
10
11
20
-1.1990408666e-14
11
11
21
-0.5
0
LINE
5
C3
100
AcDbEntity
8
ColorRuler
6
ByLayer
62
52
420
12632064
370
-1
100
AcDbLine
10
5.5
20
-5.77315972805e-15
11
5.5
21
-0.5
0
LINE
5
C4
100
AcDbEntity
8
ColorRuler
6
ByLayer
62
256
370
-1
100
AcDbLine
10
11
20
1.33226762955e-15
11
11
21
0.7
0
ENDBLK
5
68
330
66
100
AcDbEntity
8
0
100
AcDbBlockEnd
0
BLOCK
5
6A
330
69
100
AcDbEntity
8
0
100
AcDbBlockBegin
2
Color Inch Hz
70
0
10
0
20
0
3
Color Inch Hz
1

0
LINE
5
C5
100
AcDbEntity
8
ColorRuler
6
ByLayer
62
48
420
4210688
370
-1
100
AcDbLine
10
0.0625
20
4.4408920985e-16
11
0.0625
21
0.2
0
LINE
5
C6
100
AcDbEntity
8
ColorRuler
6
ByLayer
62
48
420
4210688
370
-1
100
AcDbLine
10
0.1875
20
4.4408920985e-16
11
0.1875
21
0.2
0
LINE
5
C7
100
AcDbEntity
8
ColorRuler
6
ByLayer
62
48
420
4210688
370
-1
100
AcDbLine
10
0.3125
20
4.4408920985e-16
11
0.3125
21
0.2
0
LINE
5
C8
100
AcDbEntity
8
ColorRuler
6
ByLayer
62
48
420
4210688
370
-1
100
AcDbLine
10
0.4375
20
4.4408920985e-16
11
0.4375
21
0.2
0
LINE
5
C9
100
AcDbEntity
8
ColorRuler
6
ByLayer
62
48
420
4210688
370
-1
100
AcDbLine
10
0.5625
20
4.4408920985e-16
11
0.5625
21
0.2
0
LINE
5
CA
100
AcDbEntity
8
ColorRuler
6
ByLayer
62
48
420
4210688
370
-1
100
AcDbLine
10
0.6875
20
4.4408920985e-16
11
0.6875
21
0.2
0
LINE
5
CB
100
AcDbEntity
8
ColorRuler
6
ByLayer
62
48
420
4210688
370
-1
100
AcDbLine
10
0.8125
20
4.4408920985e-16
11
0.8125
21
0.2
0
LINE
5
CC
100
AcDbEntity
8
ColorRuler
6
ByLayer
62
48
420
4210688
370
-1
100
AcDbLine
10
0.9375
20
0
11
0.9375
21
0.2
0
LINE
5
CD
100
AcDbEntity
8
ColorRuler
6
ByLayer
62
56
420
8421376
370
-1
100
AcDbLine
10
0.125
20
4.4408920985e-16
11
0.125
21
0.3
0
LINE
5
CE
100
AcDbEntity
8
ColorRuler
6
ByLayer
62
56
420
8421376
370
-1
100
AcDbLine
10
0.375
20
4.4408920985e-16
11
0.375
21
0.3
0
LINE
5
CF
100
AcDbEntity
8
ColorRuler
6
ByLayer
62
56
420
8421376
370
-1
100
AcDbLine
10
0.625
20
4.4408920985e-16
11
0.625
21
0.3
0
LINE
5
D0
100
AcDbEntity
8
ColorRuler
6
ByLayer
62
56
420
8421376
370
-1
100
AcDbLine
10
0.875
20
4.4408920985e-16
11
0.875
21
0.3
0
LINE
5
D1
100
AcDbEntity
8
ColorRuler
6
ByLayer
62
52
420
12632064
370
-1
100
AcDbLine
10
0.25
20
8.881784197e-16
11
0.25
21
0.5
0
LINE
5
D2
100
AcDbEntity
8
ColorRuler
6
ByLayer
62
52
420
12632064
370
-1
100
AcDbLine
10
0.5
20
8.881784197e-16
11
0.5
21
0.5
0
LINE
5
D3
100
AcDbEntity
8
ColorRuler
6
ByLayer
62
52
420
12632064
370
-1
100
AcDbLine
10
0.75
20
8.881784197e-16
11
0.75
21
0.5
0
LINE
5
D4
100
AcDbEntity
8
ColorRuler
6
ByLayer
62
52
420
12632064
370
-1
100
AcDbLine
10
1
20
8.881784197e-16
11
1
21
0.5
0
LINE
5
D5
100
AcDbEntity
8
ColorRuler
6
ByLayer
62
256
370
-1
100
AcDbLine
10
0
20
8.881784197e-16
11
0
21
0.7
0
LINE
5
D6
100
AcDbEntity
8
ColorRuler
6
ByLayer
62
256
370
-1
100
AcDbLine
10
0
20
8.881784197e-16
11
1
21
8.881784197e-16
0
ENDBLK
5
6B
330
69
100
AcDbEntity
8
0
100
AcDbBlockEnd
0
BLOCK
5
6D
330
6C
100
AcDbEntity
8
0
100
AcDbBlockBegin
2
Color Ruler Hz 8.5
70
0
10
0
20
0
3
Color Ruler Hz 8.5
1

0
INSERT
5
D7
100
AcDbEntity
8
ColorRuler
6
ByLayer
62
256
370
-1
100
AcDbBlockReference
2
Color Inch Hz
10
0
20
-8.881784197e-16
30
0
41
1
42
1
43
0
50
0
70
8
71
1
44
1
45
1
0
LINE
5
D8
100
AcDbEntity
8
ColorRuler
6
ByLayer
62
48
420
4210688
370
-1
100
AcDbLine
10
8.0625
20
0
11
8.0625
21
0.2
0
LINE
5
D9
100
AcDbEntity
8
ColorRuler
6
ByLayer
62
48
420
4210688
370
-1
100
AcDbLine
10
8.1875
20
0
11
8.1875
21
0.2
0
LINE
5
DA
100
AcDbEntity
8
ColorRuler
6
ByLayer
62
48
420
4210688
370
-1
100
AcDbLine
10
8.3125
20
0
11
8.3125
21
0.2
0
LINE
5
DB
100
AcDbEntity
8
ColorRuler
6
ByLayer
62
48
420
4210688
370
-1
100
AcDbLine
10
8.4375
20
0
11
8.4375
21
0.2
0
LINE
5
DC
100
AcDbEntity
8
ColorRuler
6
ByLayer
62
56
420
8421376
370
-1
100
AcDbLine
10
8.125
20
0
11
8.125
21
0.3
0
LINE
5
DD
100
AcDbEntity
8
ColorRuler
6
ByLayer
62
56
420
8421376
370
-1
100
AcDbLine
10
8.375
20
0
11
8.375
21
0.3
0
LINE
5
DE
100
AcDbEntity
8
ColorRuler
6
ByLayer
62
52
420
12632064
370
-1
100
AcDbLine
10
8.25
20
0
11
8.25
21
0.5
0
LINE
5
DF
100
AcDbEntity
8
ColorRuler
6
ByLayer
62
52
420
12632064
370
-1
100
AcDbLine
10
8.5
20
0
11
8.5
21
0.5
0
LINE
5
E0
100
AcDbEntity
8
ColorRuler
6
ByLayer
62
256
370
-1
100
AcDbLine
10
8
20
0
11
8
21
0.7
0
LINE
5
E1
100
AcDbEntity
8
ColorRuler
6
ByLayer
62
256
370
-1
100
AcDbLine
10
8
20
0
11
8.5
21
0
0
LINE
5
E2
100
AcDbEntity
8
ColorRuler
6
ByLayer
62
256
370
-1
100
AcDbLine
10
8.5
20
0
11
8.5
21
-0.5
0
LINE
5
E3
100
AcDbEntity
8
ColorRuler
6
ByLayer
62
256
370
-1
100
AcDbLine
10
0
20
0
11
-2.77555756156e-17
21
-0.5
0
LINE
5
E4
100
AcDbEntity
8
ColorRuler
6
ByLayer
62
52
420
12632064
370
-1
100
AcDbLine
10
4.25
20
-8.881784197e-16
11
4.25
21
-0.5
0
ENDBLK
5
6E
330
6C
100
AcDbEntity
8
0
100
AcDbBlockEnd
0
BLOCK
5
70
330
6F
100
AcDbEntity
8
0
100
AcDbBlockBegin
2
Color Ruler Vt 11
70
0
10
0
20
0
3
Color Ruler Vt 11
1

0
INSERT
5
E5
100
AcDbEntity
8
ColorRuler
6
ByLayer
62
256
370
-1
100
AcDbBlockReference
2
Color Inch Vt
10
0
20
0
30
0
41
1
42
1
43
0
50
0
70
1
71
11
44
1
45
1
0
LINE
5
E6
100
AcDbEntity
8
ColorRuler
6
ByLayer
62
256
370
-1
100
AcDbLine
10
0
20
11
11
0.7
21
11
0
LINE
5
E7
100
AcDbEntity
8
ColorRuler
6
ByLayer
62
256
370
-1
100
AcDbLine
10
8.881784197e-16
20
11
11
-0.5
21
11
0
LINE
5
E8
100
AcDbEntity
8
ColorRuler
6
ByLayer
62
256
370
-1
100
AcDbLine
10
0
20
8.881784197e-16
11
-0.5
21
-2.77555756156e-17
0
LINE
5
E9
100
AcDbEntity
8
ColorRuler
6
ByLayer
62
52
420
12632064
370
-1
100
AcDbLine
10
-7.9936057773e-15
20
5.5
11
-0.5
21
5.5
0
ENDBLK
5
71
330
6F
100
AcDbEntity
8
0
100
AcDbBlockEnd
0
ENDSEC
0
SECTION
2
ENTITIES
0
INSERT
5
EA
100
AcDbEntity
8
ColorRuler
6
ByLayer
62
256
370
-1
100
AcDbBlockReference
2
Color Ruler Vt 8.5
10
-1
20
-1.94289029309e-16
30
0
41
1
42
1
43
0
50
0
70
1
71
1
44
0
45
0
0
INSERT
5
EB
100
AcDbEntity
8
ColorRuler
6
ByLayer
62
256
370
-1
100
AcDbBlockReference
2
Color Ruler Hz 11
10
0
20
-1
30
0
41
1
42
1
43
0
50
0
70
1
71
1
44
0
45
0
0
LINE
5
EC
100
AcDbEntity
8
Inch boxes
6
ByLayer
62
256
370
-1
100
AcDbLine
10
1
20
0
11
1
21
1
0
LINE
5
ED
100
AcDbEntity
8
Inch boxes
6
ByLayer
62
256
370
-1
100
AcDbLine
10
1
20
1
11
0
21
1
0
LINE
5
EE
100
AcDbEntity
8
Inch boxes
6
ByLayer
62
256
370
-1
100
AcDbLine
10
1
20
1
11
0
21
1
0
LINE
5
EF
100
AcDbEntity
8
Inch boxes
6
ByLayer
62
256
370
-1
100
AcDbLine
10
0
20
2
11
1
21
2
0
LINE
5
F0
100
AcDbEntity
8
Inch boxes
6
ByLayer
62
256
370
-1
100
AcDbLine
10
1
20
2
11
1
21
1
0
LINE
5
F1
100
AcDbEntity
8
Inch boxes
6
ByLayer
62
256
370
-1
100
AcDbLine
10
0
20
2
11
1
21
2
0
LINE
5
F2
100
AcDbEntity
8
Inch boxes
6
ByLayer
62
256
370
-1
100
AcDbLine
10
1
20
2
11
1
21
3
0
LINE
5
F3
100
AcDbEntity
8
Inch boxes
6
ByLayer
62
256
370
-1
100
AcDbLine
10
1
20
3
11
0
21
3
0
LINE
5
F4
100
AcDbEntity
8
Inch boxes
6
ByLayer
62
256
370
-1
100
AcDbLine
10
1
20
3
11
0
21
3
0
LINE
5
F5
100
AcDbEntity
8
Inch boxes
6
ByLayer
62
256
370
-1
100
AcDbLine
10
0
20
4
11
1
21
4
0
LINE
5
F6
100
AcDbEntity
8
Inch boxes
6
ByLayer
62
256
370
-1
100
AcDbLine
10
1
20
4
11
1
21
3
0
LINE
5
F7
100
AcDbEntity
8
Inch boxes
6
ByLayer
62
256
370
-1
100
AcDbLine
10
0
20
4
11
1
21
4
0
LINE
5
F8
100
AcDbEntity
8
Inch boxes
6
ByLayer
62
256
370
-1
100
AcDbLine
10
1
20
4
11
1
21
5
0
LINE
5
F9
100
AcDbEntity
8
Inch boxes
6
ByLayer
62
256
370
-1
100
AcDbLine
10
1
20
5
11
0
21
5
0
LINE
5
FA
100
AcDbEntity
8
Inch boxes
6
ByLayer
62
256
370
-1
100
AcDbLine
10
1
20
5
11
0
21
5
0
LINE
5
FB
100
AcDbEntity
8
Inch boxes
6
ByLayer
62
256
370
-1
100
AcDbLine
10
0
20
6
11
1
21
6
0
LINE
5
FC
100
AcDbEntity
8
Inch boxes
6
ByLayer
62
256
370
-1
100
AcDbLine
10
1
20
6
11
1
21
5
0
LINE
5
FD
100
AcDbEntity
8
Inch boxes
6
ByLayer
62
256
370
-1
100
AcDbLine
10
0
20
6
11
1
21
6
0
LINE
5
FE
100
AcDbEntity
8
Inch boxes
6
ByLayer
62
256
370
-1
100
AcDbLine
10
1
20
6
11
1
21
7
0
LINE
5
FF
100
AcDbEntity
8
Inch boxes
6
ByLayer
62
256
370
-1
100
AcDbLine
10
1
20
7
11
0
21
7
0
LINE
5
100
100
AcDbEntity
8
Inch boxes
6
ByLayer
62
256
370
-1
100
AcDbLine
10
1
20
7
11
0
21
7
0
LINE
5
101
100
AcDbEntity
8
Inch boxes
6
ByLayer
62
256
370
-1
100
AcDbLine
10
0
20
8
11
1
21
8
0
LINE
5
102
100
AcDbEntity
8
Inch boxes
6
ByLayer
62
256
370
-1
100
AcDbLine
10
1
20
8
11
1
21
7
0
LINE
5
103
100
AcDbEntity
8
Inch boxes
6
ByLayer
62
256
370
-1
100
AcDbLine
10
0
20
8
11
1
21
8
0
LINE
5
104
100
AcDbEntity
8
Inch boxes
6
ByLayer
62
256
370
-1
100
AcDbLine
10
2
20
0
11
2
21
1
0
LINE
5
105
100
AcDbEntity
8
Inch boxes
6
ByLayer
62
256
370
-1
100
AcDbLine
10
2
20
1
11
1
21
1
0
LINE
5
106
100
AcDbEntity
8
Inch boxes
6
ByLayer
62
256
370
-1
100
AcDbLine
10
1
20
1
11
1
21
0
0
LINE
5
107
100
AcDbEntity
8
Inch boxes
6
ByLayer
62
256
370
-1
100
AcDbLine
10
2
20
1
11
3
21
1
0
LINE
5
108
100
AcDbEntity
8
Inch boxes
6
ByLayer
62
256
370
-1
100
AcDbLine
10
3
20
1
11
3
21
0
0
LINE
5
109
100
AcDbEntity
8
Inch boxes
6
ByLayer
62
256
370
-1
100
AcDbLine
10
2
20
0
11
2
21
1
0
LINE
5
10A
100
AcDbEntity
8
Inch boxes
6
ByLayer
62
256
370
-1
100
AcDbLine
10
3
20
1
11
4
21
1
0
LINE
5
10B
100
AcDbEntity
8
Inch boxes
6
ByLayer
62
256
370
-1
100
AcDbLine
10
4
20
1
11
4
21
0
0
LINE
5
10C
100
AcDbEntity
8
Inch boxes
6
ByLayer
62
256
370
-1
100
AcDbLine
10
3
20
0
11
3
21
1
0
LINE
5
10D
100
AcDbEntity
8
Inch boxes
6
ByLayer
62
256
370
-1
100
AcDbLine
10
4
20
1
11
5
21
1
0
LINE
5
10E
100
AcDbEntity
8
Inch boxes
6
ByLayer
62
256
370
-1
100
AcDbLine
10
5
20
1
11
5
21
0
0
LINE
5
10F
100
AcDbEntity
8
Inch boxes
6
ByLayer
62
256
370
-1
100
AcDbLine
10
4
20
0
11
4
21
1
0
LINE
5
110
100
AcDbEntity
8
Inch boxes
6
ByLayer
62
256
370
-1
100
AcDbLine
10
6
20
0
11
6
21
1
0
LINE
5
111
100
AcDbEntity
8
Inch boxes
6
ByLayer
62
256
370
-1
100
AcDbLine
10
6
20
1
11
5
21
1
0
LINE
5
112
100
AcDbEntity
8
Inch boxes
6
ByLayer
62
256
370
-1
100
AcDbLine
10
5
20
1
11
5
21
0
0
LINE
5
113
100
AcDbEntity
8
Inch boxes
6
ByLayer
62
256
370
-1
100
AcDbLine
10
6
20
1
11
7
21
1
0
LINE
5
114
100
AcDbEntity
8
Inch boxes
6
ByLayer
62
256
370
-1
100
AcDbLine
10
7
20
1
11
7
21
0
0
LINE
5
115
100
AcDbEntity
8
Inch boxes
6
ByLayer
62
256
370
-1
100
AcDbLine
10
6
20
0
11
6
21
1
0
LINE
5
116
100
AcDbEntity
8
Inch boxes
6
ByLayer
62
256
370
-1
100
AcDbLine
10
8
20
0
11
8
21
1
0
LINE
5
117
100
AcDbEntity
8
Inch boxes
6
ByLayer
62
256
370
-1
100
AcDbLine
10
7
20
1
11
7
21
0
0
LINE
5
118
100
AcDbEntity
8
Inch boxes
6
ByLayer
62
256
370
-1
100
AcDbLine
10
8
20
1
11
9
21
1
0
LINE
5
119
100
AcDbEntity
8
Inch boxes
6
ByLayer
62
256
370
-1
100
AcDbLine
10
9
20
1
11
9
21
0
0
LINE
5
11A
100
AcDbEntity
8
Inch boxes
6
ByLayer
62
256
370
-1
100
AcDbLine
10
8
20
0
11
8
21
1
0
LINE
5
11B
100
AcDbEntity
8
Inch boxes
6
ByLayer
62
256
370
-1
100
AcDbLine
10
10
20
0
11
10
21
1
0
LINE
5
11C
100
AcDbEntity
8
Inch boxes
6
ByLayer
62
256
370
-1
100
AcDbLine
10
10
20
1
11
9
21
1
0
LINE
5
11D
100
AcDbEntity
8
Inch boxes
6
ByLayer
62
256
370
-1
100
AcDbLine
10
9
20
1
11
9
21
0
0
LINE
5
11E
100
AcDbEntity
8
Inch boxes
6
ByLayer
62
256
370
-1
100
AcDbLine
10
10
20
1
11
11
21
1
0
LINE
5
11F
100
AcDbEntity
8
Inch boxes
6
ByLayer
62
256
370
-1
100
AcDbLine
10
11
20
1
11
11
21
0
0
LINE
5
120
100
AcDbEntity
8
Inch boxes
6
ByLayer
62
256
370
-1
100
AcDbLine
10
10
20
0
11
10
21
1
0
LINE
5
121
100
AcDbEntity
8
Inch boxes
6
ByLayer
62
256
370
-1
100
AcDbLine
10
-8.32667268469e-17
20
8.5
11
1
21
8.5
0
LINE
5
122
100
AcDbEntity
8
Inch boxes
6
ByLayer
62
256
370
-1
100
AcDbLine
10
1
20
8
11
1
21
8.5
0
LINE
5
123
100
AcDbEntity
8
Inch boxes
6
ByLayer
62
256
370
-1
100
AcDbLine
10
7
20
1
11
8
21
1
0
LINE
5
124
100
AcDbEntity
8
Content
6
ByLayer
62
256
370
-1
100
AcDbLine
10
-8.32667268469e-17
20
8.5
11
0
21
0
0
LINE
5
125
100
AcDbEntity
8
Content
6
ByLayer
62
256
370
-1
100
AcDbLine
10
0
20
0
11
11
21
0
0
DIMENSION
5
126
100
AcDbEntity
8
PageSize
6
ByLayer
62
256
370
-1
100
AcDbDimension
2
*D1
10
-1
20
1.22464679915e-16
30
0
11
-1.5
21
4.25
31
0
70
32
71
5
3
Standard
53
0
210
0
220
0
230
1
100
AcDbAlignedDimension
13
-8.32667268469e-17
23
8.5
33
0
14
0
24
0
34
0
50
90
100
AcDbRotatedDimension
0
DIMENSION
5
127
100
AcDbEntity
8
PageSize
6
ByLayer
62
256
370
-1
100
AcDbDimension
2
*D2
10
11
20
-1
30
0
11
5.5
21
-1.5
31
0
70
32
71
5
3
Standard
53
0
210
0
220
0
230
1
100
AcDbAlignedDimension
13
0
23
0
33
0
14
11
24
0
34
0
100
AcDbRotatedDimension
0
LINE
5
128
100
AcDbEntity
8
Content
6
ByLayer
62
256
370
-1
100
AcDbLine
10
2
20
2
11
3
21
7
0
LINE
5
129
100
AcDbEntity
8
Content
6
ByLayer
62
256
370
-1
100
AcDbLine
10
3
20
7
11
5
21
4
0
LINE
5
12A
100
AcDbEntity
8
Content
6
ByLayer
62
256
370
-1
100
AcDbLine
10
5
20
4
11
2
21
2
0
LINE
5
12B
100
AcDbEntity
8
Content
6
ByLayer
62
256
370
-1
100
AcDbLine
10
6
20
2
11
8
21
2
0
LINE
5
12C
100
AcDbEntity
8
Content
6
ByLayer
62
256
370
-1
100
AcDbLine
10
8
20
2
11
8
21
5
0
LINE
5
12D
100
AcDbEntity
8
Content
6
ByLayer
62
256
370
-1
100
AcDbLine
10
8
20
5
11
6
21
5
0
LINE
5
12E
100
AcDbEntity
8
Content
6
ByLayer
62
256
370
-1
100
AcDbLine
10
6
20
5
11
6
21
2
0
DIMENSION
5
12F
100
AcDbEntity
8
Content
6
ByLayer
62
256
370
-1
100
AcDbDimension
2
*D3
10
8
20
1
30
0
11
7
21
1.5
31
0
70
32
71
5
3
Standard
53
0
210
0
220
0
230
1
100
AcDbAlignedDimension
13
6
23
2
33
0
14
8
24
2
34
0
100
AcDbRotatedDimension
0
DIMENSION
5
130
100
AcDbEntity
8
Content
6
ByLayer
62
256
370
-1
100
AcDbDimension
2
*D4
10
9
20
2
30
0
11
8.5
21
3.5
31
0
70
32
71
5
3
Standard
53
0
210
0
220
0
230
1
100
AcDbAlignedDimension
13
8
23
5
33
0
14
8
24
2
34
0
50
90
100
AcDbRotatedDimension
0
DIMENSION
5
131
100
AcDbEntity
8
Content
6
ByLayer
62
256
370
-1
100
AcDbDimension
2
*D5
10
1.03846153846
20
2.19230769231
30
0
11
1.04817120062
21
4.79036575988
31
0
70
33
71
5
3
Standard
53
0
210
0
220
0
230
1
100
AcDbAlignedDimension
13
3
23
7
33
0
14
2
24
2
34
0
0
DIMENSION
5
132
100
AcDbEntity
8
Content
6
ByLayer
62
256
370
-1
100
AcDbDimension
2
*D6
10
5.69230769231
20
4.46153846154
30
0
11
5.10833283948
21
6.23888855965
31
0
70
33
71
5
3
Standard
53
0
210
0
220
0
230
1
100
AcDbAlignedDimension
13
3
23
7
33
0
14
5
24
4
34
0
0
DIMENSION
5
133
100
AcDbEntity
8
Content
6
ByLayer
62
256
370
-1
100
AcDbDimension
2
*D7
10
5.76923076923
20
2.84615384615
30
0
11
3.99188067112
21
2.26217899332
31
0
70
33
71
5
3
Standard
53
0
210
0
220
0
230
1
100
AcDbAlignedDimension
13
2
23
2
33
0
14
5
24
4
34
0
0
LINE
5
134
100
AcDbEntity
8
ColorRuler
6
ByLayer
62
48
420
4210688
370
-1
100
AcDbLine
10
-3
20
0.0625
11
-2.8
21
0.0625
0
LINE
5
135
100
AcDbEntity
8
ColorRuler
6
ByLayer
62
48
420
4210688
370
-1
100
AcDbLine
10
-3
20
0.1875
11
-2.8
21
0.1875
0
LINE
5
136
100
AcDbEntity
8
ColorRuler
6
ByLayer
62
48
420
4210688
370
-1
100
AcDbLine
10
-3
20
0.3125
11
-2.8
21
0.3125
0
LINE
5
137
100
AcDbEntity
8
ColorRuler
6
ByLayer
62
48
420
4210688
370
-1
100
AcDbLine
10
-3
20
0.4375
11
-2.8
21
0.4375
0
LINE
5
138
100
AcDbEntity
8
ColorRuler
6
ByLayer
62
48
420
4210688
370
-1
100
AcDbLine
10
-3
20
0.5625
11
-2.8
21
0.5625
0
LINE
5
139
100
AcDbEntity
8
ColorRuler
6
ByLayer
62
48
420
4210688
370
-1
100
AcDbLine
10
-3
20
0.6875
11
-2.8
21
0.6875
0
LINE
5
13A
100
AcDbEntity
8
ColorRuler
6
ByLayer
62
48
420
4210688
370
-1
100
AcDbLine
10
-3
20
0.8125
11
-2.8
21
0.8125
0
LINE
5
13B
100
AcDbEntity
8
ColorRuler
6
ByLayer
62
48
420
4210688
370
-1
100
AcDbLine
10
-3
20
0.9375
11
-2.8
21
0.9375
0
LINE
5
13C
100
AcDbEntity
8
ColorRuler
6
ByLayer
62
56
420
8421376
370
-1
100
AcDbLine
10
-3
20
0.125
11
-2.7
21
0.125
0
LINE
5
13D
100
AcDbEntity
8
ColorRuler
6
ByLayer
62
56
420
8421376
370
-1
100
AcDbLine
10
-3
20
0.375
11
-2.7
21
0.375
0
LINE
5
13E
100
AcDbEntity
8
ColorRuler
6
ByLayer
62
56
420
8421376
370
-1
100
AcDbLine
10
-3
20
0.625
11
-2.7
21
0.625
0
LINE
5
13F
100
AcDbEntity
8
ColorRuler
6
ByLayer
62
56
420
8421376
370
-1
100
AcDbLine
10
-3
20
0.875
11
-2.7
21
0.875
0
LINE
5
140
100
AcDbEntity
8
ColorRuler
6
ByLayer
62
52
420
12632064
370
-1
100
AcDbLine
10
-3
20
0.25
11
-2.5
21
0.25
0
LINE
5
141
100
AcDbEntity
8
ColorRuler
6
ByLayer
62
52
420
12632064
370
-1
100
AcDbLine
10
-3
20
0.5
11
-2.5
21
0.5
0
LINE
5
142
100
AcDbEntity
8
ColorRuler
6
ByLayer
62
52
420
12632064
370
-1
100
AcDbLine
10
-3
20
0.75
11
-2.5
21
0.75
0
LINE
5
143
100
AcDbEntity
8
ColorRuler
6
ByLayer
62
52
420
12632064
370
-1
100
AcDbLine
10
-3
20
1
11
-2.5
21
1
0
LINE
5
144
100
AcDbEntity
8
ColorRuler
6
ByLayer
62
256
370
-1
100
AcDbLine
10
-3
20
0
11
-2.3
21
0
0
LINE
5
145
100
AcDbEntity
8
ColorRuler
6
ByLayer
62
256
370
-1
100
AcDbLine
10
-3
20
0
11
-3
21
1
0
LINE
5
146
100
AcDbEntity
8
ColorRuler
6
ByLayer
62
48
420
4210688
370
-1
100
AcDbLine
10
0.0625
20
-3
11
0.0625
21
-2.8
0
LINE
5
147
100
AcDbEntity
8
ColorRuler
6
ByLayer
62
48
420
4210688
370
-1
100
AcDbLine
10
0.1875
20
-3
11
0.1875
21
-2.8
0
LINE
5
148
100
AcDbEntity
8
ColorRuler
6
ByLayer
62
48
420
4210688
370
-1
100
AcDbLine
10
0.3125
20
-3
11
0.3125
21
-2.8
0
LINE
5
149
100
AcDbEntity
8
ColorRuler
6
ByLayer
62
48
420
4210688
370
-1
100
AcDbLine
10
0.4375
20
-3
11
0.4375
21
-2.8
0
LINE
5
14A
100
AcDbEntity
8
ColorRuler
6
ByLayer
62
48
420
4210688
370
-1
100
AcDbLine
10
0.5625
20
-3
11
0.5625
21
-2.8
0
LINE
5
14B
100
AcDbEntity
8
ColorRuler
6
ByLayer
62
48
420
4210688
370
-1
100
AcDbLine
10
0.6875
20
-3
11
0.6875
21
-2.8
0
LINE
5
14C
100
AcDbEntity
8
ColorRuler
6
ByLayer
62
48
420
4210688
370
-1
100
AcDbLine
10
0.8125
20
-3
11
0.8125
21
-2.8
0
LINE
5
14D
100
AcDbEntity
8
ColorRuler
6
ByLayer
62
48
420
4210688
370
-1
100
AcDbLine
10
0.9375
20
-3
11
0.9375
21
-2.8
0
LINE
5
14E
100
AcDbEntity
8
ColorRuler
6
ByLayer
62
56
420
8421376
370
-1
100
AcDbLine
10
0.125
20
-3
11
0.125
21
-2.7
0
LINE
5
14F
100
AcDbEntity
8
ColorRuler
6
ByLayer
62
56
420
8421376
370
-1
100
AcDbLine
10
0.375
20
-3
11
0.375
21
-2.7
0
LINE
5
150
100
AcDbEntity
8
ColorRuler
6
ByLayer
62
56
420
8421376
370
-1
100
AcDbLine
10
0.625
20
-3
11
0.625
21
-2.7
0
LINE
5
151
100
AcDbEntity
8
ColorRuler
6
ByLayer
62
56
420
8421376
370
-1
100
AcDbLine
10
0.875
20
-3
11
0.875
21
-2.7
0
LINE
5
152
100
AcDbEntity
8
ColorRuler
6
ByLayer
62
52
420
12632064
370
-1
100
AcDbLine
10
0.25
20
-3
11
0.25
21
-2.5
0
LINE
5
153
100
AcDbEntity
8
ColorRuler
6
ByLayer
62
52
420
12632064
370
-1
100
AcDbLine
10
0.5
20
-3
11
0.5
21
-2.5
0
LINE
5
154
100
AcDbEntity
8
ColorRuler
6
ByLayer
62
52
420
12632064
370
-1
100
AcDbLine
10
0.75
20
-3
11
0.75
21
-2.5
0
LINE
5
155
100
AcDbEntity
8
ColorRuler
6
ByLayer
62
52
420
12632064
370
-1
100
AcDbLine
10
1
20
-3
11
1
21
-2.5
0
LINE
5
156
100
AcDbEntity
8
ColorRuler
6
ByLayer
62
256
370
-1
100
AcDbLine
10
0
20
-3
11
0
21
-2.3
0
LINE
5
157
100
AcDbEntity
8
ColorRuler
6
ByLayer
62
256
370
-1
100
AcDbLine
10
0
20
-3
11
1
21
-3
0
CIRCLE
5
158
100
AcDbEntity
8
Content
6
ByLayer
62
256
370
-1
100
AcDbCircle
10
7
20
4
40
1
0
MTEXT
5
159
100
AcDbEntity
8
Hints
6
ByLayer
62
256
370
-1
100
AcDbMText
10
0.4
20
8.3
30
0
40
0.25
41
10.3611114968
71
1
72
1
3
Template zoomed into greater than \Punit size so that grid is usable.\P\PBorder marking 8.5 x 11 is used to declare\Pworking space so that it can print 1:1. \P( LibreCad 2.0.5: print preview, 1:1, center on page )\PNote: Won't work unless all non-con
3
tent layers are hidden.\P\PPaper: Letter ( Landscape / Portrait )\PDimensions:\P  General Factor: 1\P  General Scale: 1\P  Text Height: 0.5\P  Extension Line Extension: 0.05\P  Extension Line Offset: 0.4\P  Dimension line gap: 0.25\P  Arrow Size: 0.4
1
\P  Tick Size: 0\P  Alignment: Dimension Aligned\P
7

210
0
220
0
230
1
50
0
73
2
44
1
0
ENDSEC
0
SECTION
2
OBJECTS
0
DICTIONARY
5
C
330
0
100
AcDbDictionary
281
1
3
ACAD_GROUP
350
D
0
DICTIONARY
5
D
330
C
100
AcDbDictionary
281
1
0
ENDSEC
0
EOF
