999
dxfrw 0.6.3
  0
SECTION
  2
HEADER
  9
$ACADVER
  1
AC1021
  9
$DWGCODEPAGE
  3
ANSI_1252
  9
$INSBASE
 10
0
 20
0
 30
0
  9
$EXTMIN
 10
-40.03820764506936
 20
-71.83029999999999
 30
0
  9
$EXTMAX
 10
86.83079374843635
 20
0.05751248315075552
 30
0
  9
$LIMMIN
 10
0
 20
0
  9
$LIMMAX
 10
12
 20
9
  9
$ORTHOMODE
 70
    0
  9
$REGENMODE
 70
    1
  9
$FILLMODE
 70
    1
  9
$QTEXTMODE
 70
    0
  9
$MIRRTEXT
 70
    1
  9
$LTSCALE
 40
1
  9
$ATTMODE
 70
    1
  9
$TEXTSIZE
 40
1
  9
$TRACEWID
 40
0.05
  9
$TEXTSTYLE
  7
standard
  9
$CLAYER
  8
importation
  9
$CELTYPE
  6
ByBlock
  9
$CECOLOR
 62
  181
  9
$CELTSCALE
 40
1
  9
$DISPSILH
 70
    0
  9
$DIMSCALE
 40
1
  9
$DIMASZ
 40
0
  9
$DIMEXO
 40
1
  9
$DIMDLI
 40
0.38
  9
$DIMRND
 40
0
  9
$DIMDLE
 40
0
  9
$DIMEXE
 40
1
  9
$DIMTP
 40
0
  9
$DIMTM
 40
0
  9
$DIMTXT
 40
1
  9
$DIMCEN
 40
0.09
  9
$DIMTSZ
 40
1
  9
$DIMTOL
 70
    0
  9
$DIMLIM
 70
    0
  9
$DIMTIH
 70
    1
  9
$DIMTOH
 70
    1
  9
$DIMSE1
 70
    0
  9
$DIMSE2
 70
    0
  9
$DIMTAD
 70
    0
  9
$DIMZIN
 70
    0
  9
$DIMBLK
  1

  9
$DIMASO
 70
    1
  9
$DIMSHO
 70
    1
  9
$DIMPOST
  1

  9
$DIMAPOST
  1

  9
$DIMALT
 70
    0
  9
$DIMALTD
 70
    2
  9
$DIMALTF
 40
25.4
  9
$DIMLFAC
 40
1
  9
$DIMTOFL
 70
    0
  9
$DIMTVP
 40
0
  9
$DIMTIX
 70
    0
  9
$DIMSOXD
 70
    0
  9
$DIMSAH
 70
    0
  9
$DIMBLK1
  1

  9
$DIMBLK2
  1

  9
$DIMSTYLE
  2
Standard
  9
$DIMCLRD
 70
    8
  9
$DIMCLRE
 70
    8
  9
$DIMCLRT
 70
    5
  9
$DIMTFAC
 40
1
  9
$DIMGAP
 40
1
  9
$DIMJUST
 70
    0
  9
$DIMSD1
 70
    0
  9
$DIMSD2
 70
    0
  9
$DIMTOLJ
 70
    1
  9
$DIMTZIN
 70
    0
  9
$DIMALTZ
 70
    0
  9
$DIMALTTZ
 70
    0
  9
$DIMUPT
 70
    0
  9
$DIMDEC
 70
    2
  9
$DIMTDEC
 70
    4
  9
$DIMALTU
 70
    2
  9
$DIMALTTD
 70
    2
  9
$DIMTXSTY
  7
standard
  9
$DIMAUNIT
 70
    0
  9
$DIMADEC
 70
    0
  9
$DIMALTRND
 40
0
  9
$DIMAZIN
 70
    0
  9
$DIMDSEP
 70
    0
  9
$DIMATFIT
 70
    3
  9
$DIMFRAC
 70
    0
  9
$DIMLDRBLK
  1

  9
$DIMLUNIT
 70
    2
  9
$DIMLWD
 70
   -3
  9
$DIMLWE
 70
   -2
  9
$DIMTMOVE
 70
    2
  9
$DIMFXL
 40
1
  9
$DIMFXLON
 70
    0
  9
$DIMJOGANG
 40
0.7853981633974483
  9
$DIMTFILL
 70
    0
  9
$DIMTFILLCLR
 70
    0
  9
$DIMARCSYM
 70
    0
  9
$DIMLTYPE
  6

  9
$DIMLTEX1
  6

  9
$DIMLTEX2
  6

  9
$LUNITS
 70
    2
  9
$LUPREC
 70
    1
  9
$SKETCHINC
 40
0.1
  9
$FILLETRAD
 40
0.5
  9
$AUNITS
 70
    0
  9
$AUPREC
 70
    0
  9
$MENU
  1
.
  9
$ELEVATION
 40
0
  9
$PELEVATION
 40
0
  9
$THICKNESS
 40
0
  9
$LIMCHECK
 70
    0
  9
$CHAMFERA
 40
0
  9
$CHAMFERB
 40
0
  9
$CHAMFERC
 40
0
  9
$CHAMFERD
 40
0
  9
$SKPOLY
 70
    0
  9
$USRTIMER
 70
    1
  9
$ANGBASE
 50
0
  9
$ANGDIR
 70
    0
  9
$PDMODE
 70
    0
  9
$PDSIZE
 40
0
  9
$PLINEWID
 40
0
  9
$SPLFRAME
 70
    0
  9
$SPLINETYPE
 70
    6
  9
$SPLINESEGS
 70
    8
  9
$HANDSEED
  5
20000
  9
$SURFTAB1
 70
    6
  9
$SURFTAB2
 70
    6
  9
$SURFTYPE
 70
    6
  9
$SURFU
 70
    6
  9
$SURFV
 70
    6
  9
$UCSBASE
  2

  9
$UCSNAME
  2

  9
$UCSORG
 10
0
 20
0
 30
0
  9
$UCSXDIR
 10
1
 20
0
 30
0
  9
$UCSYDIR
 10
0
 20
1
 30
0
  9
$UCSORTHOREF
  2

  9
$UCSORTHOVIEW
 70
    0
  9
$UCSORGTOP
 10
0
 20
0
 30
0
  9
$UCSORGBOTTOM
 10
0
 20
0
 30
0
  9
$UCSORGLEFT
 10
0
 20
0
 30
0
  9
$UCSORGRIGHT
 10
0
 20
0
 30
0
  9
$UCSORGFRONT
 10
0
 20
0
 30
0
  9
$UCSORGBACK
 10
0
 20
0
 30
0
  9
$PUCSBASE
  2

  9
$PUCSNAME
  2

  9
$PUCSORG
 10
0
 20
0
 30
0
  9
$PUCSXDIR
 10
1
 20
0
 30
0
  9
$PUCSYDIR
 10
0
 20
1
 30
0
  9
$PUCSORTHOREF
  2

  9
$PUCSORTHOVIEW
 70
    0
  9
$PUCSORGTOP
 10
0
 20
0
 30
0
  9
$PUCSORGBOTTOM
 10
0
 20
0
 30
0
  9
$PUCSORGLEFT
 10
0
 20
0
 30
0
  9
$PUCSORGRIGHT
 10
0
 20
0
 30
0
  9
$PUCSORGFRONT
 10
0
 20
0
 30
0
  9
$PUCSORGBACK
 10
0
 20
0
 30
0
  9
$USERI1
 70
    0
  9
$USERI2
 70
    0
  9
$USERI3
 70
    0
  9
$USERI4
 70
    0
  9
$USERI5
 70
    0
  9
$USERR1
 40
0
  9
$USERR2
 40
0
  9
$USERR3
 40
0
  9
$USERR4
 40
0
  9
$USERR5
 40
0
  9
$WORLDVIEW
 70
    1
  9
$SHADEDGE
 70
    3
  9
$SHADEDIF
 70
   70
  9
$TILEMODE
 70
    1
  9
$MAXACTVP
 70
   64
  9
$PINSBASE
 10
125.0373797476458
 20
183.4192910063887
 30
0
  9
$PLIMCHECK
 70
    0
  9
$PEXTMIN
 10
1e+20
 20
1e+20
 30
1e+20
  9
$PEXTMAX
 10
-1e+20
 20
-1e+20
 30
-1e+20
  9
$GRIDMODE
 70
    0
  9
$SNAPSTYLE
 70
    0
  9
$GRIDUNIT
 10
0
 20
0
  9
$PLIMMIN
 10
0
 20
0
  9
$PLIMMAX
 10
297
 20
210
  9
$UNITMODE
 70
    0
  9
$VISRETAIN
 70
    1
  9
$PLINEGEN
 70
    0
  9
$PSLTSCALE
 70
    1
  9
$TREEDEPTH
 70
 3020
  9
$CMLSTYLE
  2
Standard
  9
$CMLJUST
 70
    0
  9
$CMLSCALE
 40
1
  9
$PROXYGRAPHICS
 70
    1
  9
$MEASUREMENT
 70
    0
  9
$CELWEIGHT
370
   -1
  9
$ENDCAPS
280
    0
  9
$JOINSTYLE
280
    0
  9
$LWDISPLAY
290
    0
  9
$INSUNITS
 70
    4
  9
$HYPERLINKBASE
  1

  9
$STYLESHEET
  1

  9
$XEDIT
290
    1
  9
$CEPSNTYPE
380
    0
  9
$PSTYLEMODE
290
    1
  9
$EXTNAMES
290
    1
  9
$PSVPSCALE
 40
2
  9
$OLESTARTUP
290
    0
  9
$SORTENTS
280
  127
  9
$INDEXCTL
280
    0
  9
$HIDETEXT
280
    1
  9
$XCLIPFRAME
290
    1
  9
$HALOGAP
280
    0
  9
$OBSCOLOR
 70
  257
  9
$OBSLTYPE
280
    0
  9
$INTERSECTIONDISPLAY
280
    0
  9
$INTERSECTIONCOLOR
 70
  257
  9
$DIMASSOC
280
    2
  9
$PROJECTNAME
  1

  9
$CAMERADISPLAY
290
    0
  9
$LENSLENGTH
 40
50
  9
$CAMERAHEIGHT
 40
0
  9
$STEPSPERSEC
 40
2
  9
$STEPSIZE
 40
6
  9
$3DDWFPREC
 40
2
  9
$PSOLWIDTH
 40
0.25
  9
$PSOLHEIGHT
 40
4
  9
$LOFTANG1
 40
1.570796326794897
  9
$LOFTANG2
 40
1.570796326794897
  9
$LOFTMAG1
 40
0
  9
$LOFTMAG2
 40
0
  9
$LOFTPARAM
 70
    7
  9
$LOFTNORMALS
280
    1
  9
$LATITUDE
 40
37.795
  9
$LONGITUDE
 40
-122.394
  9
$NORTHDIRECTION
 40
0
  9
$TIMEZONE
 70
-8000
  9
$LIGHTGLYPHDISPLAY
280
    1
  9
$TILEMODELIGHTSYNCH
280
    1
  9
$SOLIDHIST
280
    0
  9
$SHOWHIST
280
    1
  9
$DWFFRAME
280
    2
  9
$DGNFRAME
280
    2
  9
$REALWORLDSCALE
290
    1
  9
$INTERFERECOLOR
 62
  256
  9
$CSHADOW
280
    0
  9
$SHADOWPLANELOCATION
 40
0
  0
ENDSEC
  0
SECTION
  2
CLASSES
  0
ENDSEC
  0
SECTION
  2
TABLES
  0
TABLE
  2
VPORT
  5
8
330
0
100
AcDbSymbolTable
 70
    1
  0
VPORT
  5
31
330
2
100
AcDbSymbolTableRecord
100
AcDbViewportTableRecord
  2
*ACTIVE
 70
    0
 10
0
 20
0
 11
1
 21
1
 12
44.04013312719061
 22
3.640173605363994
 13
0
 23
0
 14
10
 24
10
 15
10
 25
10
 16
0
 26
0
 36
1
 17
0
 27
0
 37
0
 40
86.29001694026779
 41
1.49792531120332
 42
50
 43
0
 44
0
 50
0
 51
0
 71
    0
 72
  100
 73
    1
 74
    3
 75
    0
 76
    0
 77
    0
 78
    0
281
    0
 65
    1
110
0
120
0
130
0
111
1
121
0
131
0
112
0
122
1
132
0
 79
    0
146
0
348
10020
 60
    7
 61
    5
292
1
282
    1
141
0
142
0
 63
  250
421
3358443
  0
ENDTAB
  0
TABLE
  2
LTYPE
  5
5
330
0
100
AcDbSymbolTable
 70
    4
  0
LTYPE
  5
14
330
5
100
AcDbSymbolTableRecord
100
AcDbLinetypeTableRecord
  2
ByBlock
 70
    0
  3

 72
   65
 73
    0
 40
0
  0
LTYPE
  5
15
330
5
100
AcDbSymbolTableRecord
100
AcDbLinetypeTableRecord
  2
ByLayer
 70
    0
  3

 72
   65
 73
    0
 40
0
  0
LTYPE
  5
16
330
5
100
AcDbSymbolTableRecord
100
AcDbLinetypeTableRecord
  2
Continuous
 70
    0
  3
Solid line
 72
   65
 73
    0
 40
0
  0
LTYPE
  5
32
330
5
100
AcDbSymbolTableRecord
100
AcDbLinetypeTableRecord
  2
DOT
 70
    0
  3
Dot . . . . . . . . . . . . . . . . . . . . . .
 72
   65
 73
    2
 40
6.35
 49
0
 74
    0
 49
-6.35
 74
    0
  0
LTYPE
  5
33
330
5
100
AcDbSymbolTableRecord
100
AcDbLinetypeTableRecord
  2
DOTTINY
 70
    0
  3
Dot (.15x) .....................................
 72
   65
 73
    2
 40
0.9525
 49
0
 74
    0
 49
-0.9525
 74
    0
  0
LTYPE
  5
34
330
5
100
AcDbSymbolTableRecord
100
AcDbLinetypeTableRecord
  2
DOT2
 70
    0
  3
Dot (.5x) .....................................
 72
   65
 73
    2
 40
3.175
 49
0
 74
    0
 49
-3.175
 74
    0
  0
LTYPE
  5
35
330
5
100
AcDbSymbolTableRecord
100
AcDbLinetypeTableRecord
  2
DOTX2
 70
    0
  3
Dot (2x) .  .  .  .  .  .  .  .  .  .  .  .  .
 72
   65
 73
    2
 40
12.7
 49
0
 74
    0
 49
-12.7
 74
    0
  0
LTYPE
  5
36
330
5
100
AcDbSymbolTableRecord
100
AcDbLinetypeTableRecord
  2
DASHED
 70
    0
  3
Dashed _ _ _ _ _ _ _ _ _ _ _ _ _ _ _ _ _
 72
   65
 73
    2
 40
19.05
 49
12.7
 74
    0
 49
-6.35
 74
    0
  0
LTYPE
  5
37
330
5
100
AcDbSymbolTableRecord
100
AcDbLinetypeTableRecord
  2
DASHEDTINY
 70
    0
  3
Dashed (.15x) _ _ _ _ _ _ _ _ _ _ _ _ _ _ _ _ _
 72
   65
 73
    2
 40
2.8575
 49
1.905
 74
    0
 49
-0.9525
 74
    0
  0
LTYPE
  5
38
330
5
100
AcDbSymbolTableRecord
100
AcDbLinetypeTableRecord
  2
DASHED2
 70
    0
  3
Dashed (.5x) _ _ _ _ _ _ _ _ _ _ _ _ _ _ _ _ _
 72
   65
 73
    2
 40
9.524999999999999
 49
6.35
 74
    0
 49
-3.175
 74
    0
  0
LTYPE
  5
39
330
5
100
AcDbSymbolTableRecord
100
AcDbLinetypeTableRecord
  2
DASHEDX2
 70
    0
  3
Dashed (2x) ____  ____  ____  ____  ____  ___
 72
   65
 73
    2
 40
38.09999999999999
 49
25.4
 74
    0
 49
-12.7
 74
    0
  0
LTYPE
  5
3A
330
5
100
AcDbSymbolTableRecord
100
AcDbLinetypeTableRecord
  2
DASHDOT
 70
    0
  3
Dash dot __ . __ . __ . __ . __ . __ . __ . __
 72
   65
 73
    4
 40
25.4
 49
12.7
 74
    0
 49
-6.35
 74
    0
 49
0
 74
    0
 49
-6.35
 74
    0
  0
LTYPE
  5
3B
330
5
100
AcDbSymbolTableRecord
100
AcDbLinetypeTableRecord
  2
DASHDOTTINY
 70
    0
  3
Dash dot (.15x) _._._._._._._._._._._._._._._.
 72
   65
 73
    4
 40
3.81
 49
1.905
 74
    0
 49
-0.9525
 74
    0
 49
0
 74
    0
 49
-0.9525
 74
    0
  0
LTYPE
  5
3C
330
5
100
AcDbSymbolTableRecord
100
AcDbLinetypeTableRecord
  2
DASHDOT2
 70
    0
  3
Dash dot (.5x) _._._._._._._._._._._._._._._.
 72
   65
 73
    4
 40
12.7
 49
6.35
 74
    0
 49
-3.175
 74
    0
 49
0
 74
    0
 49
-3.175
 74
    0
  0
LTYPE
  5
3D
330
5
100
AcDbSymbolTableRecord
100
AcDbLinetypeTableRecord
  2
DASHDOTX2
 70
    0
  3
Dash dot (2x) ____  .  ____  .  ____  .  ___
 72
   65
 73
    4
 40
50.8
 49
25.4
 74
    0
 49
-12.7
 74
    0
 49
0
 74
    0
 49
-12.7
 74
    0
  0
LTYPE
  5
3E
330
5
100
AcDbSymbolTableRecord
100
AcDbLinetypeTableRecord
  2
DIVIDE
 70
    0
  3
Divide ____ . . ____ . . ____ . . ____ . . ____
 72
   65
 73
    6
 40
31.75
 49
12.7
 74
    0
 49
-6.35
 74
    0
 49
0
 74
    0
 49
-6.35
 74
    0
 49
0
 74
    0
 49
-6.35
 74
    0
  0
LTYPE
  5
3F
330
5
100
AcDbSymbolTableRecord
100
AcDbLinetypeTableRecord
  2
DIVIDETINY
 70
    0
  3
Divide (.15x) __..__..__..__..__..__..__..__.._
 72
   65
 73
    6
 40
4.7625
 49
1.905
 74
    0
 49
-0.9525
 74
    0
 49
0
 74
    0
 49
-0.9525
 74
    0
 49
0
 74
    0
 49
-0.9525
 74
    0
  0
LTYPE
  5
40
330
5
100
AcDbSymbolTableRecord
100
AcDbLinetypeTableRecord
  2
DIVIDE2
 70
    0
  3
Divide (.5x) __..__..__..__..__..__..__..__.._
 72
   65
 73
    6
 40
15.875
 49
6.35
 74
    0
 49
-3.175
 74
    0
 49
0
 74
    0
 49
-3.175
 74
    0
 49
0
 74
    0
 49
-3.175
 74
    0
  0
LTYPE
  5
41
330
5
100
AcDbSymbolTableRecord
100
AcDbLinetypeTableRecord
  2
DIVIDEX2
 70
    0
  3
Divide (2x) ________  .  .  ________  .  .  _
 72
   65
 73
    6
 40
63.5
 49
25.4
 74
    0
 49
-12.7
 74
    0
 49
0
 74
    0
 49
-12.7
 74
    0
 49
0
 74
    0
 49
-12.7
 74
    0
  0
LTYPE
  5
42
330
5
100
AcDbSymbolTableRecord
100
AcDbLinetypeTableRecord
  2
BORDER
 70
    0
  3
Border __ __ . __ __ . __ __ . __ __ . __ __ .
 72
   65
 73
    6
 40
44.45
 49
12.7
 74
    0
 49
-6.35
 74
    0
 49
12.7
 74
    0
 49
-6.35
 74
    0
 49
0
 74
    0
 49
-6.35
 74
    0
  0
LTYPE
  5
43
330
5
100
AcDbSymbolTableRecord
100
AcDbLinetypeTableRecord
  2
BORDERTINY
 70
    0
  3
Border (.15x) __.__.__.__.__.__.__.__.__.__.__.
 72
   65
 73
    6
 40
6.6675
 49
1.905
 74
    0
 49
-0.9525
 74
    0
 49
1.905
 74
    0
 49
-0.9525
 74
    0
 49
0
 74
    0
 49
-0.9525
 74
    0
  0
LTYPE
  5
44
330
5
100
AcDbSymbolTableRecord
100
AcDbLinetypeTableRecord
  2
BORDER2
 70
    0
  3
Border (.5x) __.__.__.__.__.__.__.__.__.__.__.
 72
   65
 73
    6
 40
22.225
 49
6.35
 74
    0
 49
-3.175
 74
    0
 49
6.35
 74
    0
 49
-3.175
 74
    0
 49
0
 74
    0
 49
-3.175
 74
    0
  0
LTYPE
  5
45
330
5
100
AcDbSymbolTableRecord
100
AcDbLinetypeTableRecord
  2
BORDERX2
 70
    0
  3
Border (2x) ____  ____  .  ____  ____  .  ___
 72
   65
 73
    6
 40
88.89999999999999
 49
25.4
 74
    0
 49
-12.7
 74
    0
 49
25.4
 74
    0
 49
-12.7
 74
    0
 49
0
 74
    0
 49
-12.7
 74
    0
  0
LTYPE
  5
46
330
5
100
AcDbSymbolTableRecord
100
AcDbLinetypeTableRecord
  2
CENTER
 70
    0
  3
Center ____ _ ____ _ ____ _ ____ _ ____ _ ____
 72
   65
 73
    4
 40
50.8
 49
31.75
 74
    0
 49
-6.35
 74
    0
 49
6.35
 74
    0
 49
-6.35
 74
    0
  0
LTYPE
  5
47
330
5
100
AcDbSymbolTableRecord
100
AcDbLinetypeTableRecord
  2
CENTERTINY
 70
    0
  3
Center (.15x) ___ _ ___ _ ___ _ ___ _ ___ _ ___
 72
   65
 73
    4
 40
7.619999999999999
 49
4.7625
 74
    0
 49
-0.9525
 74
    0
 49
0.9525
 74
    0
 49
-0.9525
 74
    0
  0
LTYPE
  5
48
330
5
100
AcDbSymbolTableRecord
100
AcDbLinetypeTableRecord
  2
CENTER2
 70
    0
  3
Center (.5x) ___ _ ___ _ ___ _ ___ _ ___ _ ___
 72
   65
 73
    4
 40
28.575
 49
19.05
 74
    0
 49
-3.175
 74
    0
 49
3.175
 74
    0
 49
-3.175
 74
    0
  0
LTYPE
  5
49
330
5
100
AcDbSymbolTableRecord
100
AcDbLinetypeTableRecord
  2
CENTERX2
 70
    0
  3
Center (2x) ________  __  ________  __  _____
 72
   65
 73
    4
 40
101.6
 49
63.5
 74
    0
 49
-12.7
 74
    0
 49
12.7
 74
    0
 49
-12.7
 74
    0
  0
ENDTAB
  0
TABLE
  2
LAYER
  5
2
330
0
100
AcDbSymbolTable
 70
    1
  0
LAYER
  5
10
330
2
100
AcDbSymbolTableRecord
100
AcDbLayerTableRecord
  2
0
 70
    0
 62
    7
  6
CONTINUOUS
370
   -3
390
F
  0
LAYER
  5
4A
330
2
100
AcDbSymbolTableRecord
100
AcDbLayerTableRecord
  2
DEFPOINTS
 70
    1
 62
    7
  6
CONTINUOUS
290
0
370
   -3
390
F
1001
LibreCad
1070
    1
  0
LAYER
  5
4B
330
2
100
AcDbSymbolTableRecord
100
AcDbLayerTableRecord
  2
importation
 70
    1
 62
    7
  6
CONTINUOUS
370
   -3
390
F
  0
ENDTAB
  0
TABLE
  2
STYLE
  5
3
330
0
100
AcDbSymbolTable
 70
    3
  0
STYLE
  5
4C
330
2
100
AcDbSymbolTableRecord
100
AcDbTextStyleTableRecord
  2
romanc
 70
    0
 40
0
 41
1
 50
0
 71
    0
 42
1
  3
romanc
  4

  0
STYLE
  5
4D
330
2
100
AcDbSymbolTableRecord
100
AcDbTextStyleTableRecord
  2
standard
 70
    0
 40
0
 41
1
 50
0
 71
    0
 42
1
  3
standard
  4

  0
ENDTAB
  0
TABLE
  2
VIEW
  5
6
330
0
100
AcDbSymbolTable
 70
    0
  0
ENDTAB
  0
TABLE
  2
UCS
  5
7
330
0
100
AcDbSymbolTable
 70
    0
  0
ENDTAB
  0
TABLE
  2
APPID
  5
9
330
0
100
AcDbSymbolTable
 70
    1
  0
APPID
  5
12
330
9
100
AcDbSymbolTableRecord
100
AcDbRegAppTableRecord
  2
ACAD
 70
    0
  0
APPID
  5
4E
330
9
100
AcDbSymbolTableRecord
100
AcDbRegAppTableRecord
  2
LibreCad
 70
    0
  0
ENDTAB
  0
TABLE
  2
DIMSTYLE
  5
A
330
0
100
AcDbSymbolTable
 70
    1
100
AcDbDimStyleTable
 71
    1
  0
DIMSTYLE
105
4F
330
A
100
AcDbSymbolTableRecord
100
AcDbDimStyleTableRecord
  2
Standard
 70
    0
 40
1
 41
0
 42
1
 43
0.38
 44
1
 45
0
 46
0
 47
0
 48
0
 49
1
140
1
141
0.09
142
1
143
25.4
144
1
145
0
146
1
147
1
148
0
 71
    0
 72
    0
 73
    1
 74
    1
 75
    0
 76
    0
 77
    0
 78
    0
 79
    0
170
    0
171
    2
172
    0
173
    0
174
    0
175
    0
176
    8
177
    8
178
    5
179
    0
271
    2
272
    4
273
    2
274
    2
275
    0
276
    0
277
    2
278
    0
279
    0
280
    0
281
    0
282
    0
283
    1
284
    0
285
    0
286
    0
288
    0
289
    3
340
standard
341

371
   -3
372
   -2
  0
ENDTAB
  0
TABLE
  2
BLOCK_RECORD
  5
1
330
0
100
AcDbSymbolTable
 70
    2
  0
BLOCK_RECORD
  5
1F
330
1
100
AcDbSymbolTableRecord
100
AcDbBlockTableRecord
  2
*Model_Space
 70
    0
280
    1
281
    0
  0
BLOCK_RECORD
  5
1E
330
1
100
AcDbSymbolTableRecord
100
AcDbBlockTableRecord
  2
*Paper_Space
 70
    0
280
    1
281
    0
  0
BLOCK_RECORD
  5
50
330
1
100
AcDbSymbolTableRecord
100
AcDbBlockTableRecord
  2
*D29
 70
    0
280
    1
281
    0
  0
BLOCK_RECORD
  5
53
330
1
100
AcDbSymbolTableRecord
100
AcDbBlockTableRecord
  2
*D17
 70
    0
280
    1
281
    0
  0
BLOCK_RECORD
  5
56
330
1
100
AcDbSymbolTableRecord
100
AcDbBlockTableRecord
  2
*D24
 70
    0
280
    1
281
    0
  0
BLOCK_RECORD
  5
59
330
1
100
AcDbSymbolTableRecord
100
AcDbBlockTableRecord
  2
*D28
 70
    0
280
    1
281
    0
  0
BLOCK_RECORD
  5
5C
330
1
100
AcDbSymbolTableRecord
100
AcDbBlockTableRecord
  2
*D8
 70
    0
280
    1
281
    0
  0
BLOCK_RECORD
  5
5F
330
1
100
AcDbSymbolTableRecord
100
AcDbBlockTableRecord
  2
*D14
 70
    0
280
    1
281
    0
  0
BLOCK_RECORD
  5
62
330
1
100
AcDbSymbolTableRecord
100
AcDbBlockTableRecord
  2
*D1
 70
    0
280
    1
281
    0
  0
BLOCK_RECORD
  5
65
330
1
100
AcDbSymbolTableRecord
100
AcDbBlockTableRecord
  2
*D20
 70
    0
280
    1
281
    0
  0
BLOCK_RECORD
  5
68
330
1
100
AcDbSymbolTableRecord
100
AcDbBlockTableRecord
  2
*D18
 70
    0
280
    1
281
    0
  0
BLOCK_RECORD
  5
6B
330
1
100
AcDbSymbolTableRecord
100
AcDbBlockTableRecord
  2
*D16
 70
    0
280
    1
281
    0
  0
BLOCK_RECORD
  5
6E
330
1
100
AcDbSymbolTableRecord
100
AcDbBlockTableRecord
  2
*D7
 70
    0
280
    1
281
    0
  0
BLOCK_RECORD
  5
71
330
1
100
AcDbSymbolTableRecord
100
AcDbBlockTableRecord
  2
*D34
 70
    0
280
    1
281
    0
  0
BLOCK_RECORD
  5
74
330
1
100
AcDbSymbolTableRecord
100
AcDbBlockTableRecord
  2
*D6
 70
    0
280
    1
281
    0
  0
BLOCK_RECORD
  5
77
330
1
100
AcDbSymbolTableRecord
100
AcDbBlockTableRecord
  2
*D22
 70
    0
280
    1
281
    0
  0
BLOCK_RECORD
  5
7A
330
1
100
AcDbSymbolTableRecord
100
AcDbBlockTableRecord
  2
*D15
 70
    0
280
    1
281
    0
  0
BLOCK_RECORD
  5
7D
330
1
100
AcDbSymbolTableRecord
100
AcDbBlockTableRecord
  2
*D23
 70
    0
280
    1
281
    0
  0
BLOCK_RECORD
  5
80
330
1
100
AcDbSymbolTableRecord
100
AcDbBlockTableRecord
  2
*D26
 70
    0
280
    1
281
    0
  0
BLOCK_RECORD
  5
83
330
1
100
AcDbSymbolTableRecord
100
AcDbBlockTableRecord
  2
*D27
 70
    0
280
    1
281
    0
  0
BLOCK_RECORD
  5
86
330
1
100
AcDbSymbolTableRecord
100
AcDbBlockTableRecord
  2
*D30
 70
    0
280
    1
281
    0
  0
BLOCK_RECORD
  5
89
330
1
100
AcDbSymbolTableRecord
100
AcDbBlockTableRecord
  2
*D32
 70
    0
280
    1
281
    0
  0
BLOCK_RECORD
  5
8C
330
1
100
AcDbSymbolTableRecord
100
AcDbBlockTableRecord
  2
*D12
 70
    0
280
    1
281
    0
  0
BLOCK_RECORD
  5
8F
330
1
100
AcDbSymbolTableRecord
100
AcDbBlockTableRecord
  2
*D33
 70
    0
280
    1
281
    0
  0
BLOCK_RECORD
  5
92
330
1
100
AcDbSymbolTableRecord
100
AcDbBlockTableRecord
  2
*D31
 70
    0
280
    1
281
    0
  0
BLOCK_RECORD
  5
95
330
1
100
AcDbSymbolTableRecord
100
AcDbBlockTableRecord
  2
*D35
 70
    0
280
    1
281
    0
  0
BLOCK_RECORD
  5
98
330
1
100
AcDbSymbolTableRecord
100
AcDbBlockTableRecord
  2
*D5
 70
    0
280
    1
281
    0
  0
BLOCK_RECORD
  5
9B
330
1
100
AcDbSymbolTableRecord
100
AcDbBlockTableRecord
  2
*D9
 70
    0
280
    1
281
    0
  0
BLOCK_RECORD
  5
9E
330
1
100
AcDbSymbolTableRecord
100
AcDbBlockTableRecord
  2
*D3
 70
    0
280
    1
281
    0
  0
BLOCK_RECORD
  5
A1
330
1
100
AcDbSymbolTableRecord
100
AcDbBlockTableRecord
  2
*D25
 70
    0
280
    1
281
    0
  0
BLOCK_RECORD
  5
A4
330
1
100
AcDbSymbolTableRecord
100
AcDbBlockTableRecord
  2
*D2
 70
    0
280
    1
281
    0
  0
BLOCK_RECORD
  5
A7
330
1
100
AcDbSymbolTableRecord
100
AcDbBlockTableRecord
  2
*D13
 70
    0
280
    1
281
    0
  0
BLOCK_RECORD
  5
AA
330
1
100
AcDbSymbolTableRecord
100
AcDbBlockTableRecord
  2
*D21
 70
    0
280
    1
281
    0
  0
BLOCK_RECORD
  5
AD
330
1
100
AcDbSymbolTableRecord
100
AcDbBlockTableRecord
  2
*D11
 70
    0
280
    1
281
    0
  0
BLOCK_RECORD
  5
B0
330
1
100
AcDbSymbolTableRecord
100
AcDbBlockTableRecord
  2
*D10
 70
    0
280
    1
281
    0
  0
BLOCK_RECORD
  5
B3
330
1
100
AcDbSymbolTableRecord
100
AcDbBlockTableRecord
  2
*D19
 70
    0
280
    1
281
    0
  0
BLOCK_RECORD
  5
B6
330
1
100
AcDbSymbolTableRecord
100
AcDbBlockTableRecord
  2
*D4
 70
    0
280
    1
281
    0
  0
BLOCK_RECORD
  5
B9
330
1
100
AcDbSymbolTableRecord
100
AcDbBlockTableRecord
  2
*U13
 70
    0
280
    1
281
    0
  0
BLOCK_RECORD
  5
BC
330
1
100
AcDbSymbolTableRecord
100
AcDbBlockTableRecord
  2
*U14
 70
    0
280
    1
281
    0
  0
ENDTAB
  0
ENDSEC
  0
SECTION
  2
BLOCKS
  0
BLOCK
  5
20
330
1F
100
AcDbEntity
  8
0
100
AcDbBlockBegin
  2
*Model_Space
 70
    0
 10
0
 20
0
 30
0
  3
*Model_Space
  1

  0
ENDBLK
  5
21
330
1F
100
AcDbEntity
  8
0
100
AcDbBlockEnd
  0
BLOCK
  5
1C
330
1B
100
AcDbEntity
  8
0
100
AcDbBlockBegin
  2
*Paper_Space
 70
    0
 10
0
 20
0
 30
0
  3
*Paper_Space
  1

  0
ENDBLK
  5
1D
330
1F
100
AcDbEntity
  8
0
100
AcDbBlockEnd
  0
BLOCK
  5
51
330
50
100
AcDbEntity
  8
0
100
AcDbBlockBegin
  2
*D29
 70
    1
 10
0
 20
0
  3
*D29
  1

  0
LINE
  5
BF
100
AcDbEntity
  8
0
  6
ByBlock
 62
    8
370
   -3
100
AcDbLine
 10
-16.96641244209512
 20
-32.73267827770282
 11
-16.99838755790488
 21
-30.63292172229718
  0
LINE
  5
C0
100
AcDbEntity
  8
0
  6
ByBlock
 62
    8
370
   -3
100
AcDbLine
 10
-17.68420383275538
 20
-32.03642005010762
 11
-16.24862105143486
 21
-33.42893650529802
  0
LINE
  5
C1
100
AcDbEntity
  8
0
  6
ByBlock
 62
    8
370
   -3
100
AcDbLine
 10
-17.71617894856514
 20
-29.93666349470198
 11
-16.28059616724462
 21
-31.32917994989238
  0
MTEXT
  5
C2
100
AcDbEntity
  8
0
  6
CONTINUOUS
 62
    5
370
   -2
100
AcDbMText
 10
-13.87684444444444
 20
-31.6828
 30
0
 40
1
 41
2.111111111111111
 71
    5
 72
    1
  1
2.10
  7
standard
210
0
220
0
230
1
 50
0
 73
    2
 44
1
  0
ENDBLK
  5
52
330
50
100
AcDbEntity
  8
0
100
AcDbBlockEnd
  0
BLOCK
  5
54
330
53
100
AcDbEntity
  8
0
100
AcDbBlockBegin
  2
*D17
 70
    1
 10
0
 20
0
  3
*D17
  1

  0
LINE
  5
C3
100
AcDbEntity
  8
0
  6
ByBlock
 62
    8
370
   -3
100
AcDbLine
 10
-31.28727271965126
 20
-22.65589700778907
 11
-31.28727271965126
 21
-22.64191547413989
  0
LINE
  5
C4
100
AcDbEntity
  8
0
  6
ByBlock
 62
    8
370
   -3
100
AcDbLine
 10
-31.99437950083781
 20
-21.94879022660252
 11
-30.58016593846471
 21
-23.36300378897561
  0
LINE
  5
C5
100
AcDbEntity
  8
0
  6
ByBlock
 62
    8
370
   -3
100
AcDbLine
 10
-31.99437950083781
 20
-18.92082715930415
 11
-30.58016593846471
 21
-20.33504072167725
  0
LINE
  5
C6
100
AcDbEntity
  8
0
  6
ByBlock
 62
    8
370
   -3
100
AcDbLine
 10
-31.28727271965126
 20
-19.64191547413989
 11
-31.28727271965126
 21
-19.6279339404907
  0
MTEXT
  5
C7
100
AcDbEntity
  8
0
  6
CONTINUOUS
 62
    5
370
   -2
100
AcDbMText
 10
-31.28727271965126
 20
-21.14191547413989
 30
0
 40
1
 41
2.333333333333457
 71
    5
 72
    1
  1
3.03
  7
standard
210
0
220
0
230
1
 50
0
 73
    2
 44
1
  0
LINE
  5
C8
100
AcDbEntity
  8
0
  6
ByBlock
 62
    8
370
   -2
100
AcDbLine
 10
-24.0766109373918
 20
-22.65589700778907
 11
-32.28727271965126
 21
-22.65589700778907
  0
LINE
  5
C9
100
AcDbEntity
  8
0
  6
ByBlock
 62
    8
370
   -2
100
AcDbLine
 10
-29.01692926245727
 20
-19.6279339404907
 11
-32.28727271965126
 21
-19.6279339404907
  0
ENDBLK
  5
55
330
53
100
AcDbEntity
  8
0
100
AcDbBlockEnd
  0
BLOCK
  5
57
330
56
100
AcDbEntity
  8
0
100
AcDbBlockBegin
  2
*D24
 70
    1
 10
0
 20
0
  3
*D24
  1

  0
LINE
  5
CA
100
AcDbEntity
  8
0
  6
ByBlock
 62
    8
370
   -3
100
AcDbLine
 10
-15.4310931970173
 20
-7.304550387134011
 11
-19.81697730450647
 21
-7.30455038713401
  0
LINE
  5
CB
100
AcDbEntity
  8
0
  6
ByBlock
 62
    8
370
   -3
100
AcDbLine
 10
-16.13819997820385
 20
-8.011657168320559
 11
-14.72398641583075
 21
-6.597443605947463
  0
LINE
  5
CC
100
AcDbEntity
  8
0
  6
ByBlock
 62
    8
370
   -3
100
AcDbLine
 10
-20.52408408569302
 20
-8.011657168320557
 11
-19.10987052331992
 21
-6.597443605947463
  0
MTEXT
  5
CD
100
AcDbEntity
  8
0
  6
CONTINUOUS
 62
    5
370
   -2
100
AcDbMText
 10
-17.62403525076189
 20
-7.304550387134011
 30
0
 40
1
 41
2.444444444444507
 71
    5
 72
    1
  1
4.39
  7
standard
210
0
220
0
230
1
 50
0
 73
    2
 44
1
  0
LINE
  5
CE
100
AcDbEntity
  8
0
  6
ByBlock
 62
    8
370
   -2
100
AcDbLine
 10
-15.4310931970173
 20
-4.633464595861311
 11
-15.4310931970173
 21
-8.304550387134011
  0
LINE
  5
CF
100
AcDbEntity
  8
0
  6
ByBlock
 62
    8
370
   -2
100
AcDbLine
 10
-19.81697730450647
 20
-4.633464595861307
 11
-19.81697730450647
 21
-8.304550387134011
  0
ENDBLK
  5
58
330
56
100
AcDbEntity
  8
0
100
AcDbBlockEnd
  0
BLOCK
  5
5A
330
59
100
AcDbEntity
  8
0
100
AcDbBlockBegin
  2
*D28
 70
    1
 10
0
 20
0
  3
*D28
  1

  0
LINE
  5
D0
100
AcDbEntity
  8
0
  6
ByBlock
 62
    8
370
   -3
100
AcDbLine
 10
-34.94321197710479
 20
-3.633464595861307
 11
-34.94321197710479
 21
-5.633459999999996
  0
LINE
  5
D1
100
AcDbEntity
  8
0
  6
ByBlock
 62
    8
370
   -3
100
AcDbLine
 10
-34.23610519591824
 20
-4.340571377047854
 11
-35.65031875829133
 21
-2.926357814674759
  0
LINE
  5
D2
100
AcDbEntity
  8
0
  6
ByBlock
 62
    8
370
   -3
100
AcDbLine
 10
-34.23610519591824
 20
-6.340566781186544
 11
-35.65031875829133
 21
-4.926353218813448
  0
MTEXT
  5
D3
100
AcDbEntity
  8
0
  6
CONTINUOUS
 62
    5
370
   -2
100
AcDbMText
 10
-31.77654760836878
 20
-4.633462297930651
 30
0
 40
1
 41
2.333333333333333
 71
    5
 72
    1
  1
2.00
  7
standard
210
0
220
0
230
1
 50
0
 73
    2
 44
1
  0
LINE
  5
D4
100
AcDbEntity
  8
0
  6
ByBlock
 62
    8
370
   -2
100
AcDbLine
 10
-30.01692926245727
 20
-3.633464595861307
 11
-35.94321197710479
 21
-3.633464595861307
  0
LINE
  5
D5
100
AcDbEntity
  8
0
  6
ByBlock
 62
    8
370
   -2
100
AcDbLine
 10
-28.61718190036778
 20
-5.633459999999997
 11
-35.94321197710479
 21
-5.633459999999996
  0
ENDBLK
  5
5B
330
59
100
AcDbEntity
  8
0
100
AcDbBlockEnd
  0
BLOCK
  5
5D
330
5C
100
AcDbEntity
  8
0
100
AcDbBlockBegin
  2
*D8
 70
    1
 10
0
 20
0
  3
*D8
  1

  0
LINE
  5
D6
100
AcDbEntity
  8
0
  6
ByBlock
 62
    8
370
   -3
100
AcDbLine
 10
33.89552350947915
 20
-54.62793394049071
 11
33.89552350947915
 21
-51.78492793407953
  0
LINE
  5
D7
100
AcDbEntity
  8
0
  6
ByBlock
 62
    8
370
   -3
100
AcDbLine
 10
33.1884167282926
 20
-53.92082715930417
 11
34.60263029066569
 21
-55.33504072167726
  0
LINE
  5
D8
100
AcDbEntity
  8
0
  6
ByBlock
 62
    8
370
   -3
100
AcDbLine
 10
33.1884167282926
 20
-45.23481514648181
 11
34.60263029066569
 21
-46.6490287088549
  0
LINE
  5
D9
100
AcDbEntity
  8
0
  6
ByBlock
 62
    8
370
   -3
100
AcDbLine
 10
33.89552350947915
 20
-48.78492793407953
 11
33.89552350947915
 21
-45.94192192766835
  0
MTEXT
  5
DA
100
AcDbEntity
  8
0
  6
CONTINUOUS
 62
    5
370
   -2
100
AcDbMText
 10
33.89552350947915
 20
-50.28492793407953
 30
0
 40
1
 41
2.333333333333395
 71
    5
 72
    1
  1
8.69
  7
standard
210
0
220
0
230
1
 50
0
 73
    2
 44
1
  0
LINE
  5
DB
100
AcDbEntity
  8
0
  6
ByBlock
 62
    8
370
   -2
100
AcDbLine
 10
21.82654498986659
 20
-54.62793394049071
 11
34.89552350947915
 21
-54.62793394049071
  0
LINE
  5
DC
100
AcDbEntity
  8
0
  6
ByBlock
 62
    8
370
   -2
100
AcDbLine
 10
26.0805824029682
 20
-45.94192192766835
 11
34.89552350947915
 21
-45.94192192766835
  0
ENDBLK
  5
5E
330
5C
100
AcDbEntity
  8
0
100
AcDbBlockEnd
  0
BLOCK
  5
60
330
5F
100
AcDbEntity
  8
0
100
AcDbBlockBegin
  2
*D14
 70
    1
 10
0
 20
0
  3
*D14
  1

  0
LINE
  5
DD
100
AcDbEntity
  8
0
  6
ByBlock
 62
    8
370
   -3
100
AcDbLine
 10
11
 20
-55.55864255373164
 11
9
 21
-55.55864255373164
  0
LINE
  5
DE
100
AcDbEntity
  8
0
  6
ByBlock
 62
    8
370
   -3
100
AcDbLine
 10
10.29289321881345
 20
-56.26574933491818
 11
11.70710678118655
 21
-54.85153577254509
  0
LINE
  5
DF
100
AcDbEntity
  8
0
  6
ByBlock
 62
    8
370
   -3
100
AcDbLine
 10
8.292893218813452
 20
-56.26574933491818
 11
9.707106781186548
 21
-54.85153577254509
  0
MTEXT
  5
E0
100
AcDbEntity
  8
0
  6
CONTINUOUS
 62
    5
370
   -2
100
AcDbMText
 10
13.16666666666667
 20
-55.55864255373164
 30
0
 40
1
 41
2.333333333333333
 71
    5
 72
    1
  1
2.00
  7
standard
210
0
220
0
230
1
 50
0
 73
    2
 44
1
  0
LINE
  5
E1
100
AcDbEntity
  8
0
  6
ByBlock
 62
    8
370
   -2
100
AcDbLine
 10
11
 20
-47.8303
 11
11
 21
-56.55864255373164
  0
LINE
  5
E2
100
AcDbEntity
  8
0
  6
ByBlock
 62
    8
370
   -2
100
AcDbLine
 10
9
 20
-55.62793394049071
 11
9
 21
-56.55864255373164
  0
ENDBLK
  5
61
330
5F
100
AcDbEntity
  8
0
100
AcDbBlockEnd
  0
BLOCK
  5
63
330
62
100
AcDbEntity
  8
0
100
AcDbBlockBegin
  2
*D1
 70
    1
 10
0
 20
0
  3
*D1
  1

  0
LINE
  5
E3
100
AcDbEntity
  8
0
  6
ByBlock
 62
    8
370
   -3
100
AcDbLine
 10
7
 20
-17
 11
9
 21
-17
  0
LINE
  5
E4
100
AcDbEntity
  8
0
  6
ByBlock
 62
    8
370
   -3
100
AcDbLine
 10
7.707106781186548
 20
-16.29289321881345
 11
6.292893218813452
 21
-17.70710678118655
  0
LINE
  5
E5
100
AcDbEntity
  8
0
  6
ByBlock
 62
    8
370
   -3
100
AcDbLine
 10
9.707106781186548
 20
-16.29289321881345
 11
8.292893218813452
 21
-17.70710678118655
  0
MTEXT
  5
E6
100
AcDbEntity
  8
0
  6
CONTINUOUS
 62
    5
370
   -2
100
AcDbMText
 10
11.16666666666667
 20
-17
 30
0
 40
1
 41
2.333333333333333
 71
    5
 72
    1
  1
2.00
  7
standard
210
0
220
0
230
1
 50
0
 73
    2
 44
1
  0
LINE
  5
E7
100
AcDbEntity
  8
0
  6
ByBlock
 62
    8
370
   -2
100
AcDbLine
 10
7
 20
-19
 11
7
 21
-16
  0
LINE
  5
E8
100
AcDbEntity
  8
0
  6
ByBlock
 62
    8
370
   -2
100
AcDbLine
 10
9
 20
-19
 11
9
 21
-16
  0
ENDBLK
  5
64
330
62
100
AcDbEntity
  8
0
100
AcDbBlockEnd
  0
BLOCK
  5
66
330
65
100
AcDbEntity
  8
0
100
AcDbBlockBegin
  2
*D20
 70
    1
 10
0
 20
0
  3
*D20
  1

  0
LINE
  5
E9
100
AcDbEntity
  8
0
  6
ByBlock
 62
    8
370
   -3
100
AcDbLine
 10
-16.98238266168567
 20
-17.01248045676264
 11
-13.81692926245727
 21
-17.01248045676264
  0
LINE
  5
EA
100
AcDbEntity
  8
0
  6
ByBlock
 62
    8
370
   -3
100
AcDbLine
 10
-16.27527588049912
 20
-16.30537367557609
 11
-17.68948944287222
 21
-17.71958723794918
  0
LINE
  5
EB
100
AcDbEntity
  8
0
  6
ByBlock
 62
    8
370
   -3
100
AcDbLine
 10
-13.10982248127072
 20
-16.30537367557609
 11
-14.52403604364382
 21
-17.71958723794918
  0
MTEXT
  5
EC
100
AcDbEntity
  8
0
  6
CONTINUOUS
 62
    5
370
   -2
100
AcDbMText
 10
-15.39965596207147
 20
-17.01248045676264
 30
0
 40
1
 41
2.111111111111173
 71
    5
 72
    1
  1
3.17
  7
standard
210
0
220
0
230
1
 50
0
 73
    2
 44
1
  0
LINE
  5
ED
100
AcDbEntity
  8
0
  6
ByBlock
 62
    8
370
   -2
100
AcDbLine
 10
-16.98238266168567
 20
-30.68279880010087
 11
-16.98238266168567
 21
-16.01248045676264
  0
LINE
  5
EE
100
AcDbEntity
  8
0
  6
ByBlock
 62
    8
370
   -2
100
AcDbLine
 10
-13.81692926245727
 20
-18.6279339404907
 11
-13.81692926245727
 21
-16.01248045676264
  0
ENDBLK
  5
67
330
65
100
AcDbEntity
  8
0
100
AcDbBlockEnd
  0
BLOCK
  5
69
330
68
100
AcDbEntity
  8
0
100
AcDbBlockBegin
  2
*D18
 70
    1
 10
0
 20
0
  3
*D18
  1

  0
LINE
  5
EF
100
AcDbEntity
  8
0
  6
ByBlock
 62
    8
370
   -3
100
AcDbLine
 10
-35.18773004408079
 20
-23.43040542414937
 11
-35.18773004408079
 21
-23.02916968232003
  0
LINE
  5
F0
100
AcDbEntity
  8
0
  6
ByBlock
 62
    8
370
   -3
100
AcDbLine
 10
-35.89483682526733
 20
-22.72329864296282
 11
-34.48062326289424
 21
-24.13751220533592
  0
LINE
  5
F1
100
AcDbEntity
  8
0
  6
ByBlock
 62
    8
370
   -3
100
AcDbLine
 10
-35.89483682526733
 20
-18.92082715930415
 11
-34.48062326289424
 21
-20.33504072167725
  0
LINE
  5
F2
100
AcDbEntity
  8
0
  6
ByBlock
 62
    8
370
   -3
100
AcDbLine
 10
-35.18773004408079
 20
-20.02916968232003
 11
-35.18773004408079
 21
-19.6279339404907
  0
MTEXT
  5
F3
100
AcDbEntity
  8
0
  6
CONTINUOUS
 62
    5
370
   -2
100
AcDbMText
 10
-35.18773004408079
 20
-21.52916968232003
 30
0
 40
1
 41
2.333333333333395
 71
    5
 72
    1
  1
3.80
  7
standard
210
0
220
0
230
1
 50
0
 73
    2
 44
1
  0
LINE
  5
F4
100
AcDbEntity
  8
0
  6
ByBlock
 62
    8
370
   -2
100
AcDbLine
 10
-18.61695495494058
 20
-23.43040542414937
 11
-36.18773004408079
 21
-23.43040542414937
  0
LINE
  5
F5
100
AcDbEntity
  8
0
  6
ByBlock
 62
    8
370
   -2
100
AcDbLine
 10
-29.01692926245727
 20
-19.6279339404907
 11
-36.18773004408079
 21
-19.6279339404907
  0
ENDBLK
  5
6A
330
68
100
AcDbEntity
  8
0
100
AcDbBlockEnd
  0
BLOCK
  5
6C
330
6B
100
AcDbEntity
  8
0
100
AcDbBlockBegin
  2
*D16
 70
    1
 10
0
 20
0
  3
*D16
  1

  0
LINE
  5
F6
100
AcDbEntity
  8
0
  6
ByBlock
 62
    8
370
   -3
100
AcDbLine
 10
-6.424381900367781
 20
-17
 11
-8.424381900367781
 21
-17
  0
LINE
  5
F7
100
AcDbEntity
  8
0
  6
ByBlock
 62
    8
370
   -3
100
AcDbLine
 10
-7.131488681554329
 20
-17.70710678118655
 11
-5.717275119181233
 21
-16.29289321881345
  0
LINE
  5
F8
100
AcDbEntity
  8
0
  6
ByBlock
 62
    8
370
   -3
100
AcDbLine
 10
-9.131488681554329
 20
-17.70710678118655
 11
-7.717275119181233
 21
-16.29289321881345
  0
MTEXT
  5
F9
100
AcDbEntity
  8
0
  6
CONTINUOUS
 62
    5
370
   -2
100
AcDbMText
 10
-4.257715233701115
 20
-17
 30
0
 40
1
 41
2.333333333333333
 71
    5
 72
    1
  1
2.00
  7
standard
210
0
220
0
230
1
 50
0
 73
    2
 44
1
  0
LINE
  5
FA
100
AcDbEntity
  8
0
  6
ByBlock
 62
    8
370
   -2
100
AcDbLine
 10
-6.424381900367781
 20
-19
 11
-6.424381900367781
 21
-16
  0
LINE
  5
FB
100
AcDbEntity
  8
0
  6
ByBlock
 62
    8
370
   -2
100
AcDbLine
 10
-8.424381900367781
 20
-19
 11
-8.424381900367781
 21
-16
  0
ENDBLK
  5
6D
330
6B
100
AcDbEntity
  8
0
100
AcDbBlockEnd
  0
BLOCK
  5
6F
330
6E
100
AcDbEntity
  8
0
100
AcDbBlockBegin
  2
*D7
 70
    1
 10
0
 20
0
  3
*D7
  1

  0
LINE
  5
FC
100
AcDbEntity
  8
0
  6
ByBlock
 62
    8
370
   -3
100
AcDbLine
 10
30.92897850216656
 20
-54.62793394049071
 11
30.92897850216656
 21
-52.22911697024536
  0
LINE
  5
FD
100
AcDbEntity
  8
0
  6
ByBlock
 62
    8
370
   -3
100
AcDbLine
 10
30.22187172098002
 20
-53.92082715930417
 11
31.63608528335311
 21
-55.33504072167726
  0
LINE
  5
FE
100
AcDbEntity
  8
0
  6
ByBlock
 62
    8
370
   -3
100
AcDbLine
 10
30.22187172098002
 20
-46.12319321881346
 11
31.63608528335311
 21
-47.53740678118655
  0
LINE
  5
FF
100
AcDbEntity
  8
0
  6
ByBlock
 62
    8
370
   -3
100
AcDbLine
 10
30.92897850216656
 20
-49.22911697024536
 11
30.92897850216656
 21
-46.8303
  0
MTEXT
  5
100
100
AcDbEntity
  8
0
  6
CONTINUOUS
 62
    5
370
   -2
100
AcDbMText
 10
30.92897850216656
 20
-50.72911697024536
 30
0
 40
1
 41
2.333333333333333
 71
    5
 72
    1
  1
7.80
  7
standard
210
0
220
0
230
1
 50
0
 73
    2
 44
1
  0
LINE
  5
101
100
AcDbEntity
  8
0
  6
ByBlock
 62
    8
370
   -2
100
AcDbLine
 10
21.82654498986659
 20
-54.62793394049071
 11
31.92897850216656
 21
-54.62793394049071
  0
LINE
  5
102
100
AcDbEntity
  8
0
  6
ByBlock
 62
    8
370
   -2
100
AcDbLine
 10
19.1925730545728
 20
-46.8303
 11
31.92897850216656
 21
-46.8303
  0
ENDBLK
  5
70
330
6E
100
AcDbEntity
  8
0
100
AcDbBlockEnd
  0
BLOCK
  5
72
330
71
100
AcDbEntity
  8
0
100
AcDbBlockBegin
  2
*D34
 70
    1
 10
0
 20
0
  3
*D34
  1

  0
LINE
  5
103
100
AcDbEntity
  8
0
  6
ByBlock
 62
    8
370
   -3
100
AcDbLine
 10
65.62363960516031
 20
-8.812051633873899
 11
73.31810773064946
 21
-8.812051633873899
  0
LINE
  5
104
100
AcDbEntity
  8
0
  6
ByBlock
 62
    8
370
   -3
100
AcDbLine
 10
66.33074638634686
 20
-8.104944852687352
 11
64.91653282397375
 21
-9.519158415060447
  0
LINE
  5
105
100
AcDbEntity
  8
0
  6
ByBlock
 62
    8
370
   -3
100
AcDbLine
 10
86.83079374843635
 20
-8.104944852687352
 11
85.41658018606324
 21
-9.519158415060447
  0
LINE
  5
106
100
AcDbEntity
  8
0
  6
ByBlock
 62
    8
370
   -3
100
AcDbLine
 10
78.42921884176063
 20
-8.812051633873899
 11
86.1236869672498
 21
-8.812051633873899
  0
MTEXT
  5
107
100
AcDbEntity
  8
0
  6
CONTINUOUS
 62
    5
370
   -2
100
AcDbMText
 10
75.87366328620504
 20
-8.812051633873899
 30
0
 40
1
 41
3.111111111111173
 71
    5
 72
    1
  1
20.50
  7
standard
210
0
220
0
230
1
 50
0
 73
    2
 44
1
  0
LINE
  5
108
100
AcDbEntity
  8
0
  6
ByBlock
 62
    8
370
   -2
100
AcDbLine
 10
65.62363960516031
 20
-18.52793338134606
 11
65.62363960516031
 21
-7.812051633873899
  0
LINE
  5
109
100
AcDbEntity
  8
0
  6
ByBlock
 62
    8
370
   -2
100
AcDbLine
 10
86.1236869672498
 20
-18.52793394049073
 11
86.1236869672498
 21
-7.812051633873899
  0
ENDBLK
  5
73
330
71
100
AcDbEntity
  8
0
100
AcDbBlockEnd
  0
BLOCK
  5
75
330
74
100
AcDbEntity
  8
0
100
AcDbBlockBegin
  2
*D6
 70
    1
 10
0
 20
0
  3
*D6
  1

  0
LINE
  5
10A
100
AcDbEntity
  8
0
  6
ByBlock
 62
    8
370
   -3
100
AcDbLine
 10
26.91864914042915
 20
-51.5226763051859
 11
26.91864914042915
 21
-51.5753051228383
  0
LINE
  5
10B
100
AcDbEntity
  8
0
  6
ByBlock
 62
    8
370
   -3
100
AcDbLine
 10
27.6257559216157
 20
-52.22978308637244
 11
26.2115423592426
 21
-50.81556952399935
  0
LINE
  5
10C
100
AcDbEntity
  8
0
  6
ByBlock
 62
    8
370
   -3
100
AcDbLine
 10
27.6257559216157
 20
-55.33504072167726
 11
26.2115423592426
 21
-53.92082715930417
  0
LINE
  5
10D
100
AcDbEntity
  8
0
  6
ByBlock
 62
    8
370
   -3
100
AcDbLine
 10
26.91864914042915
 20
-54.5753051228383
 11
26.91864914042915
 21
-54.62793394049071
  0
MTEXT
  5
10E
100
AcDbEntity
  8
0
  6
CONTINUOUS
 62
    5
370
   -2
100
AcDbMText
 10
26.91864914042915
 20
-53.0753051228383
 30
0
 40
1
 41
1.888888888888951
 71
    5
 72
    1
  1
3.11
  7
standard
210
0
220
0
230
1
 50
0
 73
    2
 44
1
  0
LINE
  5
10F
100
AcDbEntity
  8
0
  6
ByBlock
 62
    8
370
   -2
100
AcDbLine
 10
20.69111475088373
 20
-51.5226763051859
 11
27.91864914042915
 21
-51.5226763051859
  0
LINE
  5
110
100
AcDbEntity
  8
0
  6
ByBlock
 62
    8
370
   -2
100
AcDbLine
 10
21.82654498986659
 20
-54.62793394049071
 11
27.91864914042915
 21
-54.62793394049071
  0
ENDBLK
  5
76
330
74
100
AcDbEntity
  8
0
100
AcDbBlockEnd
  0
BLOCK
  5
78
330
77
100
AcDbEntity
  8
0
100
AcDbBlockBegin
  2
*D22
 70
    1
 10
0
 20
0
  3
*D22
  1

  0
LINE
  5
111
100
AcDbEntity
  8
0
  6
ByBlock
 62
    8
370
   -3
100
AcDbLine
 10
-17.61695495494058
 20
-14.48059694230973
 11
-13.81692926245727
 21
-14.48059694230973
  0
LINE
  5
112
100
AcDbEntity
  8
0
  6
ByBlock
 62
    8
370
   -3
100
AcDbLine
 10
-16.90984817375404
 20
-13.77349016112318
 11
-18.32406173612713
 21
-15.18770372349628
  0
LINE
  5
113
100
AcDbEntity
  8
0
  6
ByBlock
 62
    8
370
   -3
100
AcDbLine
 10
-13.10982248127072
 20
-13.77349016112318
 11
-14.52403604364382
 21
-15.18770372349628
  0
MTEXT
  5
114
100
AcDbEntity
  8
0
  6
CONTINUOUS
 62
    5
370
   -2
100
AcDbMText
 10
-15.71694210869893
 20
-14.48059694230973
 30
0
 40
1
 41
2.333333333333395
 71
    5
 72
    1
  1
3.80
  7
standard
210
0
220
0
230
1
 50
0
 73
    2
 44
1
  0
LINE
  5
115
100
AcDbEntity
  8
0
  6
ByBlock
 62
    8
370
   -2
100
AcDbLine
 10
-17.61695495494058
 20
-22.43040542414937
 11
-17.61695495494058
 21
-13.48059694230973
  0
LINE
  5
116
100
AcDbEntity
  8
0
  6
ByBlock
 62
    8
370
   -2
100
AcDbLine
 10
-13.81692926245727
 20
-18.6279339404907
 11
-13.81692926245727
 21
-13.48059694230973
  0
ENDBLK
  5
79
330
77
100
AcDbEntity
  8
0
100
AcDbBlockEnd
  0
BLOCK
  5
7B
330
7A
100
AcDbEntity
  8
0
100
AcDbBlockBegin
  2
*D15
 70
    1
 10
0
 20
0
  3
*D15
  1

  0
LINE
  5
117
100
AcDbEntity
  8
0
  6
ByBlock
 62
    8
370
   -3
100
AcDbLine
 10
14.3925
 20
-38.56641267535881
 11
18.84820555555552
 21
-38.56641267535881
  0
LINE
  5
118
100
AcDbEntity
  8
0
  6
ByBlock
 62
    8
370
   -3
100
AcDbLine
 10
15.09960678118655
 20
-37.85930589417227
 11
13.68539321881345
 21
-39.27351945654536
  0
LINE
  5
119
100
AcDbEntity
  8
0
  6
ByBlock
 62
    8
370
   -3
100
AcDbLine
 10
28.89990678118654
 20
-37.85930589417227
 11
27.48569321881345
 21
-39.27351945654536
  0
LINE
  5
11A
100
AcDbEntity
  8
0
  6
ByBlock
 62
    8
370
   -3
100
AcDbLine
 10
23.73709444444448
 20
-38.56641267535881
 11
28.1928
 21
-38.56641267535881
  0
MTEXT
  5
11B
100
AcDbEntity
  8
0
  6
CONTINUOUS
 62
    5
370
   -2
100
AcDbMText
 10
21.29265
 20
-38.56641267535881
 30
0
 40
1
 41
2.888888888888951
 71
    5
 72
    1
  1
13.80
  7
standard
210
0
220
0
230
1
 50
0
 73
    2
 44
1
  0
LINE
  5
11C
100
AcDbEntity
  8
0
  6
ByBlock
 62
    8
370
   -2
100
AcDbLine
 10
14.3925
 20
-38.12736742627825
 11
14.3925
 21
-39.56641267535881
  0
LINE
  5
11D
100
AcDbEntity
  8
0
  6
ByBlock
 62
    8
370
   -2
100
AcDbLine
 10
28.1928
 20
-38.12736742627825
 11
28.1928
 21
-39.56641267535881
  0
ENDBLK
  5
7C
330
7A
100
AcDbEntity
  8
0
100
AcDbBlockEnd
  0
BLOCK
  5
7E
330
7D
100
AcDbEntity
  8
0
100
AcDbBlockBegin
  2
*D23
 70
    1
 10
0
 20
0
  3
*D23
  1

  0
LINE
  5
11E
100
AcDbEntity
  8
0
  6
ByBlock
 62
    8
370
   -2
100
AcDbLine
 10
-20.52408868155432
 20
-2.926353218813448
 11
-21.07748660699312
 21
-2.372955293374656
  0
LINE
  5
11F
100
AcDbEntity
  8
0
  6
ByBlock
 62
    8
370
   -2
100
AcDbLine
 10
-14.72397511918123
 20
-2.926353218813451
 11
-14.17057719374244
 21
-2.372955293374659
  0
ARC
  5
120
100
AcDbEntity
  8
0
  6
ByBlock
 62
    8
370
   -3
100
AcDbCircle
 10
-17.62403190036778
 20
-5.826409999999997
 40
3.883922483150753
100
AcDbArc
 50
45
 51
135
  0
SOLID
  5
121
100
AcDbEntity
  8
0
  6
ByBlock
 62
    8
370
   -3
100
AcDbTrace
 10
-20.37037982580657
 20
-3.080062074561204
 30
0
 11
-20.37037982580657
 21
-3.080062074561204
 31
0
 12
-20.37037982580657
 22
-3.080062074561204
 32
0
 13
-20.37037982580657
 23
-3.080062074561204
 33
0
  0
SOLID
  5
122
100
AcDbEntity
  8
0
  6
ByBlock
 62
    8
370
   -3
100
AcDbTrace
 10
-14.87768397492899
 20
-3.080062074561206
 30
0
 11
-14.87768397492899
 21
-3.080062074561206
 31
0
 12
-14.87768397492899
 22
-3.080062074561206
 32
0
 13
-14.87768397492899
 23
-3.080062074561206
 33
0
  0
MTEXT
  5
123
100
AcDbEntity
  8
0
  6
CONTINUOUS
 62
    5
370
   -2
100
AcDbMText
 10
-17.62403190036778
 20
-0.9424875168492446
 30
0
 40
1
 41
1.888888888888951
 71
    8
 72
    1
  1
90%%D
  7
standard
210
0
220
0
230
1
 50
360
 73
    2
 44
1
  0
ENDBLK
  5
7F
330
7D
100
AcDbEntity
  8
0
100
AcDbBlockEnd
  0
BLOCK
  5
81
330
80
100
AcDbEntity
  8
0
100
AcDbBlockBegin
  2
*D26
 70
    1
 10
0
 20
0
  3
*D26
  1

  0
LINE
  5
124
100
AcDbEntity
  8
0
  6
ByBlock
 62
    8
370
   -3
100
AcDbLine
 10
-13.81692926245727
 20
-9.14455616392949
 11
-18.97248481801279
 21
-9.14455616392949
  0
LINE
  5
125
100
AcDbEntity
  8
0
  6
ByBlock
 62
    8
370
   -3
100
AcDbLine
 10
-14.52403604364381
 20
-9.851662945116038
 11
-13.10982248127072
 21
-8.437449382742942
  0
LINE
  5
126
100
AcDbEntity
  8
0
  6
ByBlock
 62
    8
370
   -3
100
AcDbLine
 10
-29.72403604364382
 20
-9.851662945116036
 11
-28.30982248127073
 21
-8.43744938274294
  0
LINE
  5
127
100
AcDbEntity
  8
0
  6
ByBlock
 62
    8
370
   -3
100
AcDbLine
 10
-23.86137370690174
 20
-9.14455616392949
 11
-29.01692926245728
 21
-9.144556163929488
  0
MTEXT
  5
128
100
AcDbEntity
  8
0
  6
CONTINUOUS
 62
    5
370
   -2
100
AcDbMText
 10
-21.41692926245727
 20
-9.14455616392949
 30
0
 40
1
 41
2.888888888888951
 71
    5
 72
    1
  1
15.20
  7
standard
210
0
220
0
230
1
 50
0
 73
    2
 44
1
  0
LINE
  5
129
100
AcDbEntity
  8
0
  6
ByBlock
 62
    8
370
   -2
100
AcDbLine
 10
-13.81692926245727
 20
-6.633499205639442
 11
-13.81692926245727
 21
-10.14455616392949
  0
LINE
  5
12A
100
AcDbEntity
  8
0
  6
ByBlock
 62
    8
370
   -2
100
AcDbLine
 10
-29.01692926245728
 20
-5.586264928475779
 11
-29.01692926245728
 21
-10.14455616392949
  0
ENDBLK
  5
82
330
80
100
AcDbEntity
  8
0
100
AcDbBlockEnd
  0
BLOCK
  5
84
330
83
100
AcDbEntity
  8
0
100
AcDbBlockBegin
  2
*D27
 70
    1
 10
0
 20
0
  3
*D27
  1

  0
LINE
  5
12B
100
AcDbEntity
  8
0
  6
ByBlock
 62
    8
370
   -3
100
AcDbLine
 10
-13.81688190036778
 20
-38.56641267535881
 11
-18.2725874559233
 21
-38.56641267535881
  0
LINE
  5
12C
100
AcDbEntity
  8
0
  6
ByBlock
 62
    8
370
   -3
100
AcDbLine
 10
-14.52398868155433
 20
-39.27351945654536
 11
-13.10977511918123
 21
-37.85930589417227
  0
LINE
  5
12D
100
AcDbEntity
  8
0
  6
ByBlock
 62
    8
370
   -3
100
AcDbLine
 10
-28.32428868155433
 20
-39.27351945654536
 11
-26.91007511918123
 21
-37.85930589417227
  0
LINE
  5
12E
100
AcDbEntity
  8
0
  6
ByBlock
 62
    8
370
   -3
100
AcDbLine
 10
-23.16147634481225
 20
-38.56641267535881
 11
-27.61718190036778
 21
-38.56641267535881
  0
MTEXT
  5
12F
100
AcDbEntity
  8
0
  6
CONTINUOUS
 62
    5
370
   -2
100
AcDbMText
 10
-20.71703190036778
 20
-38.56641267535881
 30
0
 40
1
 41
2.888888888888951
 71
    5
 72
    1
  1
13.80
  7
standard
210
0
220
0
230
1
 50
0
 73
    2
 44
1
  0
LINE
  5
130
100
AcDbEntity
  8
0
  6
ByBlock
 62
    8
370
   -2
100
AcDbLine
 10
-13.81688190036778
 20
-38.12736742627825
 11
-13.81688190036778
 21
-39.56641267535881
  0
LINE
  5
131
100
AcDbEntity
  8
0
  6
ByBlock
 62
    8
370
   -2
100
AcDbLine
 10
-27.61718190036778
 20
-38.12736742627825
 11
-27.61718190036778
 21
-39.56641267535881
  0
ENDBLK
  5
85
330
83
100
AcDbEntity
  8
0
100
AcDbBlockEnd
  0
BLOCK
  5
87
330
86
100
AcDbEntity
  8
0
100
AcDbBlockBegin
  2
*D30
 70
    1
 10
0
 20
0
  3
*D30
  1

  0
LINE
  5
132
100
AcDbEntity
  8
0
  6
ByBlock
 62
    8
370
   -3
100
AcDbLine
 10
-7.57436
 20
-30.6328
 11
-7.57436
 21
-32.7328
  0
LINE
  5
133
100
AcDbEntity
  8
0
  6
ByBlock
 62
    8
370
   -3
100
AcDbLine
 10
-6.867253218813453
 20
-31.33990678118655
 11
-8.281466781186548
 21
-29.92569321881345
  0
LINE
  5
134
100
AcDbEntity
  8
0
  6
ByBlock
 62
    8
370
   -3
100
AcDbLine
 10
-6.867253218813453
 20
-33.43990678118654
 11
-8.281466781186548
 21
-32.02569321881345
  0
MTEXT
  5
135
100
AcDbEntity
  8
0
  6
CONTINUOUS
 62
    5
370
   -2
100
AcDbMText
 10
-4.468804444444446
 20
-31.6828
 30
0
 40
1
 41
2.111111111111111
 71
    5
 72
    1
  1
2.10
  7
standard
210
0
220
0
230
1
 50
0
 73
    2
 44
1
  0
LINE
  5
136
100
AcDbEntity
  8
0
  6
ByBlock
 62
    8
370
   -2
100
AcDbLine
 10
-7.42436
 20
-30.6328
 11
-6.57436
 21
-30.6328
  0
LINE
  5
137
100
AcDbEntity
  8
0
  6
ByBlock
 62
    8
370
   -2
100
AcDbLine
 10
-7.424379999999999
 20
-32.7328
 11
-6.57436
 21
-32.7328
  0
ENDBLK
  5
88
330
86
100
AcDbEntity
  8
0
100
AcDbBlockEnd
  0
BLOCK
  5
8A
330
89
100
AcDbEntity
  8
0
100
AcDbBlockBegin
  2
*D32
 70
    1
 10
0
 20
0
  3
*D32
  1

  0
LINE
  5
138
100
AcDbEntity
  8
0
  6
ByBlock
 62
    8
370
   -3
100
AcDbLine
 10
58.33019677471275
 20
-18.52790000000001
 11
58.33019677471275
 21
-22.82790000000001
  0
LINE
  5
139
100
AcDbEntity
  8
0
  6
ByBlock
 62
    8
370
   -3
100
AcDbLine
 10
59.0373035558993
 20
-19.23500678118656
 11
57.62308999352621
 21
-17.82079321881346
  0
LINE
  5
13A
100
AcDbEntity
  8
0
  6
ByBlock
 62
    8
370
   -3
100
AcDbLine
 10
59.0373035558993
 20
-30.83500678118655
 11
57.62308999352621
 21
-29.42079321881345
  0
LINE
  5
13B
100
AcDbEntity
  8
0
  6
ByBlock
 62
    8
370
   -3
100
AcDbLine
 10
58.33019677471275
 20
-25.82790000000001
 11
58.33019677471275
 21
-30.1279
  0
MTEXT
  5
13C
100
AcDbEntity
  8
0
  6
CONTINUOUS
 62
    5
370
   -2
100
AcDbMText
 10
58.33019677471275
 20
-24.32790000000001
 30
0
 40
1
 41
2.666666666666728
 71
    5
 72
    1
  1
11.60
  7
standard
210
0
220
0
230
1
 50
0
 73
    2
 44
1
  0
LINE
  5
13D
100
AcDbEntity
  8
0
  6
ByBlock
 62
    8
370
   -2
100
AcDbLine
 10
61.1235396051603
 20
-18.52790000000001
 11
57.33019677471275
 21
-18.52790000000001
  0
LINE
  5
13E
100
AcDbEntity
  8
0
  6
ByBlock
 62
    8
370
   -2
100
AcDbLine
 10
61.1235396051603
 20
-30.1279
 11
57.33019677471275
 21
-30.1279
  0
ENDBLK
  5
8B
330
89
100
AcDbEntity
  8
0
100
AcDbBlockEnd
  0
BLOCK
  5
8D
330
8C
100
AcDbEntity
  8
0
100
AcDbBlockBegin
  2
*D12
 70
    1
 10
0
 20
0
  3
*D12
  1

  0
SOLID
  5
13F
100
AcDbEntity
  8
0
  6
ByBlock
 62
    8
370
   -3
100
AcDbTrace
 10
8.408039574786139
 20
-45.22274248808163
 30
0
 11
8.408039574786139
 21
-45.22274248808163
 31
0
 12
8.408039574786139
 22
-45.22274248808163
 32
0
 13
8.408039574786139
 23
-45.22274248808163
 33
0
  0
LINE
  5
140
100
AcDbEntity
  8
0
  6
ByBlock
 62
    8
370
   -3
100
AcDbLine
 10
11
 20
-46.8303
 11
8.408039574786139
 21
-45.22274248808163
  0
MTEXT
  5
141
100
AcDbEntity
  8
0
  6
CONTINUOUS
 62
    5
370
   -2
100
AcDbMText
 10
10.49462184243489
 20
-44.75178660868973
 30
0
 40
1
 41
2.333333333333457
 71
    5
 72
    1
  1
3.05
  7
standard
210
0
220
0
230
1
 50
328.1924329149854
 73
    2
 44
1
  0
ENDBLK
  5
8E
330
8C
100
AcDbEntity
  8
0
100
AcDbBlockEnd
  0
BLOCK
  5
90
330
8F
100
AcDbEntity
  8
0
100
AcDbBlockBegin
  2
*D33
 70
    1
 10
0
 20
0
  3
*D33
  1

  0
LINE
  5
142
100
AcDbEntity
  8
0
  6
ByBlock
 62
    8
370
   -3
100
AcDbLine
 10
65.62363960516031
 20
-13.07677256336338
 11
65.95697293849361
 21
-13.07677256336338
  0
LINE
  5
143
100
AcDbEntity
  8
0
  6
ByBlock
 62
    8
370
   -3
100
AcDbLine
 10
66.33074638634686
 20
-12.36966578217683
 11
64.91653282397375
 21
-13.78387934454993
  0
LINE
  5
144
100
AcDbEntity
  8
0
  6
ByBlock
 62
    8
370
   -3
100
AcDbLine
 10
71.33074638634686
 20
-12.36966578217683
 11
69.91653282397375
 21
-13.78387934454993
  0
LINE
  5
145
100
AcDbEntity
  8
0
  6
ByBlock
 62
    8
370
   -3
100
AcDbLine
 10
70.29030627182701
 20
-13.07677256336338
 11
70.62363960516031
 21
-13.07677256336338
  0
MTEXT
  5
146
100
AcDbEntity
  8
0
  6
CONTINUOUS
 62
    5
370
   -2
100
AcDbMText
 10
68.12363960516031
 20
-13.07677256336338
 30
0
 40
1
 41
2.333333333333395
 71
    5
 72
    1
  1
5.00
  7
standard
210
0
220
0
230
1
 50
0
 73
    2
 44
1
  0
LINE
  5
147
100
AcDbEntity
  8
0
  6
ByBlock
 62
    8
370
   -2
100
AcDbLine
 10
65.62363960516031
 20
-18.52793338134606
 11
65.62363960516031
 21
-12.07677256336338
  0
LINE
  5
148
100
AcDbEntity
  8
0
  6
ByBlock
 62
    8
370
   -2
100
AcDbLine
 10
70.62363960516031
 20
-17.52790000000001
 11
70.62363960516031
 21
-12.07677256336338
  0
ENDBLK
  5
91
330
8F
100
AcDbEntity
  8
0
100
AcDbBlockEnd
  0
BLOCK
  5
93
330
92
100
AcDbEntity
  8
0
100
AcDbBlockBegin
  2
*D31
 70
    1
 10
0
 20
0
  3
*D31
  1

  0
LINE
  5
149
100
AcDbEntity
  8
0
  6
ByBlock
 62
    8
370
   -3
100
AcDbLine
 10
49.62276007407894
 20
-18.52790000000001
 11
49.62276007407894
 21
-34.82791697024535
  0
LINE
  5
14A
100
AcDbEntity
  8
0
  6
ByBlock
 62
    8
370
   -3
100
AcDbLine
 10
50.32986685526549
 20
-19.23500678118656
 11
48.91565329289239
 21
-17.82079321881346
  0
LINE
  5
14B
100
AcDbEntity
  8
0
  6
ByBlock
 62
    8
370
   -3
100
AcDbLine
 10
50.32986685526549
 20
-54.83504072167725
 11
48.91565329289239
 21
-53.42082715930415
  0
LINE
  5
14C
100
AcDbEntity
  8
0
  6
ByBlock
 62
    8
370
   -3
100
AcDbLine
 10
49.62276007407894
 20
-37.82791697024535
 11
49.62276007407894
 21
-54.1279339404907
  0
MTEXT
  5
14D
100
AcDbEntity
  8
0
  6
CONTINUOUS
 62
    5
370
   -2
100
AcDbMText
 10
49.62276007407894
 20
-36.32791697024535
 30
0
 40
1
 41
3.111111111111297
 71
    5
 72
    1
  1
35.60
  7
standard
210
0
220
0
230
1
 50
0
 73
    2
 44
1
  0
LINE
  5
14E
100
AcDbEntity
  8
0
  6
ByBlock
 62
    8
370
   -2
100
AcDbLine
 10
61.1235396051603
 20
-18.52790000000001
 11
48.62276007407894
 21
-18.52790000000001
  0
LINE
  5
14F
100
AcDbEntity
  8
0
  6
ByBlock
 62
    8
370
   -2
100
AcDbLine
 10
69.62363960516031
 20
-54.1279339404907
 11
48.62276007407894
 21
-54.1279339404907
  0
ENDBLK
  5
94
330
92
100
AcDbEntity
  8
0
100
AcDbBlockEnd
  0
BLOCK
  5
96
330
95
100
AcDbEntity
  8
0
100
AcDbBlockBegin
  2
*D35
 70
    1
 10
0
 20
0
  3
*D35
  1

  0
LINE
  5
150
100
AcDbEntity
  8
0
  6
ByBlock
 62
    8
370
   -3
100
AcDbLine
 10
70.62363960516031
 20
-58.90920841984568
 11
75.28490071627141
 21
-58.90920841984568
  0
LINE
  5
151
100
AcDbEntity
  8
0
  6
ByBlock
 62
    8
370
   -3
100
AcDbLine
 10
71.33074638634686
 20
-58.20210163865914
 11
69.91653282397375
 21
-59.61631520103223
  0
LINE
  5
152
100
AcDbEntity
  8
0
  6
ByBlock
 62
    8
370
   -3
100
AcDbLine
 10
85.43104638634685
 20
-58.20210163865914
 11
84.01683282397374
 21
-59.61631520103223
  0
LINE
  5
153
100
AcDbEntity
  8
0
  6
ByBlock
 62
    8
370
   -3
100
AcDbLine
 10
80.06267849404918
 20
-58.90920841984568
 11
84.7239396051603
 21
-58.90920841984568
  0
MTEXT
  5
154
100
AcDbEntity
  8
0
  6
CONTINUOUS
 62
    5
370
   -2
100
AcDbMText
 10
77.67378960516029
 20
-58.90920841984568
 30
0
 40
1
 41
2.777777777777778
 71
    5
 72
    1
  1
14.10
  7
standard
210
0
220
0
230
1
 50
0
 73
    2
 44
1
  0
LINE
  5
155
100
AcDbEntity
  8
0
  6
ByBlock
 62
    8
370
   -2
100
AcDbLine
 10
70.62363960516031
 20
-55.12793394049071
 11
70.62363960516031
 21
-59.90920841984568
  0
LINE
  5
156
100
AcDbEntity
  8
0
  6
ByBlock
 62
    8
370
   -2
100
AcDbLine
 10
84.7239396051603
 20
-48.06560000000001
 11
84.7239396051603
 21
-59.90920841984568
  0
ENDBLK
  5
97
330
95
100
AcDbEntity
  8
0
100
AcDbBlockEnd
  0
BLOCK
  5
99
330
98
100
AcDbEntity
  8
0
100
AcDbBlockBegin
  2
*D5
 70
    1
 10
0
 20
0
  3
*D5
  1

  0
LINE
  5
157
100
AcDbEntity
  8
0
  6
ByBlock
 62
    8
370
   -3
100
AcDbLine
 10
39.16938130025711
 20
-31.68279880010088
 11
39.16938130025711
 21
-27.15536637029579
  0
LINE
  5
158
100
AcDbEntity
  8
0
  6
ByBlock
 62
    8
370
   -3
100
AcDbLine
 10
38.46227451907056
 20
-30.97569201891434
 11
39.87648808144365
 21
-32.38990558128743
  0
LINE
  5
159
100
AcDbEntity
  8
0
  6
ByBlock
 62
    8
370
   -3
100
AcDbLine
 10
38.46227451907056
 20
-18.92082715930416
 11
39.87648808144365
 21
-20.33504072167726
  0
LINE
  5
15A
100
AcDbEntity
  8
0
  6
ByBlock
 62
    8
370
   -3
100
AcDbLine
 10
39.16938130025711
 20
-24.15536637029579
 11
39.16938130025711
 21
-19.62793394049071
  0
MTEXT
  5
15B
100
AcDbEntity
  8
0
  6
CONTINUOUS
 62
    5
370
   -2
100
AcDbMText
 10
39.16938130025711
 20
-25.65536637029579
 30
0
 40
1
 41
2.888888888888951
 71
    5
 72
    1
  1
12.05
  7
standard
210
0
220
0
230
1
 50
0
 73
    2
 44
1
  0
LINE
  5
15C
100
AcDbEntity
  8
0
  6
ByBlock
 62
    8
370
   -2
100
AcDbLine
 10
18.55800076131789
 20
-31.68279880010088
 11
40.16938130025711
 21
-31.68279880010088
  0
LINE
  5
15D
100
AcDbEntity
  8
0
  6
ByBlock
 62
    8
370
   -2
100
AcDbLine
 10
29.59254736208949
 20
-19.62793394049071
 11
40.16938130025711
 21
-19.62793394049071
  0
ENDBLK
  5
9A
330
98
100
AcDbEntity
  8
0
100
AcDbBlockEnd
  0
BLOCK
  5
9C
330
9B
100
AcDbEntity
  8
0
100
AcDbBlockBegin
  2
*D9
 70
    1
 10
0
 20
0
  3
*D9
  1

  0
LINE
  5
15E
100
AcDbEntity
  8
0
  6
ByBlock
 62
    8
370
   -3
100
AcDbLine
 10
17.55800076131789
 20
-17.01248045676265
 11
14.39254736208949
 21
-17.01248045676265
  0
LINE
  5
15F
100
AcDbEntity
  8
0
  6
ByBlock
 62
    8
370
   -3
100
AcDbLine
 10
16.85089398013134
 20
-17.7195872379492
 11
18.26510754250443
 21
-16.3053736755761
  0
LINE
  5
160
100
AcDbEntity
  8
0
  6
ByBlock
 62
    8
370
   -3
100
AcDbLine
 10
13.68544058090294
 20
-17.7195872379492
 11
15.09965414327604
 21
-16.3053736755761
  0
MTEXT
  5
161
100
AcDbEntity
  8
0
  6
CONTINUOUS
 62
    5
370
   -2
100
AcDbMText
 10
15.97527406170369
 20
-17.01248045676265
 30
0
 40
1
 41
2.111111111111173
 71
    5
 72
    1
  1
3.17
  7
standard
210
0
220
0
230
1
 50
0
 73
    2
 44
1
  0
LINE
  5
162
100
AcDbEntity
  8
0
  6
ByBlock
 62
    8
370
   -2
100
AcDbLine
 10
17.55800076131789
 20
-30.68279880010088
 11
17.55800076131789
 21
-16.01248045676265
  0
LINE
  5
163
100
AcDbEntity
  8
0
  6
ByBlock
 62
    8
370
   -2
100
AcDbLine
 10
14.39254736208949
 20
-18.62793394049071
 11
14.39254736208949
 21
-16.01248045676265
  0
ENDBLK
  5
9D
330
9B
100
AcDbEntity
  8
0
100
AcDbBlockEnd
  0
BLOCK
  5
9F
330
9E
100
AcDbEntity
  8
0
100
AcDbBlockBegin
  2
*D3
 70
    1
 10
0
 20
0
  3
*D3
  1

  0
LINE
  5
164
100
AcDbEntity
  8
0
  6
ByBlock
 62
    8
370
   -3
100
AcDbLine
 10
31.86289081928348
 20
-22.65589700778907
 11
31.86289081928348
 21
-22.64191547413989
  0
LINE
  5
165
100
AcDbEntity
  8
0
  6
ByBlock
 62
    8
370
   -3
100
AcDbLine
 10
31.15578403809693
 20
-21.94879022660252
 11
32.56999760047002
 21
-23.36300378897561
  0
LINE
  5
166
100
AcDbEntity
  8
0
  6
ByBlock
 62
    8
370
   -3
100
AcDbLine
 10
31.15578403809693
 20
-18.92082715930416
 11
32.56999760047002
 21
-20.33504072167726
  0
LINE
  5
167
100
AcDbEntity
  8
0
  6
ByBlock
 62
    8
370
   -3
100
AcDbLine
 10
31.86289081928348
 20
-19.64191547413989
 11
31.86289081928348
 21
-19.62793394049071
  0
MTEXT
  5
168
100
AcDbEntity
  8
0
  6
CONTINUOUS
 62
    5
370
   -2
100
AcDbMText
 10
31.86289081928348
 20
-21.14191547413989
 30
0
 40
1
 41
2.333333333333457
 71
    5
 72
    1
  1
3.03
  7
standard
210
0
220
0
230
1
 50
0
 73
    2
 44
1
  0
LINE
  5
169
100
AcDbEntity
  8
0
  6
ByBlock
 62
    8
370
   -2
100
AcDbLine
 10
24.65222903702402
 20
-22.65589700778907
 11
32.86289081928348
 21
-22.65589700778907
  0
LINE
  5
16A
100
AcDbEntity
  8
0
  6
ByBlock
 62
    8
370
   -2
100
AcDbLine
 10
29.59254736208949
 20
-19.62793394049071
 11
32.86289081928348
 21
-19.62793394049071
  0
ENDBLK
  5
A0
330
9E
100
AcDbEntity
  8
0
100
AcDbBlockEnd
  0
BLOCK
  5
A2
330
A1
100
AcDbEntity
  8
0
100
AcDbBlockBegin
  2
*D25
 70
    1
 10
0
 20
0
  3
*D25
  1

  0
LINE
  5
16B
100
AcDbEntity
  8
0
  6
ByBlock
 62
    8
370
   -3
100
AcDbLine
 10
-9.280922972437766
 20
-4.833459999999999
 11
-9.280922972437766
 21
-5.633499205639442
  0
LINE
  5
16C
100
AcDbEntity
  8
0
  6
ByBlock
 62
    8
370
   -3
100
AcDbLine
 10
-8.573816191251218
 20
-5.540566781186547
 11
-9.988029753624314
 21
-4.126353218813451
  0
LINE
  5
16D
100
AcDbEntity
  8
0
  6
ByBlock
 62
    8
370
   -3
100
AcDbLine
 10
-8.573816191251218
 20
-6.34060598682599
 11
-9.988029753624314
 21
-4.926392424452894
  0
MTEXT
  5
16E
100
AcDbEntity
  8
0
  6
CONTINUOUS
 62
    5
370
   -2
100
AcDbMText
 10
-6.714236702951379
 20
-5.23347960281972
 30
0
 40
1
 41
2.333333333333333
 71
    5
 72
    1
  1
0.80
  7
standard
210
0
220
0
230
1
 50
0
 73
    2
 44
1
  0
LINE
  5
16F
100
AcDbEntity
  8
0
  6
ByBlock
 62
    8
370
   -2
100
AcDbLine
 10
-15.63108190036778
 20
-4.833459999999998
 11
-8.280922972437766
 21
-4.833459999999999
  0
LINE
  5
170
100
AcDbEntity
  8
0
  6
ByBlock
 62
    8
370
   -2
100
AcDbLine
 10
-15.63108190036778
 20
-5.633499205639442
 11
-8.280922972437766
 21
-5.633499205639442
  0
ENDBLK
  5
A3
330
A1
100
AcDbEntity
  8
0
100
AcDbBlockEnd
  0
BLOCK
  5
A5
330
A4
100
AcDbEntity
  8
0
100
AcDbBlockBegin
  2
*D2
 70
    1
 10
0
 20
0
  3
*D2
  1

  0
LINE
  5
171
100
AcDbEntity
  8
0
  6
ByBlock
 62
    8
370
   -3
100
AcDbLine
 10
15.3925
 20
-43.34451871795633
 11
14.39254736208949
 21
-43.34451871795633
  0
LINE
  5
172
100
AcDbEntity
  8
0
  6
ByBlock
 62
    8
370
   -3
100
AcDbLine
 10
14.68539321881345
 20
-44.05162549914288
 11
16.09960678118655
 21
-42.63741193676979
  0
LINE
  5
173
100
AcDbEntity
  8
0
  6
ByBlock
 62
    8
370
   -3
100
AcDbLine
 10
13.68544058090294
 20
-44.05162549914288
 11
15.09965414327604
 21
-42.63741193676979
  0
MTEXT
  5
174
100
AcDbEntity
  8
0
  6
CONTINUOUS
 62
    5
370
   -2
100
AcDbMText
 10
17.44805555555555
 20
-43.34451871795633
 30
0
 40
1
 41
2.111111111111111
 71
    5
 72
    1
  1
1.00
  7
standard
210
0
220
0
230
1
 50
0
 73
    2
 44
1
  0
LINE
  5
175
100
AcDbEntity
  8
0
  6
ByBlock
 62
    8
370
   -2
100
AcDbLine
 10
15.3925
 20
-43.54423202250021
 11
15.3925
 21
-42.34451871795633
  0
LINE
  5
176
100
AcDbEntity
  8
0
  6
ByBlock
 62
    8
370
   -2
100
AcDbLine
 10
14.39254736208949
 20
-43.54423202250021
 11
14.39254736208949
 21
-42.34451871795633
  0
ENDBLK
  5
A6
330
A4
100
AcDbEntity
  8
0
100
AcDbBlockEnd
  0
BLOCK
  5
A8
330
A7
100
AcDbEntity
  8
0
100
AcDbBlockBegin
  2
*D13
 70
    1
 10
0
 20
0
  3
*D13
  1

  0
LINE
  5
177
100
AcDbEntity
  8
0
  6
ByBlock
 62
    8
370
   -3
100
AcDbLine
 10
5.190416558880555
 20
-46.8303
 11
5.190416558880555
 21
-49.22911697024536
  0
LINE
  5
178
100
AcDbEntity
  8
0
  6
ByBlock
 62
    8
370
   -3
100
AcDbLine
 10
5.897523340067103
 20
-47.53740678118655
 11
4.483309777694007
 21
-46.12319321881346
  0
LINE
  5
179
100
AcDbEntity
  8
0
  6
ByBlock
 62
    8
370
   -3
100
AcDbLine
 10
5.897523340067101
 20
-55.33504072167726
 11
4.483309777694007
 21
-53.92082715930417
  0
LINE
  5
17A
100
AcDbEntity
  8
0
  6
ByBlock
 62
    8
370
   -3
100
AcDbLine
 10
5.190416558880554
 20
-52.22911697024536
 11
5.190416558880554
 21
-54.62793394049071
  0
MTEXT
  5
17B
100
AcDbEntity
  8
0
  6
CONTINUOUS
 62
    5
370
   -2
100
AcDbMText
 10
5.190416558880555
 20
-50.72911697024536
 30
0
 40
1
 41
2.333333333333333
 71
    5
 72
    1
  1
7.80
  7
standard
210
0
220
0
230
1
 50
0
 73
    2
 44
1
  0
LINE
  5
17C
100
AcDbEntity
  8
0
  6
ByBlock
 62
    8
370
   -2
100
AcDbLine
 10
10
 20
-46.8303
 11
4.190416558880555
 21
-46.8303
  0
LINE
  5
17D
100
AcDbEntity
  8
0
  6
ByBlock
 62
    8
370
   -2
100
AcDbLine
 10
6
 20
-54.62793394049071
 11
4.190416558880554
 21
-54.62793394049071
  0
ENDBLK
  5
A9
330
A7
100
AcDbEntity
  8
0
100
AcDbBlockEnd
  0
BLOCK
  5
AB
330
AA
100
AcDbEntity
  8
0
100
AcDbBlockBegin
  2
*D21
 70
    1
 10
0
 20
0
  3
*D21
  1

  0
LINE
  5
17E
100
AcDbEntity
  8
0
  6
ByBlock
 62
    8
370
   -3
100
AcDbLine
 10
-23.0766109373918
 20
-12.03755144590778
 11
-20.61343676659127
 21
-12.03755144590778
  0
LINE
  5
17F
100
AcDbEntity
  8
0
  6
ByBlock
 62
    8
370
   -3
100
AcDbLine
 10
-22.36950415620525
 20
-11.33044466472123
 11
-23.78371771857834
 21
-12.74465822709433
  0
LINE
  5
180
100
AcDbEntity
  8
0
  6
ByBlock
 62
    8
370
   -3
100
AcDbLine
 10
-13.10982248127072
 20
-11.33044466472123
 11
-14.52403604364382
 21
-12.74465822709433
  0
LINE
  5
181
100
AcDbEntity
  8
0
  6
ByBlock
 62
    8
370
   -3
100
AcDbLine
 10
-16.28010343325781
 20
-12.03755144590778
 11
-13.81692926245727
 21
-12.03755144590778
  0
MTEXT
  5
182
100
AcDbEntity
  8
0
  6
CONTINUOUS
 62
    5
370
   -2
100
AcDbMText
 10
-18.44677009992454
 20
-12.03755144590778
 30
0
 40
1
 41
2.333333333333457
 71
    5
 72
    1
  1
9.26
  7
standard
210
0
220
0
230
1
 50
0
 73
    2
 44
1
  0
LINE
  5
183
100
AcDbEntity
  8
0
  6
ByBlock
 62
    8
370
   -2
100
AcDbLine
 10
-23.0766109373918
 20
-21.65589700778907
 11
-23.0766109373918
 21
-11.03755144590778
  0
LINE
  5
184
100
AcDbEntity
  8
0
  6
ByBlock
 62
    8
370
   -2
100
AcDbLine
 10
-13.81692926245727
 20
-18.6279339404907
 11
-13.81692926245727
 21
-11.03755144590778
  0
ENDBLK
  5
AC
330
AA
100
AcDbEntity
  8
0
100
AcDbBlockEnd
  0
BLOCK
  5
AE
330
AD
100
AcDbEntity
  8
0
100
AcDbBlockBegin
  2
*D11
 70
    1
 10
0
 20
0
  3
*D11
  1

  0
LINE
  5
185
100
AcDbEntity
  8
0
  6
ByBlock
 62
    8
370
   -3
100
AcDbLine
 10
18.1925730545728
 20
-14.48059694230973
 11
14.39254736208949
 21
-14.48059694230973
  0
LINE
  5
186
100
AcDbEntity
  8
0
  6
ByBlock
 62
    8
370
   -3
100
AcDbLine
 10
17.48546627338625
 20
-15.18770372349628
 11
18.89967983575935
 21
-13.77349016112318
  0
LINE
  5
187
100
AcDbEntity
  8
0
  6
ByBlock
 62
    8
370
   -3
100
AcDbLine
 10
13.68544058090294
 20
-15.18770372349628
 11
15.09965414327604
 21
-13.77349016112318
  0
MTEXT
  5
188
100
AcDbEntity
  8
0
  6
CONTINUOUS
 62
    5
370
   -2
100
AcDbMText
 10
16.29256020833115
 20
-14.48059694230973
 30
0
 40
1
 41
2.333333333333395
 71
    5
 72
    1
  1
3.80
  7
standard
210
0
220
0
230
1
 50
0
 73
    2
 44
1
  0
LINE
  5
189
100
AcDbEntity
  8
0
  6
ByBlock
 62
    8
370
   -2
100
AcDbLine
 10
18.1925730545728
 20
-22.43040542414937
 11
18.1925730545728
 21
-13.48059694230973
  0
LINE
  5
18A
100
AcDbEntity
  8
0
  6
ByBlock
 62
    8
370
   -2
100
AcDbLine
 10
14.39254736208949
 20
-18.62793394049071
 11
14.39254736208949
 21
-13.48059694230973
  0
ENDBLK
  5
AF
330
AD
100
AcDbEntity
  8
0
100
AcDbBlockEnd
  0
BLOCK
  5
B1
330
B0
100
AcDbEntity
  8
0
100
AcDbBlockBegin
  2
*D10
 70
    1
 10
0
 20
0
  3
*D10
  1

  0
LINE
  5
18B
100
AcDbEntity
  8
0
  6
ByBlock
 62
    8
370
   -3
100
AcDbLine
 10
23.65222903702402
 20
-12.03755144590778
 11
21.18905486622348
 21
-12.03755144590778
  0
LINE
  5
18C
100
AcDbEntity
  8
0
  6
ByBlock
 62
    8
370
   -3
100
AcDbLine
 10
22.94512225583748
 20
-12.74465822709433
 11
24.35933581821057
 21
-11.33044466472123
  0
LINE
  5
18D
100
AcDbEntity
  8
0
  6
ByBlock
 62
    8
370
   -3
100
AcDbLine
 10
13.68544058090294
 20
-12.74465822709433
 11
15.09965414327604
 21
-11.33044466472123
  0
LINE
  5
18E
100
AcDbEntity
  8
0
  6
ByBlock
 62
    8
370
   -3
100
AcDbLine
 10
16.85572153289002
 20
-12.03755144590778
 11
14.39254736208949
 21
-12.03755144590778
  0
MTEXT
  5
18F
100
AcDbEntity
  8
0
  6
CONTINUOUS
 62
    5
370
   -2
100
AcDbMText
 10
19.02238819955675
 20
-12.03755144590778
 30
0
 40
1
 41
2.333333333333457
 71
    5
 72
    1
  1
9.26
  7
standard
210
0
220
0
230
1
 50
0
 73
    2
 44
1
  0
LINE
  5
190
100
AcDbEntity
  8
0
  6
ByBlock
 62
    8
370
   -2
100
AcDbLine
 10
23.65222903702402
 20
-21.65589700778907
 11
23.65222903702402
 21
-11.03755144590778
  0
LINE
  5
191
100
AcDbEntity
  8
0
  6
ByBlock
 62
    8
370
   -2
100
AcDbLine
 10
14.39254736208949
 20
-18.62793394049071
 11
14.39254736208949
 21
-11.03755144590778
  0
ENDBLK
  5
B2
330
B0
100
AcDbEntity
  8
0
100
AcDbBlockEnd
  0
BLOCK
  5
B4
330
B3
100
AcDbEntity
  8
0
100
AcDbBlockBegin
  2
*D19
 70
    1
 10
0
 20
0
  3
*D19
  1

  0
LINE
  5
192
100
AcDbEntity
  8
0
  6
ByBlock
 62
    8
370
   -3
100
AcDbLine
 10
-38.59376320062488
 20
-31.68279880010087
 11
-38.59376320062488
 21
-27.15536637029578
  0
LINE
  5
193
100
AcDbEntity
  8
0
  6
ByBlock
 62
    8
370
   -3
100
AcDbLine
 10
-39.30086998181142
 20
-30.97569201891432
 11
-37.88665641943833
 21
-32.38990558128742
  0
LINE
  5
194
100
AcDbEntity
  8
0
  6
ByBlock
 62
    8
370
   -3
100
AcDbLine
 10
-39.30086998181142
 20
-18.92082715930415
 11
-37.88665641943833
 21
-20.33504072167725
  0
LINE
  5
195
100
AcDbEntity
  8
0
  6
ByBlock
 62
    8
370
   -3
100
AcDbLine
 10
-38.59376320062488
 20
-24.15536637029578
 11
-38.59376320062488
 21
-19.6279339404907
  0
MTEXT
  5
196
100
AcDbEntity
  8
0
  6
CONTINUOUS
 62
    5
370
   -2
100
AcDbMText
 10
-38.59376320062488
 20
-25.65536637029578
 30
0
 40
1
 41
2.888888888888951
 71
    5
 72
    1
  1
12.05
  7
standard
210
0
220
0
230
1
 50
0
 73
    2
 44
1
  0
LINE
  5
197
100
AcDbEntity
  8
0
  6
ByBlock
 62
    8
370
   -2
100
AcDbLine
 10
-17.98238266168567
 20
-31.68279880010087
 11
-39.59376320062488
 21
-31.68279880010087
  0
LINE
  5
198
100
AcDbEntity
  8
0
  6
ByBlock
 62
    8
370
   -2
100
AcDbLine
 10
-29.01692926245727
 20
-19.6279339404907
 11
-39.59376320062488
 21
-19.6279339404907
  0
ENDBLK
  5
B5
330
B3
100
AcDbEntity
  8
0
100
AcDbBlockEnd
  0
BLOCK
  5
B7
330
B6
100
AcDbEntity
  8
0
100
AcDbBlockBegin
  2
*D4
 70
    1
 10
0
 20
0
  3
*D4
  1

  0
LINE
  5
199
100
AcDbEntity
  8
0
  6
ByBlock
 62
    8
370
   -3
100
AcDbLine
 10
35.76334814371301
 20
-23.43040542414937
 11
35.76334814371301
 21
-23.02916968232004
  0
LINE
  5
19A
100
AcDbEntity
  8
0
  6
ByBlock
 62
    8
370
   -3
100
AcDbLine
 10
35.05624136252646
 20
-22.72329864296282
 11
36.47045492489956
 21
-24.13751220533592
  0
LINE
  5
19B
100
AcDbEntity
  8
0
  6
ByBlock
 62
    8
370
   -3
100
AcDbLine
 10
35.05624136252646
 20
-18.92082715930416
 11
36.47045492489956
 21
-20.33504072167726
  0
LINE
  5
19C
100
AcDbEntity
  8
0
  6
ByBlock
 62
    8
370
   -3
100
AcDbLine
 10
35.76334814371301
 20
-20.02916968232004
 11
35.76334814371301
 21
-19.62793394049071
  0
MTEXT
  5
19D
100
AcDbEntity
  8
0
  6
CONTINUOUS
 62
    5
370
   -2
100
AcDbMText
 10
35.76334814371301
 20
-21.52916968232004
 30
0
 40
1
 41
2.333333333333395
 71
    5
 72
    1
  1
3.80
  7
standard
210
0
220
0
230
1
 50
0
 73
    2
 44
1
  0
LINE
  5
19E
100
AcDbEntity
  8
0
  6
ByBlock
 62
    8
370
   -2
100
AcDbLine
 10
19.1925730545728
 20
-23.43040542414937
 11
36.76334814371301
 21
-23.43040542414937
  0
LINE
  5
19F
100
AcDbEntity
  8
0
  6
ByBlock
 62
    8
370
   -2
100
AcDbLine
 10
29.59254736208949
 20
-19.62793394049071
 11
36.76334814371301
 21
-19.62793394049071
  0
ENDBLK
  5
B8
330
B6
100
AcDbEntity
  8
0
100
AcDbBlockEnd
  0
BLOCK
  5
BA
330
B9
100
AcDbEntity
  8
0
100
AcDbBlockBegin
  2
*U13
 70
    0
 10
0
 20
0
  3
*U13
  1

  0
LINE
  5
1A0
100
AcDbEntity
  8
0
  6
ByLayer
 62
  256
370
   -1
100
AcDbLine
 10
-215.394592
 20
-57.102196
 11
-215.394592
 21
-43.390755
  0
LINE
  5
1A1
100
AcDbEntity
  8
0
  6
ByLayer
 62
  256
370
   -1
100
AcDbLine
 10
-231.308167
 20
-57.102196
 11
-231.308167
 21
-43.390755
  0
LINE
  5
1A2
100
AcDbEntity
  8
0
  6
ByLayer
 62
  256
370
   -1
100
AcDbLine
 10
-194.394592
 20
-46.390755
 11
-215.394592
 21
-46.390755
  0
LINE
  5
1A3
100
AcDbEntity
  8
0
  6
ByLayer
 62
  256
370
   -1
100
AcDbLine
 10
-215.394592
 20
-46.390755
 11
-206.994598
 21
-47.818756
  0
LINE
  5
1A4
100
AcDbEntity
  8
0
  6
ByLayer
 62
  256
370
   -1
100
AcDbLine
 10
-206.994598
 20
-47.818756
 11
-206.994598
 21
-44.962757
  0
LINE
  5
1A5
100
AcDbEntity
  8
0
  6
ByLayer
 62
  256
370
   -1
100
AcDbLine
 10
-206.994598
 20
-44.962757
 11
-215.394592
 21
-46.390755
  0
LINE
  5
1A6
100
AcDbEntity
  8
0
  6
ByLayer
 62
  256
370
   -1
100
AcDbLine
 10
-215.394592
 20
-46.390755
 11
-207.658188
 21
-47.054356
  0
LINE
  5
1A7
100
AcDbEntity
  8
0
  6
ByLayer
 62
  256
370
   -1
100
AcDbLine
 10
-207.658188
 20
-47.054356
 11
-207.658188
 21
-45.727154
  0
LINE
  5
1A8
100
AcDbEntity
  8
0
  6
ByLayer
 62
  256
370
   -1
100
AcDbLine
 10
-207.658188
 20
-45.727154
 11
-211.463394
 21
-46.054756
  0
LINE
  5
1A9
100
AcDbEntity
  8
0
  6
ByLayer
 62
  256
370
   -1
100
AcDbLine
 10
-215.394592
 20
-46.390755
 11
-252.308167
 21
-46.390755
  0
LINE
  5
1AA
100
AcDbEntity
  8
0
  6
ByLayer
 62
  256
370
   -1
100
AcDbLine
 10
-231.308167
 20
-46.390755
 11
-239.70816
 21
-44.962753
  0
LINE
  5
1AB
100
AcDbEntity
  8
0
  6
ByLayer
 62
  256
370
   -1
100
AcDbLine
 10
-239.70816
 20
-44.962753
 11
-239.70816
 21
-47.818752
  0
LINE
  5
1AC
100
AcDbEntity
  8
0
  6
ByLayer
 62
  256
370
   -1
100
AcDbLine
 10
-239.70816
 20
-47.818752
 11
-231.308167
 21
-46.390755
  0
LINE
  5
1AD
100
AcDbEntity
  8
0
  6
ByLayer
 62
  256
370
   -1
100
AcDbLine
 10
-231.308167
 20
-46.390755
 11
-239.044571
 21
-45.727154
  0
LINE
  5
1AE
100
AcDbEntity
  8
0
  6
ByLayer
 62
  256
370
   -1
100
AcDbLine
 10
-239.044571
 20
-45.727154
 11
-239.044571
 21
-47.054356
  0
LINE
  5
1AF
100
AcDbEntity
  8
0
  6
ByLayer
 62
  256
370
   -1
100
AcDbLine
 10
-239.044571
 20
-47.054356
 11
-235.239365
 21
-46.726753
  0
POINT
  5
1B0
100
AcDbEntity
  8
DEFPOINTS
  6
ByLayer
 62
  256
370
   -1
100
AcDbPoint
 10
-231.308167
 20
-61.302197
  0
POINT
  5
1B1
100
AcDbEntity
  8
DEFPOINTS
  6
ByLayer
 62
  256
370
   -1
100
AcDbPoint
 10
-215.394592
 20
-61.302197
  0
TEXT
  5
1B2
100
AcDbEntity
  8
0
  6
ByLayer
 62
  256
370
   -1
100
AcDbText
 10
-221.569717
 20
-43.390755
 30
0
 40
6
  1
15.91
 50
0
 41
1
 51
0
  7
standard
 71
    0
 72
    1
 11
-221.569717
 21
-43.390755
 31
0
210
0
220
0
230
1
100
AcDbText
  0
ENDBLK
  5
BB
330
B9
100
AcDbEntity
  8
0
100
AcDbBlockEnd
  0
BLOCK
  5
BD
330
BC
100
AcDbEntity
  8
0
100
AcDbBlockBegin
  2
*U14
 70
    0
 10
0
 20
0
  3
*U14
  1

  0
LINE
  5
1B3
100
AcDbEntity
  8
0
  6
ByLayer
 62
  256
370
   -1
100
AcDbLine
 10
-208.351379
 20
-80.24031100000001
 11
-208.351379
 21
-91.042198
  0
LINE
  5
1B4
100
AcDbEntity
  8
0
  6
ByLayer
 62
  256
370
   -1
100
AcDbLine
 10
-238.351379
 20
-80.24031100000001
 11
-238.351379
 21
-91.042198
  0
LINE
  5
1B5
100
AcDbEntity
  8
0
  6
ByLayer
 62
  256
370
   -1
100
AcDbLine
 10
-187.351379
 20
-88.042198
 11
-208.351379
 21
-88.042198
  0
LINE
  5
1B6
100
AcDbEntity
  8
0
  6
ByLayer
 62
  256
370
   -1
100
AcDbLine
 10
-208.351379
 20
-88.042198
 11
-199.951385
 21
-89.47020000000001
  0
LINE
  5
1B7
100
AcDbEntity
  8
0
  6
ByLayer
 62
  256
370
   -1
100
AcDbLine
 10
-199.951385
 20
-89.47020000000001
 11
-199.951385
 21
-86.614197
  0
LINE
  5
1B8
100
AcDbEntity
  8
0
  6
ByLayer
 62
  256
370
   -1
100
AcDbLine
 10
-199.951385
 20
-86.614197
 11
-208.351379
 21
-88.042198
  0
LINE
  5
1B9
100
AcDbEntity
  8
0
  6
ByLayer
 62
  256
370
   -1
100
AcDbLine
 10
-208.351379
 20
-88.042198
 11
-200.614975
 21
-88.70579499999999
  0
LINE
  5
1BA
100
AcDbEntity
  8
0
  6
ByLayer
 62
  256
370
   -1
100
AcDbLine
 10
-200.614975
 20
-88.70579499999999
 11
-200.614975
 21
-87.378593
  0
LINE
  5
1BB
100
AcDbEntity
  8
0
  6
ByLayer
 62
  256
370
   -1
100
AcDbLine
 10
-200.614975
 20
-87.378593
 11
-204.420181
 21
-87.7062
  0
LINE
  5
1BC
100
AcDbEntity
  8
0
  6
ByLayer
 62
  256
370
   -1
100
AcDbLine
 10
-208.351379
 20
-88.042198
 11
-259.351379
 21
-88.042198
  0
LINE
  5
1BD
100
AcDbEntity
  8
0
  6
ByLayer
 62
  256
370
   -1
100
AcDbLine
 10
-238.351379
 20
-88.042198
 11
-246.751373
 21
-86.614197
  0
LINE
  5
1BE
100
AcDbEntity
  8
0
  6
ByLayer
 62
  256
370
   -1
100
AcDbLine
 10
-246.751373
 20
-86.614197
 11
-246.751373
 21
-89.47020000000001
  0
LINE
  5
1BF
100
AcDbEntity
  8
0
  6
ByLayer
 62
  256
370
   -1
100
AcDbLine
 10
-246.751373
 20
-89.47020000000001
 11
-238.351379
 21
-88.042198
  0
LINE
  5
1C0
100
AcDbEntity
  8
0
  6
ByLayer
 62
  256
370
   -1
100
AcDbLine
 10
-238.351379
 20
-88.042198
 11
-246.087784
 21
-87.378601
  0
LINE
  5
1C1
100
AcDbEntity
  8
0
  6
ByLayer
 62
  256
370
   -1
100
AcDbLine
 10
-246.087784
 20
-87.378601
 11
-246.087784
 21
-88.705803
  0
LINE
  5
1C2
100
AcDbEntity
  8
0
  6
ByLayer
 62
  256
370
   -1
100
AcDbLine
 10
-246.087784
 20
-88.705803
 11
-242.282578
 21
-88.378197
  0
POINT
  5
1C3
100
AcDbEntity
  8
DEFPOINTS
  6
ByLayer
 62
  256
370
   -1
100
AcDbPoint
 10
-238.351379
 20
-76.040314
  0
POINT
  5
1C4
100
AcDbEntity
  8
DEFPOINTS
  6
ByLayer
 62
  256
370
   -1
100
AcDbPoint
 10
-208.351379
 20
-76.040314
  0
TEXT
  5
1C5
100
AcDbEntity
  8
0
  6
ByLayer
 62
  256
370
   -1
100
AcDbText
 10
-222.973663
 20
-85.042198
 30
0
 40
6
  1
30
 50
0
 41
1
 51
0
  7
standard
 71
    0
 72
    1
 11
-222.973663
 21
-85.042198
 31
0
210
0
220
0
230
1
100
AcDbText
  0
ENDBLK
  5
BE
330
BC
100
AcDbEntity
  8
0
100
AcDbBlockEnd
  0
ENDSEC
  0
SECTION
  2
ENTITIES
  0
LINE
  5
1C6
100
AcDbEntity
  8
0
  6
DASHED2
 62
   96
420
32768
370
   -1
100
AcDbLine
 10
9.461039340847414
 20
-46.8303
 11
20.3925
 21
-46.8303
  0
DIMENSION
  5
1C7
100
AcDbEntity
  8
0
  6
ByLayer
 62
  256
370
   -1
100
AcDbDimension
  2
*D1
 10
9
 20
-17
 30
0
 11
8
 21
-17
 31
0
 70
   32
 71
    5
  3
Standard
 53
0
210
0
220
0
230
1
100
AcDbAlignedDimension
 13
7
 23
-20
 33
0
 14
9
 24
-20
 34
0
100
AcDbRotatedDimension
  0
DIMENSION
  5
1C8
100
AcDbEntity
  8
0
  6
ByLayer
 62
  256
370
   -1
100
AcDbDimension
  2
*D2
 10
14.39254736208949
 20
-43.34451871795633
 30
0
 11
14.89252368104474
 21
-43.34451871795633
 31
0
 70
   32
 71
    5
  3
Standard
 53
0
210
0
220
0
230
1
100
AcDbAlignedDimension
 13
15.3925
 23
-44.54423202250021
 33
0
 14
14.39254736208949
 24
-44.54423202250021
 34
0
100
AcDbRotatedDimension
  0
DIMENSION
  5
1C9
100
AcDbEntity
  8
0
  6
ByLayer
 62
  256
370
   -1
100
AcDbDimension
  2
*D3
 10
31.86289081928348
 20
-19.62793394049071
 30
0
 11
31.86289081928348
 21
-21.14191547413989
 31
0
 70
   32
 71
    5
  3
Standard
 53
0
210
0
220
0
230
1
100
AcDbAlignedDimension
 13
23.65222903702402
 23
-22.65589700778907
 33
0
 14
28.59254736208949
 24
-19.62793394049071
 34
0
 50
90
100
AcDbRotatedDimension
  0
DIMENSION
  5
1CA
100
AcDbEntity
  8
0
  6
ByLayer
 62
  256
370
   -1
100
AcDbDimension
  2
*D4
 10
35.76334814371301
 20
-19.62793394049071
 30
0
 11
35.76334814371301
 21
-21.52916968232004
 31
0
 70
   32
 71
    5
  3
Standard
 53
0
210
0
220
0
230
1
100
AcDbAlignedDimension
 13
18.1925730545728
 23
-23.43040542414937
 33
0
 14
28.59254736208949
 24
-19.62793394049071
 34
0
 50
90
100
AcDbRotatedDimension
  0
DIMENSION
  5
1CB
100
AcDbEntity
  8
0
  6
ByLayer
 62
  256
370
   -1
100
AcDbDimension
  2
*D5
 10
39.16938130025711
 20
-19.62793394049071
 30
0
 11
39.16938130025711
 21
-25.65536637029579
 31
0
 70
   32
 71
    5
  3
Standard
 53
0
210
0
220
0
230
1
100
AcDbAlignedDimension
 13
17.55800076131789
 23
-31.68279880010088
 33
0
 14
28.59254736208949
 24
-19.62793394049071
 34
0
 50
90
100
AcDbRotatedDimension
  0
DIMENSION
  5
1CC
100
AcDbEntity
  8
0
  6
ByLayer
 62
  256
370
   -1
100
AcDbDimension
  2
*D6
 10
26.91864914042915
 20
-54.62793394049071
 30
0
 11
26.91864914042915
 21
-53.0753051228383
 31
0
 70
   32
 71
    5
  3
Standard
 53
0
210
0
220
0
230
1
100
AcDbAlignedDimension
 13
19.69111475088373
 23
-51.5226763051859
 33
0
 14
20.82654498986659
 24
-54.62793394049071
 34
0
 50
90
100
AcDbRotatedDimension
  0
DIMENSION
  5
1CD
100
AcDbEntity
  8
0
  6
ByLayer
 62
  256
370
   -1
100
AcDbDimension
  2
*D7
 10
30.92897850216656
 20
-46.8303
 30
0
 11
30.92897850216656
 21
-50.72911697024536
 31
0
 70
   32
 71
    5
  3
Standard
 53
0
210
0
220
0
230
1
100
AcDbAlignedDimension
 13
20.82654498986659
 23
-54.62793394049071
 33
0
 14
18.1925730545728
 24
-46.8303
 34
0
 50
90
100
AcDbRotatedDimension
  0
DIMENSION
  5
1CE
100
AcDbEntity
  8
0
  6
ByLayer
 62
  256
370
   -1
100
AcDbDimension
  2
*D8
 10
33.89552350947915
 20
-45.94192192766835
 30
0
 11
33.89552350947915
 21
-50.28492793407953
 31
0
 70
   32
 71
    5
  3
Standard
 53
0
210
0
220
0
230
1
100
AcDbAlignedDimension
 13
20.82654498986659
 23
-54.62793394049071
 33
0
 14
25.0805824029682
 24
-45.94192192766835
 34
0
 50
90
100
AcDbRotatedDimension
  0
LINE
  5
1CF
100
AcDbEntity
  8
0
  6
ByLayer
 62
   56
420
8421376
370
   -1
100
AcDbLine
 10
16.20670836311859
 20
-5.633499205639451
 11
17.05670836311858
 21
-5.633499205639444
  0
LINE
  5
1D0
100
AcDbEntity
  8
0
  6
ByLayer
 62
  256
370
   -1
100
AcDbLine
 10
20.39260766435093
 20
-3.633464595861311
 11
16.00671129664952
 21
-3.633464595861311
  0
LINE
  5
1D1
100
AcDbEntity
  8
0
  6
ByLayer
 62
  256
370
   -1
100
AcDbLine
 10
17.20671129664951
 20
-5.633499205639444
 11
19.19260766435093
 21
-5.633464595861311
  0
LINE
  5
1D2
100
AcDbEntity
  8
0
  6
DASHED2
 62
    3
370
   -1
100
AcDbLine
 10
18.1925730545728
 20
-6.633465294628965
 11
18.1925730545728
 21
-2.633465294628965
  0
LINE
  5
1D3
100
AcDbEntity
  8
0
  6
ByLayer
 62
  256
370
   -1
100
AcDbLine
 10
16.00671129664952
 20
-3.633464595861311
 11
14.39254736208949
 21
-3.633464595861311
  0
DIMENSION
  5
1D4
100
AcDbEntity
  8
0
  6
ByLayer
 62
  256
370
   -1
100
AcDbDimension
  2
*D9
 10
14.39254736208949
 20
-17.01248045676265
 30
0
 11
15.97527406170369
 21
-17.01248045676265
 31
0
 70
   32
 71
    5
  3
Standard
 53
0
210
0
220
0
230
1
100
AcDbAlignedDimension
 13
17.55800076131789
 23
-31.68279880010088
 33
0
 14
14.39254736208949
 24
-19.62793394049071
 34
0
100
AcDbRotatedDimension
  0
DIMENSION
  5
1D5
100
AcDbEntity
  8
0
  6
ByLayer
 62
  256
370
   -1
100
AcDbDimension
  2
*D10
 10
14.39254736208949
 20
-12.03755144590778
 30
0
 11
19.02238819955675
 21
-12.03755144590778
 31
0
 70
   32
 71
    5
  3
Standard
 53
0
210
0
220
0
230
1
100
AcDbAlignedDimension
 13
23.65222903702402
 23
-22.65589700778907
 33
0
 14
14.39254736208949
 24
-19.62793394049071
 34
0
100
AcDbRotatedDimension
  0
DIMENSION
  5
1D6
100
AcDbEntity
  8
0
  6
ByLayer
 62
  256
370
   -1
100
AcDbDimension
  2
*D11
 10
14.39254736208949
 20
-14.48059694230973
 30
0
 11
16.29256020833115
 21
-14.48059694230973
 31
0
 70
   32
 71
    5
  3
Standard
 53
0
210
0
220
0
230
1
100
AcDbAlignedDimension
 13
18.1925730545728
 23
-23.43040542414937
 33
0
 14
14.39254736208949
 24
-19.62793394049071
 34
0
100
AcDbRotatedDimension
  0
LINE
  5
1D7
100
AcDbEntity
  8
0
  6
ByLayer
 62
  256
370
   -1
100
AcDbLine
 10
20.39260766435093
 20
-3.633464595861311
 11
29.59254736208949
 21
-3.633464595861311
  0
LINE
  5
1D8
100
AcDbEntity
  8
0
  6
ByLayer
 62
  256
370
   -1
100
AcDbLine
 10
29.59254736208949
 20
-3.633464595861311
 11
29.59254736208949
 21
-4.586264928475781
  0
LINE
  5
1D9
100
AcDbEntity
  8
0
  6
ByLayer
 62
  256
370
   -1
100
AcDbLine
 10
28.19279936208946
 20
-5.633464595861311
 11
19.19260766435093
 21
-5.633464595861311
  0
LINE
  5
1DA
100
AcDbEntity
  8
0
  6
ByLayer
 62
  256
370
   -1
100
AcDbLine
 10
29.59254736208949
 20
-4.586264928475781
 11
28.19279936208946
 21
-5.633464595861311
  0
LINE
  5
1DB
100
AcDbEntity
  8
0
  6
ByLayer
 62
  256
370
   -1
100
AcDbLine
 10
14.39254736208949
 20
-5.633499205639444
 11
17.20671129664951
 21
-5.633499205639444
  0
LINE
  5
1DC
100
AcDbEntity
  8
0
  6
ByLayer
 62
  256
370
   -1
100
AcDbLine
 10
14.39254736208949
 20
-3.633464595861311
 11
14.39254736208949
 21
-5.633499205639444
  0
LINE
  5
1DD
100
AcDbEntity
  8
0
  6
DASHDOT2
 62
  256
370
   -1
100
AcDbLine
 10
15.3925
 20
-4.63346
 11
14.3925
 21
-4.63346
  0
LINE
  5
1DE
100
AcDbEntity
  8
0
  6
DASHED2
 62
  256
370
   -1
100
AcDbLine
 10
15.3925
 20
-4.63346
 11
15.3925
 21
-5.6335
  0
LINE
  5
1DF
100
AcDbEntity
  8
0
  6
DASHDOTTINY
 62
  256
370
   -1
100
AcDbLine
 10
19.1926
 20
-4.83346
 11
20.3926
 21
-3.63346
  0
LINE
  5
1E0
100
AcDbEntity
  8
0
  6
DASHEDTINY
 62
  256
370
   -1
100
AcDbLine
 10
19.1926
 20
-5.63346
 11
19.1926
 21
-4.83346
  0
LINE
  5
1E1
100
AcDbEntity
  8
0
  6
DASHEDTINY
 62
  256
370
   -1
100
AcDbLine
 10
16.0067
 20
-3.63346
 11
17.2067
 21
-4.83346
  0
LINE
  5
1E2
100
AcDbEntity
  8
0
  6
DASHEDTINY
 62
  256
370
   -1
100
AcDbLine
 10
17.2067
 20
-5.6335
 11
17.2067
 21
-4.83346
  0
LINE
  5
1E3
100
AcDbEntity
  8
0
  6
DASHEDTINY
 62
  256
370
   -1
100
AcDbLine
 10
17.2067
 20
-4.83346
 11
19.1926
 21
-4.83346
  0
DIMENSION
  5
1E4
100
AcDbEntity
  8
0
  6
ByLayer
 62
  256
370
   -1
100
AcDbDimension
  2
*D12
 10
11
 20
-46.8303
 30
0
 11
10.49462184243489
 21
-44.75178660868973
 31
0
 70
   36
 71
    5
  3
Standard
 53
0
210
0
220
0
230
1
100
AcDbRadialDimension
 15
8.408039574786139
 25
-45.22274248808163
 35
0
 40
0
  0
DIMENSION
  5
1E5
100
AcDbEntity
  8
0
  6
ByLayer
 62
  256
370
   -1
100
AcDbDimension
  2
*D13
 10
5.190416558880554
 20
-54.62793394049071
 30
0
 11
5.190416558880555
 21
-50.72911697024536
 31
0
 70
   32
 71
    5
  3
Standard
 53
0
210
0
220
0
230
1
100
AcDbAlignedDimension
 13
11
 23
-46.8303
 33
0
 14
7
 24
-54.62793394049071
 34
0
 50
90
100
AcDbRotatedDimension
  0
DIMENSION
  5
1E6
100
AcDbEntity
  8
0
  6
ByLayer
 62
  256
370
   -1
100
AcDbDimension
  2
*D14
 10
9
 20
-55.55864255373164
 30
0
 11
10
 21
-55.55864255373164
 31
0
 70
   32
 71
    5
  3
Standard
 53
0
210
0
220
0
230
1
100
AcDbAlignedDimension
 13
11
 23
-46.8303
 33
0
 14
9
 24
-54.62793394049071
 34
0
100
AcDbRotatedDimension
  0
LINE
  5
1E7
100
AcDbEntity
  8
0
  6
DASHEDTINY
 62
  256
370
   -1
100
AcDbLine
 10
28.1928
 20
-3.63346
 11
28.1928
 21
-5.63346
  0
ARC
  5
1E8
100
AcDbEntity
  8
0
  6
ByLayer
 62
  256
370
    5
100
AcDbCircle
 10
27.1928
 20
-47.0656
 40
1
100
AcDbArc
 50
316
 51
0
  0
LINE
  5
1E9
100
AcDbEntity
  8
0
  6
ByLayer
 62
  256
370
    5
100
AcDbLine
 10
21.5749
 20
-54.3226
 11
27.9121
 21
-47.7602
  0
CIRCLE
  5
1EA
100
AcDbEntity
  8
0
  6
CONTINUOUS
 62
  256
370
    5
100
AcDbCircle
 10
18.1926
 20
-46.8303
 40
1
  0
CIRCLE
  5
1EB
100
AcDbEntity
  8
0
  6
CONTINUOUS
 62
  256
370
    5
100
AcDbCircle
 10
19.6911
 20
-51.5227
 40
1
  0
CIRCLE
  5
1EC
100
AcDbEntity
  8
0
  6
CONTINUOUS
 62
  256
370
    5
100
AcDbCircle
 10
25.0806
 20
-45.9419
 40
1
  0
LINE
  5
1ED
100
AcDbEntity
  8
0
  6
ByLayer
 62
  256
370
    5
100
AcDbLine
 10
15.3925
 20
-44.5442
 11
14.3925
 21
-44.5442
  0
LINE
  5
1EE
100
AcDbEntity
  8
0
  6
ByLayer
 62
  256
370
    5
100
AcDbLine
 10
15.3925
 20
-49.1164
 11
15.3925
 21
-44.5442
  0
LINE
  5
1EF
100
AcDbEntity
  8
0
  6
ByLayer
 62
  256
370
    5
100
AcDbLine
 10
15.3925
 20
-49.1164
 11
14.3925
 21
-49.1164
  0
CIRCLE
  5
1F0
100
AcDbEntity
  8
0
  6
CONTINUOUS
 62
  256
370
    5
100
AcDbCircle
 10
23.6522
 20
-22.6559
 40
1
  0
CIRCLE
  5
1F1
100
AcDbEntity
  8
0
  6
CONTINUOUS
 62
  256
370
    5
100
AcDbCircle
 10
18.1926
 20
-23.4304
 40
1
  0
CIRCLE
  5
1F2
100
AcDbEntity
  8
0
  6
CONTINUOUS
 62
  256
370
    5
100
AcDbCircle
 10
17.558
 20
-31.6828
 40
1
  0
ARC
  5
1F3
100
AcDbEntity
  8
0
  6
ByLayer
 62
  256
370
    5
100
AcDbCircle
 10
28.5925
 20
-20.6279
 40
1
100
AcDbArc
 50
0
 51
90
  0
LINE
  5
1F4
100
AcDbEntity
  8
0
  6
ByLayer
 62
  256
370
    5
100
AcDbLine
 10
14.3925
 20
-19.6279
 11
28.5925
 21
-19.6279
  0
LINE
  5
1F5
100
AcDbEntity
  8
0
  6
ByLayer
 62
  256
370
    5
100
AcDbLine
 10
29.5925
 20
-20.6279
 11
29.5925
 21
-21.9484
  0
ARC
  5
1F6
100
AcDbEntity
  8
0
  6
ByLayer
 62
  256
370
    5
100
AcDbCircle
 10
28.5925
 20
-21.9484
 40
1
100
AcDbArc
 50
326
 51
0
  0
LINE
  5
1F7
100
AcDbEntity
  8
0
  6
ByLayer
 62
  256
370
    5
100
AcDbLine
 10
29.4216
 20
-22.5076
 11
28.3638
 21
-24.0759
  0
LINE
  5
1F8
100
AcDbEntity
  8
0
  6
ByLayer
 62
  256
370
    5
100
AcDbLine
 10
28.1928
 20
-24.6351
 11
28.1928
 21
-47.0656
  0
ARC
  5
1F9
100
AcDbEntity
  8
0
  6
ByLayer
 62
  256
370
    5
100
AcDbCircle
 10
29.1928
 20
-24.6351
 40
1
100
AcDbArc
 50
146
 51
180
  0
LINE
  5
1FA
100
AcDbEntity
  8
0
  6
CONTINUOUS
 62
  253
420
10526884
370
   -1
100
AcDbLine
 10
28.1928
 20
-19.6279
 11
28.1928
 21
-24.6351
  0
CIRCLE
  5
1FB
100
AcDbEntity
  8
0
  6
DASHED2
 62
    8
370
   -3
100
AcDbCircle
 10
23.6522
 20
-22.6559
 40
2.15
  0
CIRCLE
  5
1FC
100
AcDbEntity
  8
0
  6
DASHED2
 62
    8
370
   -1
100
AcDbCircle
 10
18.1926
 20
-23.4304
 40
2.15
  0
CIRCLE
  5
1FD
100
AcDbEntity
  8
0
  6
DASHDOT2
 62
    8
370
   -1
100
AcDbCircle
 10
18.1926
 20
-46.8303
 40
2.15
  0
CIRCLE
  5
1FE
100
AcDbEntity
  8
0
  6
DASHED2
 62
    8
370
   -1
100
AcDbCircle
 10
25.0806
 20
-45.9419
 40
2.15
  0
CIRCLE
  5
1FF
100
AcDbEntity
  8
0
  6
DASHDOT2
 62
    8
370
   -1
100
AcDbCircle
 10
19.6911
 20
-51.5227
 40
2.15
  0
CIRCLE
  5
200
100
AcDbEntity
  8
0
  6
DASHDOTTINY
 62
    8
370
   -1
100
AcDbCircle
 10
17.558
 20
-31.6828
 40
2.15
  0
LINE
  5
201
100
AcDbEntity
  8
0
  6
ByLayer
 62
  256
370
   -1
100
AcDbLine
 10
9.000017181388349
 20
-32.66866175792327
 11
8.999982571610216
 21
-30.68276539022186
  0
LINE
  5
202
100
AcDbEntity
  8
0
  6
DASHDOTTINY
 62
  256
370
   -1
100
AcDbLine
 10
8.199977975748903
 20
-30.6827730545728
 11
6.999977975748903
 21
-29.48277305457279
  0
LINE
  5
203
100
AcDbEntity
  8
0
  6
DASHEDTINY
 62
  256
370
   -1
100
AcDbLine
 10
8.999977975748903
 20
-30.6827730545728
 11
8.199977975748903
 21
-30.6827730545728
  0
LINE
  5
204
100
AcDbEntity
  8
0
  6
DASHEDTINY
 62
  256
370
   -1
100
AcDbLine
 10
6.999977975748903
 20
-33.8686730545728
 11
8.199977975748903
 21
-32.66867305457279
  0
LINE
  5
205
100
AcDbEntity
  8
0
  6
DASHEDTINY
 62
  256
370
   -1
100
AcDbLine
 10
9.000017975748902
 20
-32.66867305457279
 11
8.199977975748903
 21
-32.66867305457279
  0
LINE
  5
206
100
AcDbEntity
  8
0
  6
DASHEDTINY
 62
  256
370
   -1
100
AcDbLine
 10
8.199977975748903
 20
-32.66867305457279
 11
8.199977975748903
 21
-30.6827730545728
  0
LINE
  5
207
100
AcDbEntity
  8
0
  6
DASHED2
 62
   96
420
32768
370
   -1
100
AcDbLine
 10
9.999980000000001
 20
-31.6828
 11
5.99998
 21
-31.6828
  0
DIMENSION
  5
208
100
AcDbEntity
  8
0
  6
ByLayer
 62
  256
370
   -1
100
AcDbDimension
  2
*D15
 10
28.1928
 20
-38.56641267535881
 30
0
 11
21.29265
 21
-38.56641267535881
 31
0
 70
   32
 71
    5
  3
Standard
 53
0
210
0
220
0
230
1
100
AcDbAlignedDimension
 13
14.3925
 23
-37.12736742627825
 33
0
 14
28.1928
 24
-37.12736742627825
 34
0
100
AcDbRotatedDimension
  0
LINE
  5
209
100
AcDbEntity
  8
0
  6
ByLayer
 62
  256
370
   -1
100
AcDbLine
 10
0.2878090498161105
 20
-7.578971645157576
 11
0.2878090498161099
 21
-17.57897164515758
  0
DIMENSION
  5
20A
100
AcDbEntity
  8
0
  6
ByLayer
 62
  256
370
   -1
100
AcDbDimension
  2
*D16
 10
-8.424381900367781
 20
-17
 30
0
 11
-7.424381900367781
 21
-17
 31
0
 70
   32
 71
    5
  3
Standard
 53
0
210
0
220
0
230
1
100
AcDbAlignedDimension
 13
-6.424381900367781
 23
-20
 33
0
 14
-8.424381900367781
 24
-20
 34
0
 50
180
100
AcDbRotatedDimension
  0
LINE
  5
20B
100
AcDbEntity
  8
0
  6
ByLayer
 62
  256
370
   -1
100
AcDbLine
 10
-8.424381900367781
 20
-19.62793394049071
 11
-6.424381900367781
 21
-19.62793394049071
  0
LINE
  5
20C
100
AcDbEntity
  8
0
  6
ByLayer
 62
  256
370
   -1
100
AcDbLine
 10
-6.424381900367781
 20
-19.62793394049071
 11
-6.424381900367785
 21
-54.62793394049073
  0
LINE
  5
20D
100
AcDbEntity
  8
0
  6
ByLayer
 62
  256
370
   -1
100
AcDbLine
 10
-6.424381900367785
 20
-54.62793394049073
 11
-8.424381900367784
 21
-54.62793394049073
  0
DIMENSION
  5
20E
100
AcDbEntity
  8
0
  6
ByLayer
 62
  256
370
   -1
100
AcDbDimension
  2
*D17
 10
-31.28727271965126
 20
-19.6279339404907
 30
0
 11
-31.28727271965126
 21
-21.14191547413989
 31
0
 70
   32
 71
    5
  3
Standard
 53
0
210
0
220
0
230
1
100
AcDbAlignedDimension
 13
-23.0766109373918
 23
-22.65589700778907
 33
0
 14
-28.01692926245727
 24
-19.6279339404907
 34
0
 50
90
100
AcDbRotatedDimension
  0
DIMENSION
  5
20F
100
AcDbEntity
  8
0
  6
ByLayer
 62
  256
370
   -1
100
AcDbDimension
  2
*D18
 10
-35.18773004408079
 20
-19.6279339404907
 30
0
 11
-35.18773004408079
 21
-21.52916968232003
 31
0
 70
   32
 71
    5
  3
Standard
 53
0
210
0
220
0
230
1
100
AcDbAlignedDimension
 13
-17.61695495494058
 23
-23.43040542414937
 33
0
 14
-28.01692926245727
 24
-19.6279339404907
 34
0
 50
90
100
AcDbRotatedDimension
  0
DIMENSION
  5
210
100
AcDbEntity
  8
0
  6
ByLayer
 62
  256
370
   -1
100
AcDbDimension
  2
*D19
 10
-38.59376320062488
 20
-19.6279339404907
 30
0
 11
-38.59376320062488
 21
-25.65536637029578
 31
0
 70
   32
 71
    5
  3
Standard
 53
0
210
0
220
0
230
1
100
AcDbAlignedDimension
 13
-16.98238266168567
 23
-31.68279880010087
 33
0
 14
-28.01692926245727
 24
-19.6279339404907
 34
0
 50
90
100
AcDbRotatedDimension
  0
LINE
  5
211
100
AcDbEntity
  8
0
  6
ByLayer
 62
   56
420
8421376
370
   -1
100
AcDbLine
 10
-15.63109026348637
 20
-5.633499205639449
 11
-16.48109026348636
 21
-5.633499205639442
  0
LINE
  5
212
100
AcDbEntity
  8
0
  6
ByLayer
 62
  256
370
   -1
100
AcDbLine
 10
-19.81698956471871
 20
-3.633464595861307
 11
-15.4310931970173
 21
-3.63346459586131
  0
LINE
  5
213
100
AcDbEntity
  8
0
  6
ByLayer
 62
  256
370
   -1
100
AcDbLine
 10
-16.63109319701729
 20
-5.633499205639442
 11
-18.61698956471871
 21
-5.63346459586131
  0
LINE
  5
214
100
AcDbEntity
  8
0
  6
DASHED2
 62
    3
370
   -1
100
AcDbLine
 10
-17.61695495494058
 20
-6.633465294628963
 11
-17.61695495494058
 21
-2.633465294628963
  0
LINE
  5
215
100
AcDbEntity
  8
0
  6
ByLayer
 62
  256
370
   -1
100
AcDbLine
 10
-15.4310931970173
 20
-3.63346459586131
 11
-13.81692926245727
 21
-3.63346459586131
  0
DIMENSION
  5
216
100
AcDbEntity
  8
0
  6
ByLayer
 62
  256
370
   -1
100
AcDbDimension
  2
*D20
 10
-13.81692926245727
 20
-17.01248045676264
 30
0
 11
-15.39965596207147
 21
-17.01248045676264
 31
0
 70
   32
 71
    5
  3
Standard
 53
0
210
0
220
0
230
1
100
AcDbAlignedDimension
 13
-16.98238266168567
 23
-31.68279880010087
 33
0
 14
-13.81692926245727
 24
-19.6279339404907
 34
0
 50
180
100
AcDbRotatedDimension
  0
DIMENSION
  5
217
100
AcDbEntity
  8
0
  6
ByLayer
 62
  256
370
   -1
100
AcDbDimension
  2
*D21
 10
-13.81692926245727
 20
-12.03755144590778
 30
0
 11
-18.44677009992454
 21
-12.03755144590778
 31
0
 70
   32
 71
    5
  3
Standard
 53
0
210
0
220
0
230
1
100
AcDbAlignedDimension
 13
-23.0766109373918
 23
-22.65589700778907
 33
0
 14
-13.81692926245727
 24
-19.6279339404907
 34
0
 50
180
100
AcDbRotatedDimension
  0
DIMENSION
  5
218
100
AcDbEntity
  8
0
  6
ByLayer
 62
  256
370
   -1
100
AcDbDimension
  2
*D22
 10
-13.81692926245727
 20
-14.48059694230973
 30
0
 11
-15.71694210869893
 21
-14.48059694230973
 31
0
 70
   32
 71
    5
  3
Standard
 53
0
210
0
220
0
230
1
100
AcDbAlignedDimension
 13
-17.61695495494058
 23
-23.43040542414937
 33
0
 14
-13.81692926245727
 24
-19.6279339404907
 34
0
 50
180
100
AcDbRotatedDimension
  0
LINE
  5
219
100
AcDbEntity
  8
0
  6
ByLayer
 62
  256
370
   -1
100
AcDbLine
 10
-19.81698956471871
 20
-3.633464595861307
 11
-29.01692926245727
 21
-3.633464595861307
  0
LINE
  5
21A
100
AcDbEntity
  8
0
  6
ByLayer
 62
  256
370
   -1
100
AcDbLine
 10
-29.01692926245727
 20
-3.633464595861307
 11
-29.01692926245727
 21
-4.586264928475779
  0
LINE
  5
21B
100
AcDbEntity
  8
0
  6
ByLayer
 62
  256
370
   -1
100
AcDbLine
 10
-27.61718126245724
 20
-5.633464595861308
 11
-18.61698956471871
 21
-5.63346459586131
  0
LINE
  5
21C
100
AcDbEntity
  8
0
  6
ByLayer
 62
  256
370
   -1
100
AcDbLine
 10
-29.01692926245727
 20
-4.586264928475779
 11
-27.61718126245724
 21
-5.633464595861308
  0
LINE
  5
21D
100
AcDbEntity
  8
0
  6
ByLayer
 62
  256
370
   -1
100
AcDbLine
 10
-13.81692926245727
 20
-5.633499205639442
 11
-16.63109319701729
 21
-5.633499205639442
  0
LINE
  5
21E
100
AcDbEntity
  8
0
  6
ByLayer
 62
  256
370
   -1
100
AcDbLine
 10
-13.81692926245727
 20
-3.63346459586131
 11
-13.81692926245727
 21
-5.633499205639442
  0
LINE
  5
21F
100
AcDbEntity
  8
0
  6
DASHDOTTINY
 62
  256
370
   -1
100
AcDbLine
 10
-18.61698190036778
 20
-4.833459999999998
 11
-19.81698190036778
 21
-3.633459999999997
  0
LINE
  5
220
100
AcDbEntity
  8
0
  6
DASHEDTINY
 62
  256
370
   -1
100
AcDbLine
 10
-18.61698190036778
 20
-5.633459999999999
 11
-18.61698190036778
 21
-4.833459999999998
  0
LINE
  5
221
100
AcDbEntity
  8
0
  6
DASHEDTINY
 62
  256
370
   -1
100
AcDbLine
 10
-15.43108190036778
 20
-3.633459999999999
 11
-16.63108190036778
 21
-4.833459999999998
  0
LINE
  5
222
100
AcDbEntity
  8
0
  6
DASHEDTINY
 62
  256
370
   -1
100
AcDbLine
 10
-16.63108190036778
 20
-5.633499999999998
 11
-16.63108190036778
 21
-4.833459999999998
  0
LINE
  5
223
100
AcDbEntity
  8
0
  6
DASHEDTINY
 62
  256
370
   -1
100
AcDbLine
 10
-16.63108190036778
 20
-4.833459999999998
 11
-18.61698190036778
 21
-4.833459999999998
  0
DIMENSION
  5
224
100
AcDbEntity
  8
0
  6
ByLayer
 62
  256
370
   -1
100
AcDbDimension
  2
*D23
 10
-15.43108190036778
 20
-3.633459999999999
 30
0
 11
0.5756180996322219
 21
1.77635683940025e-15
 31
0
 70
   34
 71
    5
  3
Standard
 53
0
210
0
220
0
230
1
100
AcDb2LineAngularDimension
 13
-18.61698190036778
 23
-4.833459999999998
 33
0
 14
-19.81698190036778
 24
-3.633459999999997
 34
0
 15
-16.63108190036778
 25
-4.833459999999998
 35
0
 16
-17.25817443090716
 26
-1.95975742093839
 36
0
  0
DIMENSION
  5
225
100
AcDbEntity
  8
0
  6
ByLayer
 62
  256
370
   -1
100
AcDbDimension
  2
*D24
 10
-19.81697730450647
 20
-7.30455038713401
 30
0
 11
-17.62403525076189
 21
-7.304550387134011
 31
0
 70
   32
 71
    5
  3
Standard
 53
0
210
0
220
0
230
1
100
AcDbAlignedDimension
 13
-15.4310931970173
 23
-3.63346459586131
 33
0
 14
-19.81697730450647
 24
-3.633464595861307
 34
0
 50
180
100
AcDbRotatedDimension
  0
LINE
  5
226
100
AcDbEntity
  8
0
  6
DASHEDTINY
 62
  256
370
   -1
100
AcDbLine
 10
-27.61718190036778
 20
-3.633459999999997
 11
-27.61718190036778
 21
-5.633459999999997
  0
ARC
  5
227
100
AcDbEntity
  8
0
  6
ByLayer
 62
  256
370
    5
100
AcDbCircle
 10
-26.61718190036778
 20
-47.0656
 40
1
100
AcDbArc
 50
180
 51
224
  0
LINE
  5
228
100
AcDbEntity
  8
0
  6
ByLayer
 62
  256
370
    5
100
AcDbLine
 10
-20.99928190036778
 20
-54.32260000000002
 11
-27.33648190036778
 21
-47.7602
  0
CIRCLE
  5
229
100
AcDbEntity
  8
0
  6
CONTINUOUS
 62
  256
370
    5
100
AcDbCircle
 10
-19.11548190036778
 20
-51.5227
 40
1
  0
CIRCLE
  5
22A
100
AcDbEntity
  8
0
  6
CONTINUOUS
 62
  256
370
    5
100
AcDbCircle
 10
-24.50498190036778
 20
-45.94190000000001
 40
1
  0
CIRCLE
  5
22B
100
AcDbEntity
  8
0
  6
CONTINUOUS
 62
  256
370
    5
100
AcDbCircle
 10
-23.07658190036778
 20
-22.65589999999999
 40
1
  0
CIRCLE
  5
22C
100
AcDbEntity
  8
0
  6
CONTINUOUS
 62
  256
370
    5
100
AcDbCircle
 10
-17.61698190036778
 20
-23.4304
 40
1
  0
ARC
  5
22D
100
AcDbEntity
  8
0
  6
ByLayer
 62
  256
370
    5
100
AcDbCircle
 10
-28.01688190036778
 20
-20.62789999999999
 40
1
100
AcDbArc
 50
90
 51
180
  0
LINE
  5
22E
100
AcDbEntity
  8
0
  6
ByLayer
 62
  256
370
    5
100
AcDbLine
 10
-13.81688190036778
 20
-19.6279
 11
-28.01688190036778
 21
-19.6279
  0
LINE
  5
22F
100
AcDbEntity
  8
0
  6
ByLayer
 62
  256
370
    5
100
AcDbLine
 10
-29.01688190036778
 20
-20.62789999999999
 11
-29.01688190036778
 21
-21.9484
  0
ARC
  5
230
100
AcDbEntity
  8
0
  6
ByLayer
 62
  256
370
    5
100
AcDbCircle
 10
-28.01688190036778
 20
-21.9484
 40
1
100
AcDbArc
 50
180
 51
214
  0
LINE
  5
231
100
AcDbEntity
  8
0
  6
ByLayer
 62
  256
370
    5
100
AcDbLine
 10
-28.84598190036778
 20
-22.50759999999999
 11
-27.78818190036778
 21
-24.07589999999999
  0
LINE
  5
232
100
AcDbEntity
  8
0
  6
ByLayer
 62
  256
370
    5
100
AcDbLine
 10
-27.61718190036778
 20
-24.63509999999999
 11
-27.61718190036778
 21
-47.0656
  0
ARC
  5
233
100
AcDbEntity
  8
0
  6
ByLayer
 62
  256
370
    5
100
AcDbCircle
 10
-28.61718190036778
 20
-24.63509999999999
 40
1
100
AcDbArc
 50
360
 51
34.00000000000002
  0
LINE
  5
234
100
AcDbEntity
  8
0
  6
ByLayer
 62
  256
370
    5
100
AcDbLine
 10
-13.81688190036778
 20
-19.6279
 11
-13.81688190036778
 21
-49.11639999999997
  0
LINE
  5
235
100
AcDbEntity
  8
0
  6
CONTINUOUS
 62
  253
420
10526884
370
   -1
100
AcDbLine
 10
-27.61718190036778
 20
-19.6279
 11
-27.61718190036778
 21
-24.63509999999999
  0
CIRCLE
  5
236
100
AcDbEntity
  8
0
  6
DASHED2
 62
    8
370
   -3
100
AcDbCircle
 10
-23.07658190036778
 20
-22.65589999999999
 40
2.15
  0
CIRCLE
  5
237
100
AcDbEntity
  8
0
  6
DASHED2
 62
    8
370
   -1
100
AcDbCircle
 10
-17.61698190036778
 20
-23.4304
 40
2.15
  0
CIRCLE
  5
238
100
AcDbEntity
  8
0
  6
DASHED2
 62
    8
370
   -1
100
AcDbCircle
 10
-24.50498190036778
 20
-45.94190000000001
 40
2.15
  0
CIRCLE
  5
239
100
AcDbEntity
  8
0
  6
DASHDOT2
 62
    8
370
   -1
100
AcDbCircle
 10
-19.11548190036778
 20
-51.5227
 40
2.15
  0
CIRCLE
  5
23A
100
AcDbEntity
  8
0
  6
DASHDOTTINY
 62
    8
370
   -1
100
AcDbCircle
 10
-16.98238190036778
 20
-31.68279999999999
 40
2.15
  0
DIMENSION
  5
23B
100
AcDbEntity
  8
0
  6
ByLayer
 62
  256
370
   -1
100
AcDbDimension
  2
*D25
 10
-9.280922972437766
 20
-5.633499205639441
 30
0
 11
-9.280922972437766
 21
-5.23347960281972
 31
0
 70
   32
 71
    5
  3
Standard
 53
0
210
0
220
0
230
1
100
AcDbAlignedDimension
 13
-16.63108190036778
 23
-4.833459999999998
 33
0
 14
-16.63108190036778
 24
-5.633499205639442
 34
0
 50
90
100
AcDbRotatedDimension
  0
DIMENSION
  5
23C
100
AcDbEntity
  8
0
  6
ByLayer
 62
  256
370
   -1
100
AcDbDimension
  2
*D26
 10
-29.01692926245728
 20
-9.144556163929488
 30
0
 11
-21.41692926245727
 21
-9.14455616392949
 31
0
 70
   32
 71
    5
  3
Standard
 53
0
210
0
220
0
230
1
100
AcDbAlignedDimension
 13
-13.81692926245727
 23
-5.633499205639442
 33
0
 14
-29.01692926245728
 24
-4.586264928475779
 34
0
 50
180
100
AcDbRotatedDimension
  0
LINE
  5
23D
100
AcDbEntity
  8
0
  6
DASHED2
 62
   96
420
32768
370
   -1
100
AcDbLine
 10
-9.424361900367783
 20
-31.68279999999999
 11
-5.424361900367781
 21
-31.68279999999999
  0
DIMENSION
  5
23E
100
AcDbEntity
  8
0
  6
ByLayer
 62
  256
370
   -1
100
AcDbDimension
  2
*D27
 10
-27.61718190036778
 20
-38.56641267535881
 30
0
 11
-20.71703190036778
 21
-38.56641267535881
 31
0
 70
   32
 71
    5
  3
Standard
 53
0
210
0
220
0
230
1
100
AcDbAlignedDimension
 13
-13.81688190036778
 23
-37.12736742627825
 33
0
 14
-27.61718190036778
 24
-37.12736742627825
 34
0
 50
180
100
AcDbRotatedDimension
  0
DIMENSION
  5
23F
100
AcDbEntity
  8
0
  6
ByLayer
 62
  256
370
   -1
100
AcDbDimension
  2
*D28
 10
-34.94321197710479
 20
-5.633459999999996
 30
0
 11
-34.94321197710479
 21
-4.633462297930651
 31
0
 70
   32
 71
    5
 72
    0
  3
Standard
 53
0
210
0
220
0
230
1
100
AcDbAlignedDimension
 13
-29.01692926245727
 23
-3.633464595861307
 33
0
 14
-27.61718190036778
 24
-5.633459999999997
 34
0
 50
90
100
AcDbRotatedDimension
  0
MTEXT
  5
240
100
AcDbEntity
  8
0
  6
ByLayer
 62
  256
370
   -1
100
AcDbMText
 10
23.97699119705594
 20
-26.48621120605017
 30
0
 40
2
 41
1.619051111111111
 71
    1
 72
    1
  1
B
  7
romanc
210
0
220
0
230
1
 50
0
 73
    2
 44
1
  0
MTEXT
  5
241
100
AcDbEntity
  8
0
  6
ByLayer
 62
  256
370
   -1
100
AcDbMText
 10
-24.44166156909191
 20
-26.67207935486456
 30
0
 40
2
 41
1.714286666666667
 71
    1
 72
    1
  1
A
  7
romanc
210
0
220
0
230
1
 50
0
 73
    2
 44
1
  0
CIRCLE
  5
242
100
AcDbEntity
  8
0
  6
ByLayer
 62
  256
370
    0
100
AcDbCircle
 10
-16.9824
 20
-31.6828
 40
1.05
  0
DIMENSION
  5
243
100
AcDbEntity
  8
0
  6
ByLayer
 62
  256
370
   -1
100
AcDbDimension
  2
*D29
 10
-16.96641244209512
 20
-32.73267827770282
 30
0
 11
-16.9824
 21
-31.6828
 31
0
 70
   35
 71
    5
 72
    0
  3
Standard
 53
0
210
0
220
0
230
1
100
AcDbDiametricDimension
 15
-16.99838755790488
 25
-30.63292172229718
 35
0
 40
0
  0
LINE
  5
244
100
AcDbEntity
  8
0
  6
DASHEDTINY
 62
  256
370
   -1
100
AcDbLine
 10
-8.424379999999999
 20
-32.7328
 11
-7.56023
 21
-32.7328
  0
LINE
  5
245
100
AcDbEntity
  8
0
  6
DASHDOTTINY
 62
  256
370
   -1
100
AcDbLine
 10
-8.42436
 20
-30.6328
 11
-7.57436
 21
-30.6328
  0
LINE
  5
246
100
AcDbEntity
  8
0
  6
DASHDOTTINY
 62
  256
370
   -1
100
AcDbLine
 10
-7.57436
 20
-30.6328
 11
-6.42436
 21
-29.4828
  0
LINE
  5
247
100
AcDbEntity
  8
0
  6
DASHEDTINY
 62
  256
370
   -1
100
AcDbLine
 10
-6.42436
 20
-33.8687
 11
-7.56023
 21
-32.7328
  0
LINE
  5
248
100
AcDbEntity
  8
0
  6
ByLayer
 62
  256
370
   -1
100
AcDbLine
 10
-8.424379999999999
 20
-19.6279
 11
-8.424379999999999
 21
-54.6279
  0
DIMENSION
  5
249
100
AcDbEntity
  8
0
  6
ByLayer
 62
  256
370
   -1
100
AcDbDimension
  2
*D30
 10
-7.57436
 20
-32.7328
 30
0
 11
-7.57436
 21
-31.6828
 31
0
 70
   32
 71
    5
 72
    0
  3
Standard
 53
0
210
0
220
0
230
1
100
AcDbAlignedDimension
 13
-8.42436
 23
-30.6328
 33
0
 14
-8.424379999999999
 24
-32.7328
 34
0
 50
90
100
AcDbRotatedDimension
  0
LINE
  5
24A
100
AcDbEntity
  8
0
  6
ByLayer
 62
  256
370
    5
100
AcDbLine
 10
14.3925
 20
-49.1164
 11
14.3925
 21
-54.6279
  0
LINE
  5
24B
100
AcDbEntity
  8
0
  6
ByLayer
 62
  256
370
    5
100
AcDbLine
 10
14.3925
 20
-54.6279
 11
20.8555
 21
-54.6279
  0
ARC
  5
24C
100
AcDbEntity
  8
0
  6
ByLayer
 62
  256
370
    5
100
AcDbCircle
 10
20.8555
 20
-53.6279
 40
1
100
AcDbArc
 50
270
 51
316
  0
ARC
  5
24D
100
AcDbEntity
  8
0
  6
ByLayer
 62
  256
370
    5
100
AcDbCircle
 10
11
 20
-46.8303
 40
3.05
100
AcDbArc
 50
131.81
 51
228.19
  0
LINE
  5
24E
100
AcDbEntity
  8
0
  6
ByLayer
 62
  256
370
    5
100
AcDbLine
 10
7
 20
-19.6279
 11
7
 21
-54.6279
  0
LINE
  5
24F
100
AcDbEntity
  8
0
  6
ByLayer
 62
  256
370
    5
100
AcDbLine
 10
7
 20
-54.6279
 11
9
 21
-54.6279
  0
LINE
  5
250
100
AcDbEntity
  8
0
  6
ByLayer
 62
  256
370
    5
100
AcDbLine
 10
9
 20
-19.6279
 11
7
 21
-19.6279
  0
LINE
  5
251
100
AcDbEntity
  8
0
  6
ByLayer
 62
  256
370
    5
100
AcDbLine
 10
-13.8169
 20
-49.1164
 11
-13.8169
 21
-54.6279
  0
ARC
  5
252
100
AcDbEntity
  8
0
  6
ByLayer
 62
  256
370
    5
100
AcDbCircle
 10
-20.2799
 20
-53.6279
 40
1
100
AcDbArc
 50
224
 51
270
  0
LINE
  5
253
100
AcDbEntity
  8
0
  6
ByLayer
 62
  256
370
    5
100
AcDbLine
 10
14.3925
 20
-19.6279
 11
14.3925
 21
-44.5442
  0
LINE
  5
254
100
AcDbEntity
  8
0
  6
ByLayer
 62
  256
370
   -3
100
AcDbLine
 10
14.3925
 20
-44.5442
 11
14.3925
 21
-49.1164
  0
LINE
  5
255
100
AcDbEntity
  8
0
  6
ByLayer
 62
  256
370
    5
100
AcDbLine
 10
9
 20
-19.6279
 11
9
 21
-44.5442
  0
LINE
  5
256
100
AcDbEntity
  8
0
  6
ByLayer
 62
  256
370
    5
100
AcDbLine
 10
9
 20
-49.1164
 11
9
 21
-54.6279
  0
LINE
  5
257
100
AcDbEntity
  8
0
  6
ByLayer
 62
  256
370
   -1
100
AcDbLine
 10
9
 20
-44.5442
 11
9
 21
-49.1164
  0
LINE
  5
258
100
AcDbEntity
  8
0
  6
ByLayer
 62
  256
370
    5
100
AcDbLine
 10
-20.2799
 20
-54.6279
 11
-13.8169
 21
-54.6279
  0
LINE
  5
259
100
AcDbEntity
  8
importation
  6
ByLayer
 62
  256
370
   -1
100
AcDbLine
 10
-6.807400000000001
 20
-46.8303
 11
63.1926
 21
-46.8303
  0
LINE
  5
25A
100
AcDbEntity
  8
importation
  6
ByLayer
 62
  256
370
   -1
100
AcDbLine
 10
63.1926
 20
-71.83029999999999
 11
63.1926
 21
-21.83029999999999
  0
ARC
  5
25B
100
AcDbEntity
  8
0
  6
ByLayer
 62
  256
370
   -1
100
AcDbCircle
 10
85.72393896724977
 20
-24.63509866231772
 40
1
100
AcDbArc
 50
145.9999662441483
 51
180
  0
ARC
  5
25C
100
AcDbEntity
  8
0
  6
ByLayer
 62
  256
370
   -1
100
AcDbCircle
 10
83.72393896724977
 20
-47.06555928466052
 40
1
100
AcDbArc
 50
315.9996754438735
 51
0
  0
LINE
  5
25D
100
AcDbEntity
  8
0
  6
ByLayer
 62
  256
370
   -1
100
AcDbLine
 10
85.95272421035577
 20
-22.50762093378383
 11
84.89490172414378
 21
-24.07590527041898
  0
ARC
  5
25E
100
AcDbEntity
  8
0
  6
ByLayer
 62
  256
370
   -1
100
AcDbCircle
 10
85.1236869672498
 20
-21.94842754188507
 40
1
100
AcDbArc
 50
325.9999662441487
 51
0
  0
CIRCLE
  5
25F
100
AcDbEntity
  8
0
  6
CONTINUOUS
 62
  256
370
   -1
100
AcDbCircle
 10
76.44631258712285
 20
-51.5785694634377
 40
1
  0
CIRCLE
  5
260
100
AcDbEntity
  8
0
  6
CONTINUOUS
 62
  256
370
   -1
100
AcDbCircle
 10
73.22737402833209
 20
-32.61117541261357
 40
1
  0
CIRCLE
  5
261
100
AcDbEntity
  8
0
  6
DASHEDX2
 62
   96
420
32768
370
   -1
100
AcDbCircle
 10
73.22733863811024
 20
-32.61115526946643
 40
0.75
  0
ARC
  5
262
100
AcDbEntity
  8
0
  6
ByLayer
 62
  256
370
   -1
100
AcDbCircle
 10
66.62363960516031
 20
-29.12793394049072
 40
1
100
AcDbArc
 50
180
 51
270
  0
ARC
  5
263
100
AcDbEntity
  8
0
  6
ByLayer
 62
  256
370
   -1
100
AcDbCircle
 10
69.62363960516031
 20
-31.12793394049072
 40
1
100
AcDbArc
 50
0
 51
90
  0
LINE
  5
264
100
AcDbEntity
  8
0
  6
ByLayer
 62
   56
420
8421376
370
   -1
100
AcDbLine
 10
71.97353960516031
 20
-22.32800000000001
 11
71.97353960516031
 21
-26.32780000000001
  0
LINE
  5
265
100
AcDbEntity
  8
0
  6
ByLayer
 62
  216
420
8388736
370
   -1
100
AcDbLine
 10
70.6736396051603
 20
-21.32790000000001
 11
70.6736396051603
 21
-27.32790000000001
  0
LINE
  5
266
100
AcDbEntity
  8
0
  6
ByLayer
 62
  216
420
8388736
370
   -1
100
AcDbLine
 10
70.97353960516031
 20
-27.32790000000001
 11
70.6736396051603
 21
-27.32790000000001
  0
LINE
  5
267
100
AcDbEntity
  8
0
  6
ByLayer
 62
  256
370
   -1
100
AcDbLine
 10
65.62363960516031
 20
-19.52793394049073
 11
65.62363960516031
 21
-29.12793394049072
  0
ARC
  5
268
100
AcDbEntity
  8
0
  6
ByLayer
 62
  256
370
   -1
100
AcDbCircle
 10
66.62363960516031
 20
-19.52793394049073
 40
1
100
AcDbArc
 50
90
 51
180
  0
LINE
  5
269
100
AcDbEntity
  8
0
  6
ByLayer
 62
  256
370
   -1
100
AcDbLine
 10
86.1236869672498
 20
-19.52793394049073
 11
86.1236869672498
 21
-21.94842754188507
  0
ARC
  5
26A
100
AcDbEntity
  8
0
  6
ByLayer
 62
  256
370
   -1
100
AcDbCircle
 10
85.1236869672498
 20
-19.52793394049073
 40
1
100
AcDbArc
 50
0
 51
90
  0
LINE
  5
26B
100
AcDbEntity
  8
0
  6
ByLayer
 62
    8
370
   -1
100
AcDbLine
 10
81.1235396051603
 20
-24.32790000000001
 11
61.1235396051603
 21
-24.32790000000001
  0
LINE
  5
26C
100
AcDbEntity
  8
0
  6
ByLayer
 62
  256
370
   -1
100
AcDbLine
 10
85.12363960516031
 20
-18.52790000000001
 11
66.62363960516031
 21
-18.52790000000001
  0
LINE
  5
26D
100
AcDbEntity
  8
0
  6
ByLayer
 62
  256
370
   -1
100
AcDbLine
 10
66.62363960516031
 20
-30.1279
 11
69.62363960516031
 21
-30.1279
  0
LINE
  5
26E
100
AcDbEntity
  8
0
  6
ByLayer
 62
  256
370
   -1
100
AcDbLine
 10
84.7239396051603
 20
-24.63510000000001
 11
84.7239396051603
 21
-47.06560000000001
  0
LINE
  5
26F
100
AcDbEntity
  8
0
  6
ByLayer
 62
   30
420
16744448
370
   -1
100
AcDbLine
 10
61.1235396051603
 20
-19.52790000000001
 11
61.1235396051603
 21
-29.1279
  0
LINE
  5
270
100
AcDbEntity
  8
0
  6
ByLayer
 62
  216
420
8388736
370
   -1
100
AcDbLine
 10
70.9736396051603
 20
-21.32790000000001
 11
70.6736396051603
 21
-21.32790000000001
  0
LINE
  5
271
100
AcDbEntity
  8
0
  6
ByLayer
 62
   30
420
16744448
370
   -1
100
AcDbLine
 10
72.47353960516031
 20
-21.27790000000001
 11
70.62363960516031
 21
-21.27790000000001
  0
LINE
  5
272
100
AcDbEntity
  8
0
  6
ByLayer
 62
   30
420
16744448
370
   -1
100
AcDbLine
 10
70.62363960516031
 20
-18.52790000000001
 11
70.62363960516031
 21
-21.27790000000001
  0
LINE
  5
273
100
AcDbEntity
  8
0
  6
ByLayer
 62
  216
420
8388736
370
   -1
100
AcDbLine
 10
70.9736396051603
 20
-21.32790000000001
 11
71.47363960516032
 21
-21.52790000000001
  0
LINE
  5
274
100
AcDbEntity
  8
0
  6
ByLayer
 62
   56
420
8421376
370
   -1
100
AcDbLine
 10
71.97363960516032
 20
-22.32800000000001
 11
73.97353960516031
 21
-22.32800000000001
  0
LINE
  5
275
100
AcDbEntity
  8
0
  6
ByLayer
 62
   56
420
8421376
370
   -1
100
AcDbLine
 10
73.97353960516031
 20
-22.32800000000001
 11
73.97353960516031
 21
-26.32780000000001
  0
LINE
  5
276
100
AcDbEntity
  8
0
  6
ByLayer
 62
   56
420
8421376
370
   -1
100
AcDbLine
 10
71.97363960516032
 20
-26.32780000000001
 11
73.97353960516031
 21
-26.32780000000001
  0
CIRCLE
  5
277
100
AcDbEntity
  8
0
  6
ByLayer
 62
  256
370
   -1
100
AcDbCircle
 10
68.61789889233222
 20
-21.34596346322195
 40
2
  0
CIRCLE
  5
278
100
AcDbEntity
  8
0
  6
ByLayer
 62
  256
370
   -1
100
AcDbCircle
 10
68.61789889233222
 20
-21.34596346322195
 40
1
  0
LINE
  5
279
100
AcDbEntity
  8
0
  6
ByLayer
 62
   30
420
16744448
370
   -1
100
AcDbLine
 10
77.68503960516031
 20
-27.61180000000001
 11
75.98793960516031
 21
-30.1279
  0
LINE
  5
27A
100
AcDbEntity
  8
0
  6
ByLayer
 62
   30
420
16744448
370
   -1
100
AcDbLine
 10
77.68503960516031
 20
-19.52790000000001
 11
77.68503960516031
 21
-27.61180000000001
  0
LINE
  5
27B
100
AcDbEntity
  8
0
  6
ByLayer
 62
   30
420
16744448
370
   -1
100
AcDbLine
 10
75.98793960516031
 20
-30.1279
 11
62.1235396051603
 21
-30.1279
  0
LINE
  5
27C
100
AcDbEntity
  8
0
  6
ByLayer
 62
   30
420
16744448
370
   -1
100
AcDbLine
 10
62.1235396051603
 20
-30.1279
 11
61.1235396051603
 21
-29.1279
  0
LINE
  5
27D
100
AcDbEntity
  8
0
  6
ByLayer
 62
   30
420
16744448
370
   -1
100
AcDbLine
 10
61.1235396051603
 20
-19.52790000000001
 11
62.1235396051603
 21
-18.52790000000001
  0
CIRCLE
  5
27E
100
AcDbEntity
  8
0
  6
ByLayer
 62
  256
370
   -1
100
AcDbCircle
 10
75.12607551199525
 20
-27.66248441547469
 40
2
  0
CIRCLE
  5
27F
100
AcDbEntity
  8
0
  6
ByLayer
 62
  256
370
   -1
100
AcDbCircle
 10
75.12607551199525
 20
-27.66248441547469
 40
1
  0
LINE
  5
280
100
AcDbEntity
  8
0
  6
ByLayer
 62
   30
420
16744448
370
   -1
100
AcDbLine
 10
72.47353960516031
 20
-27.3779
 11
70.62363960516031
 21
-27.3779
  0
LINE
  5
281
100
AcDbEntity
  8
0
  6
ByLayer
 62
  216
420
8388736
370
   -1
100
AcDbLine
 10
70.9736396051603
 20
-27.32790000000001
 11
71.47363960516032
 21
-27.1279
  0
LINE
  5
282
100
AcDbEntity
  8
0
  6
ByLayer
 62
   30
420
16744448
370
   -1
100
AcDbLine
 10
70.62363960516031
 20
-30.1279
 11
70.62363960516031
 21
-27.3779
  0
LINE
  5
283
100
AcDbEntity
  8
0
  6
ByLayer
 62
   30
420
16744448
370
   -1
100
AcDbLine
 10
72.47353960516031
 20
-26.32780000000001
 11
72.47353960516031
 21
-27.3779
  0
LINE
  5
284
100
AcDbEntity
  8
0
  6
ByLayer
 62
   30
420
16744448
370
   -1
100
AcDbLine
 10
72.47353960516031
 20
-22.32800000000001
 11
72.47353960516031
 21
-21.27790000000001
  0
LINE
  5
285
100
AcDbEntity
  8
0
  6
ByLayer
 62
   30
420
16744448
370
   -1
100
AcDbLine
 10
76.68502044275513
 20
-18.52790000000001
 11
62.1235396051603
 21
-18.52790000000001
  0
LINE
  5
286
100
AcDbEntity
  8
0
  6
ByLayer
 62
   30
420
16744448
370
   -1
100
AcDbLine
 10
77.68502044275513
 20
-19.52790000000001
 11
76.68502044275513
 21
-18.52790000000001
  0
LINE
  5
287
100
AcDbEntity
  8
0
  6
ByLayer
 62
  216
420
8388736
370
   -1
100
AcDbLine
 10
71.47363960516032
 20
-21.52790000000001
 11
71.47363960516032
 21
-27.1279
  0
LINE
  5
288
100
AcDbEntity
  8
0
  6
ByLayer
 62
    8
370
   -1
100
AcDbLine
 10
71.72348960516031
 20
-44.83039
 11
73.72348960516031
 21
-44.83039
  0
LINE
  5
289
100
AcDbEntity
  8
0
  6
ByLayer
 62
    8
370
   -1
100
AcDbLine
 10
73.72353960516031
 20
-44.8304
 11
73.72353960516031
 21
-48.8302
  0
LINE
  5
28A
100
AcDbEntity
  8
0
  6
ByLayer
 62
    8
370
   -1
100
AcDbLine
 10
71.72348960516031
 20
-48.83018999999999
 11
73.72348960516031
 21
-48.83018999999999
  0
LINE
  5
28B
100
AcDbEntity
  8
0
  6
ByLayer
 62
    8
370
   -1
100
AcDbLine
 10
71.72353960516031
 20
-44.8304
 11
71.72353960516031
 21
-48.8304
  0
LINE
  5
28C
100
AcDbEntity
  8
0
  6
CONTINUOUS
 62
    7
370
   -3
100
AcDbLine
 10
70.62363960516031
 20
-43.6341
 11
70.62363960516031
 21
-31.12793394049072
  0
LINE
  5
28D
100
AcDbEntity
  8
0
  6
CONTINUOUS
 62
    7
370
   -3
100
AcDbLine
 10
70.62363960516031
 20
-54.12793394049071
 11
70.62363960516031
 21
-50.02650000000001
  0
LINE
  5
28E
100
AcDbEntity
  8
0
  6
ByLayer
 62
  256
370
   -1
100
AcDbLine
 10
72.12363960516031
 20
-50.02650000000001
 11
70.62363960516031
 21
-50.02650000000001
  0
LINE
  5
28F
100
AcDbEntity
  8
0
  6
ByLayer
 62
  256
370
   -1
100
AcDbLine
 10
72.12363960516031
 20
-43.6341
 11
70.62363960516031
 21
-43.6341
  0
LINE
  5
290
100
AcDbEntity
  8
0
  6
ByLayer
 62
  256
370
   -1
100
AcDbLine
 10
72.12363960516031
 20
-44.8304
 11
72.12363960516031
 21
-43.6341
  0
LINE
  5
291
100
AcDbEntity
  8
0
  6
ByLayer
 62
  256
370
   -1
100
AcDbLine
 10
72.12363960516031
 20
-50.02650000000001
 11
72.12363960516031
 21
-48.83020000000001
  0
LINE
  5
292
100
AcDbEntity
  8
0
  6
ByLayer
 62
  253
420
10526884
370
   -1
100
AcDbLine
 10
70.62363960516031
 20
-43.6341
 11
70.62363960516031
 21
-50.02650000000001
  0
LINE
  5
293
100
AcDbEntity
  8
0
  6
ByLayer
 62
  256
370
   -1
100
AcDbLine
 10
70.62363960516031
 20
-54.12793394049071
 11
77.8695054476682
 21
-54.12793394049071
  0
LINE
  5
294
100
AcDbEntity
  8
0
  6
ByLayer
 62
  256
370
   -1
100
AcDbLine
 10
78.58884131305226
 20
-53.82259638569139
 11
84.44327483263382
 21
-47.76022172986121
  0
ARC
  5
295
100
AcDbEntity
  8
0
  6
ByLayer
 62
  256
370
   -1
100
AcDbCircle
 10
77.8695054476682
 20
-53.12793394049071
 40
1
100
AcDbArc
 50
270
 51
315.9996754438735
  0
DIMENSION
  5
296
100
AcDbEntity
  8
0
  6
ByLayer
 62
  256
370
   -1
100
AcDbDimension
  2
*D31
 10
49.62276007407894
 20
-54.1279339404907
 30
0
 11
49.62276007407894
 21
-36.32791697024535
 31
0
 70
   32
 71
    5
 72
    0
  3
Standard
 53
0
210
0
220
0
230
1
100
AcDbAlignedDimension
 13
62.1235396051603
 23
-18.52790000000001
 33
0
 14
70.62363960516031
 24
-54.1279339404907
 34
0
 50
90
100
AcDbRotatedDimension
  0
DIMENSION
  5
297
100
AcDbEntity
  8
0
  6
ByLayer
 62
  256
370
   -1
100
AcDbDimension
  2
*D32
 10
58.33019677471275
 20
-30.1279
 30
0
 11
58.33019677471275
 21
-24.32790000000001
 31
0
 70
   32
 71
    5
 72
    0
  3
Standard
 53
0
210
0
220
0
230
1
100
AcDbAlignedDimension
 13
62.1235396051603
 23
-18.52790000000001
 33
0
 14
62.1235396051603
 24
-30.1279
 34
0
 50
90
100
AcDbRotatedDimension
  0
LINE
  5
298
100
AcDbEntity
  8
0
  6
ByLayer
 62
  256
370
   -1
100
AcDbLine
 10
70.62363960516031
 20
-18.52790000000001
 11
70.62363960516031
 21
-9.840033459992078
  0
LINE
  5
299
100
AcDbEntity
  8
0
  6
ByLayer
 62
    8
370
   -1
100
AcDbLine
 10
45.99217894600771
 20
-46.8303
 11
75.92356655058751
 21
-46.8303
  0
DIMENSION
  5
29A
100
AcDbEntity
  8
0
  6
ByLayer
 62
  256
370
   -1
100
AcDbDimension
  2
*D33
 10
70.62363960516031
 20
-13.07677256336338
 30
0
 11
68.12363960516031
 21
-13.07677256336338
 31
0
 70
   32
 71
    5
 72
    0
  3
Standard
 53
0
210
0
220
0
230
1
100
AcDbAlignedDimension
 13
65.62363960516031
 23
-19.52793338134606
 33
0
 14
70.62363960516031
 24
-18.52790000000001
 34
0
100
AcDbRotatedDimension
  0
DIMENSION
  5
29B
100
AcDbEntity
  8
0
  6
ByLayer
 62
  256
370
   -1
100
AcDbDimension
  2
*D34
 10
86.1236869672498
 20
-8.812051633873899
 30
0
 11
75.87366328620504
 21
-8.812051633873899
 31
0
 70
   32
 71
    5
 72
    0
  3
Standard
 53
0
210
0
220
0
230
1
100
AcDbAlignedDimension
 13
65.62363960516031
 23
-19.52793338134606
 33
0
 14
86.1236869672498
 24
-19.52793394049073
 34
0
100
AcDbRotatedDimension
  0
DIMENSION
  5
29C
100
AcDbEntity
  8
0
  6
ByLayer
 62
  256
370
   -1
100
AcDbDimension
  2
*D35
 10
84.7239396051603
 20
-58.90920841984568
 30
0
 11
77.67378960516029
 21
-58.90920841984568
 31
0
 70
   32
 71
    5
 72
    0
  3
Standard
 53
0
210
0
220
0
230
1
100
AcDbAlignedDimension
 13
70.62363960516031
 23
-54.12793394049071
 33
0
 14
84.7239396051603
 24
-47.06560000000001
 34
0
100
AcDbRotatedDimension
  0
LINE
  5
29D
100
AcDbEntity
  8
0
  6
ByLayer
 62
  256
370
   -1
100
AcDbLine
 10
63.1926
 20
-59.96242618046744
 11
63.1926
 21
-34.96242618046744
  0
ENDSEC
  0
SECTION
  2
OBJECTS
  0
DICTIONARY
  5
C
330
0
100
AcDbDictionary
281
    1
  3
ACAD_GROUP
350
D
  0
DICTIONARY
  5
D
330
C
100
AcDbDictionary
281
    1
  0
ENDSEC
  0
EOF
