999
dxfrw 0.6.3
999
last saved by ezdxf 0.7.9 on 2017-04-08 17:14:56
  0
SECTION
  2
HEADER
  9
$ACADVER
  1
AC1021
  9
$DWGCODEPAGE
  3
ANSI_1252
  9
$INSBASE
 10
0.0
 20
0.0
 30
0.0
  9
$EXTMIN
 10
20.0
 20
-140.0
 30
0.0
  9
$EXTMAX
 10
380.0
 20
323.125
 30
0.0
  9
$LIMMIN
 10
0.0
 20
0.0
  9
$LIMMAX
 10
420.0
 20
297.0
  9
$ORTHOMODE
 70
0
  9
$REGENMODE
 70
1
  9
$FILLMODE
 70
1
  9
$QTEXTMODE
 70
0
  9
$MIRRTEXT
 70
0
  9
$LTSCALE
 40
1.0
  9
$ATTMODE
 70
0
  9
$TEXTSIZE
 40
2.5
  9
$TRACEWID
 40
15.68
  9
$TEXTSTYLE
  7
STANDARD
  9
$CLAYER
  8
0
  9
$CELTYPE
  6
BYLAYER
  9
$CECOLOR
 62
256
  9
$CELTSCALE
 40
1.0
  9
$DISPSILH
 70
0
  9
$DIMSCALE
 40
1.0
  9
$DIMASZ
 40
2.5
  9
$DIMEXO
 40
0.625
  9
$DIMDLI
 40
3.75
  9
$DIMRND
 40
0.0
  9
$DIMDLE
 40
0.0
  9
$DIMEXE
 40
1.25
  9
$DIMTP
 40
0.0
  9
$DIMTM
 40
0.0
  9
$DIMTXT
 40
2.5
  9
$DIMCEN
 40
2.5
  9
$DIMTSZ
 40
0.0
  9
$DIMTOL
 70
0
  9
$DIMLIM
 70
0
  9
$DIMTIH
 70
0
  9
$DIMTOH
 70
0
  9
$DIMSE1
 70
0
  9
$DIMSE2
 70
0
  9
$DIMTAD
 70
1
  9
$DIMZIN
 70
1
  9
$DIMBLK
  1

  9
$DIMASO
 70
1
  9
$DIMSHO
 70
1
  9
$DIMPOST
  1

  9
$DIMAPOST
  1

  9
$DIMALT
 70
0
  9
$DIMALTD
 70
3
  9
$DIMALTF
 40
0.03937
  9
$DIMLFAC
 40
1.0
  9
$DIMTOFL
 70
1
  9
$DIMTVP
 40
0.0
  9
$DIMTIX
 70
0
  9
$DIMSOXD
 70
0
  9
$DIMSAH
 70
0
  9
$DIMBLK1
  1

  9
$DIMBLK2
  1

  9
$DIMSTYLE
  2
STANDARD
  9
$DIMCLRD
 70
0
  9
$DIMCLRE
 70
0
  9
$DIMCLRT
 70
0
  9
$DIMTFAC
 40
1.0
  9
$DIMGAP
 40
0.625
  9
$DIMJUST
 70
0
  9
$DIMSD1
 70
0
  9
$DIMSD2
 70
0
  9
$DIMTOLJ
 70
0
  9
$DIMTZIN
 70
8
  9
$DIMALTZ
 70
0
  9
$DIMALTTZ
 70
0
  9
$DIMUPT
 70
0
  9
$DIMDEC
 70
4
  9
$DIMTDEC
 70
2
  9
$DIMALTU
 70
2
  9
$DIMALTTD
 70
3
  9
$DIMTXSTY
  7
STANDARD
  9
$DIMAUNIT
 70
0
  9
$DIMADEC
 70
2
  9
$DIMALTRND
 40
0.0
  9
$DIMAZIN
 70
0
  9
$DIMDSEP
 70
0
  9
$DIMATFIT
 70
3
  9
$DIMFRAC
 70
0
  9
$DIMLDRBLK
  1
STANDARD
  9
$DIMLUNIT
 70
2
  9
$DIMLWD
 70
-2
  9
$DIMLWE
 70
-2
  9
$DIMTMOVE
 70
0
  9
$DIMFXL
 40
1.0
  9
$DIMFXLON
 70
0
  9
$DIMJOGANG
 40
0.7854
  9
$DIMTFILL
 70
0
  9
$DIMTFILLCLR
 70
0
  9
$DIMARCSYM
 70
0
  9
$DIMLTYPE
  6

  9
$DIMLTEX1
  6

  9
$DIMLTEX2
  6

  9
$LUNITS
 70
2
  9
$LUPREC
 70
4
  9
$SKETCHINC
 40
1.0
  9
$FILLETRAD
 40
0.0
  9
$AUNITS
 70
0
  9
$AUPREC
 70
2
  9
$MENU
  1
.
  9
$ELEVATION
 40
0.0
  9
$PELEVATION
 40
0.0
  9
$THICKNESS
 40
0.0
  9
$LIMCHECK
 70
0
  9
$CHAMFERA
 40
0.0
  9
$CHAMFERB
 40
0.0
  9
$CHAMFERC
 40
0.0
  9
$CHAMFERD
 40
0.0
  9
$SKPOLY
 70
0
  9
$USRTIMER
 70
1
  9
$ANGBASE
 50
0.0
  9
$ANGDIR
 70
0
  9
$PDMODE
 70
34
  9
$PDSIZE
 40
0.0
  9
$PLINEWID
 40
0.0
  9
$SPLFRAME
 70
0
  9
$SPLINETYPE
 70
2
  9
$SPLINESEGS
 70
8
  9
$HANDSEED
  5
2000E
  9
$SURFTAB1
 70
6
  9
$SURFTAB2
 70
6
  9
$SURFTYPE
 70
6
  9
$SURFU
 70
6
  9
$SURFV
 70
6
  9
$UCSBASE
  2

  9
$UCSNAME
  2

  9
$UCSORG
 10
0.0
 20
0.0
 30
0.0
  9
$UCSXDIR
 10
1.0
 20
0.0
 30
0.0
  9
$UCSYDIR
 10
0.0
 20
1.0
 30
0.0
  9
$UCSORTHOREF
  2

  9
$UCSORTHOVIEW
 70
0
  9
$UCSORGTOP
 10
0.0
 20
0.0
 30
0.0
  9
$UCSORGBOTTOM
 10
0.0
 20
0.0
 30
0.0
  9
$UCSORGLEFT
 10
0.0
 20
0.0
 30
0.0
  9
$UCSORGRIGHT
 10
0.0
 20
0.0
 30
0.0
  9
$UCSORGFRONT
 10
0.0
 20
0.0
 30
0.0
  9
$UCSORGBACK
 10
0.0
 20
0.0
 30
0.0
  9
$PUCSBASE
  2

  9
$PUCSNAME
  2

  9
$PUCSORG
 10
0.0
 20
0.0
 30
0.0
  9
$PUCSXDIR
 10
1.0
 20
0.0
 30
0.0
  9
$PUCSYDIR
 10
0.0
 20
1.0
 30
0.0
  9
$PUCSORTHOREF
  2

  9
$PUCSORTHOVIEW
 70
0
  9
$PUCSORGTOP
 10
0.0
 20
0.0
 30
0.0
  9
$PUCSORGBOTTOM
 10
0.0
 20
0.0
 30
0.0
  9
$PUCSORGLEFT
 10
0.0
 20
0.0
 30
0.0
  9
$PUCSORGRIGHT
 10
0.0
 20
0.0
 30
0.0
  9
$PUCSORGFRONT
 10
0.0
 20
0.0
 30
0.0
  9
$PUCSORGBACK
 10
0.0
 20
0.0
 30
0.0
  9
$USERI1
 70
0
  9
$USERI2
 70
0
  9
$USERI3
 70
0
  9
$USERI4
 70
0
  9
$USERI5
 70
0
  9
$USERR1
 40
0.0
  9
$USERR2
 40
0.0
  9
$USERR3
 40
0.0
  9
$USERR4
 40
0.0
  9
$USERR5
 40
0.0
  9
$WORLDVIEW
 70
1
  9
$SHADEDGE
 70
3
  9
$SHADEDIF
 70
70
  9
$TILEMODE
 70
1
  9
$MAXACTVP
 70
64
  9
$PINSBASE
 10
68.60172336769897
 20
68.77187079407807
 30
0.0
  9
$PLIMCHECK
 70
0
  9
$PEXTMIN
 10
0.0
 20
0.0
 30
0.0
  9
$PEXTMAX
 10
0.0
 20
0.0
 30
0.0
  9
$GRIDMODE
 70
1
  9
$SNAPSTYLE
 70
0
  9
$GRIDUNIT
 10
1.0
 20
1.0
  9
$PLIMMIN
 10
0.0
 20
0.0
  9
$PLIMMAX
 10
297.0
 20
210.0
  9
$UNITMODE
 70
0
  9
$VISRETAIN
 70
1
  9
$PLINEGEN
 70
0
  9
$PSLTSCALE
 70
1
  9
$TREEDEPTH
 70
3020
  9
$CMLSTYLE
  2
Standard
  9
$CMLJUST
 70
0
  9
$CMLSCALE
 40
20.0
  9
$PROXYGRAPHICS
 70
1
  9
$MEASUREMENT
 70
1
  9
$CELWEIGHT
370
-1
  9
$ENDCAPS
280
0
  9
$JOINSTYLE
280
0
  9
$LWDISPLAY
290
0
  9
$INSUNITS
 70
4
  9
$HYPERLINKBASE
  1

  9
$STYLESHEET
  1

  9
$XEDIT
290
1
  9
$CEPSNTYPE
380
0
  9
$PSTYLEMODE
290
1
  9
$EXTNAMES
290
1
  9
$PSVPSCALE
 40
0.3983841538718956
  9
$OLESTARTUP
290
0
  9
$SORTENTS
280
127
  9
$INDEXCTL
280
0
  9
$HIDETEXT
280
1
  9
$XCLIPFRAME
290
0
  9
$HALOGAP
280
0
  9
$OBSCOLOR
 70
257
  9
$OBSLTYPE
280
0
  9
$INTERSECTIONDISPLAY
280
0
  9
$INTERSECTIONCOLOR
 70
257
  9
$DIMASSOC
280
1
  9
$PROJECTNAME
  1

  9
$CAMERADISPLAY
290
0
  9
$LENSLENGTH
 40
50.0
  9
$CAMERAHEIGHT
 40
0.0
  9
$STEPSPERSEC
 40
2.0
  9
$STEPSIZE
 40
50.0
  9
$3DDWFPREC
 40
2.0
  9
$PSOLWIDTH
 40
5.0
  9
$PSOLHEIGHT
 40
80.0
  9
$LOFTANG1
 40
1.570796326794897
  9
$LOFTANG2
 40
1.570796326794897
  9
$LOFTMAG1
 40
0.0
  9
$LOFTMAG2
 40
0.0
  9
$LOFTPARAM
 70
7
  9
$LOFTNORMALS
280
1
  9
$LATITUDE
 40
1.0
  9
$LONGITUDE
 40
1.0
  9
$NORTHDIRECTION
 40
0.0
  9
$TIMEZONE
 70
-8000
  9
$LIGHTGLYPHDISPLAY
280
1
  9
$TILEMODELIGHTSYNCH
280
1
  9
$SOLIDHIST
280
1
  9
$SHOWHIST
280
1
  9
$DWFFRAME
280
2
  9
$DGNFRAME
280
0
  9
$REALWORLDSCALE
290
1
  9
$INTERFERECOLOR
 62
1
  9
$CSHADOW
280
0
  9
$SHADOWPLANELOCATION
 40
0.0
  9
$TDUPDATE
 40
2457852.7187037035
  0
ENDSEC
  0
SECTION
  2
CLASSES
  0
ENDSEC
  0
SECTION
  2
TABLES
  0
TABLE
  2
VPORT
  5
8
330
0
100
AcDbSymbolTable
 70
1
  0
VPORT
  5
31
330
8
100
AcDbSymbolTableRecord
100
AcDbViewportTableRecord
  2
*ACTIVE
 70
0
 10
0.0
 20
0.0
 11
1.0
 21
1.0
 12
324.262841452304
 22
170.4222320132848
 13
0.0
 23
0.0
 14
10.0
 24
10.0
 15
1.0
 25
1.0
 16
0.0
 26
0.0
 36
1.0
 17
0.0
 27
0.0
 37
0.0
 40
515.2585681410663
 41
1.705601907032181
 42
50.0
 43
0.0
 44
0.0
 50
0.0
 51
0.0
 71
0
 72
100
 73
1
 74
3
 75
0
 76
1
 77
0
 78
0
281
0
 65
1
110
0.0
120
0.0
130
0.0
111
1.0
121
0.0
131
0.0
112
0.0
122
1.0
132
0.0
 79
0
146
0.0
348
10020
 60
3
 61
5
292
1
282
1
141
0.0
142
0.0
 63
250
421
3358443
  0
ENDTAB
  0
TABLE
  2
LTYPE
  5
5
330
0
100
AcDbSymbolTable
 70
27
  0
LTYPE
  5
14
330
5
100
AcDbSymbolTableRecord
100
AcDbLinetypeTableRecord
  2
ByBlock
 70
0
  3

 72
65
 73
0
 40
0.0
  0
LTYPE
  5
15
330
5
100
AcDbSymbolTableRecord
100
AcDbLinetypeTableRecord
  2
ByLayer
 70
0
  3

 72
65
 73
0
 40
0.0
  0
LTYPE
  5
16
330
5
100
AcDbSymbolTableRecord
100
AcDbLinetypeTableRecord
  2
Continuous
 70
0
  3
Solid line
 72
65
 73
0
 40
0.0
  0
LTYPE
  5
32
330
5
100
AcDbSymbolTableRecord
100
AcDbLinetypeTableRecord
  2
DOT
 70
0
  3
Dot . . . . . . . . . . . . . . . . . . . . . .
 72
65
 73
2
 40
6.35
 49
0.0
 74
0
 49
-6.35
 74
0
  0
LTYPE
  5
33
330
5
100
AcDbSymbolTableRecord
100
AcDbLinetypeTableRecord
  2
DOTTINY
 70
0
  3
Dot (.15x) .....................................
 72
65
 73
2
 40
0.9525
 49
0.0
 74
0
 49
-0.9525
 74
0
  0
LTYPE
  5
34
330
5
100
AcDbSymbolTableRecord
100
AcDbLinetypeTableRecord
  2
DOT2
 70
0
  3
Dot (.5x) .....................................
 72
65
 73
2
 40
3.175
 49
0.0
 74
0
 49
-3.175
 74
0
  0
LTYPE
  5
35
330
5
100
AcDbSymbolTableRecord
100
AcDbLinetypeTableRecord
  2
DOTX2
 70
0
  3
Dot (2x) .  .  .  .  .  .  .  .  .  .  .  .  .
 72
65
 73
2
 40
12.7
 49
0.0
 74
0
 49
-12.7
 74
0
  0
LTYPE
  5
36
330
5
100
AcDbSymbolTableRecord
100
AcDbLinetypeTableRecord
  2
DASHED
 70
0
  3
Dashed _ _ _ _ _ _ _ _ _ _ _ _ _ _ _ _ _
 72
65
 73
2
 40
19.05
 49
12.7
 74
0
 49
-6.35
 74
0
  0
LTYPE
  5
37
330
5
100
AcDbSymbolTableRecord
100
AcDbLinetypeTableRecord
  2
DASHEDTINY
 70
0
  3
Dashed (.15x) _ _ _ _ _ _ _ _ _ _ _ _ _ _ _ _ _
 72
65
 73
2
 40
2.8575
 49
1.905
 74
0
 49
-0.9525
 74
0
  0
LTYPE
  5
38
330
5
100
AcDbSymbolTableRecord
100
AcDbLinetypeTableRecord
  2
DASHED2
 70
0
  3
Dashed (.5x) _ _ _ _ _ _ _ _ _ _ _ _ _ _ _ _ _
 72
65
 73
2
 40
9.524999999999999
 49
6.35
 74
0
 49
-3.175
 74
0
  0
LTYPE
  5
39
330
5
100
AcDbSymbolTableRecord
100
AcDbLinetypeTableRecord
  2
DASHEDX2
 70
0
  3
Dashed (2x) ____  ____  ____  ____  ____  ___
 72
65
 73
2
 40
38.09999999999999
 49
25.4
 74
0
 49
-12.7
 74
0
  0
LTYPE
  5
3A
330
5
100
AcDbSymbolTableRecord
100
AcDbLinetypeTableRecord
  2
DASHDOT
 70
0
  3
Dash dot __ . __ . __ . __ . __ . __ . __ . __
 72
65
 73
4
 40
25.4
 49
12.7
 74
0
 49
-6.35
 74
0
 49
0.0
 74
0
 49
-6.35
 74
0
  0
LTYPE
  5
3B
330
5
100
AcDbSymbolTableRecord
100
AcDbLinetypeTableRecord
  2
DASHDOTTINY
 70
0
  3
Dash dot (.15x) _._._._._._._._._._._._._._._.
 72
65
 73
4
 40
3.81
 49
1.905
 74
0
 49
-0.9525
 74
0
 49
0.0
 74
0
 49
-0.9525
 74
0
  0
LTYPE
  5
3C
330
5
100
AcDbSymbolTableRecord
100
AcDbLinetypeTableRecord
  2
DASHDOT2
 70
0
  3
Dash dot (.5x) _._._._._._._._._._._._._._._.
 72
65
 73
4
 40
12.7
 49
6.35
 74
0
 49
-3.175
 74
0
 49
0.0
 74
0
 49
-3.175
 74
0
  0
LTYPE
  5
3D
330
5
100
AcDbSymbolTableRecord
100
AcDbLinetypeTableRecord
  2
DASHDOTX2
 70
0
  3
Dash dot (2x) ____  .  ____  .  ____  .  ___
 72
65
 73
4
 40
50.8
 49
25.4
 74
0
 49
-12.7
 74
0
 49
0.0
 74
0
 49
-12.7
 74
0
  0
LTYPE
  5
3E
330
5
100
AcDbSymbolTableRecord
100
AcDbLinetypeTableRecord
  2
DIVIDE
 70
0
  3
Divide ____ . . ____ . . ____ . . ____ . . ____
 72
65
 73
6
 40
31.75
 49
12.7
 74
0
 49
-6.35
 74
0
 49
0.0
 74
0
 49
-6.35
 74
0
 49
0.0
 74
0
 49
-6.35
 74
0
  0
LTYPE
  5
3F
330
5
100
AcDbSymbolTableRecord
100
AcDbLinetypeTableRecord
  2
DIVIDETINY
 70
0
  3
Divide (.15x) __..__..__..__..__..__..__..__.._
 72
65
 73
6
 40
4.7625
 49
1.905
 74
0
 49
-0.9525
 74
0
 49
0.0
 74
0
 49
-0.9525
 74
0
 49
0.0
 74
0
 49
-0.9525
 74
0
  0
LTYPE
  5
40
330
5
100
AcDbSymbolTableRecord
100
AcDbLinetypeTableRecord
  2
DIVIDE2
 70
0
  3
Divide (.5x) __..__..__..__..__..__..__..__.._
 72
65
 73
6
 40
15.875
 49
6.35
 74
0
 49
-3.175
 74
0
 49
0.0
 74
0
 49
-3.175
 74
0
 49
0.0
 74
0
 49
-3.175
 74
0
  0
LTYPE
  5
41
330
5
100
AcDbSymbolTableRecord
100
AcDbLinetypeTableRecord
  2
DIVIDEX2
 70
0
  3
Divide (2x) ________  .  .  ________  .  .  _
 72
65
 73
6
 40
63.5
 49
25.4
 74
0
 49
-12.7
 74
0
 49
0.0
 74
0
 49
-12.7
 74
0
 49
0.0
 74
0
 49
-12.7
 74
0
  0
LTYPE
  5
42
330
5
100
AcDbSymbolTableRecord
100
AcDbLinetypeTableRecord
  2
BORDER
 70
0
  3
Border __ __ . __ __ . __ __ . __ __ . __ __ .
 72
65
 73
6
 40
44.45
 49
12.7
 74
0
 49
-6.35
 74
0
 49
12.7
 74
0
 49
-6.35
 74
0
 49
0.0
 74
0
 49
-6.35
 74
0
  0
LTYPE
  5
43
330
5
100
AcDbSymbolTableRecord
100
AcDbLinetypeTableRecord
  2
BORDERTINY
 70
0
  3
Border (.15x) __.__.__.__.__.__.__.__.__.__.__.
 72
65
 73
6
 40
6.6675
 49
1.905
 74
0
 49
-0.9525
 74
0
 49
1.905
 74
0
 49
-0.9525
 74
0
 49
0.0
 74
0
 49
-0.9525
 74
0
  0
LTYPE
  5
44
330
5
100
AcDbSymbolTableRecord
100
AcDbLinetypeTableRecord
  2
BORDER2
 70
0
  3
Border (.5x) __.__.__.__.__.__.__.__.__.__.__.
 72
65
 73
6
 40
22.225
 49
6.35
 74
0
 49
-3.175
 74
0
 49
6.35
 74
0
 49
-3.175
 74
0
 49
0.0
 74
0
 49
-3.175
 74
0
  0
LTYPE
  5
45
330
5
100
AcDbSymbolTableRecord
100
AcDbLinetypeTableRecord
  2
BORDERX2
 70
0
  3
Border (2x) ____  ____  .  ____  ____  .  ___
 72
65
 73
6
 40
88.89999999999999
 49
25.4
 74
0
 49
-12.7
 74
0
 49
25.4
 74
0
 49
-12.7
 74
0
 49
0.0
 74
0
 49
-12.7
 74
0
  0
LTYPE
  5
46
330
5
100
AcDbSymbolTableRecord
100
AcDbLinetypeTableRecord
  2
CENTER
 70
0
  3
Center ____ _ ____ _ ____ _ ____ _ ____ _ ____
 72
65
 73
4
 40
50.8
 49
31.75
 74
0
 49
-6.35
 74
0
 49
6.35
 74
0
 49
-6.35
 74
0
  0
LTYPE
  5
47
330
5
100
AcDbSymbolTableRecord
100
AcDbLinetypeTableRecord
  2
CENTERTINY
 70
0
  3
Center (.15x) ___ _ ___ _ ___ _ ___ _ ___ _ ___
 72
65
 73
4
 40
7.62
 49
4.7625
 74
0
 49
-0.9525
 74
0
 49
0.9525
 74
0
 49
-0.9525
 74
0
  0
LTYPE
  5
48
330
5
100
AcDbSymbolTableRecord
100
AcDbLinetypeTableRecord
  2
CENTER2
 70
0
  3
Center (.5x) ___ _ ___ _ ___ _ ___ _ ___ _ ___
 72
65
 73
4
 40
28.575
 49
19.05
 74
0
 49
-3.175
 74
0
 49
3.175
 74
0
 49
-3.175
 74
0
  0
LTYPE
  5
49
330
5
100
AcDbSymbolTableRecord
100
AcDbLinetypeTableRecord
  2
CENTERX2
 70
0
  3
Center (2x) ________  __  ________  __  _____
 72
65
 73
4
 40
101.6
 49
63.5
 74
0
 49
-12.7
 74
0
 49
12.7
 74
0
 49
-12.7
 74
0
  0
ENDTAB
  0
TABLE
  2
LAYER
  5
2
330
0
100
AcDbSymbolTable
 70
3
  0
LAYER
  5
10
330
2
100
AcDbSymbolTableRecord
100
AcDbLayerTableRecord
  2
0
 70
0
 62
16
420
8388608
  6
CONTINUOUS
290
0
370
13
390
F
  0
LAYER
  5
4A
330
2
100
AcDbSymbolTableRecord
100
AcDbLayerTableRecord
  2
Corte
 70
0
 62
5
  6
CONTINUOUS
370
20
390
F
  0
LAYER
  5
4B
330
2
100
AcDbSymbolTableRecord
100
AcDbLayerTableRecord
  2
Dimensiones
 70
0
 62
253
420
10526884
  6
CONTINUOUS
290
0
370
0
390
F
  0
ENDTAB
  0
TABLE
  2
STYLE
  5
3
330
0
100
AcDbSymbolTable
 70
1
  0
STYLE
  5
4C
330
3
100
AcDbSymbolTableRecord
100
AcDbTextStyleTableRecord
  2
Standard
 70
0
 40
0.0
 41
1.0
 50
0.0
 71
0
 42
1.0
  3
txt
  4

  0
ENDTAB
  0
TABLE
  2
VIEW
  5
6
330
0
100
AcDbSymbolTable
 70
0
  0
ENDTAB
  0
TABLE
  2
UCS
  5
7
330
0
100
AcDbSymbolTable
 70
0
  0
ENDTAB
  0
TABLE
  2
APPID
  5
9
330
0
100
AcDbSymbolTable
 70
3
  0
APPID
  5
12
330
9
100
AcDbSymbolTableRecord
100
AcDbRegAppTableRecord
  2
ACAD
 70
0
  0
APPID
  5
4D
330
9
100
AcDbSymbolTableRecord
100
AcDbRegAppTableRecord
  2
LibreCad
 70
0
  0
APPID
  5
2000D
330
9
100
AcDbSymbolTableRecord
100
AcDbRegAppTableRecord
  2
HATCHBACKGROUNDCOLOR
 70
0
  0
ENDTAB
  0
TABLE
  2
DIMSTYLE
  5
A
330
0
100
AcDbSymbolTable
 70
1
100
AcDbDimStyleTable
 71
1
  0
DIMSTYLE
105
4E
330
A
100
AcDbSymbolTableRecord
100
AcDbDimStyleTableRecord
  2
Standard
 70
0
 40
1.0
 41
2.5
 42
0.625
 43
0.38
 44
1.25
 45
0.0
 46
0.0
 47
0.0
 48
0.0
 49
1.0
140
2.5
141
0.09
142
0.0
143
25.4
144
1.0
145
0.0
146
1.0
147
0.625
148
0.0
 71
0
 72
0
 73
0
 74
1
 75
0
 76
0
 77
0
 78
1
 79
0
170
0
171
2
172
0
173
0
174
0
175
0
176
0
177
0
178
0
179
2
271
4
272
4
273
2
274
2
275
0
276
0
277
2
278
0
279
0
280
0
281
0
282
0
283
1
284
0
285
0
286
0
288
0
289
3
340
STANDARD
341

371
-2
372
-2
  0
ENDTAB
  0
TABLE
  2
BLOCK_RECORD
  5
1
330
0
100
AcDbSymbolTable
 70
11
  0
BLOCK_RECORD
  5
1F
330
1
100
AcDbSymbolTableRecord
100
AcDbBlockTableRecord
  2
*Model_Space
 70
0
280
1
281
0
340
2000B
  0
BLOCK_RECORD
  5
1E
330
1
100
AcDbSymbolTableRecord
100
AcDbBlockTableRecord
  2
*Paper_Space
 70
0
280
1
281
0
340
2000C
  0
BLOCK_RECORD
  5
4F
330
1
100
AcDbSymbolTableRecord
100
AcDbBlockTableRecord
  2
*D9
 70
0
280
1
281
0
  0
BLOCK_RECORD
  5
52
330
1
100
AcDbSymbolTableRecord
100
AcDbBlockTableRecord
  2
*D4
 70
0
280
1
281
0
  0
BLOCK_RECORD
  5
55
330
1
100
AcDbSymbolTableRecord
100
AcDbBlockTableRecord
  2
*D1
 70
0
280
1
281
0
  0
BLOCK_RECORD
  5
58
330
1
100
AcDbSymbolTableRecord
100
AcDbBlockTableRecord
  2
*D7
 70
0
280
1
281
0
  0
BLOCK_RECORD
  5
5B
330
1
100
AcDbSymbolTableRecord
100
AcDbBlockTableRecord
  2
*D8
 70
0
280
1
281
0
  0
BLOCK_RECORD
  5
5E
330
1
100
AcDbSymbolTableRecord
100
AcDbBlockTableRecord
  2
*D3
 70
0
280
1
281
0
  0
BLOCK_RECORD
  5
61
330
1
100
AcDbSymbolTableRecord
100
AcDbBlockTableRecord
  2
*D2
 70
0
280
1
281
0
  0
BLOCK_RECORD
  5
64
330
1
100
AcDbSymbolTableRecord
100
AcDbBlockTableRecord
  2
*D6
 70
0
280
1
281
0
  0
BLOCK_RECORD
  5
67
330
1
100
AcDbSymbolTableRecord
100
AcDbBlockTableRecord
  2
*D5
 70
0
280
1
281
0
  0
ENDTAB
  0
ENDSEC
  0
SECTION
  2
BLOCKS
  0
BLOCK
  5
20
330
1F
100
AcDbEntity
  8
0
100
AcDbBlockBegin
  2
*Model_Space
 70
0
 10
0.0
 20
0.0
 30
0.0
  3
*Model_Space
  1

  0
ENDBLK
  5
21
330
1F
100
AcDbEntity
  8
0
100
AcDbBlockEnd
  0
BLOCK
  5
1C
330
1E
100
AcDbEntity
  8
0
100
AcDbBlockBegin
  2
*Paper_Space
 70
0
 10
0.0
 20
0.0
 30
0.0
  3
*Paper_Space
  1

  0
ENDBLK
  5
1D
330
1E
100
AcDbEntity
  8
0
100
AcDbBlockEnd
  0
BLOCK
  5
50
330
4F
100
AcDbEntity
  8
0
100
AcDbBlockBegin
  2
*D9
 70
1
 10
0.0
 20
0.0
  3
*D9
  1

  0
LINE
  5
6A
100
AcDbEntity
  8
Dimensiones
  6
ByBlock
 62
0
370
-2
100
AcDbLine
 10
140.0
 20
280.625
 11
140.0
 21
287.25
  0
LINE
  5
6B
100
AcDbEntity
  8
Dimensiones
  6
ByBlock
 62
0
370
-2
100
AcDbLine
 10
200.0
 20
280.625
 11
200.0
 21
287.25
  0
LINE
  5
6C
100
AcDbEntity
  8
Dimensiones
  6
ByBlock
 62
0
370
-2
100
AcDbLine
 10
140.0
 20
286.0
 11
200.0
 21
286.0
  0
SOLID
  5
6D
100
AcDbEntity
  8
Dimensiones
  6
ByBlock
 62
0
370
-2
100
AcDbTrace
 10
140.0
 20
286.0
 30
0.0
 11
142.5
 21
286.4162846577728
 31
0.0
 12
142.5
 22
285.5837153422272
 32
0.0
 13
142.5
 23
285.5837153422272
 33
0.0
  0
SOLID
  5
6E
100
AcDbEntity
  8
Dimensiones
  6
ByBlock
 62
0
370
-2
100
AcDbTrace
 10
200.0
 20
286.0
 30
0.0
 11
197.5
 21
285.5837153422272
 31
0.0
 12
197.5
 22
286.4162846577728
 32
0.0
 13
197.5
 23
286.4162846577728
 33
0.0
  0
MTEXT
  5
6F
100
AcDbEntity
  8
Dimensiones
  6
CONTINUOUS
 62
0
370
-2
100
AcDbMText
 10
170.0
 20
287.875
 30
0.0
 40
2.5
 41
11.66666666666682
 71
5
 72
1
  1
60.0000
  7
STANDARD
210
0.0
220
0.0
230
1.0
 50
0.0
 73
2
 44
1.0
  0
ENDBLK
  5
51
330
4F
100
AcDbEntity
  8
0
100
AcDbBlockEnd
  0
BLOCK
  5
53
330
52
100
AcDbEntity
  8
0
100
AcDbBlockBegin
  2
*D4
 70
1
 10
0.0
 20
0.0
  3
*D4
  1

  0
LINE
  5
70
100
AcDbEntity
  8
Dimensiones
  6
ByBlock
 62
0
370
-2
100
AcDbLine
 10
20.0
 20
280.625
 11
20.0
 21
321.25
  0
LINE
  5
71
100
AcDbEntity
  8
Dimensiones
  6
ByBlock
 62
0
370
-2
100
AcDbLine
 10
380.0
 20
280.625
 11
380.0
 21
321.25
  0
LINE
  5
72
100
AcDbEntity
  8
Dimensiones
  6
ByBlock
 62
0
370
-2
100
AcDbLine
 10
20.0
 20
320.0
 11
380.0
 21
320.0
  0
SOLID
  5
73
100
AcDbEntity
  8
Dimensiones
  6
ByBlock
 62
0
370
-2
100
AcDbTrace
 10
20.0
 20
320.0
 30
0.0
 11
22.5
 21
320.4162846577728
 31
0.0
 12
22.5
 22
319.5837153422272
 32
0.0
 13
22.5
 23
319.5837153422272
 33
0.0
  0
SOLID
  5
74
100
AcDbEntity
  8
Dimensiones
  6
ByBlock
 62
0
370
-2
100
AcDbTrace
 10
380.0
 20
320.0
 30
0.0
 11
377.5
 21
319.5837153422272
 31
0.0
 12
377.5
 22
320.4162846577728
 32
0.0
 13
377.5
 23
320.4162846577728
 33
0.0
  0
MTEXT
  5
75
100
AcDbEntity
  8
Dimensiones
  6
CONTINUOUS
 62
0
370
-2
100
AcDbMText
 10
200.0
 20
321.875
 30
0.0
 40
2.5
 41
13.61111111111142
 71
5
 72
1
  1
360.0000
  7
STANDARD
210
0.0
220
0.0
230
1.0
 50
0.0
 73
2
 44
1.0
  0
ENDBLK
  5
54
330
52
100
AcDbEntity
  8
0
100
AcDbBlockEnd
  0
BLOCK
  5
56
330
55
100
AcDbEntity
  8
0
100
AcDbBlockBegin
  2
*D1
 70
1
 10
0.0
 20
0.0
  3
*D1
  1

  0
SOLID
  5
76
100
AcDbEntity
  8
0
  6
ByBlock
 62
0
370
-2
100
AcDbTrace
 10
38.21982022018783
 20
261.981981618011
 30
0.0
 11
40.34969376751954
 21
260.6083253332463
 31
0.0
 12
39.78964703983583
 22
259.9922739327942
 32
0.0
 13
39.78964703983583
 23
259.9922739327942
 33
0.0
  0
LINE
  5
77
100
AcDbEntity
  8
0
  6
ByBlock
 62
0
370
-2
100
AcDbLine
 10
36.0
 20
264.0
 11
49.11338241185042
 21
252.0787432619541
  0
MTEXT
  5
78
100
AcDbEntity
  8
0
  6
CONTINUOUS
 62
0
370
-2
100
AcDbMText
 10
44.92786280476221
 20
258.4177500776
 30
0.0
 40
2.5
 41
9.722222222222378
 71
5
 72
1
  1
3.0000
  7
STANDARD
210
0.0
220
0.0
230
1.0
 50
317.7263109939061
 73
2
 44
1.0
  0
ENDBLK
  5
57
330
55
100
AcDbEntity
  8
0
100
AcDbBlockEnd
  0
BLOCK
  5
59
330
58
100
AcDbEntity
  8
0
100
AcDbBlockBegin
  2
*D7
 70
1
 10
0.0
 20
0.0
  3
*D7
  1

  0
LINE
  5
79
100
AcDbEntity
  8
Dimensiones
  6
ByBlock
 62
0
370
-2
100
AcDbLine
 10
20.0
 20
280.625
 11
20.0
 21
291.25
  0
LINE
  5
7A
100
AcDbEntity
  8
Dimensiones
  6
ByBlock
 62
0
370
-2
100
AcDbLine
 10
60.0
 20
280.625
 11
60.0
 21
291.25
  0
LINE
  5
7B
100
AcDbEntity
  8
Dimensiones
  6
ByBlock
 62
0
370
-2
100
AcDbLine
 10
20.0
 20
290.0
 11
60.0
 21
290.0
  0
SOLID
  5
7C
100
AcDbEntity
  8
Dimensiones
  6
ByBlock
 62
0
370
-2
100
AcDbTrace
 10
20.0
 20
290.0
 30
0.0
 11
22.5
 21
290.4162846577728
 31
0.0
 12
22.5
 22
289.5837153422272
 32
0.0
 13
22.5
 23
289.5837153422272
 33
0.0
  0
SOLID
  5
7D
100
AcDbEntity
  8
Dimensiones
  6
ByBlock
 62
0
370
-2
100
AcDbTrace
 10
60.0
 20
290.0
 30
0.0
 11
57.5
 21
289.5837153422272
 31
0.0
 12
57.5
 22
290.4162846577728
 32
0.0
 13
57.5
 23
290.4162846577728
 33
0.0
  0
MTEXT
  5
7E
100
AcDbEntity
  8
Dimensiones
  6
CONTINUOUS
 62
0
370
-2
100
AcDbMText
 10
40.0
 20
291.875
 30
0.0
 40
2.5
 41
11.94444444444445
 71
5
 72
1
  1
40.0000
  7
STANDARD
210
0.0
220
0.0
230
1.0
 50
0.0
 73
2
 44
1.0
  0
ENDBLK
  5
5A
330
58
100
AcDbEntity
  8
0
100
AcDbBlockEnd
  0
BLOCK
  5
5C
330
5B
100
AcDbEntity
  8
0
100
AcDbBlockBegin
  2
*D8
 70
1
 10
0.0
 20
0.0
  3
*D8
  1

  0
LINE
  5
7F
100
AcDbEntity
  8
Dimensiones
  6
ByBlock
 62
0
370
-2
100
AcDbLine
 10
200.0
 20
99.375
 11
200.0
 21
-91.25
  0
LINE
  5
80
100
AcDbEntity
  8
Dimensiones
  6
ByBlock
 62
0
370
-2
100
AcDbLine
 10
30.0
 20
99.375
 11
29.99999999999996
 21
-91.25
  0
LINE
  5
81
100
AcDbEntity
  8
Dimensiones
  6
ByBlock
 62
0
370
-2
100
AcDbLine
 10
200.0
 20
-90.0
 11
29.99999999999996
 21
-90.0
  0
SOLID
  5
82
100
AcDbEntity
  8
Dimensiones
  6
ByBlock
 62
0
370
-2
100
AcDbTrace
 10
200.0
 20
-90.0
 30
0.0
 11
197.5
 21
-90.41628465777283
 31
0.0
 12
197.5
 22
-89.58371534222717
 32
0.0
 13
197.5
 23
-89.58371534222717
 33
0.0
  0
SOLID
  5
83
100
AcDbEntity
  8
Dimensiones
  6
ByBlock
 62
0
370
-2
100
AcDbTrace
 10
29.99999999999996
 20
-90.0
 30
0.0
 11
32.49999999999996
 21
-89.58371534222717
 31
0.0
 12
32.49999999999996
 22
-90.41628465777283
 32
0.0
 13
32.49999999999996
 23
-90.41628465777283
 33
0.0
  0
MTEXT
  5
84
100
AcDbEntity
  8
Dimensiones
  6
CONTINUOUS
 62
0
370
-2
100
AcDbMText
 10
115.0
 20
-88.125
 30
0.0
 40
2.5
 41
13.05555555555556
 71
5
 72
1
  1
170.0000
  7
STANDARD
210
0.0
220
0.0
230
1.0
 50
360.0
 73
2
 44
1.0
  0
ENDBLK
  5
5D
330
5B
100
AcDbEntity
  8
0
100
AcDbBlockEnd
  0
BLOCK
  5
5F
330
5E
100
AcDbEntity
  8
0
100
AcDbBlockBegin
  2
*D3
 70
1
 10
0.0
 20
0.0
  3
*D3
  1

  0
SOLID
  5
85
100
AcDbEntity
  8
Dimensiones
  6
ByBlock
 62
0
370
-2
100
AcDbTrace
 10
202.7854300726558
 20
262.8858279709377
 30
0.0
 11
205.261226040475
 21
262.3438618815676
 31
0.0
 12
204.9520175592628
 22
261.5708406785371
 32
0.0
 13
204.9520175592628
 23
261.5708406785371
 33
0.0
  0
LINE
  5
86
100
AcDbEntity
  8
Dimensiones
  6
ByBlock
 62
0
370
-2
100
AcDbLine
 10
200.0
 20
264.0
 11
216.4546702440222
 21
257.418131902391
  0
MTEXT
  5
87
100
AcDbEntity
  8
Dimensiones
  6
CONTINUOUS
 62
0
370
-2
100
AcDbMText
 10
210.3164076765029
 20
261.8928737320742
 30
0.0
 40
2.5
 41
9.722222222222378
 71
5
 72
1
  1
3.0000
  7
STANDARD
210
0.0
220
0.0
230
1.0
 50
338.1985905136478
 73
2
 44
1.0
  0
ENDBLK
  5
60
330
5E
100
AcDbEntity
  8
0
100
AcDbBlockEnd
  0
BLOCK
  5
62
330
61
100
AcDbEntity
  8
0
100
AcDbBlockBegin
  2
*D2
 70
1
 10
0.0
 20
0.0
  3
*D2
  1

  0
SOLID
  5
88
100
AcDbEntity
  8
Dimensiones
  6
ByBlock
 62
0
370
-2
100
AcDbTrace
 10
361.8786796564403
 20
261.8786796564403
 30
0.0
 11
360.4052704078891
 21
259.8165549990589
 31
0.0
 12
359.8165549990589
 22
260.4052704078891
 32
0.0
 13
359.8165549990589
 23
260.4052704078891
 33
0.0
  0
LINE
  5
89
100
AcDbEntity
  8
Dimensiones
  6
ByBlock
 62
0
370
-2
100
AcDbLine
 10
364.0
 20
264.0
 11
351.4684964889716
 21
251.4684964889716
  0
MTEXT
  5
8A
100
AcDbEntity
  8
Dimensiones
  6
CONTINUOUS
 62
0
370
-2
100
AcDbMText
 10
355.3477628579812
 20
257.9994132874307
 30
0.0
 40
2.5
 41
9.722222222222378
 71
5
 72
1
  1
3.0000
  7
STANDARD
210
0.0
220
0.0
230
1.0
 50
45.0
 73
2
 44
1.0
  0
ENDBLK
  5
63
330
61
100
AcDbEntity
  8
0
100
AcDbBlockEnd
  0
BLOCK
  5
65
330
64
100
AcDbEntity
  8
0
100
AcDbBlockBegin
  2
*D6
 70
1
 10
0.0
 20
0.0
  3
*D6
  1

  0
LINE
  5
8B
100
AcDbEntity
  8
Dimensiones
  6
ByBlock
 62
0
370
-2
100
AcDbLine
 10
20.0
 20
280.625
 11
20.0
 21
301.25
  0
LINE
  5
8C
100
AcDbEntity
  8
Dimensiones
  6
ByBlock
 62
0
370
-2
100
AcDbLine
 10
190.0
 20
280.625
 11
190.0
 21
301.25
  0
LINE
  5
8D
100
AcDbEntity
  8
Dimensiones
  6
ByBlock
 62
0
370
-2
100
AcDbLine
 10
20.0
 20
300.0
 11
190.0
 21
300.0
  0
SOLID
  5
8E
100
AcDbEntity
  8
Dimensiones
  6
ByBlock
 62
0
370
-2
100
AcDbTrace
 10
20.0
 20
300.0
 30
0.0
 11
22.5
 21
300.4162846577728
 31
0.0
 12
22.5
 22
299.5837153422272
 32
0.0
 13
22.5
 23
299.5837153422272
 33
0.0
  0
SOLID
  5
8F
100
AcDbEntity
  8
Dimensiones
  6
ByBlock
 62
0
370
-2
100
AcDbTrace
 10
190.0
 20
300.0
 30
0.0
 11
187.5
 21
299.5837153422272
 31
0.0
 12
187.5
 22
300.4162846577728
 32
0.0
 13
187.5
 23
300.4162846577728
 33
0.0
  0
MTEXT
  5
90
100
AcDbEntity
  8
Dimensiones
  6
CONTINUOUS
 62
0
370
-2
100
AcDbMText
 10
105.0
 20
301.875
 30
0.0
 40
2.5
 41
13.05555555555556
 71
5
 72
1
  1
170.0000
  7
STANDARD
210
0.0
220
0.0
230
1.0
 50
0.0
 73
2
 44
1.0
  0
ENDBLK
  5
66
330
64
100
AcDbEntity
  8
0
100
AcDbBlockEnd
  0
BLOCK
  5
68
330
67
100
AcDbEntity
  8
0
100
AcDbBlockBegin
  2
*D5
 70
1
 10
0.0
 20
0.0
  3
*D5
  1

  0
LINE
  5
91
100
AcDbEntity
  8
Dimensiones
  6
ByBlock
 62
0
370
-2
100
AcDbLine
 10
20.0
 20
280.625
 11
20.0
 21
311.25
  0
LINE
  5
92
100
AcDbEntity
  8
Dimensiones
  6
ByBlock
 62
0
370
-2
100
AcDbLine
 10
340.0
 20
280.625
 11
340.0
 21
311.25
  0
LINE
  5
93
100
AcDbEntity
  8
Dimensiones
  6
ByBlock
 62
0
370
-2
100
AcDbLine
 10
20.0
 20
310.0
 11
340.0
 21
310.0
  0
SOLID
  5
94
100
AcDbEntity
  8
Dimensiones
  6
ByBlock
 62
0
370
-2
100
AcDbTrace
 10
20.0
 20
310.0
 30
0.0
 11
22.5
 21
310.4162846577728
 31
0.0
 12
22.5
 22
309.5837153422272
 32
0.0
 13
22.5
 23
309.5837153422272
 33
0.0
  0
SOLID
  5
95
100
AcDbEntity
  8
Dimensiones
  6
ByBlock
 62
0
370
-2
100
AcDbTrace
 10
340.0
 20
310.0
 30
0.0
 11
337.5
 21
309.5837153422272
 31
0.0
 12
337.5
 22
310.4162846577728
 32
0.0
 13
337.5
 23
310.4162846577728
 33
0.0
  0
MTEXT
  5
96
100
AcDbEntity
  8
Dimensiones
  6
CONTINUOUS
 62
0
370
-2
100
AcDbMText
 10
180.0
 20
311.875
 30
0.0
 40
2.5
 41
13.61111111111127
 71
5
 72
1
  1
320.0000
  7
STANDARD
210
0.0
220
0.0
230
1.0
 50
0.0
 73
2
 44
1.0
  0
ENDBLK
  5
69
330
67
100
AcDbEntity
  8
0
100
AcDbBlockEnd
  0
ENDSEC
  0
SECTION
  2
ENTITIES
  0
CIRCLE
  5
97
330
1F
100
AcDbEntity
  8
0
  6
ByLayer
 62
256
370
-1
100
AcDbCircle
 10
200.0
 20
100.0
 40
150.256
  0
CIRCLE
  5
98
330
1F
100
AcDbEntity
  8
Corte
  6
ByLayer
 62
256
370
-1
100
AcDbCircle
 10
35.0
 20
100.0
 40
3.0
  0
CIRCLE
  5
99
330
1F
100
AcDbEntity
  8
Corte
  6
ByLayer
 62
256
370
-1
100
AcDbCircle
 10
36.0
 20
264.0
 40
3.0
  0
CIRCLE
  5
9A
330
1F
100
AcDbEntity
  8
Corte
  6
ByLayer
 62
256
370
-1
100
AcDbCircle
 10
200.0
 20
264.0
 40
3.0
  0
CIRCLE
  5
9B
330
1F
100
AcDbEntity
  8
Corte
  6
ByLayer
 62
256
370
-1
100
AcDbCircle
 10
364.0
 20
264.0
 40
3.0
  0
CIRCLE
  5
9C
330
1F
100
AcDbEntity
  8
Corte
  6
ByLayer
 62
256
370
-1
100
AcDbCircle
 10
364.0
 20
100.0
 40
3.0
  0
CIRCLE
  5
9D
330
1F
100
AcDbEntity
  8
Corte
  6
ByLayer
 62
256
370
-1
100
AcDbCircle
 10
364.0
 20
-64.0
 40
3.0
  0
CIRCLE
  5
9E
330
1F
100
AcDbEntity
  8
Corte
  6
ByLayer
 62
256
370
-1
100
AcDbCircle
 10
200.0
 20
-64.0
 40
3.0
  0
CIRCLE
  5
9F
330
1F
100
AcDbEntity
  8
Corte
  6
ByLayer
 62
256
370
-1
100
AcDbCircle
 10
36.0
 20
-64.0
 40
3.0
  0
DIMENSION
  5
A1
330
1F
100
AcDbEntity
  8
0
  6
ByLayer
 62
256
370
-1
100
AcDbDimension
  2
*D1
 10
36.0
 20
264.0
 30
0.0
 11
44.92786280476221
 21
258.4177500776
 31
0.0
 70
36
 71
5
  3
Standard
 53
0.0
210
0.0
220
0.0
230
1.0
100
AcDbRadialDimension
 15
38.21982022018783
 25
261.981981618011
 35
0.0
 40
0.0
  0
LWPOLYLINE
  5
A2
330
1F
100
AcDbEntity
  8
Corte
  6
ByLayer
 62
256
370
-1
100
AcDbPolyline
 90
37
 70
1
 43
0.0
 10
20.0
 20
240.0
 10
20.0
 20
280.0
 10
60.0
 20
280.0
 10
80.0
 20
260.0
 10
170.0
 20
260.0
 10
190.0
 20
280.0
 10
210.0
 20
280.0
 10
230.0
 20
260.0
 10
320.0
 20
260.0
 10
340.0
 20
280.0
 10
380.0
 20
280.0
 10
380.0
 20
240.0
 10
360.0
 20
220.0
 10
360.0
 20
120.0
 10
380.0
 20
110.0
 10
380.0
 20
90.0
 10
360.0
 20
80.0
 10
360.0
 20
-30.0
 10
380.0
 20
-50.0
 10
380.0
 20
-80.0
 10
340.0
 20
-80.0
 10
320.0
 20
-60.0
 10
220.0
 20
-60.0
 10
210.0
 20
-80.0
 10
190.0
 20
-80.0
 10
180.0
 20
-60.0
 10
80.0
 20
-60.0
 10
60.0
 20
-80.0
 10
20.0
 20
-80.0
 10
20.0
 20
-50.0
 10
40.0
 20
-30.0
 10
40.0
 20
80.0
 10
20.0
 20
90.0
 10
20.0
 20
110.0
 10
40.0
 20
120.0
 10
40.0
 20
220.0
 10
40.0
 20
220.0
  0
DIMENSION
  5
A3
330
1F
100
AcDbEntity
  8
Dimensiones
  6
ByLayer
 62
256
370
-1
100
AcDbDimension
  2
*D2
 10
364.0
 20
264.0
 30
0.0
 11
355.3477628579812
 21
257.9994132874307
 31
0.0
 70
36
 71
5
  3
Standard
 53
0.0
210
0.0
220
0.0
230
1.0
100
AcDbRadialDimension
 15
361.8786796564403
 25
261.8786796564403
 35
0.0
 40
0.0
  0
DIMENSION
  5
A4
330
1F
100
AcDbEntity
  8
Dimensiones
  6
ByLayer
 62
256
370
-1
100
AcDbDimension
  2
*D3
 10
200.0
 20
264.0
 30
0.0
 11
210.3164076765029
 21
261.8928737320742
 31
0.0
 70
36
 71
5
  3
Standard
 53
0.0
210
0.0
220
0.0
230
1.0
100
AcDbRadialDimension
 15
202.7854300726558
 25
262.8858279709377
 35
0.0
 40
0.0
  0
DIMENSION
  5
A5
330
1F
100
AcDbEntity
  8
Dimensiones
  6
ByLayer
 62
256
370
-1
100
AcDbDimension
  2
*D4
 10
380.0
 20
320.0
 30
0.0
 11
200.0
 21
321.875
 31
0.0
 70
33
 71
5
  3
Standard
 53
0.0
210
0.0
220
0.0
230
1.0
100
AcDbAlignedDimension
 13
20.0
 23
280.0
 33
0.0
 14
380.0
 24
280.0
 34
0.0
  0
DIMENSION
  5
A6
330
1F
100
AcDbEntity
  8
Dimensiones
  6
ByLayer
 62
256
370
-1
100
AcDbDimension
  2
*D5
 10
340.0
 20
310.0
 30
0.0
 11
180.0
 21
311.875
 31
0.0
 70
33
 71
5
  3
Standard
 53
0.0
210
0.0
220
0.0
230
1.0
100
AcDbAlignedDimension
 13
20.0
 23
280.0
 33
0.0
 14
340.0
 24
280.0
 34
0.0
  0
DIMENSION
  5
A7
330
1F
100
AcDbEntity
  8
Dimensiones
  6
ByLayer
 62
256
370
-1
100
AcDbDimension
  2
*D6
 10
190.0
 20
300.0
 30
0.0
 11
105.0
 21
301.875
 31
0.0
 70
33
 71
5
  3
Standard
 53
0.0
210
0.0
220
0.0
230
1.0
100
AcDbAlignedDimension
 13
20.0
 23
280.0
 33
0.0
 14
190.0
 24
280.0
 34
0.0
  0
DIMENSION
  5
A8
330
1F
100
AcDbEntity
  8
Dimensiones
  6
ByLayer
 62
256
370
-1
100
AcDbDimension
  2
*D7
 10
60.0
 20
290.0
 30
0.0
 11
40.0
 21
291.875
 31
0.0
 70
33
 71
5
  3
Standard
 53
0.0
210
0.0
220
0.0
230
1.0
100
AcDbAlignedDimension
 13
20.0
 23
280.0
 33
0.0
 14
60.0
 24
280.0
 34
0.0
  0
DIMENSION
  5
A9
330
1F
100
AcDbEntity
  8
Dimensiones
  6
ByLayer
 62
256
370
-1
100
AcDbDimension
  2
*D8
 10
29.99999999999996
 20
-90.0
 30
0.0
 11
115.0
 21
-88.125
 31
0.0
 70
33
 71
5
 72
0
  3
Standard
 53
0.0
210
0.0
220
0.0
230
1.0
100
AcDbAlignedDimension
 13
200.0
 23
100.0
 33
0.0
 14
30.0
 24
100.0
 34
0.0
  0
DIMENSION
  5
AA
330
1F
100
AcDbEntity
  8
Dimensiones
  6
ByLayer
 62
256
370
-1
100
AcDbDimension
  2
*D9
 10
200.0
 20
286.0
 30
0.0
 11
170.0
 21
287.875
 31
0.0
 70
33
 71
5
  3
Standard
 53
0.0
210
0.0
220
0.0
230
1.0
100
AcDbAlignedDimension
 13
140.0
 23
280.0
 33
0.0
 14
200.0
 24
280.0
 34
0.0
  0
LINE
  5
AB
330
1F
100
AcDbEntity
  8
0
  6
ByLayer
 62
256
370
-1
100
AcDbLine
 10
140.0
 20
280.0
 11
140.0
 21
-100.0
  0
LINE
  5
AC
330
1F
100
AcDbEntity
  8
0
  6
ByLayer
 62
256
370
-1
100
AcDbLine
 10
260.0
 20
280.0
 11
260.0
 21
-100.0
  0
ENDSEC
  0
SECTION
  2
OBJECTS
  0
DICTIONARY
  5
C
330
0
100
AcDbDictionary
281
1
  3
ACAD_GROUP
350
D
  3
ACAD_COLOR
350
20000
  3
ACAD_LAYOUT
350
20001
  3
ACAD_MATERIAL
350
20002
  3
ACAD_MLEADERSTYLE
350
20003
  3
ACAD_MLINESTYLE
350
20004
  3
ACAD_PLOTSETTINGS
350
20005
  3
ACAD_PLOTSTYLENAME
350
20006
  3
ACAD_SCALELIST
350
20008
  3
ACAD_TABLESTYLE
350
20009
  3
ACAD_VISUALSTYLE
350
2000A
  0
DICTIONARY
  5
D
330
C
100
AcDbDictionary
281
1
  0
DICTIONARY
  5
20000
330
C
100
AcDbDictionary
281
1
  0
DICTIONARY
  5
20001
330
C
100
AcDbDictionary
281
1
  3
Model
350
2000B
  3
Layout1
350
2000C
  0
DICTIONARY
  5
20002
330
C
100
AcDbDictionary
281
1
  0
DICTIONARY
  5
20003
330
C
100
AcDbDictionary
281
1
  0
DICTIONARY
  5
20004
330
C
100
AcDbDictionary
281
1
  0
DICTIONARY
  5
20005
330
C
100
AcDbDictionary
281
1
  0
ACDBDICTIONARYWDFLT
  5
20006
330
C
100
AcDbDictionary
281
1
  3
Normal
350
20007
100
AcDbDictionaryWithDefault
340
20007
  0
ACDBPLACEHOLDER
  5
20007
330
20006
  0
DICTIONARY
  5
20008
330
C
100
AcDbDictionary
281
1
  0
DICTIONARY
  5
20009
330
C
100
AcDbDictionary
281
1
  0
DICTIONARY
  5
2000A
330
C
100
AcDbDictionary
281
1
  0
LAYOUT
  5
2000B
330
20001
100
AcDbPlotSettings
  1

  2
DWFx ePlot (XPS Compatible).pc3
  4
ANSI_A_(8.50_x_11.00_Inches)
  6

 40
5.8
 41
17.8
 42
5.8
 43
17.8
 44
215.9
 45
279.4
 46
0.0
 47
0.0
 48
0.0
 49
0.0
140
0.0
141
0.0
142
1.0
143
14.53
 70
11952
 72
0
 73
1
 74
0
  7

 75
0
147
0.069
148
114.98
149
300.29
100
AcDbLayout
  1
Model
 70
1
 71
0
 10
0.0
 20
0.0
 11
12.0
 21
9.0
 12
0.0
 22
0.0
 32
0.0
 14
0.0
 24
0.0
 34
0.0
 15
0.0
 25
0.0
 35
0.0
146
0.0
 13
0.0
 23
0.0
 33
0.0
 16
1.0
 26
0.0
 36
0.0
 17
0.0
 27
1.0
 37
0.0
 76
0
330
1F
  0
LAYOUT
  5
2000C
330
20001
100
AcDbPlotSettings
  1

  2
DWFx ePlot (XPS Compatible).pc3
  4
ANSI_A_(8.50_x_11.00_Inches)
  6

 40
5.8
 41
17.8
 42
5.8
 43
17.8
 44
215.9
 45
279.4
 46
0.0
 47
0.0
 48
0.0
 49
0.0
140
0.0
141
0.0
142
1.0
143
1.0
 70
688
 72
0
 73
1
 74
5
  7
acad.ctb
 75
16
147
1.0
148
0.0
149
0.0
100
AcDbLayout
  1
Layout1
 70
1
 71
1
 10
-0.7
 20
-0.23
 11
10.3
 21
8.27
 12
0.0
 22
0.0
 32
0.0
 14
0.63
 24
0.8
 34
0.0
 15
9.0
 25
7.2
 35
0.0
146
0.0
 13
0.0
 23
0.0
 33
0.0
 16
1.0
 26
0.0
 36
0.0
 17
0.0
 27
1.0
 37
0.0
 76
0
330
1E
  0
ENDSEC
  0
EOF
