999
dxfrw 0.6.3
  0
SECTION
  2
HEADER
  9
$ACADVER
  1
AC1021
  9
$DWGCODEPAGE
  3
ANSI_1252
  9
$INSBASE
 10
0
 20
0
 30
0
  9
$EXTMIN
 10
-0.3073597570424731
 20
-4.38437679171793
 30
0
  9
$EXTMAX
 10
3.904864935301453
 20
0
 30
0
  9
$LIMMIN
 10
0
 20
0
  9
$LIMMAX
 10
420
 20
297
  9
$ORTHOMODE
 70
    0
  9
$REGENMODE
 70
    1
  9
$FILLMODE
 70
    1
  9
$QTEXTMODE
 70
    0
  9
$MIRRTEXT
 70
    0
  9
$LTSCALE
 40
1
  9
$ATTMODE
 70
    0
  9
$TEXTSIZE
 40
2.5
  9
$TRACEWID
 40
15.68
  9
$TEXTSTYLE
  7
STANDARD
  9
$CLAYER
  8
Speakers
  9
$CELTYPE
  6
BYLAYER
  9
$CECOLOR
 62
  256
  9
$CELTSCALE
 40
1
  9
$DISPSILH
 70
    0
  9
$DIMSCALE
 40
1
  9
$DIMASZ
 40
0.1
  9
$DIMEXO
 40
0.02
  9
$DIMDLI
 40
3.75
  9
$DIMRND
 40
0
  9
$DIMDLE
 40
0
  9
$DIMEXE
 40
0.1
  9
$DIMTP
 40
0
  9
$DIMTM
 40
0
  9
$DIMTXT
 40
0.08
  9
$DIMCEN
 40
2.5
  9
$DIMTSZ
 40
0
  9
$DIMTOL
 70
    0
  9
$DIMLIM
 70
    0
  9
$DIMTIH
 70
    0
  9
$DIMTOH
 70
    0
  9
$DIMSE1
 70
    0
  9
$DIMSE2
 70
    0
  9
$DIMTAD
 70
    1
  9
$DIMZIN
 70
    8
  9
$DIMBLK
  1

  9
$DIMASO
 70
    1
  9
$DIMSHO
 70
    1
  9
$DIMPOST
  1

  9
$DIMAPOST
  1

  9
$DIMALT
 70
    0
  9
$DIMALTD
 70
    3
  9
$DIMALTF
 40
0.03937
  9
$DIMLFAC
 40
1
  9
$DIMTOFL
 70
    1
  9
$DIMTVP
 40
0
  9
$DIMTIX
 70
    0
  9
$DIMSOXD
 70
    0
  9
$DIMSAH
 70
    0
  9
$DIMBLK1
  1

  9
$DIMBLK2
  1

  9
$DIMSTYLE
  2
STANDARD
  9
$DIMCLRD
 70
    0
  9
$DIMCLRE
 70
    0
  9
$DIMCLRT
 70
    0
  9
$DIMTFAC
 40
1
  9
$DIMGAP
 40
0.08
  9
$DIMJUST
 70
    0
  9
$DIMSD1
 70
    0
  9
$DIMSD2
 70
    0
  9
$DIMTOLJ
 70
    0
  9
$DIMTZIN
 70
    8
  9
$DIMALTZ
 70
    0
  9
$DIMALTTZ
 70
    0
  9
$DIMUPT
 70
    0
  9
$DIMDEC
 70
    3
  9
$DIMTDEC
 70
    2
  9
$DIMALTU
 70
    2
  9
$DIMALTTD
 70
    3
  9
$DIMTXSTY
  7
standard
  9
$DIMAUNIT
 70
    0
  9
$DIMADEC
 70
    2
  9
$DIMALTRND
 40
0
  9
$DIMAZIN
 70
    0
  9
$DIMDSEP
 70
    0
  9
$DIMATFIT
 70
    3
  9
$DIMFRAC
 70
    0
  9
$DIMLDRBLK
  1
STANDARD
  9
$DIMLUNIT
 70
    2
  9
$DIMLWD
 70
   -2
  9
$DIMLWE
 70
   -2
  9
$DIMTMOVE
 70
    0
  9
$DIMFXL
 40
1
  9
$DIMFXLON
 70
    0
  9
$DIMJOGANG
 40
0.7854
  9
$DIMTFILL
 70
    0
  9
$DIMTFILLCLR
 70
    0
  9
$DIMARCSYM
 70
    0
  9
$DIMLTYPE
  6

  9
$DIMLTEX1
  6

  9
$DIMLTEX2
  6

  9
$LUNITS
 70
    2
  9
$LUPREC
 70
    3
  9
$SKETCHINC
 40
1
  9
$FILLETRAD
 40
0
  9
$AUNITS
 70
    0
  9
$AUPREC
 70
    2
  9
$MENU
  1
.
  9
$ELEVATION
 40
0
  9
$PELEVATION
 40
0
  9
$THICKNESS
 40
0
  9
$LIMCHECK
 70
    0
  9
$CHAMFERA
 40
0
  9
$CHAMFERB
 40
0
  9
$CHAMFERC
 40
0
  9
$CHAMFERD
 40
0
  9
$SKPOLY
 70
    0
  9
$USRTIMER
 70
    1
  9
$ANGBASE
 50
0
  9
$ANGDIR
 70
    0
  9
$PDMODE
 70
   34
  9
$PDSIZE
 40
0
  9
$PLINEWID
 40
0
  9
$SPLFRAME
 70
    0
  9
$SPLINETYPE
 70
    2
  9
$SPLINESEGS
 70
    8
  9
$HANDSEED
  5
20000
  9
$SURFTAB1
 70
    6
  9
$SURFTAB2
 70
    6
  9
$SURFTYPE
 70
    6
  9
$SURFU
 70
    6
  9
$SURFV
 70
    6
  9
$UCSBASE
  2

  9
$UCSNAME
  2

  9
$UCSORG
 10
0
 20
0
 30
0
  9
$UCSXDIR
 10
1
 20
0
 30
0
  9
$UCSYDIR
 10
0
 20
1
 30
0
  9
$UCSORTHOREF
  2

  9
$UCSORTHOVIEW
 70
    0
  9
$UCSORGTOP
 10
0
 20
0
 30
0
  9
$UCSORGBOTTOM
 10
0
 20
0
 30
0
  9
$UCSORGLEFT
 10
0
 20
0
 30
0
  9
$UCSORGRIGHT
 10
0
 20
0
 30
0
  9
$UCSORGFRONT
 10
0
 20
0
 30
0
  9
$UCSORGBACK
 10
0
 20
0
 30
0
  9
$PUCSBASE
  2

  9
$PUCSNAME
  2

  9
$PUCSORG
 10
0
 20
0
 30
0
  9
$PUCSXDIR
 10
1
 20
0
 30
0
  9
$PUCSYDIR
 10
0
 20
1
 30
0
  9
$PUCSORTHOREF
  2

  9
$PUCSORTHOVIEW
 70
    0
  9
$PUCSORGTOP
 10
0
 20
0
 30
0
  9
$PUCSORGBOTTOM
 10
0
 20
0
 30
0
  9
$PUCSORGLEFT
 10
0
 20
0
 30
0
  9
$PUCSORGRIGHT
 10
0
 20
0
 30
0
  9
$PUCSORGFRONT
 10
0
 20
0
 30
0
  9
$PUCSORGBACK
 10
0
 20
0
 30
0
  9
$USERI1
 70
    0
  9
$USERI2
 70
    0
  9
$USERI3
 70
    0
  9
$USERI4
 70
    0
  9
$USERI5
 70
    0
  9
$USERR1
 40
0
  9
$USERR2
 40
0
  9
$USERR3
 40
0
  9
$USERR4
 40
0
  9
$USERR5
 40
0
  9
$WORLDVIEW
 70
    1
  9
$SHADEDGE
 70
    3
  9
$SHADEDIF
 70
   70
  9
$TILEMODE
 70
    1
  9
$MAXACTVP
 70
   64
  9
$PINSBASE
 10
0.0630080498577005
 20
0.03825460301373619
 30
0
  9
$PLIMCHECK
 70
    0
  9
$PEXTMIN
 10
0
 20
0
 30
0
  9
$PEXTMAX
 10
0
 20
0
 30
0
  9
$GRIDMODE
 70
    1
  9
$SNAPSTYLE
 70
    0
  9
$GRIDUNIT
 10
0
 20
0
  9
$PLIMMIN
 10
0
 20
0
  9
$PLIMMAX
 10
0.2794
 20
0.2159
  9
$UNITMODE
 70
    0
  9
$VISRETAIN
 70
    1
  9
$PLINEGEN
 70
    0
  9
$PSLTSCALE
 70
    1
  9
$TREEDEPTH
 70
 3020
  9
$CMLSTYLE
  2
Standard
  9
$CMLJUST
 70
    0
  9
$CMLSCALE
 40
20
  9
$PROXYGRAPHICS
 70
    1
  9
$MEASUREMENT
 70
    1
  9
$CELWEIGHT
370
   -1
  9
$ENDCAPS
280
    0
  9
$JOINSTYLE
280
    0
  9
$LWDISPLAY
290
    0
  9
$INSUNITS
 70
    6
  9
$HYPERLINKBASE
  1

  9
$STYLESHEET
  1

  9
$XEDIT
290
    1
  9
$CEPSNTYPE
380
    0
  9
$PSTYLEMODE
290
    1
  9
$EXTNAMES
290
    1
  9
$PSVPSCALE
 40
0.02857142857142857
  9
$OLESTARTUP
290
    0
  9
$SORTENTS
280
  127
  9
$INDEXCTL
280
    0
  9
$HIDETEXT
280
    1
  9
$XCLIPFRAME
290
    0
  9
$HALOGAP
280
    0
  9
$OBSCOLOR
 70
  257
  9
$OBSLTYPE
280
    0
  9
$INTERSECTIONDISPLAY
280
    0
  9
$INTERSECTIONCOLOR
 70
  257
  9
$DIMASSOC
280
    1
  9
$PROJECTNAME
  1

  9
$CAMERADISPLAY
290
    0
  9
$LENSLENGTH
 40
50
  9
$CAMERAHEIGHT
 40
0
  9
$STEPSPERSEC
 40
2
  9
$STEPSIZE
 40
50
  9
$3DDWFPREC
 40
2
  9
$PSOLWIDTH
 40
5
  9
$PSOLHEIGHT
 40
80
  9
$LOFTANG1
 40
1.570796326794897
  9
$LOFTANG2
 40
1.570796326794897
  9
$LOFTMAG1
 40
0
  9
$LOFTMAG2
 40
0
  9
$LOFTPARAM
 70
    7
  9
$LOFTNORMALS
280
    1
  9
$LATITUDE
 40
1
  9
$LONGITUDE
 40
1
  9
$NORTHDIRECTION
 40
0
  9
$TIMEZONE
 70
-8000
  9
$LIGHTGLYPHDISPLAY
280
    1
  9
$TILEMODELIGHTSYNCH
280
    1
  9
$SOLIDHIST
280
    1
  9
$SHOWHIST
280
    1
  9
$DWFFRAME
280
    2
  9
$DGNFRAME
280
    0
  9
$REALWORLDSCALE
290
    1
  9
$INTERFERECOLOR
 62
    1
  9
$CSHADOW
280
    0
  9
$SHADOWPLANELOCATION
 40
0
  0
ENDSEC
  0
SECTION
  2
CLASSES
  0
ENDSEC
  0
SECTION
  2
TABLES
  0
TABLE
  2
VPORT
  5
8
330
0
100
AcDbSymbolTable
 70
    1
  0
VPORT
  5
31
330
2
100
AcDbSymbolTableRecord
100
AcDbViewportTableRecord
  2
*ACTIVE
 70
    0
 10
0
 20
0
 11
1
 21
1
 12
1.289706524851405
 22
-1.308689589017545
 13
0
 23
0
 14
10
 24
10
 15
10
 25
10
 16
0
 26
0
 36
1
 17
0
 27
0
 37
0
 40
0.2015344857337521
 41
1.480169971671388
 42
50
 43
0
 44
0
 50
0
 51
0
 71
    0
 72
  100
 73
    1
 74
    3
 75
    0
 76
    1
 77
    0
 78
    0
281
    0
 65
    1
110
0
120
0
130
0
111
1
121
0
131
0
112
0
122
1
132
0
 79
    0
146
0
348
10020
 60
    7
 61
    5
292
1
282
    1
141
0
142
0
 63
  250
421
3358443
  0
ENDTAB
  0
TABLE
  2
LTYPE
  5
5
330
0
100
AcDbSymbolTable
 70
    4
  0
LTYPE
  5
14
330
5
100
AcDbSymbolTableRecord
100
AcDbLinetypeTableRecord
  2
ByBlock
 70
    0
  3

 72
   65
 73
    0
 40
0
  0
LTYPE
  5
15
330
5
100
AcDbSymbolTableRecord
100
AcDbLinetypeTableRecord
  2
ByLayer
 70
    0
  3

 72
   65
 73
    0
 40
0
  0
LTYPE
  5
16
330
5
100
AcDbSymbolTableRecord
100
AcDbLinetypeTableRecord
  2
Continuous
 70
    0
  3
Solid line
 72
   65
 73
    0
 40
0
  0
LTYPE
  5
32
330
5
100
AcDbSymbolTableRecord
100
AcDbLinetypeTableRecord
  2
DOT
 70
    0
  3
Dot . . . . . . . . . . . . . . . . . . . . . .
 72
   65
 73
    2
 40
6.35
 49
0
 74
    0
 49
-6.35
 74
    0
  0
LTYPE
  5
33
330
5
100
AcDbSymbolTableRecord
100
AcDbLinetypeTableRecord
  2
DOTTINY
 70
    0
  3
Dot (.15x) .....................................
 72
   65
 73
    2
 40
0.9525
 49
0
 74
    0
 49
-0.9525
 74
    0
  0
LTYPE
  5
34
330
5
100
AcDbSymbolTableRecord
100
AcDbLinetypeTableRecord
  2
DOT2
 70
    0
  3
Dot (.5x) .....................................
 72
   65
 73
    2
 40
3.175
 49
0
 74
    0
 49
-3.175
 74
    0
  0
LTYPE
  5
35
330
5
100
AcDbSymbolTableRecord
100
AcDbLinetypeTableRecord
  2
DOTX2
 70
    0
  3
Dot (2x) .  .  .  .  .  .  .  .  .  .  .  .  .
 72
   65
 73
    2
 40
12.7
 49
0
 74
    0
 49
-12.7
 74
    0
  0
LTYPE
  5
36
330
5
100
AcDbSymbolTableRecord
100
AcDbLinetypeTableRecord
  2
DASHED
 70
    0
  3
Dashed _ _ _ _ _ _ _ _ _ _ _ _ _ _ _ _ _
 72
   65
 73
    2
 40
19.05
 49
12.7
 74
    0
 49
-6.35
 74
    0
  0
LTYPE
  5
37
330
5
100
AcDbSymbolTableRecord
100
AcDbLinetypeTableRecord
  2
DASHEDTINY
 70
    0
  3
Dashed (.15x) _ _ _ _ _ _ _ _ _ _ _ _ _ _ _ _ _
 72
   65
 73
    2
 40
2.8575
 49
1.905
 74
    0
 49
-0.9525
 74
    0
  0
LTYPE
  5
38
330
5
100
AcDbSymbolTableRecord
100
AcDbLinetypeTableRecord
  2
DASHED2
 70
    0
  3
Dashed (.5x) _ _ _ _ _ _ _ _ _ _ _ _ _ _ _ _ _
 72
   65
 73
    2
 40
9.524999999999999
 49
6.35
 74
    0
 49
-3.175
 74
    0
  0
LTYPE
  5
39
330
5
100
AcDbSymbolTableRecord
100
AcDbLinetypeTableRecord
  2
DASHEDX2
 70
    0
  3
Dashed (2x) ____  ____  ____  ____  ____  ___
 72
   65
 73
    2
 40
38.09999999999999
 49
25.4
 74
    0
 49
-12.7
 74
    0
  0
LTYPE
  5
3A
330
5
100
AcDbSymbolTableRecord
100
AcDbLinetypeTableRecord
  2
DASHDOT
 70
    0
  3
Dash dot __ . __ . __ . __ . __ . __ . __ . __
 72
   65
 73
    4
 40
25.4
 49
12.7
 74
    0
 49
-6.35
 74
    0
 49
0
 74
    0
 49
-6.35
 74
    0
  0
LTYPE
  5
3B
330
5
100
AcDbSymbolTableRecord
100
AcDbLinetypeTableRecord
  2
DASHDOTTINY
 70
    0
  3
Dash dot (.15x) _._._._._._._._._._._._._._._.
 72
   65
 73
    4
 40
3.81
 49
1.905
 74
    0
 49
-0.9525
 74
    0
 49
0
 74
    0
 49
-0.9525
 74
    0
  0
LTYPE
  5
3C
330
5
100
AcDbSymbolTableRecord
100
AcDbLinetypeTableRecord
  2
DASHDOT2
 70
    0
  3
Dash dot (.5x) _._._._._._._._._._._._._._._.
 72
   65
 73
    4
 40
12.7
 49
6.35
 74
    0
 49
-3.175
 74
    0
 49
0
 74
    0
 49
-3.175
 74
    0
  0
LTYPE
  5
3D
330
5
100
AcDbSymbolTableRecord
100
AcDbLinetypeTableRecord
  2
DASHDOTX2
 70
    0
  3
Dash dot (2x) ____  .  ____  .  ____  .  ___
 72
   65
 73
    4
 40
50.8
 49
25.4
 74
    0
 49
-12.7
 74
    0
 49
0
 74
    0
 49
-12.7
 74
    0
  0
LTYPE
  5
3E
330
5
100
AcDbSymbolTableRecord
100
AcDbLinetypeTableRecord
  2
DIVIDE
 70
    0
  3
Divide ____ . . ____ . . ____ . . ____ . . ____
 72
   65
 73
    6
 40
31.75
 49
12.7
 74
    0
 49
-6.35
 74
    0
 49
0
 74
    0
 49
-6.35
 74
    0
 49
0
 74
    0
 49
-6.35
 74
    0
  0
LTYPE
  5
3F
330
5
100
AcDbSymbolTableRecord
100
AcDbLinetypeTableRecord
  2
DIVIDETINY
 70
    0
  3
Divide (.15x) __..__..__..__..__..__..__..__.._
 72
   65
 73
    6
 40
4.7625
 49
1.905
 74
    0
 49
-0.9525
 74
    0
 49
0
 74
    0
 49
-0.9525
 74
    0
 49
0
 74
    0
 49
-0.9525
 74
    0
  0
LTYPE
  5
40
330
5
100
AcDbSymbolTableRecord
100
AcDbLinetypeTableRecord
  2
DIVIDE2
 70
    0
  3
Divide (.5x) __..__..__..__..__..__..__..__.._
 72
   65
 73
    6
 40
15.875
 49
6.35
 74
    0
 49
-3.175
 74
    0
 49
0
 74
    0
 49
-3.175
 74
    0
 49
0
 74
    0
 49
-3.175
 74
    0
  0
LTYPE
  5
41
330
5
100
AcDbSymbolTableRecord
100
AcDbLinetypeTableRecord
  2
DIVIDEX2
 70
    0
  3
Divide (2x) ________  .  .  ________  .  .  _
 72
   65
 73
    6
 40
63.5
 49
25.4
 74
    0
 49
-12.7
 74
    0
 49
0
 74
    0
 49
-12.7
 74
    0
 49
0
 74
    0
 49
-12.7
 74
    0
  0
LTYPE
  5
42
330
5
100
AcDbSymbolTableRecord
100
AcDbLinetypeTableRecord
  2
BORDER
 70
    0
  3
Border __ __ . __ __ . __ __ . __ __ . __ __ .
 72
   65
 73
    6
 40
44.45
 49
12.7
 74
    0
 49
-6.35
 74
    0
 49
12.7
 74
    0
 49
-6.35
 74
    0
 49
0
 74
    0
 49
-6.35
 74
    0
  0
LTYPE
  5
43
330
5
100
AcDbSymbolTableRecord
100
AcDbLinetypeTableRecord
  2
BORDERTINY
 70
    0
  3
Border (.15x) __.__.__.__.__.__.__.__.__.__.__.
 72
   65
 73
    6
 40
6.6675
 49
1.905
 74
    0
 49
-0.9525
 74
    0
 49
1.905
 74
    0
 49
-0.9525
 74
    0
 49
0
 74
    0
 49
-0.9525
 74
    0
  0
LTYPE
  5
44
330
5
100
AcDbSymbolTableRecord
100
AcDbLinetypeTableRecord
  2
BORDER2
 70
    0
  3
Border (.5x) __.__.__.__.__.__.__.__.__.__.__.
 72
   65
 73
    6
 40
22.225
 49
6.35
 74
    0
 49
-3.175
 74
    0
 49
6.35
 74
    0
 49
-3.175
 74
    0
 49
0
 74
    0
 49
-3.175
 74
    0
  0
LTYPE
  5
45
330
5
100
AcDbSymbolTableRecord
100
AcDbLinetypeTableRecord
  2
BORDERX2
 70
    0
  3
Border (2x) ____  ____  .  ____  ____  .  ___
 72
   65
 73
    6
 40
88.89999999999999
 49
25.4
 74
    0
 49
-12.7
 74
    0
 49
25.4
 74
    0
 49
-12.7
 74
    0
 49
0
 74
    0
 49
-12.7
 74
    0
  0
LTYPE
  5
46
330
5
100
AcDbSymbolTableRecord
100
AcDbLinetypeTableRecord
  2
CENTER
 70
    0
  3
Center ____ _ ____ _ ____ _ ____ _ ____ _ ____
 72
   65
 73
    4
 40
50.8
 49
31.75
 74
    0
 49
-6.35
 74
    0
 49
6.35
 74
    0
 49
-6.35
 74
    0
  0
LTYPE
  5
47
330
5
100
AcDbSymbolTableRecord
100
AcDbLinetypeTableRecord
  2
CENTERTINY
 70
    0
  3
Center (.15x) ___ _ ___ _ ___ _ ___ _ ___ _ ___
 72
   65
 73
    4
 40
7.619999999999999
 49
4.7625
 74
    0
 49
-0.9525
 74
    0
 49
0.9525
 74
    0
 49
-0.9525
 74
    0
  0
LTYPE
  5
48
330
5
100
AcDbSymbolTableRecord
100
AcDbLinetypeTableRecord
  2
CENTER2
 70
    0
  3
Center (.5x) ___ _ ___ _ ___ _ ___ _ ___ _ ___
 72
   65
 73
    4
 40
28.575
 49
19.05
 74
    0
 49
-3.175
 74
    0
 49
3.175
 74
    0
 49
-3.175
 74
    0
  0
LTYPE
  5
49
330
5
100
AcDbSymbolTableRecord
100
AcDbLinetypeTableRecord
  2
CENTERX2
 70
    0
  3
Center (2x) ________  __  ________  __  _____
 72
   65
 73
    4
 40
101.6
 49
63.5
 74
    0
 49
-12.7
 74
    0
 49
12.7
 74
    0
 49
-12.7
 74
    0
  0
ENDTAB
  0
TABLE
  2
LAYER
  5
2
330
0
100
AcDbSymbolTable
 70
    1
  0
LAYER
  5
10
330
2
100
AcDbSymbolTableRecord
100
AcDbLayerTableRecord
  2
0
 70
    0
 62
    7
  6
CONTINUOUS
370
   20
390
F
  0
LAYER
  5
4A
330
2
100
AcDbSymbolTableRecord
100
AcDbLayerTableRecord
  2
Contour
 70
    0
 62
    7
  6
CONTINUOUS
370
   -3
390
F
  0
LAYER
  5
4B
330
2
100
AcDbSymbolTableRecord
100
AcDbLayerTableRecord
  2
ESK
 70
    4
 62
    7
  6
CONTINUOUS
370
   18
390
F
  0
LAYER
  5
4C
330
2
100
AcDbSymbolTableRecord
100
AcDbLayerTableRecord
  2
Equipment
 70
    0
 62
    7
  6
CONTINUOUS
370
   15
390
F
  0
LAYER
  5
4D
330
2
100
AcDbSymbolTableRecord
100
AcDbLayerTableRecord
  2
Furniture
 70
    0
 62
   56
420
8421376
  6
CONTINUOUS
370
   13
390
F
  0
LAYER
  5
4E
330
2
100
AcDbSymbolTableRecord
100
AcDbLayerTableRecord
  2
Speakers
 70
    0
 62
    7
  6
CONTINUOUS
370
   20
390
F
  0
LAYER
  5
4F
330
2
100
AcDbSymbolTableRecord
100
AcDbLayerTableRecord
  2
Studs
 70
    1
 62
    3
  6
DASHDOT
370
   13
390
F
  0
LAYER
  5
50
330
2
100
AcDbSymbolTableRecord
100
AcDbLayerTableRecord
  2
WallConnections
 70
    0
 62
    6
  6
CONTINUOUS
370
   13
390
F
  0
LAYER
  5
51
330
2
100
AcDbSymbolTableRecord
100
AcDbLayerTableRecord
  2
const_spacial
 70
    0
 62
   96
420
32768
  6
CONTINUOUS
370
    5
390
F
  0
LAYER
  5
52
330
2
100
AcDbSymbolTableRecord
100
AcDbLayerTableRecord
  2
const_tmp
 70
    1
 62
    3
  6
CONTINUOUS
370
    0
390
F
  0
LAYER
  5
53
330
2
100
AcDbSymbolTableRecord
100
AcDbLayerTableRecord
  2
dimension
 70
    0
 62
    4
  6
CONTINUOUS
370
   13
390
F
  0
ENDTAB
  0
TABLE
  2
STYLE
  5
3
330
0
100
AcDbSymbolTable
 70
    3
  0
STYLE
  5
54
330
2
100
AcDbSymbolTableRecord
100
AcDbTextStyleTableRecord
  2
standard
 70
    0
 40
0
 41
1
 50
0
 71
    0
 42
1
  3
standard
  4

  0
ENDTAB
  0
TABLE
  2
VIEW
  5
6
330
0
100
AcDbSymbolTable
 70
    0
  0
ENDTAB
  0
TABLE
  2
UCS
  5
7
330
0
100
AcDbSymbolTable
 70
    0
  0
ENDTAB
  0
TABLE
  2
APPID
  5
9
330
0
100
AcDbSymbolTable
 70
    1
  0
APPID
  5
12
330
9
100
AcDbSymbolTableRecord
100
AcDbRegAppTableRecord
  2
ACAD
 70
    0
  0
APPID
  5
55
330
9
100
AcDbSymbolTableRecord
100
AcDbRegAppTableRecord
  2
LibreCad
 70
    0
  0
ENDTAB
  0
TABLE
  2
DIMSTYLE
  5
A
330
0
100
AcDbSymbolTable
 70
    1
100
AcDbDimStyleTable
 71
    1
  0
DIMSTYLE
105
56
330
A
100
AcDbSymbolTableRecord
100
AcDbDimStyleTableRecord
  2
Standard
 70
    0
 40
1
 41
0.1
 42
0.02
 43
0.38
 44
0.1
 45
0
 46
0
 47
0
 48
0
 49
1
140
0.08
141
0.09
142
0
143
25.4
144
1
145
0
146
1
147
0.08
148
0
 71
    0
 72
    0
 73
    0
 74
    1
 75
    0
 76
    0
 77
    0
 78
    8
 79
    0
170
    0
171
    2
172
    0
173
    0
174
    0
175
    0
176
    0
177
    0
178
    0
179
    2
271
    3
272
    4
273
    2
274
    2
275
    0
276
    0
277
    2
278
    0
279
    0
280
    0
281
    0
282
    0
283
    1
284
    0
285
    0
286
    0
288
    0
289
    3
340
standard
341

371
   -2
372
   -2
  0
ENDTAB
  0
TABLE
  2
BLOCK_RECORD
  5
1
330
0
100
AcDbSymbolTable
 70
    2
  0
BLOCK_RECORD
  5
1F
330
1
100
AcDbSymbolTableRecord
100
AcDbBlockTableRecord
  2
*Model_Space
 70
    0
280
    1
281
    0
  0
BLOCK_RECORD
  5
1E
330
1
100
AcDbSymbolTableRecord
100
AcDbBlockTableRecord
  2
*Paper_Space
 70
    0
280
    1
281
    0
  0
BLOCK_RECORD
  5
57
330
1
100
AcDbSymbolTableRecord
100
AcDbBlockTableRecord
  2
*D18
 70
    0
280
    1
281
    0
  0
BLOCK_RECORD
  5
5A
330
1
100
AcDbSymbolTableRecord
100
AcDbBlockTableRecord
  2
*D2
 70
    0
280
    1
281
    0
  0
BLOCK_RECORD
  5
5D
330
1
100
AcDbSymbolTableRecord
100
AcDbBlockTableRecord
  2
*D5
 70
    0
280
    1
281
    0
  0
BLOCK_RECORD
  5
60
330
1
100
AcDbSymbolTableRecord
100
AcDbBlockTableRecord
  2
*D22
 70
    0
280
    1
281
    0
  0
BLOCK_RECORD
  5
63
330
1
100
AcDbSymbolTableRecord
100
AcDbBlockTableRecord
  2
*D17
 70
    0
280
    1
281
    0
  0
BLOCK_RECORD
  5
66
330
1
100
AcDbSymbolTableRecord
100
AcDbBlockTableRecord
  2
*D21
 70
    0
280
    1
281
    0
  0
BLOCK_RECORD
  5
69
330
1
100
AcDbSymbolTableRecord
100
AcDbBlockTableRecord
  2
*D14
 70
    0
280
    1
281
    0
  0
BLOCK_RECORD
  5
6C
330
1
100
AcDbSymbolTableRecord
100
AcDbBlockTableRecord
  2
*D8
 70
    0
280
    1
281
    0
  0
BLOCK_RECORD
  5
6F
330
1
100
AcDbSymbolTableRecord
100
AcDbBlockTableRecord
  2
*D3
 70
    0
280
    1
281
    0
  0
BLOCK_RECORD
  5
72
330
1
100
AcDbSymbolTableRecord
100
AcDbBlockTableRecord
  2
*D4
 70
    0
280
    1
281
    0
  0
BLOCK_RECORD
  5
75
330
1
100
AcDbSymbolTableRecord
100
AcDbBlockTableRecord
  2
*D13
 70
    0
280
    1
281
    0
  0
BLOCK_RECORD
  5
78
330
1
100
AcDbSymbolTableRecord
100
AcDbBlockTableRecord
  2
*D7
 70
    0
280
    1
281
    0
  0
BLOCK_RECORD
  5
7B
330
1
100
AcDbSymbolTableRecord
100
AcDbBlockTableRecord
  2
*D16
 70
    0
280
    1
281
    0
  0
BLOCK_RECORD
  5
7E
330
1
100
AcDbSymbolTableRecord
100
AcDbBlockTableRecord
  2
*D11
 70
    0
280
    1
281
    0
  0
BLOCK_RECORD
  5
81
330
1
100
AcDbSymbolTableRecord
100
AcDbBlockTableRecord
  2
*D20
 70
    0
280
    1
281
    0
  0
BLOCK_RECORD
  5
84
330
1
100
AcDbSymbolTableRecord
100
AcDbBlockTableRecord
  2
*D19
 70
    0
280
    1
281
    0
  0
BLOCK_RECORD
  5
87
330
1
100
AcDbSymbolTableRecord
100
AcDbBlockTableRecord
  2
*D10
 70
    0
280
    1
281
    0
  0
BLOCK_RECORD
  5
8A
330
1
100
AcDbSymbolTableRecord
100
AcDbBlockTableRecord
  2
*D12
 70
    0
280
    1
281
    0
  0
BLOCK_RECORD
  5
8D
330
1
100
AcDbSymbolTableRecord
100
AcDbBlockTableRecord
  2
*D15
 70
    0
280
    1
281
    0
  0
BLOCK_RECORD
  5
90
330
1
100
AcDbSymbolTableRecord
100
AcDbBlockTableRecord
  2
*D6
 70
    0
280
    1
281
    0
  0
BLOCK_RECORD
  5
93
330
1
100
AcDbSymbolTableRecord
100
AcDbBlockTableRecord
  2
*D1
 70
    0
280
    1
281
    0
  0
BLOCK_RECORD
  5
96
330
1
100
AcDbSymbolTableRecord
100
AcDbBlockTableRecord
  2
*D9
 70
    0
280
    1
281
    0
  0
BLOCK_RECORD
  5
99
330
1
100
AcDbSymbolTableRecord
100
AcDbBlockTableRecord
  2
speak1
 70
    0
280
    1
281
    0
  0
BLOCK_RECORD
  5
9C
330
1
100
AcDbSymbolTableRecord
100
AcDbBlockTableRecord
  2
speaker
 70
    0
280
    1
281
    0
  0
BLOCK_RECORD
  5
9F
330
1
100
AcDbSymbolTableRecord
100
AcDbBlockTableRecord
  2
speaker-0
 70
    0
280
    1
281
    0
  0
BLOCK_RECORD
  5
A2
330
1
100
AcDbSymbolTableRecord
100
AcDbBlockTableRecord
  2
d4
 70
    0
280
    1
281
    0
  0
BLOCK_RECORD
  5
A5
330
1
100
AcDbSymbolTableRecord
100
AcDbBlockTableRecord
  2
d2
 70
    0
280
    1
281
    0
  0
BLOCK_RECORD
  5
A8
330
1
100
AcDbSymbolTableRecord
100
AcDbBlockTableRecord
  2
crosshair
 70
    0
280
    1
281
    0
  0
BLOCK_RECORD
  5
AB
330
1
100
AcDbSymbolTableRecord
100
AcDbBlockTableRecord
  2
Wall_Plate_single-gang
 70
    0
280
    1
281
    0
  0
BLOCK_RECORD
  5
AE
330
1
100
AcDbSymbolTableRecord
100
AcDbBlockTableRecord
  2
WalPlate_double-gang
 70
    0
280
    1
281
    0
  0
BLOCK_RECORD
  5
B1
330
1
100
AcDbSymbolTableRecord
100
AcDbBlockTableRecord
  2
WalPlate_triple-gang
 70
    0
280
    1
281
    0
  0
BLOCK_RECORD
  5
B4
330
1
100
AcDbSymbolTableRecord
100
AcDbBlockTableRecord
  2
OldWallOutlet_single-gang
 70
    0
280
    1
281
    0
  0
BLOCK_RECORD
  5
B7
330
1
100
AcDbSymbolTableRecord
100
AcDbBlockTableRecord
  2
1WallPlate_single-gang
 70
    0
280
    1
281
    0
  0
BLOCK_RECORD
  5
BA
330
1
100
AcDbSymbolTableRecord
100
AcDbBlockTableRecord
  2
Television
 70
    0
280
    1
281
    0
  0
BLOCK_RECORD
  5
BD
330
1
100
AcDbSymbolTableRecord
100
AcDbBlockTableRecord
  2
WallOutlet_single-gang
 70
    0
280
    1
281
    0
  0
BLOCK_RECORD
  5
C0
330
1
100
AcDbSymbolTableRecord
100
AcDbBlockTableRecord
  2
Spkr_800_FrontElev
 70
    0
280
    1
281
    0
  0
BLOCK_RECORD
  5
C3
330
1
100
AcDbSymbolTableRecord
100
AcDbBlockTableRecord
  2
Pro1000_Center_Speaker_FrontElev
 70
    0
280
    1
281
    0
  0
BLOCK_RECORD
  5
C6
330
1
100
AcDbSymbolTableRecord
100
AcDbBlockTableRecord
  2
SpeakerMount
 70
    0
280
    1
281
    0
  0
ENDTAB
  0
ENDSEC
  0
SECTION
  2
BLOCKS
  0
BLOCK
  5
20
330
1F
100
AcDbEntity
  8
0
100
AcDbBlockBegin
  2
*Model_Space
 70
    0
 10
0
 20
0
 30
0
  3
*Model_Space
  1

  0
ENDBLK
  5
21
330
1F
100
AcDbEntity
  8
0
100
AcDbBlockEnd
  0
BLOCK
  5
1C
330
1B
100
AcDbEntity
  8
0
100
AcDbBlockBegin
  2
*Paper_Space
 70
    0
 10
0
 20
0
 30
0
  3
*Paper_Space
  1

  0
ENDBLK
  5
1D
330
1F
100
AcDbEntity
  8
0
100
AcDbBlockEnd
  0
BLOCK
  5
58
330
57
100
AcDbEntity
  8
0
100
AcDbBlockBegin
  2
*D18
 70
    1
 10
0
 20
0
  3
*D18
  1

  0
LINE
  5
C9
100
AcDbEntity
  8
dimension
  6
ByBlock
 62
    0
370
   -2
100
AcDbLine
 10
0.08999999999999986
 20
4.648991555849534
 11
2.188
 21
4.648991555849534
  0
SOLID
  5
CA
100
AcDbEntity
  8
dimension
  6
ByBlock
 62
    0
370
   -2
100
AcDbTrace
 10
0.08999999999999986
 20
4.648991555849534
 30
0
 11
0.1899999999999999
 21
4.665642942160448
 31
0
 12
0.1899999999999999
 22
4.632340169538621
 32
0
 13
0.1899999999999999
 23
4.632340169538621
 33
0
  0
SOLID
  5
CB
100
AcDbEntity
  8
dimension
  6
ByBlock
 62
    0
370
   -2
100
AcDbTrace
 10
2.188
 20
4.648991555849534
 30
0
 11
2.088
 21
4.632340169538621
 31
0
 12
2.088
 22
4.665642942160448
 32
0
 13
2.088
 23
4.665642942160448
 33
0
  0
MTEXT
  5
CC
100
AcDbEntity
  8
dimension
  6
CONTINUOUS
 62
    0
370
   -2
100
AcDbMText
 10
1.139
 20
4.768991555849534
 30
0
 40
0.08
 41
0.2488888888888889
 71
    5
 72
    1
  1
2.098
  7
standard
210
0
220
0
230
1
 50
0
 73
    2
 44
1
  0
LINE
  5
CD
100
AcDbEntity
  8
dimension
  6
ByBlock
 62
    0
370
   -2
100
AcDbLine
 10
0.08999999999999997
 20
4.3
 11
0.08999999999999982
 21
4.748991555849534
  0
LINE
  5
CE
100
AcDbEntity
  8
dimension
  6
ByBlock
 62
    0
370
   -2
100
AcDbLine
 10
2.188
 20
4.3
 11
2.188
 21
4.748991555849534
  0
ENDBLK
  5
59
330
57
100
AcDbEntity
  8
0
100
AcDbBlockEnd
  0
BLOCK
  5
5B
330
5A
100
AcDbEntity
  8
0
100
AcDbBlockBegin
  2
*D2
 70
    1
 10
0
 20
0
  3
*D2
  1

  0
LINE
  5
CF
100
AcDbEntity
  8
dimension
  6
ByBlock
 62
    0
370
   -2
100
AcDbLine
 10
4.899999999999999
 20
2.444
 11
5.2369183249697
 21
2.444
  0
LINE
  5
D0
100
AcDbEntity
  8
dimension
  6
ByBlock
 62
    0
370
   -2
100
AcDbLine
 10
4.899999999999999
 20
-4.898587196589413e-18
 11
5.2369183249697
 21
-8.741977684623575e-17
  0
LINE
  5
D1
100
AcDbEntity
  8
dimension
  6
ByBlock
 62
    0
370
   -2
100
AcDbLine
 10
5.136918324969701
 20
2.444
 11
5.136918324969701
 21
-6.29268408632887e-17
  0
SOLID
  5
D2
100
AcDbEntity
  8
dimension
  6
ByBlock
 62
    0
370
   -2
100
AcDbTrace
 10
5.136918324969701
 20
2.444
 30
0
 11
5.153569711280614
 21
2.344
 31
0
 12
5.120266938658787
 22
2.344
 32
0
 13
5.120266938658787
 23
2.344
 33
0
  0
SOLID
  5
D3
100
AcDbEntity
  8
dimension
  6
ByBlock
 62
    0
370
   -2
100
AcDbTrace
 10
5.136918324969701
 20
-6.29268408632887e-17
 30
0
 11
5.120266938658787
 21
0.09999999999999994
 31
0
 12
5.153569711280614
 22
0.09999999999999994
 32
0
 13
5.153569711280614
 23
0.09999999999999994
 33
0
  0
MTEXT
  5
D4
100
AcDbEntity
  8
dimension
  6
CONTINUOUS
 62
    0
370
   -2
100
AcDbMText
 10
5.016918324969701
 20
1.222
 30
0
 40
0.08
 41
0.2755555555555556
 71
    5
 72
    1
  1
2.444
  7
standard
210
0
220
0
230
1
 50
90
 73
    2
 44
1
  0
ENDBLK
  5
5C
330
5A
100
AcDbEntity
  8
0
100
AcDbBlockEnd
  0
BLOCK
  5
5E
330
5D
100
AcDbEntity
  8
0
100
AcDbBlockBegin
  2
*D5
 70
    1
 10
0
 20
0
  3
*D5
  1

  0
LINE
  5
D5
100
AcDbEntity
  8
dimension
  6
ByBlock
 62
    0
370
   -2
100
AcDbLine
 10
-0.3659174697238704
 20
4.28
 11
-0.3659174697238707
 21
2.783935397189562e-17
  0
SOLID
  5
D6
100
AcDbEntity
  8
dimension
  6
ByBlock
 62
    0
370
   -2
100
AcDbTrace
 10
-0.3659174697238704
 20
4.28
 30
0
 11
-0.3492660834129568
 21
4.180000000000001
 31
0
 12
-0.382568856034784
 22
4.180000000000001
 32
0
 13
-0.382568856034784
 23
4.180000000000001
 33
0
  0
SOLID
  5
D7
100
AcDbEntity
  8
dimension
  6
ByBlock
 62
    0
370
   -2
100
AcDbTrace
 10
-0.3659174697238707
 20
2.783935397189562e-17
 30
0
 11
-0.3825688560347843
 21
0.1
 31
0
 12
-0.3492660834129571
 22
0.1
 32
0
 13
-0.3492660834129571
 23
0.1
 33
0
  0
MTEXT
  5
D8
100
AcDbEntity
  8
dimension
  6
CONTINUOUS
 62
    0
370
   -2
100
AcDbMText
 10
-0.4859174697238706
 20
2.14
 30
0
 40
0.08
 41
0.1955555555555556
 71
    5
 72
    1
  1
4.28
  7
standard
210
0
220
0
230
1
 50
90
 73
    2
 44
1
  0
LINE
  5
D9
100
AcDbEntity
  8
dimension
  6
ByBlock
 62
    0
370
   -2
100
AcDbLine
 10
0.06999999999999999
 20
4.28
 11
-0.4659174697238704
 21
4.28
  0
LINE
  5
DA
100
AcDbEntity
  8
dimension
  6
ByBlock
 62
    0
370
   -2
100
AcDbLine
 10
0.06999999999999999
 20
2.449293598294706e-18
 11
-0.4659174697238707
 21
4.008582196336915e-17
  0
ENDBLK
  5
5F
330
5D
100
AcDbEntity
  8
0
100
AcDbBlockEnd
  0
BLOCK
  5
61
330
60
100
AcDbEntity
  8
0
100
AcDbBlockBegin
  2
*D22
 70
    1
 10
0
 20
0
  3
*D22
  1

  0
LINE
  5
DB
100
AcDbEntity
  8
const_spacial
  6
ByBlock
 62
    0
370
   -2
100
AcDbLine
 10
-0.0059566093121208
 20
-2.846521730880642
 11
-0.005956609312120748
 21
-2
  0
SOLID
  5
DC
100
AcDbEntity
  8
const_spacial
  6
ByBlock
 62
    0
370
   -2
100
AcDbTrace
 10
-0.0059566093121208
 20
-2.846521730880642
 30
0
 11
-0.0226079956230344
 21
-2.746521730880642
 31
0
 12
0.01069477699879284
 22
-2.746521730880642
 32
0
 13
0.01069477699879284
 23
-2.746521730880642
 33
0
  0
SOLID
  5
DD
100
AcDbEntity
  8
const_spacial
  6
ByBlock
 62
    0
370
   -2
100
AcDbTrace
 10
-0.005956609312120748
 20
-2
 30
0
 11
0.01069477699879287
 21
-2.1
 31
0
 12
-0.02260799562303437
 22
-2.1
 32
0
 13
-0.02260799562303437
 23
-2.1
 33
0
  0
MTEXT
  5
DE
100
AcDbEntity
  8
const_spacial
  6
CONTINUOUS
 62
    0
370
   -2
100
AcDbMText
 10
-0.1259566093121208
 20
-2.423260865440321
 30
0
 40
0.08
 41
0.2577777777777778
 71
    5
 72
    1
  1
0.847
  7
standard
210
0
220
0
230
1
 50
90
 73
    2
 44
1
  0
LINE
  5
DF
100
AcDbEntity
  8
const_spacial
  6
ByBlock
 62
    0
370
   -2
100
AcDbLine
 10
0.07000850361900202
 20
-2.846521730880642
 11
-0.1059566093121208
 21
-2.846521730880642
  0
LINE
  5
E0
100
AcDbEntity
  8
const_spacial
  6
ByBlock
 62
    0
370
   -2
100
AcDbLine
 10
0.07000850361900202
 20
-2
 11
-0.1059566093121208
 21
-2
  0
ENDBLK
  5
62
330
60
100
AcDbEntity
  8
0
100
AcDbBlockEnd
  0
BLOCK
  5
64
330
63
100
AcDbEntity
  8
0
100
AcDbBlockBegin
  2
*D17
 70
    1
 10
0
 20
0
  3
*D17
  1

  0
LINE
  5
E1
100
AcDbEntity
  8
dimension
  6
ByBlock
 62
    0
370
   -2
100
AcDbLine
 10
0.0900085036190017
 20
-1.240836767462779
 11
4.570008503619002
 21
-1.240836767462779
  0
SOLID
  5
E2
100
AcDbEntity
  8
dimension
  6
ByBlock
 62
    0
370
   -2
100
AcDbTrace
 10
0.0900085036190017
 20
-1.240836767462779
 30
0
 11
0.1900085036190017
 21
-1.224185381151865
 31
0
 12
0.1900085036190017
 22
-1.257488153773692
 32
0
 13
0.1900085036190017
 23
-1.257488153773692
 33
0
  0
SOLID
  5
E3
100
AcDbEntity
  8
dimension
  6
ByBlock
 62
    0
370
   -2
100
AcDbTrace
 10
4.570008503619002
 20
-1.240836767462779
 30
0
 11
4.470008503619002
 21
-1.257488153773692
 31
0
 12
4.470008503619002
 22
-1.224185381151865
 32
0
 13
4.470008503619002
 23
-1.224185381151865
 33
0
  0
MTEXT
  5
E4
100
AcDbEntity
  8
dimension
  6
CONTINUOUS
 62
    0
370
   -2
100
AcDbMText
 10
2.330008503619002
 20
-1.120836767462779
 30
0
 40
0.08
 41
0.2044444444444445
 71
    5
 72
    1
  1
4.48
  7
standard
210
0
220
0
230
1
 50
0
 73
    2
 44
1
  0
LINE
  5
E5
100
AcDbEntity
  8
dimension
  6
ByBlock
 62
    0
370
   -2
100
AcDbLine
 10
0.09000850361900201
 20
-1.98
 11
0.09000850361900166
 21
-1.140836767462779
  0
LINE
  5
E6
100
AcDbEntity
  8
dimension
  6
ByBlock
 62
    0
370
   -2
100
AcDbLine
 10
4.570008503619002
 20
-1.98
 11
4.570008503619002
 21
-1.140836767462779
  0
ENDBLK
  5
65
330
63
100
AcDbEntity
  8
0
100
AcDbBlockEnd
  0
BLOCK
  5
67
330
66
100
AcDbEntity
  8
0
100
AcDbBlockBegin
  2
*D21
 70
    1
 10
0
 20
0
  3
*D21
  1

  0
LINE
  5
E7
100
AcDbEntity
  8
dimension
  6
ByBlock
 62
    0
370
   -2
100
AcDbLine
 10
3.710780462544416
 20
-1.487799425064594
 11
0.09000850361900202
 21
-1.487799425064594
  0
SOLID
  5
E8
100
AcDbEntity
  8
dimension
  6
ByBlock
 62
    0
370
   -2
100
AcDbTrace
 10
3.710780462544416
 20
-1.487799425064594
 30
0
 11
3.610780462544416
 21
-1.504450811375508
 31
0
 12
3.610780462544416
 22
-1.47114803875368
 32
0
 13
3.610780462544416
 23
-1.47114803875368
 33
0
  0
SOLID
  5
E9
100
AcDbEntity
  8
dimension
  6
ByBlock
 62
    0
370
   -2
100
AcDbTrace
 10
0.09000850361900202
 20
-1.487799425064594
 30
0
 11
0.190008503619002
 21
-1.47114803875368
 31
0
 12
0.190008503619002
 22
-1.504450811375508
 32
0
 13
0.190008503619002
 23
-1.504450811375508
 33
0
  0
MTEXT
  5
EA
100
AcDbEntity
  8
dimension
  6
CONTINUOUS
 62
    0
370
   -2
100
AcDbMText
 10
1.900394483081709
 20
-1.367799425064594
 30
0
 40
0.08
 41
0.231111111111121
 71
    5
 72
    1
  1
3.621
  7
standard
210
0
220
0
230
1
 50
360
 73
    2
 44
1
  0
LINE
  5
EB
100
AcDbEntity
  8
dimension
  6
ByBlock
 62
    0
370
   -2
100
AcDbLine
 10
3.710780462544417
 20
-2.739
 11
3.710780462544416
 21
-1.387799425064594
  0
LINE
  5
EC
100
AcDbEntity
  8
dimension
  6
ByBlock
 62
    0
370
   -2
100
AcDbLine
 10
0.09000850361900202
 20
-1.98
 11
0.09000850361900202
 21
-1.387799425064594
  0
ENDBLK
  5
68
330
66
100
AcDbEntity
  8
0
100
AcDbBlockEnd
  0
BLOCK
  5
6A
330
69
100
AcDbEntity
  8
0
100
AcDbBlockBegin
  2
*D14
 70
    1
 10
0
 20
0
  3
*D14
  1

  0
LINE
  5
ED
100
AcDbEntity
  8
dimension
  6
ByBlock
 62
    0
370
   -2
100
AcDbLine
 10
0.01725256621032145
 20
-4.08
 11
0.01725256621032142
 21
-4.45
  0
SOLID
  5
EE
100
AcDbEntity
  8
dimension
  6
ByBlock
 62
    0
370
   -2
100
AcDbTrace
 10
0.01725256621032145
 20
-4.08
 30
0
 11
0.03390395252123506
 21
-4.18
 31
0
 12
0.0006011798994078228
 22
-4.18
 32
0
 13
0.0006011798994078228
 23
-4.18
 33
0
  0
SOLID
  5
EF
100
AcDbEntity
  8
dimension
  6
ByBlock
 62
    0
370
   -2
100
AcDbTrace
 10
0.01725256621032142
 20
-4.45
 30
0
 11
0.0006011798994078228
 21
-4.350000000000001
 31
0
 12
0.03390395252123506
 22
-4.350000000000001
 32
0
 13
0.03390395252123506
 23
-4.350000000000001
 33
0
  0
MTEXT
  5
F0
100
AcDbEntity
  8
dimension
  6
CONTINUOUS
 62
    0
370
   -2
100
AcDbMText
 10
-0.1027474337896786
 20
-4.265000000000001
 30
0
 40
0.08
 41
0.1866666666666716
 71
    5
 72
    1
  1
0.37
  7
standard
210
0
220
0
230
1
 50
90
 73
    2
 44
1
  0
LINE
  5
F1
100
AcDbEntity
  8
dimension
  6
ByBlock
 62
    0
370
   -2
100
AcDbLine
 10
0.7950085036190019
 20
-4.08
 11
-0.08274743378967855
 21
-4.08
  0
LINE
  5
F2
100
AcDbEntity
  8
dimension
  6
ByBlock
 62
    0
370
   -2
100
AcDbLine
 10
0.07000850361900202
 20
-4.45
 11
-0.08274743378967858
 21
-4.45
  0
ENDBLK
  5
6B
330
69
100
AcDbEntity
  8
0
100
AcDbBlockEnd
  0
BLOCK
  5
6D
330
6C
100
AcDbEntity
  8
0
100
AcDbBlockBegin
  2
*D8
 70
    1
 10
0
 20
0
  3
*D8
  1

  0
LINE
  5
F3
100
AcDbEntity
  8
dimension
  6
ByBlock
 62
    0
370
   -2
100
AcDbLine
 10
0.09000000000000008
 20
-0.2090789715928007
 11
1.905
 21
-0.2090789715928007
  0
SOLID
  5
F4
100
AcDbEntity
  8
dimension
  6
ByBlock
 62
    0
370
   -2
100
AcDbTrace
 10
0.09000000000000008
 20
-0.2090789715928007
 30
0
 11
0.1900000000000001
 21
-0.1924275852818871
 31
0
 12
0.1900000000000001
 22
-0.2257303579037143
 32
0
 13
0.1900000000000001
 23
-0.2257303579037143
 33
0
  0
SOLID
  5
F5
100
AcDbEntity
  8
dimension
  6
ByBlock
 62
    0
370
   -2
100
AcDbTrace
 10
1.905
 20
-0.2090789715928007
 30
0
 11
1.805
 21
-0.2257303579037143
 31
0
 12
1.805
 22
-0.1924275852818871
 32
0
 13
1.805
 23
-0.1924275852818871
 33
0
  0
MTEXT
  5
F6
100
AcDbEntity
  8
dimension
  6
CONTINUOUS
 62
    0
370
   -2
100
AcDbMText
 10
0.9975000000000001
 20
-0.0890789715928007
 30
0
 40
0.08
 41
0.2133333333333383
 71
    5
 72
    1
  1
1.815
  7
standard
210
0
220
0
230
1
 50
0
 73
    2
 44
1
  0
LINE
  5
F7
100
AcDbEntity
  8
dimension
  6
ByBlock
 62
    0
370
   -2
100
AcDbLine
 10
0.09
 20
-0.02
 11
0.09000000000000007
 21
-0.3090789715928007
  0
LINE
  5
F8
100
AcDbEntity
  8
dimension
  6
ByBlock
 62
    0
370
   -2
100
AcDbLine
 10
1.905
 20
-0.02
 11
1.905
 21
-0.3090789715928007
  0
ENDBLK
  5
6E
330
6C
100
AcDbEntity
  8
0
100
AcDbBlockEnd
  0
BLOCK
  5
70
330
6F
100
AcDbEntity
  8
0
100
AcDbBlockBegin
  2
*D3
 70
    1
 10
0
 20
0
  3
*D3
  1

  0
LINE
  5
F9
100
AcDbEntity
  8
dimension
  6
ByBlock
 62
    0
370
   -2
100
AcDbLine
 10
5.136918324969709
 20
4.28
 11
5.136918324969709
 21
2.444
  0
SOLID
  5
FA
100
AcDbEntity
  8
dimension
  6
ByBlock
 62
    0
370
   -2
100
AcDbTrace
 10
5.136918324969709
 20
4.28
 30
0
 11
5.153569711280622
 21
4.180000000000001
 31
0
 12
5.120266938658795
 22
4.180000000000001
 32
0
 13
5.120266938658795
 23
4.180000000000001
 33
0
  0
SOLID
  5
FB
100
AcDbEntity
  8
dimension
  6
ByBlock
 62
    0
370
   -2
100
AcDbTrace
 10
5.136918324969709
 20
2.444
 30
0
 11
5.120266938658795
 21
2.544
 31
0
 12
5.153569711280622
 22
2.544
 32
0
 13
5.153569711280622
 23
2.544
 33
0
  0
MTEXT
  5
FC
100
AcDbEntity
  8
dimension
  6
CONTINUOUS
 62
    0
370
   -2
100
AcDbMText
 10
5.016918324969709
 20
3.362
 30
0
 40
0.08
 41
0.231111111111121
 71
    5
 72
    1
  1
1.836
  7
standard
210
0
220
0
230
1
 50
90
 73
    2
 44
1
  0
LINE
  5
FD
100
AcDbEntity
  8
dimension
  6
ByBlock
 62
    0
370
   -2
100
AcDbLine
 10
4.59
 20
4.28
 11
5.236918324969708
 21
4.28
  0
LINE
  5
FE
100
AcDbEntity
  8
dimension
  6
ByBlock
 62
    0
370
   -2
100
AcDbLine
 10
4.899999999999999
 20
2.444
 11
5.236918324969708
 21
2.444
  0
ENDBLK
  5
71
330
6F
100
AcDbEntity
  8
0
100
AcDbBlockEnd
  0
BLOCK
  5
73
330
72
100
AcDbEntity
  8
0
100
AcDbBlockBegin
  2
*D4
 70
    1
 10
0
 20
0
  3
*D4
  1

  0
LINE
  5
FF
100
AcDbEntity
  8
dimension
  6
ByBlock
 62
    0
370
   -2
100
AcDbLine
 10
-0.1125899906842678
 20
4.28
 11
-0.1125899906842679
 21
3.043
  0
SOLID
  5
100
100
AcDbEntity
  8
dimension
  6
ByBlock
 62
    0
370
   -2
100
AcDbTrace
 10
-0.1125899906842678
 20
4.28
 30
0
 11
-0.09593860437335421
 21
4.180000000000001
 31
0
 12
-0.1292413769951815
 22
4.180000000000001
 32
0
 13
-0.1292413769951815
 23
4.180000000000001
 33
0
  0
SOLID
  5
101
100
AcDbEntity
  8
dimension
  6
ByBlock
 62
    0
370
   -2
100
AcDbTrace
 10
-0.1125899906842679
 20
3.043
 30
0
 11
-0.1292413769951815
 21
3.143
 31
0
 12
-0.09593860437335425
 22
3.143
 32
0
 13
-0.09593860437335425
 23
3.143
 33
0
  0
MTEXT
  5
102
100
AcDbEntity
  8
dimension
  6
CONTINUOUS
 62
    0
370
   -2
100
AcDbMText
 10
-0.2325899906842679
 20
3.6615
 30
0
 40
0.08
 41
0.2311111111111161
 71
    5
 72
    1
  1
1.237
  7
standard
210
0
220
0
230
1
 50
90
 73
    2
 44
1
  0
LINE
  5
103
100
AcDbEntity
  8
dimension
  6
ByBlock
 62
    0
370
   -2
100
AcDbLine
 10
0.06999999999999998
 20
4.28
 11
-0.2125899906842678
 21
4.28
  0
LINE
  5
104
100
AcDbEntity
  8
dimension
  6
ByBlock
 62
    0
370
   -2
100
AcDbLine
 10
0.06999999999999997
 20
3.043
 11
-0.2125899906842679
 21
3.043
  0
ENDBLK
  5
74
330
72
100
AcDbEntity
  8
0
100
AcDbBlockEnd
  0
BLOCK
  5
76
330
75
100
AcDbEntity
  8
0
100
AcDbBlockBegin
  2
*D13
 70
    1
 10
0
 20
0
  3
*D13
  1

  0
LINE
  5
105
100
AcDbEntity
  8
dimension
  6
ByBlock
 62
    0
370
   -2
100
AcDbLine
 10
4.993214591995702
 20
-2
 11
4.993214591995702
 21
-3.24
  0
SOLID
  5
106
100
AcDbEntity
  8
dimension
  6
ByBlock
 62
    0
370
   -2
100
AcDbTrace
 10
4.993214591995702
 20
-2
 30
0
 11
5.009865978306616
 21
-2.1
 31
0
 12
4.976563205684789
 22
-2.1
 32
0
 13
4.976563205684789
 23
-2.1
 33
0
  0
SOLID
  5
107
100
AcDbEntity
  8
dimension
  6
ByBlock
 62
    0
370
   -2
100
AcDbTrace
 10
4.993214591995702
 20
-3.24
 30
0
 11
4.976563205684789
 21
-3.14
 31
0
 12
5.009865978306616
 22
-3.14
 32
0
 13
5.009865978306616
 23
-3.14
 33
0
  0
MTEXT
  5
108
100
AcDbEntity
  8
dimension
  6
CONTINUOUS
 62
    0
370
   -2
100
AcDbMText
 10
4.873214591995702
 20
-2.62
 30
0
 40
0.08
 41
0.1777777777777778
 71
    5
 72
    1
  1
1.24
  7
standard
210
0
220
0
230
1
 50
90
 73
    2
 44
1
  0
LINE
  5
109
100
AcDbEntity
  8
dimension
  6
ByBlock
 62
    0
370
   -2
100
AcDbLine
 10
4.590008503619002
 20
-2
 11
5.093214591995702
 21
-2
  0
LINE
  5
10A
100
AcDbEntity
  8
dimension
  6
ByBlock
 62
    0
370
   -2
100
AcDbLine
 10
4.4995
 20
-3.24
 11
5.093214591995702
 21
-3.24
  0
ENDBLK
  5
77
330
75
100
AcDbEntity
  8
0
100
AcDbBlockEnd
  0
BLOCK
  5
79
330
78
100
AcDbEntity
  8
0
100
AcDbBlockBegin
  2
*D7
 70
    1
 10
0
 20
0
  3
*D7
  1

  0
LINE
  5
10B
100
AcDbEntity
  8
dimension
  6
ByBlock
 62
    0
370
   -2
100
AcDbLine
 10
-0.08795389429985609
 20
0
 11
-0.08795389429985606
 21
0.400526
  0
SOLID
  5
10C
100
AcDbEntity
  8
dimension
  6
ByBlock
 62
    0
370
   -2
100
AcDbTrace
 10
-0.08795389429985609
 20
0
 30
0
 11
-0.1046052806107697
 21
0.1
 31
0
 12
-0.07130250798894244
 22
0.1
 32
0
 13
-0.07130250798894244
 23
0.1
 33
0
  0
SOLID
  5
10D
100
AcDbEntity
  8
dimension
  6
ByBlock
 62
    0
370
   -2
100
AcDbTrace
 10
-0.08795389429985606
 20
0.400526
 30
0
 11
-0.07130250798894244
 21
0.300526
 31
0
 12
-0.1046052806107697
 22
0.300526
 32
0
 13
-0.1046052806107697
 23
0.300526
 33
0
  0
MTEXT
  5
10E
100
AcDbEntity
  8
dimension
  6
CONTINUOUS
 62
    0
370
   -2
100
AcDbMText
 10
-0.2079538942998561
 20
0.200263
 30
0
 40
0.08
 41
0.24
 71
    5
 72
    1
  1
0.401
  7
standard
210
0
220
0
230
1
 50
90
 73
    2
 44
1
  0
LINE
  5
10F
100
AcDbEntity
  8
dimension
  6
ByBlock
 62
    0
370
   -2
100
AcDbLine
 10
0.06999999999999999
 20
2.449293598294706e-18
 11
-0.1879538942998561
 21
1.224646799147353e-17
  0
LINE
  5
110
100
AcDbEntity
  8
dimension
  6
ByBlock
 62
    0
370
   -2
100
AcDbLine
 10
0.06999999999999999
 20
0.400526
 11
-0.1879538942998561
 21
0.400526
  0
ENDBLK
  5
7A
330
78
100
AcDbEntity
  8
0
100
AcDbBlockEnd
  0
BLOCK
  5
7C
330
7B
100
AcDbEntity
  8
0
100
AcDbBlockBegin
  2
*D16
 70
    1
 10
0
 20
0
  3
*D16
  1

  0
LINE
  5
111
100
AcDbEntity
  8
dimension
  6
ByBlock
 62
    0
370
   -2
100
AcDbLine
 10
2.189356712706302
 20
-1.692597726490489
 11
0.09000850361900202
 21
-1.692597726490489
  0
SOLID
  5
112
100
AcDbEntity
  8
dimension
  6
ByBlock
 62
    0
370
   -2
100
AcDbTrace
 10
2.189356712706302
 20
-1.692597726490489
 30
0
 11
2.089356712706302
 21
-1.709249112801403
 31
0
 12
2.089356712706302
 22
-1.675946340179576
 32
0
 13
2.089356712706302
 23
-1.675946340179576
 33
0
  0
SOLID
  5
113
100
AcDbEntity
  8
dimension
  6
ByBlock
 62
    0
370
   -2
100
AcDbTrace
 10
0.09000850361900202
 20
-1.692597726490489
 30
0
 11
0.190008503619002
 21
-1.675946340179576
 31
0
 12
0.190008503619002
 22
-1.709249112801403
 32
0
 13
0.190008503619002
 23
-1.709249112801403
 33
0
  0
MTEXT
  5
114
100
AcDbEntity
  8
dimension
  6
CONTINUOUS
 62
    0
370
   -2
100
AcDbMText
 10
1.139682608162652
 20
-1.57259772649049
 30
0
 40
0.08
 41
0.2488888888888889
 71
    5
 72
    1
  1
2.099
  7
standard
210
0
220
0
230
1
 50
360
 73
    2
 44
1
  0
LINE
  5
115
100
AcDbEntity
  8
dimension
  6
ByBlock
 62
    0
370
   -2
100
AcDbLine
 10
2.189356712706302
 20
-2.740064375579426
 11
2.189356712706302
 21
-1.592597726490489
  0
LINE
  5
116
100
AcDbEntity
  8
dimension
  6
ByBlock
 62
    0
370
   -2
100
AcDbLine
 10
0.09000850361900202
 20
-1.98
 11
0.09000850361900202
 21
-1.592597726490489
  0
ENDBLK
  5
7D
330
7B
100
AcDbEntity
  8
0
100
AcDbBlockEnd
  0
BLOCK
  5
7F
330
7E
100
AcDbEntity
  8
0
100
AcDbBlockBegin
  2
*D11
 70
    1
 10
0
 20
0
  3
*D11
  1

  0
LINE
  5
117
100
AcDbEntity
  8
dimension
  6
ByBlock
 62
    0
370
   -2
100
AcDbLine
 10
5.367873744009569
 20
-2
 11
5.367873744009569
 21
-4.45
  0
SOLID
  5
118
100
AcDbEntity
  8
dimension
  6
ByBlock
 62
    0
370
   -2
100
AcDbTrace
 10
5.367873744009569
 20
-2
 30
0
 11
5.384525130320482
 21
-2.1
 31
0
 12
5.351222357698656
 22
-2.1
 32
0
 13
5.351222357698656
 23
-2.1
 33
0
  0
SOLID
  5
119
100
AcDbEntity
  8
dimension
  6
ByBlock
 62
    0
370
   -2
100
AcDbTrace
 10
5.367873744009569
 20
-4.45
 30
0
 11
5.351222357698656
 21
-4.350000000000001
 31
0
 12
5.384525130320482
 22
-4.350000000000001
 32
0
 13
5.384525130320482
 23
-4.350000000000001
 33
0
  0
MTEXT
  5
11A
100
AcDbEntity
  8
dimension
  6
CONTINUOUS
 62
    0
370
   -2
100
AcDbMText
 10
5.247873744009569
 20
-3.225
 30
0
 40
0.08
 41
0.1955555555555605
 71
    5
 72
    1
  1
2.45
  7
standard
210
0
220
0
230
1
 50
90
 73
    2
 44
1
  0
LINE
  5
11B
100
AcDbEntity
  8
dimension
  6
ByBlock
 62
    0
370
   -2
100
AcDbLine
 10
4.590008503619002
 20
-2
 11
5.467873744009569
 21
-2
  0
LINE
  5
11C
100
AcDbEntity
  8
dimension
  6
ByBlock
 62
    0
370
   -2
100
AcDbLine
 10
4.590008503619002
 20
-4.45
 11
5.467873744009569
 21
-4.45
  0
ENDBLK
  5
80
330
7E
100
AcDbEntity
  8
0
100
AcDbBlockEnd
  0
BLOCK
  5
82
330
81
100
AcDbEntity
  8
0
100
AcDbBlockBegin
  2
*D20
 70
    1
 10
0
 20
0
  3
*D20
  1

  0
LINE
  5
11D
100
AcDbEntity
  8
dimension
  6
ByBlock
 62
    0
370
   -2
100
AcDbLine
 10
4.772966712170096
 20
-2.816
 11
4.772966712170096
 21
-2
  0
SOLID
  5
11E
100
AcDbEntity
  8
dimension
  6
ByBlock
 62
    0
370
   -2
100
AcDbTrace
 10
4.772966712170096
 20
-2.816
 30
0
 11
4.756315325859183
 21
-2.716
 31
0
 12
4.78961809848101
 22
-2.716
 32
0
 13
4.78961809848101
 23
-2.716
 33
0
  0
SOLID
  5
11F
100
AcDbEntity
  8
dimension
  6
ByBlock
 62
    0
370
   -2
100
AcDbTrace
 10
4.772966712170096
 20
-2
 30
0
 11
4.78961809848101
 21
-2.1
 31
0
 12
4.756315325859183
 22
-2.1
 32
0
 13
4.756315325859183
 23
-2.1
 33
0
  0
MTEXT
  5
120
100
AcDbEntity
  8
dimension
  6
CONTINUOUS
 62
    0
370
   -2
100
AcDbMText
 10
4.652966712170096
 20
-2.408
 30
0
 40
0.08
 41
0.2311111111111161
 71
    5
 72
    1
  1
0.816
  7
standard
210
0
220
0
230
1
 50
90
 73
    2
 44
1
  0
LINE
  5
121
100
AcDbEntity
  8
dimension
  6
ByBlock
 62
    0
370
   -2
100
AcDbLine
 10
3.765780462544417
 20
-2.816
 11
4.872966712170096
 21
-2.816
  0
LINE
  5
122
100
AcDbEntity
  8
dimension
  6
ByBlock
 62
    0
370
   -2
100
AcDbLine
 10
4.590008503619002
 20
-2
 11
4.872966712170096
 21
-2
  0
ENDBLK
  5
83
330
81
100
AcDbEntity
  8
0
100
AcDbBlockEnd
  0
BLOCK
  5
85
330
84
100
AcDbEntity
  8
0
100
AcDbBlockBegin
  2
*D19
 70
    1
 10
0
 20
0
  3
*D19
  1

  0
LINE
  5
123
100
AcDbEntity
  8
dimension
  6
ByBlock
 62
    0
370
   -2
100
AcDbLine
 10
0.08999999999999986
 20
4.860080902169188
 11
3.706897035590081
 21
4.860080902169188
  0
SOLID
  5
124
100
AcDbEntity
  8
dimension
  6
ByBlock
 62
    0
370
   -2
100
AcDbTrace
 10
0.08999999999999986
 20
4.860080902169188
 30
0
 11
0.1899999999999999
 21
4.876732288480102
 31
0
 12
0.1899999999999999
 22
4.843429515858275
 32
0
 13
0.1899999999999999
 23
4.843429515858275
 33
0
  0
SOLID
  5
125
100
AcDbEntity
  8
dimension
  6
ByBlock
 62
    0
370
   -2
100
AcDbTrace
 10
3.706897035590081
 20
4.860080902169188
 30
0
 11
3.606897035590081
 21
4.843429515858275
 31
0
 12
3.606897035590081
 22
4.876732288480102
 32
0
 13
3.606897035590081
 23
4.876732288480102
 33
0
  0
MTEXT
  5
126
100
AcDbEntity
  8
dimension
  6
CONTINUOUS
 62
    0
370
   -2
100
AcDbMText
 10
1.898448517795041
 20
4.980080902169188
 30
0
 40
0.08
 41
0.231111111111121
 71
    5
 72
    1
  1
3.617
  7
standard
210
0
220
0
230
1
 50
0
 73
    2
 44
1
  0
LINE
  5
127
100
AcDbEntity
  8
dimension
  6
ByBlock
 62
    0
370
   -2
100
AcDbLine
 10
0.08999999999999998
 20
4.3
 11
0.08999999999999984
 21
4.960080902169188
  0
LINE
  5
128
100
AcDbEntity
  8
dimension
  6
ByBlock
 62
    0
370
   -2
100
AcDbLine
 10
3.706897035590081
 20
4.3
 11
3.706897035590081
 21
4.960080902169188
  0
ENDBLK
  5
86
330
84
100
AcDbEntity
  8
0
100
AcDbBlockEnd
  0
BLOCK
  5
88
330
87
100
AcDbEntity
  8
0
100
AcDbBlockBegin
  2
*D10
 70
    1
 10
0
 20
0
  3
*D10
  1

  0
LINE
  5
129
100
AcDbEntity
  8
dimension
  6
ByBlock
 62
    0
370
   -2
100
AcDbLine
 10
0.08999999999999986
 20
-0.4342409410004322
 11
4.88
 21
-0.4342409410004322
  0
SOLID
  5
12A
100
AcDbEntity
  8
dimension
  6
ByBlock
 62
    0
370
   -2
100
AcDbTrace
 10
0.08999999999999986
 20
-0.4342409410004322
 30
0
 11
0.1899999999999999
 21
-0.4175895546895186
 31
0
 12
0.1899999999999999
 22
-0.4508923273113458
 32
0
 13
0.1899999999999999
 23
-0.4508923273113458
 33
0
  0
SOLID
  5
12B
100
AcDbEntity
  8
dimension
  6
ByBlock
 62
    0
370
   -2
100
AcDbTrace
 10
4.88
 20
-0.4342409410004322
 30
0
 11
4.78
 21
-0.4508923273113458
 31
0
 12
4.78
 22
-0.4175895546895186
 32
0
 13
4.78
 23
-0.4175895546895186
 33
0
  0
MTEXT
  5
12C
100
AcDbEntity
  8
dimension
  6
CONTINUOUS
 62
    0
370
   -2
100
AcDbMText
 10
2.485
 20
-0.3142409410004322
 30
0
 40
0.08
 41
0.1955555555555556
 71
    5
 72
    1
  1
4.79
  7
standard
210
0
220
0
230
1
 50
0
 73
    2
 44
1
  0
LINE
  5
12D
100
AcDbEntity
  8
dimension
  6
ByBlock
 62
    0
370
   -2
100
AcDbLine
 10
0.09
 20
-0.02
 11
0.08999999999999984
 21
-0.5342409410004322
  0
LINE
  5
12E
100
AcDbEntity
  8
dimension
  6
ByBlock
 62
    0
370
   -2
100
AcDbLine
 10
4.88
 20
-0.02
 11
4.88
 21
-0.5342409410004322
  0
ENDBLK
  5
89
330
87
100
AcDbEntity
  8
0
100
AcDbBlockEnd
  0
BLOCK
  5
8B
330
8A
100
AcDbEntity
  8
0
100
AcDbBlockBegin
  2
*D12
 70
    1
 10
0
 20
0
  3
*D12
  1

  0
LINE
  5
12F
100
AcDbEntity
  8
dimension
  6
ByBlock
 62
    0
370
   -2
100
AcDbLine
 10
3.06592333461317
 20
-3.315999999999999
 11
3.06592333461317
 21
-4.45
  0
SOLID
  5
130
100
AcDbEntity
  8
dimension
  6
ByBlock
 62
    0
370
   -2
100
AcDbTrace
 10
3.06592333461317
 20
-3.315999999999999
 30
0
 11
3.082574720924084
 21
-3.415999999999999
 31
0
 12
3.049271948302257
 22
-3.415999999999999
 32
0
 13
3.049271948302257
 23
-3.415999999999999
 33
0
  0
SOLID
  5
131
100
AcDbEntity
  8
dimension
  6
ByBlock
 62
    0
370
   -2
100
AcDbTrace
 10
3.06592333461317
 20
-4.45
 30
0
 11
3.049271948302257
 21
-4.350000000000001
 31
0
 12
3.082574720924084
 22
-4.350000000000001
 32
0
 13
3.082574720924084
 23
-4.350000000000001
 33
0
  0
MTEXT
  5
132
100
AcDbEntity
  8
dimension
  6
CONTINUOUS
 62
    0
370
   -2
100
AcDbMText
 10
2.94592333461317
 20
-3.883
 30
0
 40
0.08
 41
0.2222222222222272
 71
    5
 72
    1
  1
1.134
  7
standard
210
0
220
0
230
1
 50
90
 73
    2
 44
1
  0
LINE
  5
133
100
AcDbEntity
  8
dimension
  6
ByBlock
 62
    0
370
   -2
100
AcDbLine
 10
2.844008503619002
 20
-3.315999999999999
 11
3.16592333461317
 21
-3.315999999999999
  0
LINE
  5
134
100
AcDbEntity
  8
dimension
  6
ByBlock
 62
    0
370
   -2
100
AcDbLine
 10
2.844008503619002
 20
-4.45
 11
3.16592333461317
 21
-4.45
  0
ENDBLK
  5
8C
330
8A
100
AcDbEntity
  8
0
100
AcDbBlockEnd
  0
BLOCK
  5
8E
330
8D
100
AcDbEntity
  8
0
100
AcDbBlockBegin
  2
*D15
 70
    1
 10
0
 20
0
  3
*D15
  1

  0
LINE
  5
135
100
AcDbEntity
  8
dimension
  6
ByBlock
 62
    0
370
   -2
100
AcDbLine
 10
0.6689999999999996
 20
-1.885349069008979
 11
0.09000850361900202
 21
-1.885349069008979
  0
SOLID
  5
136
100
AcDbEntity
  8
dimension
  6
ByBlock
 62
    0
370
   -2
100
AcDbTrace
 10
0.6689999999999996
 20
-1.885349069008979
 30
0
 11
0.5689999999999996
 21
-1.902000455319893
 31
0
 12
0.5689999999999996
 22
-1.868697682698066
 32
0
 13
0.5689999999999996
 23
-1.868697682698066
 33
0
  0
SOLID
  5
137
100
AcDbEntity
  8
dimension
  6
ByBlock
 62
    0
370
   -2
100
AcDbTrace
 10
0.09000850361900202
 20
-1.885349069008979
 30
0
 11
0.190008503619002
 21
-1.868697682698066
 31
0
 12
0.190008503619002
 22
-1.902000455319893
 32
0
 13
0.190008503619002
 23
-1.902000455319893
 33
0
  0
MTEXT
  5
138
100
AcDbEntity
  8
dimension
  6
CONTINUOUS
 62
    0
370
   -2
100
AcDbMText
 10
0.3795042518095008
 20
-1.765349069008979
 30
0
 40
0.08
 41
0.2488888888888939
 71
    5
 72
    1
  1
0.579
  7
standard
210
0
220
0
230
1
 50
360
 73
    2
 44
1
  0
LINE
  5
139
100
AcDbEntity
  8
dimension
  6
ByBlock
 62
    0
370
   -2
100
AcDbLine
 10
0.6689999999999997
 20
-2.739
 11
0.6689999999999996
 21
-1.785349069008979
  0
LINE
  5
13A
100
AcDbEntity
  8
dimension
  6
ByBlock
 62
    0
370
   -2
100
AcDbLine
 10
0.09000850361900202
 20
-1.98
 11
0.09000850361900202
 21
-1.785349069008979
  0
ENDBLK
  5
8F
330
8D
100
AcDbEntity
  8
0
100
AcDbBlockEnd
  0
BLOCK
  5
91
330
90
100
AcDbEntity
  8
0
100
AcDbBlockBegin
  2
*D6
 70
    1
 10
0
 20
0
  3
*D6
  1

  0
LINE
  5
13B
100
AcDbEntity
  8
dimension
  6
ByBlock
 62
    0
370
   -2
100
AcDbLine
 10
0.6694530000000001
 20
4.437902209529879
 11
0.08999999999999998
 21
4.437902209529879
  0
SOLID
  5
13C
100
AcDbEntity
  8
dimension
  6
ByBlock
 62
    0
370
   -2
100
AcDbTrace
 10
0.6694530000000001
 20
4.437902209529879
 30
0
 11
0.5694530000000001
 21
4.421250823218966
 31
0
 12
0.5694530000000001
 22
4.454553595840792
 32
0
 13
0.5694530000000001
 23
4.454553595840792
 33
0
  0
SOLID
  5
13D
100
AcDbEntity
  8
dimension
  6
ByBlock
 62
    0
370
   -2
100
AcDbTrace
 10
0.08999999999999998
 20
4.437902209529879
 30
0
 11
0.19
 21
4.454553595840792
 31
0
 12
0.19
 22
4.421250823218966
 32
0
 13
0.19
 23
4.421250823218966
 33
0
  0
MTEXT
  5
13E
100
AcDbEntity
  8
dimension
  6
CONTINUOUS
 62
    0
370
   -2
100
AcDbMText
 10
0.3797265
 20
4.557902209529879
 30
0
 40
0.08
 41
0.2488888888888939
 71
    5
 72
    1
  1
0.579
  7
standard
210
0
220
0
230
1
 50
360
 73
    2
 44
1
  0
LINE
  5
13F
100
AcDbEntity
  8
dimension
  6
ByBlock
 62
    0
370
   -2
100
AcDbLine
 10
0.669453
 20
4.3
 11
0.6694530000000002
 21
4.537902209529879
  0
LINE
  5
140
100
AcDbEntity
  8
dimension
  6
ByBlock
 62
    0
370
   -2
100
AcDbLine
 10
0.08999999999999998
 20
4.3
 11
0.08999999999999998
 21
4.537902209529879
  0
ENDBLK
  5
92
330
90
100
AcDbEntity
  8
0
100
AcDbBlockEnd
  0
BLOCK
  5
94
330
93
100
AcDbEntity
  8
0
100
AcDbBlockBegin
  2
*D1
 70
    1
 10
0
 20
0
  3
*D1
  1

  0
LINE
  5
141
100
AcDbEntity
  8
dimension
  6
ByBlock
 62
    0
370
   -2
100
AcDbLine
 10
-0.02
 20
3.043
 11
-0.2125899906842674
 21
3.043
  0
LINE
  5
142
100
AcDbEntity
  8
dimension
  6
ByBlock
 62
    0
370
   -2
100
AcDbLine
 10
-0.02
 20
1.237
 11
-0.2125899906842674
 21
1.237
  0
LINE
  5
143
100
AcDbEntity
  8
dimension
  6
ByBlock
 62
    0
370
   -2
100
AcDbLine
 10
-0.1125899906842674
 20
3.043
 11
-0.1125899906842674
 21
1.237
  0
SOLID
  5
144
100
AcDbEntity
  8
dimension
  6
ByBlock
 62
    0
370
   -2
100
AcDbTrace
 10
-0.1125899906842674
 20
3.043
 30
0
 11
-0.09593860437335378
 21
2.943
 31
0
 12
-0.129241376995181
 22
2.943
 32
0
 13
-0.129241376995181
 23
2.943
 33
0
  0
SOLID
  5
145
100
AcDbEntity
  8
dimension
  6
ByBlock
 62
    0
370
   -2
100
AcDbTrace
 10
-0.1125899906842674
 20
1.237
 30
0
 11
-0.129241376995181
 21
1.337
 31
0
 12
-0.09593860437335375
 22
1.337
 32
0
 13
-0.09593860437335375
 23
1.337
 33
0
  0
MTEXT
  5
146
100
AcDbEntity
  8
dimension
  6
CONTINUOUS
 62
    0
370
   -2
100
AcDbMText
 10
-0.2325899906842674
 20
2.14
 30
0
 40
0.08
 41
0.2311111111111161
 71
    5
 72
    1
  1
1.806
  7
standard
210
0
220
0
230
1
 50
90
 73
    2
 44
1
  0
ENDBLK
  5
95
330
93
100
AcDbEntity
  8
0
100
AcDbBlockEnd
  0
BLOCK
  5
97
330
96
100
AcDbEntity
  8
0
100
AcDbBlockBegin
  2
*D9
 70
    1
 10
0
 20
0
  3
*D9
  1

  0
LINE
  5
147
100
AcDbEntity
  8
dimension
  6
ByBlock
 62
    0
370
   -2
100
AcDbLine
 10
3.065
 20
-0.2090789715928007
 11
1.905
 21
-0.2090789715928007
  0
SOLID
  5
148
100
AcDbEntity
  8
dimension
  6
ByBlock
 62
    0
370
   -2
100
AcDbTrace
 10
3.065
 20
-0.2090789715928007
 30
0
 11
2.965
 21
-0.2257303579037143
 31
0
 12
2.965
 22
-0.1924275852818871
 32
0
 13
2.965
 23
-0.1924275852818871
 33
0
  0
SOLID
  5
149
100
AcDbEntity
  8
dimension
  6
ByBlock
 62
    0
370
   -2
100
AcDbTrace
 10
1.905
 20
-0.2090789715928007
 30
0
 11
2.005
 21
-0.1924275852818871
 31
0
 12
2.005
 22
-0.2257303579037143
 32
0
 13
2.005
 23
-0.2257303579037143
 33
0
  0
MTEXT
  5
14A
100
AcDbEntity
  8
dimension
  6
CONTINUOUS
 62
    0
370
   -2
100
AcDbMText
 10
2.485
 20
-0.0890789715928007
 30
0
 40
0.08
 41
0.1511111111111161
 71
    5
 72
    1
  1
1.16
  7
standard
210
0
220
0
230
1
 50
360
 73
    2
 44
1
  0
LINE
  5
14B
100
AcDbEntity
  8
dimension
  6
ByBlock
 62
    0
370
   -2
100
AcDbLine
 10
3.065
 20
-0.02
 11
3.065
 21
-0.3090789715928007
  0
LINE
  5
14C
100
AcDbEntity
  8
dimension
  6
ByBlock
 62
    0
370
   -2
100
AcDbLine
 10
1.905
 20
-0.02
 11
1.905
 21
-0.3090789715928007
  0
ENDBLK
  5
98
330
96
100
AcDbEntity
  8
0
100
AcDbBlockEnd
  0
BLOCK
  5
9A
330
99
100
AcDbEntity
  8
0
100
AcDbBlockBegin
  2
speak1
 70
    0
 10
0
 20
0
  3
speak1
  1

  0
LINE
  5
14D
100
AcDbEntity
  8
ESK
  6
CONTINUOUS
 62
    7
370
   70
100
AcDbLine
 10
0.005
 20
0.0025
 11
0.011
 21
0.0025
  0
LINE
  5
14E
100
AcDbEntity
  8
ESK
  6
CONTINUOUS
 62
    7
370
   70
100
AcDbLine
 10
0.011
 20
0.0025
 11
0.011
 21
-0.002500000000000004
  0
LINE
  5
14F
100
AcDbEntity
  8
ESK
  6
CONTINUOUS
 62
    7
370
   70
100
AcDbLine
 10
0.011
 20
-0.002500000000000004
 11
0.005
 21
-0.0025
  0
LINE
  5
150
100
AcDbEntity
  8
ESK
  6
CONTINUOUS
 62
    7
370
   70
100
AcDbLine
 10
0.005
 20
-0.0025
 11
0.005
 21
0.0025
  0
LINE
  5
151
100
AcDbEntity
  8
ESK
  6
CONTINUOUS
 62
    7
370
   70
100
AcDbLine
 10
0.005
 20
0.0025
 11
0.001000000000000001
 21
0.007000000000000001
  0
LINE
  5
152
100
AcDbEntity
  8
ESK
  6
CONTINUOUS
 62
    7
370
   70
100
AcDbLine
 10
0.001000000000000001
 20
0.007000000000000001
 11
0.015
 21
0.006999999999999998
  0
LINE
  5
153
100
AcDbEntity
  8
ESK
  6
CONTINUOUS
 62
    7
370
   70
100
AcDbLine
 10
0.015
 20
0.006999999999999998
 11
0.011
 21
0.0025
  0
LINE
  5
154
100
AcDbEntity
  8
ESK
  6
CONTINUOUS
 62
    7
370
   70
100
AcDbLine
 10
0.011
 20
0
 11
0.015
 21
0
  0
LINE
  5
155
100
AcDbEntity
  8
ESK
  6
CONTINUOUS
 62
    7
370
   70
100
AcDbLine
 10
0.005
 20
0
 11
0
 21
0
  0
ENDBLK
  5
9B
330
99
100
AcDbEntity
  8
0
100
AcDbBlockEnd
  0
BLOCK
  5
9D
330
9C
100
AcDbEntity
  8
0
100
AcDbBlockBegin
  2
speaker
 70
    0
 10
0
 20
0
  3
speaker
  1

  0
LINE
  5
156
100
AcDbEntity
  8
ESK
  6
ByLayer
 62
  256
370
   -1
100
AcDbLine
 10
-0.03000000000000001
 20
0.05000000000000002
 11
0.03000000000000001
 21
0.05000000000000002
  0
LINE
  5
157
100
AcDbEntity
  8
ESK
  6
ByLayer
 62
  256
370
   -1
100
AcDbLine
 10
0.03000000000000001
 20
0.05000000000000002
 11
0.03000000000000001
 21
-1.734723475976807e-17
  0
LINE
  5
158
100
AcDbEntity
  8
ESK
  6
ByLayer
 62
  256
370
   -1
100
AcDbLine
 10
0.03000000000000001
 20
-1.734723475976807e-17
 11
-0.03000000000000001
 21
1.734723475976807e-17
  0
LINE
  5
159
100
AcDbEntity
  8
ESK
  6
ByLayer
 62
  256
370
   -1
100
AcDbLine
 10
-0.03000000000000001
 20
1.734723475976807e-17
 11
-0.03000000000000001
 21
0.05000000000000002
  0
LINE
  5
15A
100
AcDbEntity
  8
ESK
  6
ByLayer
 62
  256
370
   -1
100
AcDbLine
 10
-0.03000000000000001
 20
0.05000000000000002
 11
-0.07000000000000001
 21
0.09500000000000003
  0
LINE
  5
15B
100
AcDbEntity
  8
ESK
  6
ByLayer
 62
  256
370
   -1
100
AcDbLine
 10
-0.07000000000000001
 20
0.09500000000000003
 11
0.07000000000000001
 21
0.095
  0
LINE
  5
15C
100
AcDbEntity
  8
ESK
  6
ByLayer
 62
  256
370
   -1
100
AcDbLine
 10
0.07000000000000001
 20
0.095
 11
0.03000000000000001
 21
0.05000000000000002
  0
ENDBLK
  5
9E
330
9C
100
AcDbEntity
  8
0
100
AcDbBlockEnd
  0
BLOCK
  5
A0
330
9F
100
AcDbEntity
  8
0
100
AcDbBlockBegin
  2
speaker-0
 70
    0
 10
0
 20
0
  3
speaker-0
  1

  0
LINE
  5
15D
100
AcDbEntity
  8
ESK
  6
ByLayer
 62
  256
370
   -1
100
AcDbLine
 10
-0.03000000000000001
 20
0.05000000000000002
 11
0.03000000000000001
 21
0.05000000000000002
  0
LINE
  5
15E
100
AcDbEntity
  8
ESK
  6
ByLayer
 62
  256
370
   -1
100
AcDbLine
 10
0.03000000000000001
 20
0.05000000000000002
 11
0.03000000000000001
 21
-1.734723475976807e-17
  0
LINE
  5
15F
100
AcDbEntity
  8
ESK
  6
ByLayer
 62
  256
370
   -1
100
AcDbLine
 10
0.03000000000000001
 20
-1.734723475976807e-17
 11
-0.03000000000000001
 21
1.734723475976807e-17
  0
LINE
  5
160
100
AcDbEntity
  8
ESK
  6
ByLayer
 62
  256
370
   -1
100
AcDbLine
 10
-0.03000000000000001
 20
1.734723475976807e-17
 11
-0.03000000000000001
 21
0.05000000000000002
  0
LINE
  5
161
100
AcDbEntity
  8
ESK
  6
ByLayer
 62
  256
370
   -1
100
AcDbLine
 10
-0.03000000000000001
 20
0.05000000000000002
 11
-0.07000000000000001
 21
0.09500000000000003
  0
LINE
  5
162
100
AcDbEntity
  8
ESK
  6
ByLayer
 62
  256
370
   -1
100
AcDbLine
 10
-0.07000000000000001
 20
0.09500000000000003
 11
0.07000000000000001
 21
0.095
  0
LINE
  5
163
100
AcDbEntity
  8
ESK
  6
ByLayer
 62
  256
370
   -1
100
AcDbLine
 10
0.07000000000000001
 20
0.095
 11
0.03000000000000001
 21
0.05000000000000002
  0
ENDBLK
  5
A1
330
9F
100
AcDbEntity
  8
0
100
AcDbBlockEnd
  0
BLOCK
  5
A3
330
A2
100
AcDbEntity
  8
0
100
AcDbBlockBegin
  2
d4
 70
    0
 10
0
 20
0
  3
d4
  1

  0
LINE
  5
164
100
AcDbEntity
  8
0
  6
CONTINUOUS
 62
    7
370
   70
100
AcDbLine
 10
-0.003300000000000303
 20
0.06999999999999984
 11
-0.003300000000000303
 21
0.07750000000000012
  0
LINE
  5
165
100
AcDbEntity
  8
0
  6
CONTINUOUS
 62
    7
370
   70
100
AcDbLine
 10
-0.003300000000000303
 20
0.07750000000000012
 11
0.001199999999999868
 21
0.07750000000000012
  0
LINE
  5
166
100
AcDbEntity
  8
0
  6
CONTINUOUS
 62
    7
370
   70
100
AcDbLine
 10
0.001199999999999868
 20
0.07750000000000012
 11
0.001199999999999868
 21
0.07419999999999982
  0
LINE
  5
167
100
AcDbEntity
  8
0
  6
CONTINUOUS
 62
    7
370
   70
100
AcDbLine
 10
0.001199999999999868
 20
0.07419999999999982
 11
0
 21
0.07419999999999982
  0
LINE
  5
168
100
AcDbEntity
  8
0
  6
CONTINUOUS
 62
    7
370
   70
100
AcDbLine
 10
0
 20
0.07419999999999982
 11
0
 21
0.07019999999999982
  0
LINE
  5
169
100
AcDbEntity
  8
0
  6
CONTINUOUS
 62
    7
370
   70
100
AcDbLine
 10
-0.0002000000000004221
 20
0.06999999999999984
 11
-0.003300000000000303
 21
0.06999999999999984
  0
LINE
  5
16A
100
AcDbEntity
  8
0
  6
CONTINUOUS
 62
    7
370
   70
100
AcDbLine
 10
0.07369999999999965
 20
0.06999999999999984
 11
0.07369999999999965
 21
0.07750000000000012
  0
LINE
  5
16B
100
AcDbEntity
  8
0
  6
CONTINUOUS
 62
    7
370
   70
100
AcDbLine
 10
0.07369999999999965
 20
0.07750000000000012
 11
0.06920000000000037
 21
0.07750000000000012
  0
LINE
  5
16C
100
AcDbEntity
  8
0
  6
CONTINUOUS
 62
    7
370
   70
100
AcDbLine
 10
0.06920000000000037
 20
0.07750000000000012
 11
0.06920000000000037
 21
0.07419999999999982
  0
LINE
  5
16D
100
AcDbEntity
  8
0
  6
CONTINUOUS
 62
    7
370
   70
100
AcDbLine
 10
0.06920000000000037
 20
0.07419999999999982
 11
0.07040000000000024
 21
0.07419999999999982
  0
LINE
  5
16E
100
AcDbEntity
  8
0
  6
CONTINUOUS
 62
    7
370
   70
100
AcDbLine
 10
0.07040000000000024
 20
0.07419999999999982
 11
0.07040000000000024
 21
0.06999999999999984
  0
LINE
  5
16F
100
AcDbEntity
  8
0
  6
CONTINUOUS
 62
    7
370
   70
100
AcDbLine
 10
0.07040000000000024
 20
0.06999999999999984
 11
0.07369999999999965
 21
0.06999999999999984
  0
LINE
  5
170
100
AcDbEntity
  8
0
  6
CONTINUOUS
 62
    7
370
   70
100
AcDbLine
 10
0.003999999999999559
 20
0.05889999999999995
 11
0
 21
0.05889999999999995
  0
LINE
  5
171
100
AcDbEntity
  8
0
  6
CONTINUOUS
 62
    7
370
   70
100
AcDbLine
 10
0.003999999999999559
 20
0.01089999999999991
 11
0
 21
0.01089999999999991
  0
ARC
  5
172
100
AcDbEntity
  8
0
  6
CONTINUOUS
 62
    7
370
   70
100
AcDbCircle
 10
0.0002000000000004221
 20
0.06999999999999984
 40
0.07000000000000001
100
AcDbArc
 50
270
 51
0
  0
LINE
  5
173
100
AcDbEntity
  8
0
  6
CONTINUOUS
 62
    7
370
   70
100
AcDbLine
 10
-0.003300000000000303
 20
0.07750000000000012
 11
-0.005300000000000082
 21
0.07750000000000012
  0
LINE
  5
174
100
AcDbEntity
  8
0
  6
CONTINUOUS
 62
    7
370
   70
100
AcDbLine
 10
-0.005300000000000082
 20
0.07750000000000012
 11
-0.005300000000000082
 21
0.06999999999999984
  0
LINE
  5
175
100
AcDbEntity
  8
0
  6
CONTINUOUS
 62
    7
370
   70
100
AcDbLine
 10
-0.005300000000000082
 20
0.06999999999999984
 11
-0.003300000000000303
 21
0.06999999999999984
  0
LINE
  5
176
100
AcDbEntity
  8
0
  6
CONTINUOUS
 62
    7
370
   70
100
AcDbLine
 10
-0.003300000000000303
 20
0.06999999999999984
 11
-0.003300000000000303
 21
0.07750000000000012
  0
LINE
  5
177
100
AcDbEntity
  8
0
  6
CONTINUOUS
 62
    7
370
   70
100
AcDbLine
 10
0.07369999999999965
 20
0.07750000000000012
 11
0.07570000000000032
 21
0.07750000000000012
  0
LINE
  5
178
100
AcDbEntity
  8
0
  6
CONTINUOUS
 62
    7
370
   70
100
AcDbLine
 10
0.07570000000000032
 20
0.07750000000000012
 11
0.07570000000000032
 21
0.06999999999999984
  0
LINE
  5
179
100
AcDbEntity
  8
0
  6
CONTINUOUS
 62
    7
370
   70
100
AcDbLine
 10
0.07570000000000032
 20
0.06999999999999984
 11
0.07369999999999965
 21
0.06999999999999984
  0
LINE
  5
17A
100
AcDbEntity
  8
0
  6
CONTINUOUS
 62
    7
370
   70
100
AcDbLine
 10
0.07369999999999965
 20
0.06999999999999984
 11
0.07369999999999965
 21
0.07750000000000012
  0
LINE
  5
17B
100
AcDbEntity
  8
0
  6
CONTINUOUS
 62
    7
370
   70
100
AcDbLine
 10
0
 20
0
 11
0
 21
0.06979999999999986
  0
LINE
  5
17C
100
AcDbEntity
  8
0
  6
CONTINUOUS
 62
    7
370
   70
100
AcDbLine
 10
0
 20
0.06979999999999986
 11
0.003999999999999559
 21
0.06979999999999986
  0
LINE
  5
17D
100
AcDbEntity
  8
0
  6
CONTINUOUS
 62
    7
370
   70
100
AcDbLine
 10
0.003999999999999559
 20
0.06979999999999986
 11
0.003999999999999559
 21
0
  0
LINE
  5
17E
100
AcDbEntity
  8
0
  6
CONTINUOUS
 62
    7
370
   70
100
AcDbLine
 10
0.003999999999999559
 20
0
 11
0
 21
0
  0
ENDBLK
  5
A4
330
A2
100
AcDbEntity
  8
0
100
AcDbBlockEnd
  0
BLOCK
  5
A6
330
A5
100
AcDbEntity
  8
0
100
AcDbBlockBegin
  2
d2
 70
    0
 10
0
 20
0
  3
d2
  1

  0
LINE
  5
17F
100
AcDbEntity
  8
0
  6
CONTINUOUS
 62
    7
370
   70
100
AcDbLine
 10
-0.001500000000000057
 20
0.06000000000000005
 11
-0.001500000000000057
 21
0.06749999999999989
  0
LINE
  5
180
100
AcDbEntity
  8
0
  6
CONTINUOUS
 62
    7
370
   70
100
AcDbLine
 10
-0.001500000000000057
 20
0.06749999999999989
 11
0.003000000000000114
 21
0.06749999999999989
  0
LINE
  5
181
100
AcDbEntity
  8
0
  6
CONTINUOUS
 62
    7
370
   70
100
AcDbLine
 10
0.003000000000000114
 20
0.06749999999999989
 11
0.003000000000000114
 21
0.06420000000000003
  0
LINE
  5
182
100
AcDbEntity
  8
0
  6
CONTINUOUS
 62
    7
370
   70
100
AcDbLine
 10
0.003000000000000114
 20
0.06420000000000003
 11
0.001800000000000246
 21
0.06420000000000003
  0
LINE
  5
183
100
AcDbEntity
  8
0
  6
CONTINUOUS
 62
    7
370
   70
100
AcDbLine
 10
0.001800000000000246
 20
0.06420000000000003
 11
0.001800000000000246
 21
0.06020000000000003
  0
LINE
  5
184
100
AcDbEntity
  8
0
  6
CONTINUOUS
 62
    7
370
   70
100
AcDbLine
 10
0.001599999999999824
 20
0.06000000000000005
 11
-0.001500000000000057
 21
0.06000000000000005
  0
ARC
  5
185
100
AcDbEntity
  8
0
  6
CONTINUOUS
 62
    7
370
   70
100
AcDbCircle
 10
0.00199999999999978
 20
0.06000000000000005
 40
0.06
100
AcDbArc
 50
270
 51
0
  0
LINE
  5
186
100
AcDbEntity
  8
0
  6
CONTINUOUS
 62
    7
370
   70
100
AcDbLine
 10
0.1257000000000001
 20
0.06000000000000005
 11
0.1257000000000001
 21
0.06749999999999989
  0
LINE
  5
187
100
AcDbEntity
  8
0
  6
CONTINUOUS
 62
    7
370
   70
100
AcDbLine
 10
0.1257000000000001
 20
0.06749999999999989
 11
0.1212
 21
0.06749999999999989
  0
LINE
  5
188
100
AcDbEntity
  8
0
  6
CONTINUOUS
 62
    7
370
   70
100
AcDbLine
 10
0.1212
 20
0.06749999999999989
 11
0.1212
 21
0.06420000000000003
  0
LINE
  5
189
100
AcDbEntity
  8
0
  6
CONTINUOUS
 62
    7
370
   70
100
AcDbLine
 10
0.1212
 20
0.06420000000000003
 11
0.1223999999999998
 21
0.06420000000000003
  0
LINE
  5
18A
100
AcDbEntity
  8
0
  6
CONTINUOUS
 62
    7
370
   70
100
AcDbLine
 10
0.1223999999999998
 20
0.06420000000000003
 11
0.1223999999999998
 21
0.06020000000000003
  0
LINE
  5
18B
100
AcDbEntity
  8
0
  6
CONTINUOUS
 62
    7
370
   70
100
AcDbLine
 10
0.1226000000000003
 20
0.06000000000000005
 11
0.1257000000000001
 21
0.06000000000000005
  0
ARC
  5
18C
100
AcDbEntity
  8
0
  6
CONTINUOUS
 62
    7
370
   70
100
AcDbCircle
 10
0.1222000000000003
 20
0.06000000000000005
 40
0.06
100
AcDbArc
 50
180
 51
270
  0
LINE
  5
18D
100
AcDbEntity
  8
0
  6
CONTINUOUS
 62
    7
370
   70
100
AcDbLine
 10
-0.001500000000000057
 20
0.06749999999999989
 11
-0.00340000000000007
 21
0.06749999999999989
  0
LINE
  5
18E
100
AcDbEntity
  8
0
  6
CONTINUOUS
 62
    7
370
   70
100
AcDbLine
 10
-0.00340000000000007
 20
0.06749999999999989
 11
-0.00340000000000007
 21
0.06000000000000005
  0
LINE
  5
18F
100
AcDbEntity
  8
0
  6
CONTINUOUS
 62
    7
370
   70
100
AcDbLine
 10
-0.00340000000000007
 20
0.06000000000000005
 11
-0.001500000000000057
 21
0.06000000000000005
  0
LINE
  5
190
100
AcDbEntity
  8
0
  6
CONTINUOUS
 62
    7
370
   70
100
AcDbLine
 10
-0.001500000000000057
 20
0.06000000000000005
 11
-0.001500000000000057
 21
0.06749999999999989
  0
LINE
  5
191
100
AcDbEntity
  8
0
  6
CONTINUOUS
 62
    7
370
   70
100
AcDbLine
 10
0.001800000000000246
 20
0
 11
0.001800000000000246
 21
0.05980000000000008
  0
LINE
  5
192
100
AcDbEntity
  8
0
  6
CONTINUOUS
 62
    7
370
   70
100
AcDbLine
 10
0.001800000000000246
 20
0.05980000000000008
 11
0.005799999999999805
 21
0.05980000000000008
  0
LINE
  5
193
100
AcDbEntity
  8
0
  6
CONTINUOUS
 62
    7
370
   70
100
AcDbLine
 10
0.005799999999999805
 20
0.05980000000000008
 11
0.005799999999999805
 21
0
  0
LINE
  5
194
100
AcDbEntity
  8
0
  6
CONTINUOUS
 62
    7
370
   70
100
AcDbLine
 10
0.005799999999999805
 20
0
 11
0.001800000000000246
 21
0
  0
LINE
  5
195
100
AcDbEntity
  8
0
  6
CONTINUOUS
 62
    7
370
   70
100
AcDbLine
 10
0.1257000000000001
 20
0.06749999999999989
 11
0.1276000000000002
 21
0.06749999999999989
  0
LINE
  5
196
100
AcDbEntity
  8
0
  6
CONTINUOUS
 62
    7
370
   70
100
AcDbLine
 10
0.1276000000000002
 20
0.06749999999999989
 11
0.1276000000000002
 21
0.06000000000000005
  0
LINE
  5
197
100
AcDbEntity
  8
0
  6
CONTINUOUS
 62
    7
370
   70
100
AcDbLine
 10
0.1276000000000002
 20
0.06000000000000005
 11
0.1257000000000001
 21
0.06000000000000005
  0
LINE
  5
198
100
AcDbEntity
  8
0
  6
CONTINUOUS
 62
    7
370
   70
100
AcDbLine
 10
0.1257000000000001
 20
0.06000000000000005
 11
0.1257000000000001
 21
0.06749999999999989
  0
LINE
  5
199
100
AcDbEntity
  8
0
  6
CONTINUOUS
 62
    7
370
   70
100
AcDbLine
 10
0.1223999999999998
 20
0
 11
0.1223999999999998
 21
0.05980000000000008
  0
LINE
  5
19A
100
AcDbEntity
  8
0
  6
CONTINUOUS
 62
    7
370
   70
100
AcDbLine
 10
0.1223999999999998
 20
0.05980000000000008
 11
0.1184000000000003
 21
0.05980000000000008
  0
LINE
  5
19B
100
AcDbEntity
  8
0
  6
CONTINUOUS
 62
    7
370
   70
100
AcDbLine
 10
0.1184000000000003
 20
0.05980000000000008
 11
0.1184000000000003
 21
0
  0
LINE
  5
19C
100
AcDbEntity
  8
0
  6
CONTINUOUS
 62
    7
370
   70
100
AcDbLine
 10
0.1184000000000003
 20
0
 11
0.1223999999999998
 21
0
  0
LINE
  5
19D
100
AcDbEntity
  8
0
  6
CONTINUOUS
 62
    7
370
   70
100
AcDbLine
 10
0.1223999999999998
 20
0.01089999999999991
 11
0.1184000000000003
 21
0.01089999999999991
  0
LINE
  5
19E
100
AcDbEntity
  8
0
  6
CONTINUOUS
 62
    7
370
   70
100
AcDbLine
 10
0.1184000000000003
 20
0.01089999999999991
 11
0.1184000000000003
 21
0.04890000000000017
  0
LINE
  5
19F
100
AcDbEntity
  8
0
  6
CONTINUOUS
 62
    7
370
   70
100
AcDbLine
 10
0.1184000000000003
 20
0.04890000000000017
 11
0.1223999999999998
 21
0.04890000000000017
  0
LINE
  5
1A0
100
AcDbEntity
  8
0
  6
CONTINUOUS
 62
    7
370
   70
100
AcDbLine
 10
0.1223999999999998
 20
0.04890000000000017
 11
0.1223999999999998
 21
0.01089999999999991
  0
LINE
  5
1A1
100
AcDbEntity
  8
0
  6
CONTINUOUS
 62
    7
370
   70
100
AcDbLine
 10
0.001800000000000246
 20
0.01089999999999991
 11
0.005799999999999805
 21
0.01089999999999991
  0
LINE
  5
1A2
100
AcDbEntity
  8
0
  6
CONTINUOUS
 62
    7
370
   70
100
AcDbLine
 10
0.005799999999999805
 20
0.01089999999999991
 11
0.005799999999999805
 21
0.04890000000000017
  0
LINE
  5
1A3
100
AcDbEntity
  8
0
  6
CONTINUOUS
 62
    7
370
   70
100
AcDbLine
 10
0.005799999999999805
 20
0.04890000000000017
 11
0.001800000000000246
 21
0.04890000000000017
  0
LINE
  5
1A4
100
AcDbEntity
  8
0
  6
CONTINUOUS
 62
    7
370
   70
100
AcDbLine
 10
0.001800000000000246
 20
0.04890000000000017
 11
0.001800000000000246
 21
0.01089999999999991
  0
ENDBLK
  5
A7
330
A5
100
AcDbEntity
  8
0
100
AcDbBlockEnd
  0
BLOCK
  5
A9
330
A8
100
AcDbEntity
  8
0
100
AcDbBlockBegin
  2
crosshair
 70
    0
 10
0
 20
0
  3
crosshair
  1

  0
LINE
  5
1A5
100
AcDbEntity
  8
const_spacial
  6
ByLayer
 62
  256
370
   -1
100
AcDbLine
 10
-0.1000000000000001
 20
0
 11
0.09999999999999987
 21
0
  0
LINE
  5
1A6
100
AcDbEntity
  8
const_spacial
  6
ByLayer
 62
  256
370
   -1
100
AcDbLine
 10
0
 20
0.1000000000000001
 11
0
 21
-0.09999999999999998
  0
ENDBLK
  5
AA
330
A8
100
AcDbEntity
  8
0
100
AcDbBlockEnd
  0
BLOCK
  5
AC
330
AB
100
AcDbEntity
  8
0
100
AcDbBlockBegin
  2
Wall_Plate_single-gang
 70
    0
 10
0
 20
0
  3
Wall_Plate_single-gang
  1

  0
INSERT
  5
1A7
100
AcDbEntity
  8
const_tmp
  6
ByLayer
 62
  256
370
   -1
100
AcDbBlockReference
  2
1WallPlate_single-gang
 10
0.03500000000000003
 20
0.0569999999999995
 30
0
 41
1
 42
1
 43
0
 50
0
 70
    1
 71
    1
 44
0
 45
0
  0
ENDBLK
  5
AD
330
AB
100
AcDbEntity
  8
0
100
AcDbBlockEnd
  0
BLOCK
  5
AF
330
AE
100
AcDbEntity
  8
0
100
AcDbBlockBegin
  2
WalPlate_double-gang
 70
    0
 10
0
 20
0
  3
WalPlate_double-gang
  1

  0
LWPOLYLINE
  5
1A8
100
AcDbEntity
  8
WallConnections
  6
ByLayer
 62
  256
370
   -1
100
AcDbPolyline
 90
    4
 70
    1
 43
0
 10
-0.06250000000000001
 20
-0.0625
 10
0.06249999999999999
 20
-0.0625
 10
0.06249999999999999
 20
0.0625
 10
-0.06250000000000001
 20
0.0625
  0
ENDBLK
  5
B0
330
AE
100
AcDbEntity
  8
0
100
AcDbBlockEnd
  0
BLOCK
  5
B2
330
B1
100
AcDbEntity
  8
0
100
AcDbBlockBegin
  2
WalPlate_triple-gang
 70
    0
 10
0
 20
0
  3
WalPlate_triple-gang
  1

  0
LWPOLYLINE
  5
1A9
100
AcDbEntity
  8
WallConnections
  6
ByLayer
 62
  256
370
   -1
100
AcDbPolyline
 90
    4
 70
    1
 43
0
 10
0
 20
0
 10
0.1719999999999999
 20
0
 10
0.1719999999999999
 20
0.125
 10
0
 20
0.125
  0
ENDBLK
  5
B3
330
B1
100
AcDbEntity
  8
0
100
AcDbBlockEnd
  0
BLOCK
  5
B5
330
B4
100
AcDbEntity
  8
0
100
AcDbBlockBegin
  2
OldWallOutlet_single-gang
 70
    0
 10
0
 20
0
  3
OldWallOutlet_single-gang
  1

  0
INSERT
  5
1AA
100
AcDbEntity
  8
WallConnections
  6
ByLayer
 62
  256
370
   -1
100
AcDbBlockReference
  2
WallPlate_single-gang
 10
-0.03500000000000003
 20
-0.0569999999999995
 30
0
 41
1
 42
1
 43
0
 50
0
 70
    1
 71
    1
 44
0
 45
0
  0
LINE
  5
1AB
100
AcDbEntity
  8
WallConnections
  6
ByLayer
 62
  256
370
   -1
100
AcDbLine
 10
0.007745966692497053
 20
0.005000000000000782
 11
-0.00774596669215355
 21
0.005000000000000782
  0
LINE
  5
1AC
100
AcDbEntity
  8
WallConnections
  6
ByLayer
 62
  256
370
   -1
100
AcDbLine
 10
0.007745966692382478
 20
0.03300000000000036
 11
-0.007745966692211059
 21
0.03300000000000036
  0
ARC
  5
1AD
100
AcDbEntity
  8
WallConnections
  6
ByLayer
 62
  256
370
   -1
100
AcDbCircle
 10
0
 20
0.01900000000000013
 40
0.016
100
AcDbArc
 50
298.9550243710436
 51
61.04497562824196
  0
ARC
  5
1AE
100
AcDbEntity
  8
WallConnections
  6
ByLayer
 62
  256
370
   -1
100
AcDbCircle
 10
0
 20
0.01900000000000013
 40
0.016
100
AcDbArc
 50
118.9550243717601
 51
241.0449756289576
  0
LINE
  5
1AF
100
AcDbEntity
  8
WallConnections
  6
ByLayer
 62
  256
370
   -1
100
AcDbLine
 10
0.007745966692497053
 20
-0.03299999999999992
 11
-0.00774596669215355
 21
-0.03299999999999992
  0
LINE
  5
1B0
100
AcDbEntity
  8
WallConnections
  6
ByLayer
 62
  256
370
   -1
100
AcDbLine
 10
0.007745966692382478
 20
-0.005000000000000338
 11
-0.007745966692211059
 21
-0.005000000000000338
  0
ARC
  5
1B1
100
AcDbEntity
  8
WallConnections
  6
ByLayer
 62
  256
370
   -1
100
AcDbCircle
 10
0
 20
-0.01900000000000057
 40
0.016
100
AcDbArc
 50
298.9550243710436
 51
61.04497562824196
  0
ARC
  5
1B2
100
AcDbEntity
  8
WallConnections
  6
ByLayer
 62
  256
370
   -1
100
AcDbCircle
 10
0
 20
-0.01900000000000057
 40
0.016
100
AcDbArc
 50
118.9550243717601
 51
241.0449756289576
  0
CIRCLE
  5
1B3
100
AcDbEntity
  8
WallConnections
  6
ByLayer
 62
  256
370
   -1
100
AcDbCircle
 10
0
 20
-4.440892098500626e-16
 40
0.002
  0
ENDBLK
  5
B6
330
B4
100
AcDbEntity
  8
0
100
AcDbBlockEnd
  0
BLOCK
  5
B8
330
B7
100
AcDbEntity
  8
0
100
AcDbBlockBegin
  2
1WallPlate_single-gang
 70
    0
 10
0
 20
0
  3
1WallPlate_single-gang
  1

  0
LWPOLYLINE
  5
1B4
100
AcDbEntity
  8
WallConnections
  6
ByLayer
 62
  256
370
   -1
100
AcDbPolyline
 90
    4
 70
    1
 43
0
 10
-0.03500000000000003
 20
-0.05699999999999994
 10
0.03500000000000003
 20
-0.05699999999999994
 10
0.03500000000000003
 20
0.05699999999999994
 10
-0.03500000000000003
 20
0.05699999999999994
  0
ENDBLK
  5
B9
330
B7
100
AcDbEntity
  8
0
100
AcDbBlockEnd
  0
BLOCK
  5
BB
330
BA
100
AcDbEntity
  8
0
100
AcDbBlockBegin
  2
Television
 70
    0
 10
0
 20
0
  3
Television
  1

  0
LWPOLYLINE
  5
1B5
100
AcDbEntity
  8
Equipment
  6
ByLayer
 62
  256
370
   -1
100
AcDbPolyline
 90
    5
 70
    1
 43
0
 10
-0.6359999999999999
 20
-0.3840000000000008
 10
0.6360000000000001
 20
-0.3840000000000008
 10
0.6360000000000001
 20
0.3839999999999995
 10
-0.6359999999999999
 20
0.3839999999999995
 10
-0.6359999999999999
 20
0.3839999999999995
  0
LINE
  5
1B6
100
AcDbEntity
  8
const_tmp
  6
ByLayer
 62
  256
370
   -1
100
AcDbLine
 10
0
 20
0.3839999999999995
 11
0
 21
-0.3840000000000008
  0
LINE
  5
1B7
100
AcDbEntity
  8
const_tmp
  6
ByLayer
 62
  256
370
   -1
100
AcDbLine
 10
0.6360000000000001
 20
-4.440892098500626e-16
 11
-0.6359999999999999
 21
-4.440892098500626e-16
  0
LWPOLYLINE
  5
1B8
100
AcDbEntity
  8
Equipment
  6
ByLayer
 62
  256
370
   -1
100
AcDbPolyline
 90
    4
 70
    1
 43
0
 10
-0.1000000000000001
 20
-0.1000000000000001
 10
0.1000000000000001
 20
-0.1000000000000001
 10
0.1000000000000001
 20
0.1000000000000001
 10
-0.1000000000000001
 20
0.1000000000000001
  0
ENDBLK
  5
BC
330
BA
100
AcDbEntity
  8
0
100
AcDbBlockEnd
  0
BLOCK
  5
BE
330
BD
100
AcDbEntity
  8
0
100
AcDbBlockBegin
  2
WallOutlet_single-gang
 70
    0
 10
0
 20
0
  3
WallOutlet_single-gang
  1

  0
INSERT
  5
1BA
100
AcDbEntity
  8
WallConnections
  6
ByLayer
 62
  256
370
   -1
100
AcDbBlockReference
  2
1WallPlate_single-gang
 10
0
 20
4.440892098500626e-16
 30
0
 41
1
 42
1
 43
0
 50
0
 70
    1
 71
    1
 44
1
 45
1
  0
ENDBLK
  5
BF
330
BD
100
AcDbEntity
  8
0
100
AcDbBlockEnd
  0
BLOCK
  5
C1
330
C0
100
AcDbEntity
  8
0
100
AcDbBlockBegin
  2
Spkr_800_FrontElev
 70
    0
 10
0
 20
0
  3
Spkr_800_FrontElev
  1

  0
LWPOLYLINE
  5
1BB
100
AcDbEntity
  8
Speakers
  6
ByLayer
 62
  256
370
   -1
100
AcDbPolyline
 90
    4
 70
    1
 43
0
 10
-0.0600000000000005
 20
-0.2925
 10
0.05999999999999961
 20
-0.2925
 10
0.05999999999999961
 20
-0.09750000000000003
 10
-0.0600000000000005
 20
-0.09750000000000003
  0
ENDBLK
  5
C2
330
C0
100
AcDbEntity
  8
0
100
AcDbBlockEnd
  0
BLOCK
  5
C4
330
C3
100
AcDbEntity
  8
0
100
AcDbBlockBegin
  2
Pro1000_Center_Speaker_FrontElev
 70
    0
 10
0
 20
0
  3
Pro1000_Center_Speaker_FrontElev
  1

  0
LWPOLYLINE
  5
1BC
100
AcDbEntity
  8
Speakers
  6
ByLayer
 62
  256
370
   -1
100
AcDbPolyline
 90
    4
 70
    1
 43
0
 10
-0.1854999999999998
 20
-0.06150000000000011
 10
0.1855000000000002
 20
-0.06150000000000011
 10
0.1855000000000002
 20
0.06150000000000011
 10
-0.1854999999999998
 20
0.06150000000000011
  0
ENDBLK
  5
C5
330
C3
100
AcDbEntity
  8
0
100
AcDbBlockEnd
  0
BLOCK
  5
C7
330
C6
100
AcDbEntity
  8
0
100
AcDbBlockBegin
  2
SpeakerMount
 70
    0
 10
0
 20
0
  3
SpeakerMount
  1

  0
ARC
  5
1BD
100
AcDbEntity
  8
Speakers
  6
ByLayer
 62
  256
370
   -1
100
AcDbCircle
 10
-0.09506818181818216
 20
0.0284999999999993
 40
0.1205681818181822
100
AcDbArc
 50
2.035554996136651e-13
 51
17.37270916247356
  0
ARC
  5
1BE
100
AcDbEntity
  8
Speakers
  6
ByLayer
 62
  256
370
   -1
100
AcDbCircle
 10
0.09506818181818449
 20
0.0284999999999993
 40
0.1205681818181845
100
AcDbArc
 50
162.6272908375282
 51
179.9999999999998
  0
ARC
  5
1BF
100
AcDbEntity
  8
Speakers
  6
ByLayer
 62
  256
370
   -1
100
AcDbCircle
 10
0.09506818181818449
 20
0.0284999999999993
 40
0.1205681818181845
100
AcDbArc
 50
179.9999999999998
 51
197.3727091624722
  0
ARC
  5
1C0
100
AcDbEntity
  8
Speakers
  6
ByLayer
 62
  256
370
   -1
100
AcDbCircle
 10
-0.09506818181818216
 20
0.0284999999999993
 40
0.1205681818181822
100
AcDbArc
 50
342.627290837527
 51
360.0000000000002
  0
LINE
  5
1C1
100
AcDbEntity
  8
Speakers
  6
ByLayer
 62
  256
370
   -1
100
AcDbLine
 10
-0.02000000000000807
 20
-0.007500000000000284
 11
0.02000000000000085
 21
-0.007500000000000284
  0
LINE
  5
1C2
100
AcDbEntity
  8
Speakers
  6
ByLayer
 62
  256
370
   -1
100
AcDbLine
 10
0.0199999999999993
 20
0.06449999999999978
 11
-0.01999999999998986
 21
0.06449999999999978
  0
CIRCLE
  5
1C3
100
AcDbEntity
  8
Speakers
  6
ByLayer
 62
  256
370
   -1
100
AcDbCircle
 10
-5.551115123125783e-17
 20
0.0569999999999995
 40
0.002555
  0
CIRCLE
  5
1C4
100
AcDbEntity
  8
Speakers
  6
ByLayer
 62
  256
370
   -1
100
AcDbCircle
 10
-5.551115123125783e-17
 20
-4.440892098500626e-16
 40
0.002555
  0
LINE
  5
1C5
100
AcDbEntity
  8
Speakers
  6
ByLayer
 62
  256
370
   -1
100
AcDbLine
 10
-0.02550000000000002
 20
0.02849999999999975
 11
0.02550000000000002
 21
0.02849999999999975
  0
DIMENSION
  5
1C6
100
AcDbEntity
  8
Speakers
  6
ByLayer
 62
  256
370
   -1
100
AcDbDimension
 10
0.09506818181818449
 20
-4.440892098500626e-16
 30
0
 11
-0.0249318181818155
 21
0.0284999999999993
 31
0
 70
   32
 71
    5
  3
Standard
 53
0
210
0
220
0
230
1
100
AcDbAlignedDimension
 13
-5.551115123125783e-17
 23
0.0569999999999995
 33
0
 14
-5.551115123125783e-17
 24
-4.440892098500626e-16
 34
0
 50
90
100
AcDbRotatedDimension
  0
ENDBLK
  5
C8
330
C6
100
AcDbEntity
  8
0
100
AcDbBlockEnd
  0
ENDSEC
  0
SECTION
  2
ENTITIES
  0
LINE
  5
1C7
100
AcDbEntity
  8
0
  6
ByLayer
 62
  256
370
   -1
100
AcDbLine
 10
4.57
 20
2.444
 11
4.88
 21
2.444
  0
LINE
  5
1C8
100
AcDbEntity
  8
0
  6
ByLayer
 62
  256
370
   -1
100
AcDbLine
 10
4.57
 20
4.28
 11
4.57
 21
2.444
  0
POINT
  5
1C9
100
AcDbEntity
  8
const_spacial
  6
ByLayer
 62
  256
370
   -1
100
AcDbPoint
 10
4.57
 20
2.58
  0
POINT
  5
1CA
100
AcDbEntity
  8
const_spacial
  6
ByLayer
 62
  256
370
   -1
100
AcDbPoint
 10
4.57
 20
2.58
  0
POINT
  5
1CB
100
AcDbEntity
  8
const_spacial
  6
ByLayer
 62
  256
370
   -1
100
AcDbPoint
 10
4.57
 20
2.58
  0
POINT
  5
1CC
100
AcDbEntity
  8
const_spacial
  6
ByLayer
 62
  256
370
   -1
100
AcDbPoint
 10
4.57
 20
2.58
  0
POINT
  5
1CD
100
AcDbEntity
  8
const_spacial
  6
ByLayer
 62
  256
370
   -1
100
AcDbPoint
 10
4.57
 20
2.58
  0
POINT
  5
1CE
100
AcDbEntity
  8
const_spacial
  6
ByLayer
 62
  256
370
   -1
100
AcDbPoint
 10
4.57
 20
2.58
  0
POINT
  5
1CF
100
AcDbEntity
  8
const_spacial
  6
ByLayer
 62
  256
370
   -1
100
AcDbPoint
 10
4.57
 20
2.58
  0
POINT
  5
1D0
100
AcDbEntity
  8
const_spacial
  6
ByLayer
 62
  256
370
   -1
100
AcDbPoint
 10
4.57
 20
2.58
  0
POINT
  5
1D1
100
AcDbEntity
  8
const_spacial
  6
ByLayer
 62
  256
370
   -1
100
AcDbPoint
 10
4.57
 20
2.58
  0
POINT
  5
1D2
100
AcDbEntity
  8
const_spacial
  6
ByLayer
 62
  256
370
   -1
100
AcDbPoint
 10
4.57
 20
2.58
  0
POINT
  5
1D3
100
AcDbEntity
  8
const_spacial
  6
ByLayer
 62
  256
370
   -1
100
AcDbPoint
 10
4.57
 20
2.58
  0
POINT
  5
1D4
100
AcDbEntity
  8
const_spacial
  6
ByLayer
 62
  256
370
   -1
100
AcDbPoint
 10
0
 20
3
  0
POINT
  5
1D5
100
AcDbEntity
  8
const_spacial
  6
ByLayer
 62
  256
370
   -1
100
AcDbPoint
 10
0
 20
2.9
  0
POINT
  5
1D6
100
AcDbEntity
  8
const_spacial
  6
ByLayer
 62
  256
370
   -1
100
AcDbPoint
 10
0
 20
2.58
  0
POINT
  5
1D7
100
AcDbEntity
  8
const_spacial
  6
ByLayer
 62
  256
370
   -1
100
AcDbPoint
 10
0
 20
2.58
  0
POINT
  5
1D8
100
AcDbEntity
  8
const_spacial
  6
ByLayer
 62
  256
370
   -1
100
AcDbPoint
 10
0
 20
2.58
  0
POINT
  5
1D9
100
AcDbEntity
  8
const_spacial
  6
ByLayer
 62
  256
370
   -1
100
AcDbPoint
 10
0
 20
2.58
  0
POINT
  5
1DA
100
AcDbEntity
  8
const_spacial
  6
ByLayer
 62
  256
370
   -1
100
AcDbPoint
 10
0
 20
2.58
  0
POINT
  5
1DB
100
AcDbEntity
  8
const_spacial
  6
ByLayer
 62
  256
370
   -1
100
AcDbPoint
 10
0
 20
2.58
  0
LINE
  5
1DC
100
AcDbEntity
  8
0
  6
ByLayer
 62
  256
370
   -1
100
AcDbLine
 10
0.09
 20
4.28
 11
0.08999999999999998
 21
3.043
  0
LINE
  5
1DD
100
AcDbEntity
  8
0
  6
ByLayer
 62
  256
370
   -1
100
AcDbLine
 10
5.5292802981503e-17
 20
3.043
 11
0.08999999999999998
 21
3.043
  0
LINE
  5
1DE
100
AcDbEntity
  8
0
  6
ByLayer
 62
  256
370
   -1
100
AcDbLine
 10
0.09
 20
0
 11
0.09
 21
1.237
  0
LINE
  5
1DF
100
AcDbEntity
  8
0
  6
ByLayer
 62
  256
370
   -1
100
AcDbLine
 10
-1.65878408944509e-16
 20
1.237
 11
0.09
 21
1.237
  0
DIMENSION
  5
1E0
100
AcDbEntity
  8
dimension
  6
ByLayer
 62
  256
370
   -1
100
AcDbDimension
  2
*D1
 10
-0.1125899906842674
 20
1.237
 30
0
 11
-0.2325899906842674
 21
2.14
 31
0
 70
   33
 71
    5
  3
Standard
 53
0
210
0
220
0
230
1
100
AcDbAlignedDimension
 13
0
 23
3.043
 33
0
 14
0
 24
1.237
 34
0
  0
DIMENSION
  5
1E1
100
AcDbEntity
  8
dimension
  6
ByLayer
 62
  256
370
   -1
100
AcDbDimension
  2
*D2
 10
5.136918324969701
 20
-6.29268408632889e-17
 30
0
 11
5.016918324969701
 21
1.222
 31
0
 70
   33
 71
    5
  3
Standard
 53
0
210
0
220
0
230
1
100
AcDbAlignedDimension
 13
4.88
 23
2.444
 33
0
 14
4.88
 24
0
 34
0
  0
LINE
  5
1E2
100
AcDbEntity
  8
0
  6
ByLayer
 62
  256
370
   -1
100
AcDbLine
 10
0
 20
3.043
 11
0
 21
1.237
  0
LINE
  5
1E3
100
AcDbEntity
  8
0
  6
ByLayer
 62
  256
370
   -1
100
AcDbLine
 10
4.88
 20
0
 11
4.88
 21
2.444
  0
LINE
  5
1E4
100
AcDbEntity
  8
0
  6
ByLayer
 62
  256
370
   -1
100
AcDbLine
 10
4.57
 20
4.28
 11
0.08999999999999998
 21
4.28
  0
DIMENSION
  5
1E5
100
AcDbEntity
  8
dimension
  6
ByLayer
 62
  256
370
   -1
100
AcDbDimension
  2
*D3
 10
5.136918324969709
 20
2.444
 30
0
 11
5.016918324969709
 21
3.362
 31
0
 70
   32
 71
    5
  3
Standard
 53
0
210
0
220
0
230
1
100
AcDbAlignedDimension
 13
4.57
 23
4.28
 33
0
 14
4.88
 24
2.444
 34
0
 50
90
100
AcDbRotatedDimension
  0
LINE
  5
1E6
100
AcDbEntity
  8
0
  6
ByLayer
 62
  256
370
   -1
100
AcDbLine
 10
0.09
 20
0
 11
4.88
 21
0
  0
DIMENSION
  5
1E7
100
AcDbEntity
  8
dimension
  6
ByLayer
 62
  256
370
   -1
100
AcDbDimension
  2
*D4
 10
-0.1125899906842679
 20
3.043
 30
0
 11
-0.2325899906842679
 21
3.6615
 31
0
 70
   32
 71
    5
  3
Standard
 53
0
210
0
220
0
230
1
100
AcDbAlignedDimension
 13
0.08999999999999998
 23
4.28
 33
0
 14
0.08999999999999997
 24
3.043
 34
0
 50
90
100
AcDbRotatedDimension
  0
DIMENSION
  5
1E8
100
AcDbEntity
  8
dimension
  6
ByLayer
 62
  256
370
   -1
100
AcDbDimension
  2
*D5
 10
-0.3659174697238707
 20
5.583378699726986e-17
 30
0
 11
-0.4859174697238706
 21
2.14
 31
0
 70
   32
 71
    5
  3
Standard
 53
0
210
0
220
0
230
1
100
AcDbAlignedDimension
 13
0.09
 23
4.28
 33
0
 14
0.09
 24
0
 34
0
 50
90
100
AcDbRotatedDimension
  0
LWPOLYLINE
  5
1E9
100
AcDbEntity
  8
0
  6
ByLayer
 62
  256
370
   -1
100
AcDbPolyline
 90
    4
 70
    1
 43
0
 10
1.57
 20
4.16
 10
2.842
 20
4.16
 10
2.842
 20
4.11
 10
1.57
 20
4.11
  0
LWPOLYLINE
  5
1EA
100
AcDbEntity
  8
0
  6
ByLayer
 62
  256
370
   -1
100
AcDbPolyline
 90
    4
 70
    1
 43
0
 10
0.742
 20
0
 10
1.669
 20
0
 10
1.669
 20
0.03
 10
0.742
 20
0.03
  0
LWPOLYLINE
  5
1EB
100
AcDbEntity
  8
0
  6
ByLayer
 62
  256
370
   -1
100
AcDbPolyline
 90
    4
 70
    1
 43
0
 10
3.178
 20
0
 10
4.115
 20
0
 10
4.115
 20
0.03
 10
3.178
 20
0.03
  0
INSERT
  5
1EC
100
AcDbEntity
  8
0
  6
ByLayer
 62
  256
370
   -1
100
AcDbBlockReference
  2
crosshair
 10
2.485
 20
0.5800000000000001
 30
0
 41
1
 42
1
 43
0
 50
0
 70
    1
 71
    1
 44
0
 45
0
  0
INSERT
  5
1ED
100
AcDbEntity
  8
0
  6
ByLayer
 62
  256
370
   -1
100
AcDbBlockReference
  2
d2
 10
3.762715878256263
 20
4.204299522059181
 30
0
 41
13.49973447732
 42
13.49973447732
 43
0
 50
270
 70
    1
 71
    1
 44
0
 45
0
  0
INSERT
  5
1EE
100
AcDbEntity
  8
Speakers
  6
ByLayer
 62
  256
370
   -1
100
AcDbBlockReference
  2
speaker
 10
0.669453
 20
4.28
 30
0
 41
1
 42
1
 43
0
 50
180
 70
    1
 71
    1
 44
1
 45
1
  0
INSERT
  5
1EF
100
AcDbEntity
  8
Speakers
  6
ByLayer
 62
  256
370
   -1
100
AcDbBlockReference
  2
speaker
 10
4.88
 20
0.400526
 30
0
 41
1
 42
1
 43
0
 50
90
 70
    1
 71
    1
 44
1
 45
1
  0
INSERT
  5
1F0
100
AcDbEntity
  8
Speakers
  6
ByLayer
 62
  256
370
   -1
100
AcDbBlockReference
  2
speaker
 10
3.065
 20
0
 30
0
 41
1
 42
1
 43
0
 50
0
 70
    1
 71
    1
 44
1
 45
1
  0
INSERT
  5
1F1
100
AcDbEntity
  8
Speakers
  6
ByLayer
 62
  256
370
   -1
100
AcDbBlockReference
  2
speaker
 10
1.905
 20
0
 30
0
 41
1
 42
1
 43
0
 50
0
 70
    1
 71
    1
 44
1
 45
1
  0
INSERT
  5
1F2
100
AcDbEntity
  8
Speakers
  6
ByLayer
 62
  256
370
   -1
100
AcDbBlockReference
  2
speaker
 10
0.09
 20
0.400526
 30
0
 41
1
 42
1
 43
0
 50
270
 70
    1
 71
    1
 44
1
 45
1
  0
LINE
  5
1F3
100
AcDbEntity
  8
dimension
  6
ByLayer
 62
  256
370
   -1
100
AcDbLine
 10
0
 20
5.365187552291203
 11
4.88
 21
5.365187552291203
  0
MTEXT
  5
1F4
100
AcDbEntity
  8
dimension
  6
ByLayer
 62
  256
370
   -1
100
AcDbMText
 10
2.44
 20
5.485187552291202
 30
0
 40
0.08
 41
0.1955555555555556
 71
    5
 72
    1
  1
4.88
  7
standard
210
0
220
0
230
1
 50
0
 73
    2
 44
1
  0
SOLID
  5
1F5
100
AcDbEntity
  8
dimension
  6
ByLayer
 62
  256
370
   -1
100
AcDbTrace
 10
0
 20
5.365509690214743
 30
0
 11
0.1
 21
5.382161076525657
 31
0
 12
0.1
 22
5.34885830390383
 32
0
 13
0.1
 23
5.34885830390383
 33
0
  0
SOLID
  5
1F6
100
AcDbEntity
  8
dimension
  6
ByLayer
 62
  256
370
   -1
100
AcDbTrace
 10
4.88
 20
5.365509690214743
 30
0
 11
4.78
 21
5.34885830390383
 31
0
 12
4.78
 22
5.382161076525657
 32
0
 13
4.78
 23
5.382161076525657
 33
0
  0
LINE
  5
1F7
100
AcDbEntity
  8
dimension
  6
ByLayer
 62
  256
370
   -1
100
AcDbLine
 10
4.88
 20
2.464
 11
4.88
 21
5.465187552291202
  0
LINE
  5
1F8
100
AcDbEntity
  8
dimension
  6
ByLayer
 62
  256
370
   -1
100
AcDbLine
 10
5.651744978065035e-17
 20
3.063
 11
-1.500366314633704e-17
 21
5.465187552291202
  0
LINE
  5
1F9
100
AcDbEntity
  8
dimension
  6
ByLayer
 62
  256
370
   -1
100
AcDbLine
 10
0.09
 20
5.146559300745858
 11
4.57
 21
5.146559300745858
  0
SOLID
  5
1FA
100
AcDbEntity
  8
dimension
  6
ByLayer
 62
  256
370
   -1
100
AcDbTrace
 10
0.09
 20
5.146559300745858
 30
0
 11
0.19
 21
5.163210687056772
 31
0
 12
0.19
 22
5.129907914434945
 32
0
 13
0.19
 23
5.129907914434945
 33
0
  0
SOLID
  5
1FB
100
AcDbEntity
  8
dimension
  6
ByLayer
 62
  256
370
   -1
100
AcDbTrace
 10
4.57
 20
5.146559300745858
 30
0
 11
4.470000000000001
 21
5.129907914434945
 31
0
 12
4.470000000000001
 22
5.163210687056772
 32
0
 13
4.470000000000001
 23
5.163210687056772
 33
0
  0
MTEXT
  5
1FC
100
AcDbEntity
  8
dimension
  6
ByLayer
 62
  256
370
   -1
100
AcDbMText
 10
2.33
 20
5.266559300745858
 30
0
 40
0.08
 41
0.2044444444444445
 71
    5
 72
    1
  1
4.48
  7
standard
210
0
220
0
230
1
 50
0
 73
    2
 44
1
  0
LINE
  5
1FD
100
AcDbEntity
  8
dimension
  6
ByLayer
 62
  256
370
   -1
100
AcDbLine
 10
0.08999999999999998
 20
4.3
 11
0.09000000000000005
 21
5.246559300745858
  0
LINE
  5
1FE
100
AcDbEntity
  8
dimension
  6
ByLayer
 62
  256
370
   -1
100
AcDbLine
 10
4.57
 20
4.3
 11
4.570000000000001
 21
5.246559300745858
  0
DIMENSION
  5
1FF
100
AcDbEntity
  8
dimension
  6
ByLayer
 62
  256
370
   -1
100
AcDbDimension
  2
*D6
 10
0.09
 20
4.437902209529879
 30
0
 11
0.3797265
 21
4.557902209529879
 31
0
 70
   32
 71
    5
 72
    0
  3
Standard
 53
0
210
0
220
0
230
1
100
AcDbAlignedDimension
 13
0.669453
 23
4.28
 33
0
 14
0.08999999999999998
 24
4.28
 34
0
100
AcDbRotatedDimension
  0
DIMENSION
  5
200
100
AcDbEntity
  8
dimension
  6
ByLayer
 62
  256
370
   -1
100
AcDbDimension
  2
*D7
 10
-0.08795389429985606
 20
0.400526
 30
0
 11
-0.2079538942998561
 21
0.200263
 31
0
 70
   32
 71
    5
 72
    0
  3
Standard
 53
0
210
0
220
0
230
1
100
AcDbAlignedDimension
 13
0.09
 23
0
 33
0
 14
0.09
 24
0.400526
 34
0
 50
90
100
AcDbRotatedDimension
  0
DIMENSION
  5
201
100
AcDbEntity
  8
dimension
  6
ByLayer
 62
  256
370
   -1
100
AcDbDimension
  2
*D8
 10
1.905
 20
-0.2090789715928007
 30
0
 11
0.9975000000000001
 21
-0.0890789715928007
 31
0
 70
   32
 71
    5
 72
    0
  3
Standard
 53
0
210
0
220
0
230
1
100
AcDbAlignedDimension
 13
0.09
 23
0
 33
0
 14
1.905
 24
0
 34
0
100
AcDbRotatedDimension
  0
DIMENSION
  5
202
100
AcDbEntity
  8
dimension
  6
ByLayer
 62
  256
370
   -1
100
AcDbDimension
  2
*D9
 10
1.905
 20
-0.2090789715928007
 30
0
 11
2.485
 21
-0.0890789715928007
 31
0
 70
   32
 71
    5
 72
    0
  3
Standard
 53
0
210
0
220
0
230
1
100
AcDbAlignedDimension
 13
3.065
 23
0
 33
0
 14
1.905
 24
0
 34
0
100
AcDbRotatedDimension
  0
DIMENSION
  5
203
100
AcDbEntity
  8
dimension
  6
ByLayer
 62
  256
370
   -1
100
AcDbDimension
  2
*D10
 10
4.88
 20
-0.4342409410004322
 30
0
 11
2.485
 21
-0.3142409410004322
 31
0
 70
   32
 71
    5
 72
    0
  3
Standard
 53
0
210
0
220
0
230
1
100
AcDbAlignedDimension
 13
0.09
 23
0
 33
0
 14
4.88
 24
0
 34
0
100
AcDbRotatedDimension
  0
LINE
  5
204
100
AcDbEntity
  8
const_spacial
  6
ByLayer
 62
  256
370
   -1
100
AcDbLine
 10
2.484999999999999
 20
0.5800000000000001
 11
0.09
 21
0.5800000000000004
  0
LINE
  5
205
100
AcDbEntity
  8
const_spacial
  6
ByLayer
 62
  256
370
   -1
100
AcDbLine
 10
4.88
 20
0.5800000000000001
 11
2.485
 21
0.5800000000000001
  0
LINE
  5
206
100
AcDbEntity
  8
const_spacial
  6
ByLayer
 62
  256
370
   -1
100
AcDbLine
 10
2.485
 20
0.5800000000000001
 11
0.891463096716315
 21
0
  0
LINE
  5
207
100
AcDbEntity
  8
const_spacial
  6
ByLayer
 62
  256
370
   -1
100
AcDbLine
 10
2.485
 20
0.5800000000000001
 11
1.905
 21
0
  0
LINE
  5
208
100
AcDbEntity
  8
const_spacial
  6
ByLayer
 62
  256
370
   -1
100
AcDbLine
 10
2.485
 20
0.5800000000000001
 11
2.150136843870017
 21
0
  0
LINE
  5
209
100
AcDbEntity
  8
const_spacial
  6
ByLayer
 62
  256
370
   -1
100
AcDbLine
 10
2.484999999999999
 20
0
 11
2.484999999999999
 21
0.5800000000000001
  0
LINE
  5
20A
100
AcDbEntity
  8
const_spacial
  6
ByLayer
 62
  256
370
   -1
100
AcDbLine
 10
2.485
 20
0.5800000000000001
 11
2.819863156129983
 21
0
  0
LINE
  5
20B
100
AcDbEntity
  8
const_spacial
  6
ByLayer
 62
  256
370
   -1
100
AcDbLine
 10
2.485
 20
0.5800000000000001
 11
3.064999999999999
 21
0
  0
LINE
  5
20C
100
AcDbEntity
  8
const_spacial
  6
ByLayer
 62
  256
370
   -1
100
AcDbLine
 10
2.485
 20
0.5800000000000001
 11
4.078536903283681
 21
0
  0
LINE
  5
20D
100
AcDbEntity
  8
const_spacial
  6
ByLayer
 62
  256
370
   -1
100
AcDbLine
 10
2.485
 20
0.5800000000000001
 11
0.3488040039983886
 21
4.28
  0
LINE
  5
20E
100
AcDbEntity
  8
const_spacial
  6
ByLayer
 62
  256
370
   -1
100
AcDbLine
 10
2.485
 20
0.5800000000000001
 11
0.9901029644099166
 21
4.28
  0
LINE
  5
20F
100
AcDbEntity
  8
const_spacial
  6
ByLayer
 62
  256
370
   -1
100
AcDbLine
 10
2.485
 20
0.5800000000000001
 11
2.485
 21
4.28
  0
LINE
  5
210
100
AcDbEntity
  8
const_spacial
  6
ByLayer
 62
  256
370
   -1
100
AcDbLine
 10
2.485
 20
0.5800000000000001
 11
3.979897035590082
 21
4.28
  0
LINE
  5
211
100
AcDbEntity
  8
const_spacial
  6
ByLayer
 62
  256
370
   -1
100
AcDbLine
 10
2.485
 20
0.5800000000000001
 11
4.621195996001615
 21
4.28
  0
LINE
  5
212
100
AcDbEntity
  8
0
  6
ByLayer
 62
  256
370
   -1
100
AcDbLine
 10
0.09000850361900202
 20
-4.45
 11
0.09000850361900202
 21
-2
  0
LWPOLYLINE
  5
213
100
AcDbEntity
  8
Furniture
  6
ByLayer
 62
  256
370
   -1
100
AcDbPolyline
 90
    4
 70
    1
 43
0
 10
1.672631772742538
 20
-4.450969645254784
 10
2.776631772742538
 20
-4.450969645254784
 10
2.776631772742538
 20
-3.835969645254783
 10
1.672631772742538
 20
-3.835969645254783
  0
INSERT
  5
214
100
AcDbEntity
  8
WallConnections
  6
ByLayer
 62
  256
370
   -1
100
AcDbBlockReference
  2
WallOutlet_single-gang
 10
3.294754470311202
 20
-4.090000000000001
 30
0
 41
1
 42
1
 43
0
 50
0
 70
    1
 71
    1
 44
0
 45
0
  0
INSERT
  5
215
100
AcDbEntity
  8
WallConnections
  6
ByLayer
 62
  256
370
   -1
100
AcDbBlockReference
  2
WallOutlet_single-gang
 10
0.8500085036190019
 20
-4.08
 30
0
 41
1
 42
1
 43
0
 50
0
 70
    1
 71
    1
 44
1
 45
1
  0
LINE
  5
216
100
AcDbEntity
  8
Studs
  6
ByLayer
 62
  256
370
   -1
100
AcDbLine
 10
0.348008503619002
 20
-4.45
 11
0.348008503619002
 21
-2
  0
LINE
  5
217
100
AcDbEntity
  8
Studs
  6
ByLayer
 62
  256
370
   -1
100
AcDbLine
 10
0.403008503619002
 20
-4.45
 11
0.403008503619002
 21
-2
  0
LINE
  5
218
100
AcDbEntity
  8
Studs
  6
ByLayer
 62
  256
370
   -1
100
AcDbLine
 10
0.819008503619002
 20
-4.45
 11
0.819008503619002
 21
-2
  0
LINE
  5
219
100
AcDbEntity
  8
Studs
  6
ByLayer
 62
  256
370
   -1
100
AcDbLine
 10
0.7730085036190021
 20
-4.45
 11
0.7730085036190021
 21
-2
  0
LINE
  5
21A
100
AcDbEntity
  8
Studs
  6
ByLayer
 62
  256
370
   -1
100
AcDbLine
 10
1.631008503619002
 20
-4.45
 11
1.631008503619002
 21
-2
  0
LINE
  5
21B
100
AcDbEntity
  8
Studs
  6
ByLayer
 62
  256
370
   -1
100
AcDbLine
 10
1.591008503619002
 20
-4.45
 11
1.591008503619002
 21
-2
  0
LINE
  5
21C
100
AcDbEntity
  8
Studs
  6
ByLayer
 62
  256
370
   -1
100
AcDbLine
 10
1.251008503619002
 20
-4.45
 11
1.251008503619002
 21
-2
  0
LINE
  5
21D
100
AcDbEntity
  8
Studs
  6
ByLayer
 62
  256
370
   -1
100
AcDbLine
 10
1.194008503619002
 20
-4.45
 11
1.194008503619002
 21
-2
  0
LINE
  5
21E
100
AcDbEntity
  8
Studs
  6
ByLayer
 62
  256
370
   -1
100
AcDbLine
 10
1.986008503619002
 20
-4.450000000000001
 11
1.986008503619002
 21
-2
  0
LINE
  5
21F
100
AcDbEntity
  8
Studs
  6
ByLayer
 62
  256
370
   -1
100
AcDbLine
 10
1.955008503619002
 20
-4.450000000000001
 11
1.955008503619002
 21
-2
  0
LINE
  5
220
100
AcDbEntity
  8
Studs
  6
ByLayer
 62
  256
370
   -1
100
AcDbLine
 10
2.451008503619002
 20
-4.450000000000001
 11
2.451008503619002
 21
-2
  0
LINE
  5
221
100
AcDbEntity
  8
Studs
  6
ByLayer
 62
  256
370
   -1
100
AcDbLine
 10
2.391008503619002
 20
-4.450000000000001
 11
2.391008503619002
 21
-2
  0
LINE
  5
222
100
AcDbEntity
  8
Studs
  6
ByLayer
 62
  256
370
   -1
100
AcDbLine
 10
2.858008503619002
 20
-4.450000000000001
 11
2.858008503619002
 21
-2.000000000000001
  0
LINE
  5
223
100
AcDbEntity
  8
Studs
  6
ByLayer
 62
  256
370
   -1
100
AcDbLine
 10
2.810008503619002
 20
-4.450000000000001
 11
2.810008503619002
 21
-2.000000000000001
  0
LINE
  5
224
100
AcDbEntity
  8
Studs
  6
ByLayer
 62
  256
370
   -1
100
AcDbLine
 10
3.259008503619002
 20
-4.450000000000001
 11
3.259008503619002
 21
-2.000000000000001
  0
LINE
  5
225
100
AcDbEntity
  8
Studs
  6
ByLayer
 62
  256
370
   -1
100
AcDbLine
 10
3.167008503619002
 20
-4.450000000000001
 11
3.167008503619002
 21
-2.000000000000001
  0
LINE
  5
226
100
AcDbEntity
  8
Studs
  6
ByLayer
 62
  256
370
   -1
100
AcDbLine
 10
3.664008503619002
 20
-4.450000000000001
 11
3.664008503619002
 21
-2.000000000000001
  0
LINE
  5
227
100
AcDbEntity
  8
Studs
  6
ByLayer
 62
  256
370
   -1
100
AcDbLine
 10
3.610008503619002
 20
-4.450000000000001
 11
3.610008503619002
 21
-2.000000000000001
  0
LINE
  5
228
100
AcDbEntity
  8
Studs
  6
ByLayer
 62
  256
370
   -1
100
AcDbLine
 10
4.073008503619002
 20
-4.450000000000001
 11
4.073008503619002
 21
-2.000000000000001
  0
LINE
  5
229
100
AcDbEntity
  8
Studs
  6
ByLayer
 62
  256
370
   -1
100
AcDbLine
 10
4.014008503619002
 20
-4.450000000000001
 11
4.014008503619002
 21
-2.000000000000001
  0
LINE
  5
22A
100
AcDbEntity
  8
Studs
  6
ByLayer
 62
  256
370
   -1
100
AcDbLine
 10
4.370008503619002
 20
-4.450000000000001
 11
4.370008503619002
 21
-2.000000000000001
  0
LINE
  5
22B
100
AcDbEntity
  8
Studs
  6
ByLayer
 62
  256
370
   -1
100
AcDbLine
 10
4.304008503619002
 20
-4.450000000000001
 11
4.304008503619002
 21
-2.000000000000001
  0
LINE
  5
22C
100
AcDbEntity
  8
0
  6
ByLayer
 62
  256
370
   -1
100
AcDbLine
 10
4.570008503619002
 20
-2
 11
4.570008503619002
 21
-4.45
  0
LINE
  5
22D
100
AcDbEntity
  8
0
  6
ByLayer
 62
  256
370
   -1
100
AcDbLine
 10
0.08999999999999987
 20
-2
 11
4.570008503619002
 21
-2
  0
LINE
  5
22E
100
AcDbEntity
  8
0
  6
ByLayer
 62
  256
370
   -1
100
AcDbLine
 10
4.570008503619002
 20
-4.45
 11
0.08999999999999972
 21
-4.45
  0
DIMENSION
  5
22F
100
AcDbEntity
  8
dimension
  6
ByLayer
 62
  256
370
   -1
100
AcDbDimension
  2
*D11
 10
5.367873744009569
 20
-4.45
 30
0
 11
5.247873744009569
 21
-3.225
 31
0
 70
   32
 71
    5
 72
    0
  3
Standard
 53
0
210
0
220
0
230
1
100
AcDbAlignedDimension
 13
4.570008503619002
 23
-2
 33
0
 14
4.570008503619002
 24
-4.45
 34
0
 50
90
100
AcDbRotatedDimension
  0
DIMENSION
  5
230
100
AcDbEntity
  8
dimension
  6
ByLayer
 62
  256
370
   -1
100
AcDbDimension
  2
*D12
 10
3.06592333461317
 20
-4.45
 30
0
 11
2.94592333461317
 21
-3.883
 31
0
 70
   32
 71
    5
 72
    0
  3
Standard
 53
0
210
0
220
0
230
1
100
AcDbAlignedDimension
 13
2.824008503619002
 23
-3.315999999999999
 33
0
 14
2.824008503619002
 24
-4.45
 34
0
 50
90
100
AcDbRotatedDimension
  0
LINE
  5
231
100
AcDbEntity
  8
dimension
  6
ByLayer
 62
  256
370
   -1
100
AcDbLine
 10
2.188008503619002
 20
-2.931999999999999
 11
2.188008503619002
 21
-3.7
  0
LINE
  5
232
100
AcDbEntity
  8
dimension
  6
ByLayer
 62
  256
370
   -1
100
AcDbLine
 10
2.824008503619002
 20
-3.315999999999999
 11
1.552008503619002
 21
-3.315999999999999
  0
INSERT
  5
233
100
AcDbEntity
  8
dimension
  6
ByLayer
 62
  256
370
   -1
100
AcDbBlockReference
  2
WallOutlet_single-gang
 10
2.488006454002279
 20
-4.094213330724407
 30
0
 41
1
 42
1
 43
0
 50
0
 70
    1
 71
    1
 44
0
 45
0
  0
INSERT
  5
234
100
AcDbEntity
  8
WallConnections
  6
ByLayer
 62
  256
370
   -1
100
AcDbBlockReference
  2
WallOutlet_single-gang
 10
2.486008503619002
 20
-3.527567495220759
 30
0
 41
1
 42
1
 43
0
 50
0
 70
    1
 71
    1
 44
1
 45
1
  0
INSERT
  5
235
100
AcDbEntity
  8
WallConnections
  6
ByLayer
 62
  256
370
   -1
100
AcDbBlockReference
  2
WalPlate_triple-gang
 10
2.187287702817217
 20
-4.146660044368325
 30
0
 41
1
 42
1
 43
0
 50
0
 70
    1
 71
    1
 44
0
 45
0
  0
INSERT
  5
236
100
AcDbEntity
  8
const_tmp
  6
ByLayer
 62
  256
370
   -1
100
AcDbBlockReference
  2
Wall_Plate_single-gang
 10
1.5278847924091
 20
-4.137127492542191
 30
0
 41
1
 42
1
 43
0
 50
0
 70
    1
 71
    1
 44
1
 45
1
  0
INSERT
  5
237
100
AcDbEntity
  8
dimension
  6
ByLayer
 62
  256
370
   -1
100
AcDbBlockReference
  2
1WallPlate_single-gang
 10
0.6689999999999997
 20
-2.816
 30
0
 41
1
 42
1
 43
0
 50
0
 70
    1
 71
    1
 44
1
 45
1
  0
LWPOLYLINE
  5
238
100
AcDbEntity
  8
Equipment
  6
ByLayer
 62
  256
370
   -1
100
AcDbPolyline
 90
    6
 70
    1
 43
0
 10
1.552008503619002
 20
-3.7
 10
2.824008503619002
 20
-3.7
 10
2.824008503619002
 20
-2.931999999999999
 10
1.552008503619002
 20
-2.931999999999999
 10
1.552008503619002
 20
-2.931999999999999
 10
1.552008503619002
 20
-2.931999999999999
  0
LWPOLYLINE
  5
239
100
AcDbEntity
  8
Equipment
  6
ByLayer
 62
  256
370
   -1
100
AcDbPolyline
 90
    5
 70
    1
 43
0
 10
1.939008503619002
 20
-3.438499999999999
 10
2.437008503619002
 20
-3.438499999999999
 10
2.437008503619002
 20
-3.193499999999999
 10
1.939008503619002
 20
-3.193499999999999
 10
1.939008503619002
 20
-3.193499999999999
  0
INSERT
  5
23A
100
AcDbEntity
  8
WallConnections
  6
ByLayer
 62
  256
370
   -1
100
AcDbBlockReference
  2
WalPlate_double-gang
 10
2.030835241057604
 20
-3.584849569943289
 30
0
 41
1
 42
1
 43
0
 50
0
 70
    1
 71
    1
 44
0
 45
0
  0
INSERT
  5
23B
100
AcDbEntity
  8
WallConnections
  6
ByLayer
 62
  256
370
   -1
100
AcDbBlockReference
  2
WalPlate_double-gang
 10
4.417000000000001
 20
-3.24
 30
0
 41
1
 42
1
 43
0
 50
0
 70
    1
 71
    1
 44
1
 45
1
  0
DIMENSION
  5
23C
100
AcDbEntity
  8
dimension
  6
ByLayer
 62
  256
370
   -1
100
AcDbDimension
  2
*D13
 10
4.993214591995702
 20
-3.24
 30
0
 11
4.873214591995702
 21
-2.62
 31
0
 70
   32
 71
    5
  3
Standard
 53
0
210
0
220
0
230
1
100
AcDbAlignedDimension
 13
4.570008503619002
 23
-2
 33
0
 14
4.479500000000001
 24
-3.24
 34
0
 50
90
100
AcDbRotatedDimension
  0
DIMENSION
  5
23D
100
AcDbEntity
  8
dimension
  6
ByLayer
 62
  256
370
   -1
100
AcDbDimension
  2
*D14
 10
0.01725256621032142
 20
-4.45
 30
0
 11
-0.1027474337896786
 21
-4.265000000000001
 31
0
 70
   32
 71
    5
  3
Standard
 53
0
210
0
220
0
230
1
100
AcDbAlignedDimension
 13
0.8150085036190019
 23
-4.08
 33
0
 14
0.09000850361900202
 24
-4.45
 34
0
 50
90
100
AcDbRotatedDimension
  0
INSERT
  5
23E
100
AcDbEntity
  8
WallConnections
  6
ByLayer
 62
  256
370
   -1
100
AcDbBlockReference
  2
WalPlate_double-gang
 10
2.093335241057604
 20
-4.084160044368325
 30
0
 41
1
 42
1
 43
0
 50
0
 70
    1
 71
    1
 44
0
 45
0
  0
DIMENSION
  5
23F
100
AcDbEntity
  8
dimension
  6
ByLayer
 62
  256
370
   -1
100
AcDbDimension
  2
*D15
 10
0.09000850361900203
 20
-1.885349069008979
 30
0
 11
0.3795042518095008
 21
-1.765349069008979
 31
0
 70
   32
 71
    5
  3
Standard
 53
0
210
0
220
0
230
1
100
AcDbAlignedDimension
 13
0.6689999999999997
 23
-2.759
 33
0
 14
0.09000850361900202
 24
-2
 34
0
100
AcDbRotatedDimension
  0
DIMENSION
  5
240
100
AcDbEntity
  8
dimension
  6
ByLayer
 62
  256
370
   -1
100
AcDbDimension
  2
*D16
 10
0.09000850361900203
 20
-1.692597726490489
 30
0
 11
1.139682608162652
 21
-1.57259772649049
 31
0
 70
   32
 71
    5
  3
Standard
 53
0
210
0
220
0
230
1
100
AcDbAlignedDimension
 13
2.189356712706302
 23
-2.760064375579426
 33
0
 14
0.09000850361900202
 24
-2
 34
0
100
AcDbRotatedDimension
  0
DIMENSION
  5
241
100
AcDbEntity
  8
dimension
  6
ByLayer
 62
  256
370
   -1
100
AcDbDimension
  2
*D17
 10
4.800713124601139
 20
-1.240836767462779
 30
0
 11
2.330008503619002
 21
-1.120836767462779
 31
0
 70
   32
 71
    5
 72
    0
  3
Standard
 53
0
210
0
220
0
230
1
100
AcDbAlignedDimension
 13
0.09000850361900202
 23
-2
 33
0
 14
4.570008503619002
 24
-2
 34
0
100
AcDbRotatedDimension
  0
INSERT
  5
242
100
AcDbEntity
  8
dimension
  6
ByLayer
 62
  256
370
   -1
100
AcDbBlockReference
  2
speaker
 10
2.188
 20
4.28
 30
0
 41
1
 42
1
 43
0
 50
180
 70
    1
 71
    1
 44
1
 45
1
  0
DIMENSION
  5
243
100
AcDbEntity
  8
dimension
  6
ByLayer
 62
  256
370
   -1
100
AcDbDimension
  2
*D18
 10
2.485
 20
4.648991555849534
 30
0
 11
1.139
 21
4.768991555849534
 31
0
 70
   32
 71
    5
 72
    0
  3
Standard
 53
0
210
0
220
0
230
1
100
AcDbAlignedDimension
 13
0.08999999999999998
 23
4.28
 33
0
 14
2.188
 24
4.28
 34
0
100
AcDbRotatedDimension
  0
DIMENSION
  5
244
100
AcDbEntity
  8
dimension
  6
ByLayer
 62
  256
370
   -1
100
AcDbDimension
  2
*D19
 10
4.30055
 20
4.860080902169188
 30
0
 11
1.898448517795041
 21
4.980080902169188
 31
0
 70
   32
 71
    5
 72
    0
  3
Standard
 53
0
210
0
220
0
230
1
100
AcDbAlignedDimension
 13
0.08999999999999998
 23
4.28
 33
0
 14
3.706897035590081
 24
4.28
 34
0
100
AcDbRotatedDimension
  0
INSERT
  5
245
100
AcDbEntity
  8
dimension
  6
ByLayer
 62
  256
370
   -1
100
AcDbBlockReference
  2
speaker
 10
3.706897035590081
 20
4.28
 30
0
 41
1
 42
1
 43
0
 50
180
 70
    1
 71
    1
 44
1
 45
1
  0
LINE
  5
246
100
AcDbEntity
  8
const_tmp
  6
ByLayer
 62
  256
370
   -1
100
AcDbLine
 10
3.706897035590083
 20
14.28
 11
3.706897035590079
 21
-5.72
  0
LINE
  5
247
100
AcDbEntity
  8
const_tmp
  6
ByLayer
 62
  256
370
   -1
100
AcDbLine
 10
2.188000000000001
 20
14.28
 11
2.187999999999998
 21
-5.72
  0
LINE
  5
248
100
AcDbEntity
  8
const_tmp
  6
ByLayer
 62
  256
370
   -1
100
AcDbLine
 10
0.6694530000000019
 20
14.28
 11
0.6694529999999981
 21
-5.72
  0
INSERT
  5
249
100
AcDbEntity
  8
WallConnections
  6
ByLayer
 62
  256
370
   -1
100
AcDbBlockReference
  2
1WallPlate_single-gang
 10
3.710780462544417
 20
-2.816
 30
0
 41
1
 42
1
 43
0
 50
0
 70
    1
 71
    1
 44
1
 45
1
  0
LINE
  5
24A
100
AcDbEntity
  8
const_tmp
  6
ByLayer
 62
  256
370
   -1
100
AcDbLine
 10
0.6676051742346824
 20
-2.814202661480236
 11
10.66760517423468
 21
-2.814202661480236
  0
INSERT
  5
24B
100
AcDbEntity
  8
WallConnections
  6
ByLayer
 62
  256
370
   -1
100
AcDbBlockReference
  2
1WallPlate_single-gang
 10
2.186594475161909
 20
-2.814202661480236
 30
0
 41
1
 42
1
 43
0
 50
0
 70
    1
 71
    1
 44
1
 45
1
  0
DIMENSION
  5
24C
100
AcDbEntity
  8
dimension
  6
ByLayer
 62
  256
370
   -1
100
AcDbDimension
  2
*D20
 10
4.772966712170096
 20
-2.01568629258118
 30
0
 11
4.652966712170096
 21
-2.408
 31
0
 70
   32
 71
    5
  3
Standard
 53
0
210
0
220
0
230
1
100
AcDbAlignedDimension
 13
3.745780462544417
 23
-2.816
 33
0
 14
4.570008503619002
 24
-2
 34
0
 50
90
100
AcDbRotatedDimension
  0
DIMENSION
  5
24D
100
AcDbEntity
  8
dimension
  6
ByLayer
 62
  256
370
   -1
100
AcDbDimension
  2
*D21
 10
0.09000850361900205
 20
-1.487799425064594
 30
0
 11
1.900394483081709
 21
-1.367799425064594
 31
0
 70
   32
 71
    5
  3
Standard
 53
0
210
0
220
0
230
1
100
AcDbAlignedDimension
 13
3.710780462544417
 23
-2.759
 33
0
 14
0.09000850361900202
 24
-2
 34
0
100
AcDbRotatedDimension
  0
LWPOLYLINE
  5
24E
100
AcDbEntity
  8
0
  6
DASHED
 62
  256
370
   -1
100
AcDbPolyline
 90
    5
 70
    1
 43
0
 10
4.570008503619002
 20
-4.45
 10
3.802008503619002
 20
-4.45
 10
3.802008503619002
 20
-2.409
 10
4.570008503619002
 20
-2.409
 10
4.570008503619002
 20
-2.409
  0
LINE
  5
24F
100
AcDbEntity
  8
const_spacial
  6
ByLayer
 62
  256
370
   -1
100
AcDbLine
 10
0.09000850361900202
 20
-2.846521730880642
 11
4.570008503619002
 21
-2.846521730880642
  0
INSERT
  5
250
100
AcDbEntity
  8
const_spacial
  6
ByLayer
 62
  256
370
   -1
100
AcDbBlockReference
  2
Spkr_800_FrontElev
 10
0.6680162909388513
 20
-2.554021730880642
 30
0
 41
1
 42
1
 43
0
 50
0
 70
    1
 71
    1
 44
0
 45
0
  0
INSERT
  5
251
100
AcDbEntity
  8
const_spacial
  6
ByLayer
 62
  256
370
   -1
100
AcDbBlockReference
  2
Spkr_800_FrontElev
 10
3.709796753483269
 20
-2.554021730880642
 30
0
 41
1
 42
1
 43
0
 50
0
 70
    1
 71
    1
 44
0
 45
0
  0
INSERT
  5
252
100
AcDbEntity
  8
Speakers
  6
ByLayer
 62
  256
370
   -1
100
AcDbBlockReference
  2
Pro1000_Center_Speaker_FrontElev
 10
2.188015276159929
 20
-2.785021730880642
 30
0
 41
1
 42
1
 43
0
 50
0
 70
    1
 71
    1
 44
0
 45
0
  0
DIMENSION
  5
253
100
AcDbEntity
  8
const_spacial
  6
ByLayer
 62
  256
370
   -1
100
AcDbDimension
  2
*D22
 10
-0.005956609312120748
 20
-2
 30
0
 11
-0.1259566093121208
 21
-2.423260865440321
 31
0
 70
   32
 71
    5
  3
Standard
 53
0
210
0
220
0
230
1
100
AcDbAlignedDimension
 13
0.09000850361900202
 23
-2.846521730880642
 33
0
 14
0.09000850361900202
 24
-2
 34
0
 50
90
100
AcDbRotatedDimension
  0
CIRCLE
  5
254
100
AcDbEntity
  8
Speakers
  6
ByLayer
 62
  256
370
   -1
100
AcDbCircle
 10
5836665117072.964
 20
-3.41287679171793
 40
5836665117072.246
  0
INSERT
  5
255
100
AcDbEntity
  8
Speakers
  6
ByLayer
 62
  256
370
   -1
100
AcDbBlockReference
  2
SpeakerMount
 10
0.6680162909388508
 20
-2.846521730880642
 30
0
 41
1
 42
1
 43
0
 50
0
 70
    1
 71
    1
 44
0
 45
0
  0
INSERT
  5
256
100
AcDbEntity
  8
Speakers
  6
ByLayer
 62
  256
370
   -1
100
AcDbBlockReference
  2
SpeakerMount
 10
3.709796753483268
 20
-2.846521730880642
 30
0
 41
1
 42
1
 43
0
 50
0
 70
    1
 71
    1
 44
0
 45
0
  0
ARC
  5
257
100
AcDbEntity
  8
Speakers
  6
ByLayer
 62
  256
370
   -1
100
AcDbCircle
 10
2.415966389169625
 20
-2.828881054964195
 40
0.1205681818181822
100
AcDbArc
 50
90.0000000000002
 51
107.3727091624736
  0
ARC
  5
258
100
AcDbEntity
  8
Speakers
  6
ByLayer
 62
  256
370
   -1
100
AcDbCircle
 10
2.415966389169625
 20
-2.638744691327828
 40
0.1205681818181845
100
AcDbArc
 50
252.6272908375282
 51
269.9999999999998
  0
ARC
  5
259
100
AcDbEntity
  8
Speakers
  6
ByLayer
 62
  256
370
   -1
100
AcDbCircle
 10
2.415966389169625
 20
-2.638744691327828
 40
0.1205681818181845
100
AcDbArc
 50
269.9999999999998
 51
287.3727091624722
  0
ARC
  5
25A
100
AcDbEntity
  8
Speakers
  6
ByLayer
 62
  256
370
   -1
100
AcDbCircle
 10
2.415966389169625
 20
-2.828881054964195
 40
0.1205681818181822
100
AcDbArc
 50
72.62729083752706
 51
90.0000000000002
  0
LINE
  5
25B
100
AcDbEntity
  8
Speakers
  6
ByLayer
 62
  256
370
   -1
100
AcDbLine
 10
2.451966389169625
 20
-2.75381287314602
 11
2.451966389169625
 21
-2.713812873146011
  0
LINE
  5
25C
100
AcDbEntity
  8
Speakers
  6
ByLayer
 62
  256
370
   -1
100
AcDbLine
 10
2.379966389169625
 20
-2.713812873146013
 11
2.379966389169625
 21
-2.753812873146002
  0
CIRCLE
  5
25D
100
AcDbEntity
  8
Speakers
  6
ByLayer
 62
  256
370
   -1
100
AcDbCircle
 10
2.387466389169625
 20
-2.733812873146012
 40
0.002555
  0
CIRCLE
  5
25E
100
AcDbEntity
  8
Speakers
  6
ByLayer
 62
  256
370
   -1
100
AcDbCircle
 10
2.444466389169625
 20
-2.733812873146012
 40
0.002555
  0
LINE
  5
25F
100
AcDbEntity
  8
Speakers
  6
ByLayer
 62
  256
370
   -1
100
AcDbLine
 10
2.415966389169625
 20
-2.759312873146012
 11
2.415966389169625
 21
-2.708312873146012
  0
ENDSEC
  0
SECTION
  2
OBJECTS
  0
DICTIONARY
  5
C
330
0
100
AcDbDictionary
281
    1
  3
ACAD_GROUP
350
D
  0
DICTIONARY
  5
D
330
C
100
AcDbDictionary
281
    1
  0
ENDSEC
  0
EOF
