  0
SECTION
  2
HEADER
  9
$ACADVER
  1
AC1021
  9
$ACADMAINTVER
 70
    25
  9
$DWGCODEPAGE
  3
ANSI_1252
  9
$INSBASE
 10
0.0
 20
0.0
 30
0.0
  9
$EXTMIN
 10
-264.2670989334583
 20
-84.26709893345833
 30
0.0
  9
$EXTMAX
 10
365.0900158983905
 20
444.0
 30
0.0
  9
$LIMMIN
 10
-264.0
 20
-84.0
  9
$LIMMAX
 10
364.8229169649321
 20
444.0
  9
$ORTHOMODE
 70
     0
  9
$REGENMODE
 70
     1
  9
$FILLMODE
 70
     1
  9
$QTEXTMODE
 70
     0
  9
$MIRRTEXT
 70
     0
  9
$LTSCALE
 40
1.0
  9
$ATTMODE
 70
     0
  9
$TEXTSIZE
 40
2.5
  9
$TRACEWID
 40
15.68
  9
$TEXTSTYLE
  7
Standard
  9
$CLAYER
  8
0
  9
$CELTYPE
  6
ByLayer
  9
$CECOLOR
 62
   256
  9
$CELTSCALE
 40
1.0
  9
$DISPSILH
 70
     0
  9
$DIMSCALE
 40
1.0
  9
$DIMASZ
 40
2.0
  9
$DIMEXO
 40
0.625
  9
$DIMDLI
 40
0.38
  9
$DIMRND
 40
0.0
  9
$DIMDLE
 40
0.0
  9
$DIMEXE
 40
0.00410105
  9
$DIMTP
 40
0.0
  9
$DIMTM
 40
0.0
  9
$DIMTXT
 40
2.5
  9
$DIMCEN
 40
0.09
  9
$DIMTSZ
 40
0.0
  9
$DIMTOL
 70
     0
  9
$DIMLIM
 70
     0
  9
$DIMTIH
 70
     0
  9
$DIMTOH
 70
     1
  9
$DIMSE1
 70
     0
  9
$DIMSE2
 70
     0
  9
$DIMTAD
 70
     0
  9
$DIMZIN
 70
     1
  9
$DIMBLK
  1

  9
$DIMASO
 70
     1
  9
$DIMSHO
 70
     1
  9
$DIMPOST
  1
 mm
  9
$DIMAPOST
  1

  9
$DIMALT
 70
     0
  9
$DIMALTD
 70
     2
  9
$DIMALTF
 40
25.4
  9
$DIMLFAC
 40
1.0
  9
$DIMTOFL
 70
     0
  9
$DIMTVP
 40
0.0
  9
$DIMTIX
 70
     0
  9
$DIMSOXD
 70
     0
  9
$DIMSAH
 70
     0
  9
$DIMBLK1
  1

  9
$DIMBLK2
  1

  9
$DIMSTYLE
  2
Standard
  9
$DIMCLRD
 70
     0
  9
$DIMCLRE
 70
     0
  9
$DIMCLRT
 70
     0
  9
$DIMTFAC
 40
1.0
  9
$DIMGAP
 40
0.625
  9
$DIMJUST
 70
     0
  9
$DIMSD1
 70
     0
  9
$DIMSD2
 70
     0
  9
$DIMTOLJ
 70
     1
  9
$DIMTZIN
 70
     0
  9
$DIMALTZ
 70
     0
  9
$DIMALTTZ
 70
     0
  9
$DIMUPT
 70
     0
  9
$DIMDEC
 70
     4
  9
$DIMTDEC
 70
     4
  9
$DIMALTU
 70
     2
  9
$DIMALTTD
 70
     2
  9
$DIMTXSTY
  7
Standard
  9
$DIMAUNIT
 70
     0
  9
$DIMADEC
 70
     2
  9
$DIMALTRND
 40
0.0
  9
$DIMAZIN
 70
     0
  9
$DIMDSEP
 70
     0
  9
$DIMATFIT
 70
     3
  9
$DIMFRAC
 70
     0
  9
$DIMLDRBLK
  1

  9
$DIMLUNIT
 70
     4
  9
$DIMLWD
 70
    -2
  9
$DIMLWE
 70
    -2
  9
$DIMTMOVE
 70
     0
  9
$DIMFXL
 40
1.0
  9
$DIMFXLON
 70
     0
  9
$DIMJOGANG
 40
0.7853981633974483
  9
$DIMTFILL
 70
     0
  9
$DIMTFILLCLR
 70
     0
  9
$DIMARCSYM
 70
     0
  9
$DIMLTYPE
  6
ByBlock
  9
$DIMLTEX1
  6
ByBlock
  9
$DIMLTEX2
  6
ByBlock
  9
$LUNITS
 70
     4
  9
$LUPREC
 70
     2
  9
$SKETCHINC
 40
1.0
  9
$FILLETRAD
 40
0.0
  9
$AUNITS
 70
     0
  9
$AUPREC
 70
     2
  9
$MENU
  1
.
  9
$ELEVATION
 40
0.0
  9
$PELEVATION
 40
0.0
  9
$THICKNESS
 40
0.0
  9
$LIMCHECK
 70
     0
  9
$CHAMFERA
 40
0.5
  9
$CHAMFERB
 40
0.5
  9
$CHAMFERC
 40
1.0
  9
$CHAMFERD
 40
0.0
  9
$SKPOLY
 70
     0
  9
$TDCREATE
 40
2458547.034395972
  9
$TDUCREATE
 40
2458546.992729306
  9
$TDUPDATE
 40
2458547.034395984
  9
$TDUUPDATE
 40
2458546.992729317
  9
$TDINDWG
 40
0.0
  9
$TDUSRTIMER
 40
0.0
  9
$USRTIMER
 70
     1
  9
$ANGBASE
 50
0.0
  9
$ANGDIR
 70
     0
  9
$PDMODE
 70
    34
  9
$PDSIZE
 40
0.0
  9
$PLINEWID
 40
0.0
  9
$SPLFRAME
 70
     0
  9
$SPLINETYPE
 70
     6
  9
$SPLINESEGS
 70
     8
  9
$HANDSEED
  5
53A
  9
$SURFTAB1
 70
     6
  9
$SURFTAB2
 70
     6
  9
$SURFTYPE
 70
     6
  9
$SURFU
 70
     6
  9
$SURFV
 70
     6
  9
$UCSBASE
  2

  9
$UCSNAME
  2

  9
$UCSORG
 10
0.0
 20
0.0
 30
0.0
  9
$UCSXDIR
 10
1.0
 20
0.0
 30
0.0
  9
$UCSYDIR
 10
0.0
 20
1.0
 30
0.0
  9
$UCSORTHOREF
  2

  9
$UCSORTHOVIEW
 70
     0
  9
$UCSORGTOP
 10
0.0
 20
0.0
 30
0.0
  9
$UCSORGBOTTOM
 10
0.0
 20
0.0
 30
0.0
  9
$UCSORGLEFT
 10
0.0
 20
0.0
 30
0.0
  9
$UCSORGRIGHT
 10
0.0
 20
0.0
 30
0.0
  9
$UCSORGFRONT
 10
0.0
 20
0.0
 30
0.0
  9
$UCSORGBACK
 10
0.0
 20
0.0
 30
0.0
  9
$PUCSBASE
  2

  9
$PUCSNAME
  2

  9
$PUCSORG
 10
0.0
 20
0.0
 30
0.0
  9
$PUCSXDIR
 10
1.0
 20
0.0
 30
0.0
  9
$PUCSYDIR
 10
0.0
 20
1.0
 30
0.0
  9
$PUCSORTHOREF
  2

  9
$PUCSORTHOVIEW
 70
     0
  9
$PUCSORGTOP
 10
0.0
 20
0.0
 30
0.0
  9
$PUCSORGBOTTOM
 10
0.0
 20
0.0
 30
0.0
  9
$PUCSORGLEFT
 10
0.0
 20
0.0
 30
0.0
  9
$PUCSORGRIGHT
 10
0.0
 20
0.0
 30
0.0
  9
$PUCSORGFRONT
 10
0.0
 20
0.0
 30
0.0
  9
$PUCSORGBACK
 10
0.0
 20
0.0
 30
0.0
  9
$USERI1
 70
     0
  9
$USERI2
 70
     0
  9
$USERI3
 70
     0
  9
$USERI4
 70
     0
  9
$USERI5
 70
     0
  9
$USERR1
 40
0.0
  9
$USERR2
 40
0.0
  9
$USERR3
 40
0.0
  9
$USERR4
 40
0.0
  9
$USERR5
 40
0.0
  9
$WORLDVIEW
 70
     1
  9
$SHADEDGE
 70
     3
  9
$SHADEDIF
 70
    70
  9
$TILEMODE
 70
     1
  9
$MAXACTVP
 70
    64
  9
$PINSBASE
 10
0.0
 20
0.0
 30
0.0
  9
$PLIMCHECK
 70
     0
  9
$PEXTMIN
 10
0.0
 20
0.0
 30
0.0
  9
$PEXTMAX
 10
8.5
 20
11.0
 30
0.0
  9
$PLIMMIN
 10
0.0
 20
0.0
  9
$PLIMMAX
 10
8.5
 20
11.0
  9
$UNITMODE
 70
     0
  9
$VISRETAIN
 70
     1
  9
$PLINEGEN
 70
     0
  9
$PSLTSCALE
 70
     1
  9
$TREEDEPTH
 70
  3020
  9
$CMLSTYLE
  2
Standard
  9
$CMLJUST
 70
     0
  9
$CMLSCALE
 40
1.0
  9
$PROXYGRAPHICS
 70
     1
  9
$MEASUREMENT
 70
     1
  9
$CELWEIGHT
370
    -1
  9
$ENDCAPS
280
     0
  9
$JOINSTYLE
280
     0
  9
$LWDISPLAY
290
     0
  9
$INSUNITS
 70
     1
  9
$HYPERLINKBASE
  1

  9
$STYLESHEET
  1

  9
$XEDIT
290
     1
  9
$CEPSNTYPE
380
     0
  9
$PSTYLEMODE
290
     1
  9
$FINGERPRINTGUID
  2
{59DF7F8C-7F30-4C89-9606-2BB6C5A12ED8}
  9
$VERSIONGUID
  2
{FAEB1C32-E019-11D5-929B-00C0DF256EC4}
  9
$EXTNAMES
290
     1
  9
$PSVPSCALE
 40
0.0
  9
$OLESTARTUP
290
     0
  9
$SORTENTS
280
   127
  9
$INDEXCTL
280
     0
  9
$HIDETEXT
280
     1
  9
$XCLIPFRAME
290
     0
  9
$HALOGAP
280
     0
  9
$OBSCOLOR
 70
   257
  9
$OBSLTYPE
280
     0
  9
$INTERSECTIONDISPLAY
280
     0
  9
$INTERSECTIONCOLOR
 70
   257
  9
$DIMASSOC
280
     2
  9
$PROJECTNAME
  1

  9
$CAMERADISPLAY
290
     0
  9
$LENSLENGTH
 40
50.0
  9
$CAMERAHEIGHT
 40
0.0
  9
$STEPSPERSEC
 40
2.0
  9
$STEPSIZE
 40
6.0
  9
$3DDWFPREC
 40
2.0
  9
$PSOLWIDTH
 40
0.25
  9
$PSOLHEIGHT
 40
4.0
  9
$LOFTANG1
 40
1.570796326794897
  9
$LOFTANG2
 40
1.570796326794897
  9
$LOFTMAG1
 40
0.0
  9
$LOFTMAG2
 40
0.0
  9
$LOFTPARAM
 70
     7
  9
$LOFTNORMALS
280
     1
  9
$LATITUDE
 40
37.795
  9
$LONGITUDE
 40
-122.394
  9
$NORTHDIRECTION
 40
0.0
  9
$TIMEZONE
 70
 -8000
  9
$LIGHTGLYPHDISPLAY
280
     1
  9
$TILEMODELIGHTSYNCH
280
     1
  9
$SOLIDHIST
280
     1
  9
$SHOWHIST
280
     1
  9
$DWFFRAME
280
     2
  9
$DGNFRAME
280
     2
  9
$REALWORLDSCALE
290
     1
  9
$INTERFERECOLOR
 62
   256
  9
$CSHADOW
280
     0
  9
$SHADOWPLANELOCATION
 40
0.0
  0
ENDSEC
  0
SECTION
  2
CLASSES
  0
CLASS
  1
ACDBDICTIONARYWDFLT
  2
AcDbDictionaryWithDefault
  3
ObjectDBX Classes
 90
        0
 91
        4
280
     0
281
     0
  0
CLASS
  1
VISUALSTYLE
  2
AcDbVisualStyle
  3
ObjectDBX Classes
 90
     4095
 91
        4
280
     0
281
     0
  0
CLASS
  1
TABLESTYLE
  2
AcDbTableStyle
  3
ObjectDBX Classes
 90
     4095
 91
        4
280
     0
281
     0
  0
CLASS
  1
TCOPTIONALDATA
  2
TcOptionalData
  3
ExTcadCustObjs|Description: TurboCAD extension data object
 90
        0
 91
        4
280
     0
281
     0
  0
CLASS
  1
SCALE
  2
AcDbScale
  3
ObjectDBX Classes
 90
     1153
 91
        4
280
     0
281
     0
  0
CLASS
  1
DICTIONARYVAR
  2
AcDbDictionaryVar
  3
ObjectDBX Classes
 90
        0
 91
        4
280
     0
281
     0
  0
CLASS
  1
CELLSTYLEMAP
  2
AcDbCellStyleMap
  3
ObjectDBX Classes
 90
     1152
 91
        4
280
     0
281
     0
  0
ENDSEC
  0
SECTION
  2
TABLES
  0
TABLE
  2
VPORT
  5
8
330
0
100
AcDbSymbolTable
 70
     1
  0
VPORT
  5
29
330
8
100
AcDbSymbolTableRecord
100
AcDbViewportTableRecord
  2
*Active
 70
     0
 10
0.0
 20
0.0
 11
1.0
 21
1.0
 12
0.0
 22
0.0
 13
0.0
 23
0.0
 14
10.0
 24
10.0
 15
10.0
 25
10.0
 16
0.0
 26
0.0
 36
1.0
 17
50.41145848246612
 27
179.8884586319327
 37
0.0
 40
538.7875443908572
 41
1.911857292759706
 42
50.0
 43
0.0
 44
0.0
 50
0.0
 51
0.0
 71
     0
 72
   100
 73
     1
 74
     3
 75
     0
 76
     1
 77
     0
 78
     0
281
     0
 65
     1
110
0.0
120
0.0
130
0.0
111
1.0
121
0.0
131
0.0
112
0.0
122
1.0
132
0.0
 79
     0
146
0.0
 60
     3
 61
     5
292
     1
282
     1
141
0.0
142
0.0
 63
   250
  0
ENDTAB
  0
TABLE
  2
LTYPE
  5
5
330
0
100
AcDbSymbolTable
 70
    36
  0
LTYPE
  5
14
330
5
100
AcDbSymbolTableRecord
100
AcDbLinetypeTableRecord
  2
ByBlock
 70
     0
  3

 72
    65
 73
     0
 40
0.0
  0
LTYPE
  5
15
330
5
100
AcDbSymbolTableRecord
100
AcDbLinetypeTableRecord
  2
ByLayer
 70
     0
  3

 72
    65
 73
     0
 40
0.0
  0
LTYPE
  5
16
330
5
100
AcDbSymbolTableRecord
100
AcDbLinetypeTableRecord
  2
Continuous
 70
     0
  3
Solid line
 72
    65
 73
     0
 40
0.0
  0
LTYPE
  5
3C
330
5
100
AcDbSymbolTableRecord
100
AcDbLinetypeTableRecord
  2
Durchgehend
 70
     0
  3
Durchgehend
 72
    65
 73
     0
 40
0.0
  0
LTYPE
  5
3D
330
5
100
AcDbSymbolTableRecord
100
AcDbLinetypeTableRecord
  2
Rand
 70
     0
  3
Rand
 72
    65
 73
     6
 40
1.75
 49
0.5
 74
     0
 49
-0.25
 74
     0
 49
0.5
 74
     0
 49
-0.25
 74
     0
 49
0.0
 74
     0
 49
-0.25
 74
     0
  0
LTYPE
  5
3E
330
5
100
AcDbSymbolTableRecord
100
AcDbLinetypeTableRecord
  2
Mitte
 70
     0
  3
Mitte
 72
    65
 73
     4
 40
2.0
 49
1.25
 74
     0
 49
-0.25
 74
     0
 49
0.25
 74
     0
 49
-0.25
 74
     0
  0
LTYPE
  5
3F
330
5
100
AcDbSymbolTableRecord
100
AcDbLinetypeTableRecord
  2
Strichpunkt
 70
     0
  3
Strichpunkt
 72
    65
 73
     4
 40
1.0
 49
0.5
 74
     0
 49
-0.25
 74
     0
 49
0.0
 74
     0
 49
-0.25
 74
     0
  0
LTYPE
  5
40
330
5
100
AcDbSymbolTableRecord
100
AcDbLinetypeTableRecord
  2
Gestrichelt
 70
     0
  3
Gestrichelt
 72
    65
 73
     2
 40
0.75
 49
0.5
 74
     0
 49
-0.25
 74
     0
  0
LTYPE
  5
41
330
5
100
AcDbSymbolTableRecord
100
AcDbLinetypeTableRecord
  2
Geteilt
 70
     0
  3
Geteilt
 72
    65
 73
     6
 40
1.25
 49
0.5
 74
     0
 49
-0.25
 74
     0
 49
0.0
 74
     0
 49
-0.25
 74
     0
 49
0.0
 74
     0
 49
-0.25
 74
     0
  0
LTYPE
  5
42
330
5
100
AcDbSymbolTableRecord
100
AcDbLinetypeTableRecord
  2
Punkt
 70
     0
  3
Punkt
 72
    65
 73
     2
 40
0.25
 49
0.0
 74
     0
 49
-0.25
 74
     0
  0
LTYPE
  5
43
330
5
100
AcDbSymbolTableRecord
100
AcDbLinetypeTableRecord
  2
Verdeckt
 70
     0
  3
Verdeckt
 72
    65
 73
     2
 40
0.375
 49
0.25
 74
     0
 49
-0.125
 74
     0
  0
LTYPE
  5
44
330
5
100
AcDbSymbolTableRecord
100
AcDbLinetypeTableRecord
  2
$INVISIBLE
 70
     0
  3
$INVISIBLE
 72
    65
 73
     2
 40
200.0
 49
-100.0
 74
     0
 49
-100.0
 74
     0
  0
LTYPE
  5
45
330
5
100
AcDbSymbolTableRecord
100
AcDbLinetypeTableRecord
  2
DOT
 70
     0
  3
DOT
 72
    65
 73
     2
 40
6.35
 49
0.0
 74
     0
 49
-6.35
 74
     0
  0
LTYPE
  5
46
330
5
100
AcDbSymbolTableRecord
100
AcDbLinetypeTableRecord
  2
DOTTINY
 70
     0
  3
DOTTINY
 72
    65
 73
     2
 40
0.9525
 49
0.0
 74
     0
 49
-0.9525
 74
     0
  0
LTYPE
  5
47
330
5
100
AcDbSymbolTableRecord
100
AcDbLinetypeTableRecord
  2
DOT2
 70
     0
  3
DOT2
 72
    65
 73
     2
 40
3.175
 49
0.0
 74
     0
 49
-3.175
 74
     0
  0
LTYPE
  5
48
330
5
100
AcDbSymbolTableRecord
100
AcDbLinetypeTableRecord
  2
DOTX2
 70
     0
  3
DOTX2
 72
    65
 73
     2
 40
12.7
 49
0.0
 74
     0
 49
-12.7
 74
     0
  0
LTYPE
  5
49
330
5
100
AcDbSymbolTableRecord
100
AcDbLinetypeTableRecord
  2
DASHED
 70
     0
  3
DASHED
 72
    65
 73
     2
 40
19.05
 49
12.7
 74
     0
 49
-6.35
 74
     0
  0
LTYPE
  5
4A
330
5
100
AcDbSymbolTableRecord
100
AcDbLinetypeTableRecord
  2
DASHEDTINY
 70
     0
  3
DASHEDTINY
 72
    65
 73
     2
 40
2.8575
 49
1.905
 74
     0
 49
-0.9525
 74
     0
  0
LTYPE
  5
4B
330
5
100
AcDbSymbolTableRecord
100
AcDbLinetypeTableRecord
  2
DASHED2
 70
     0
  3
DASHED2
 72
    65
 73
     2
 40
9.524999999999999
 49
6.35
 74
     0
 49
-3.175
 74
     0
  0
LTYPE
  5
4C
330
5
100
AcDbSymbolTableRecord
100
AcDbLinetypeTableRecord
  2
DASHEDX2
 70
     0
  3
DASHEDX2
 72
    65
 73
     2
 40
38.09999999999999
 49
25.4
 74
     0
 49
-12.7
 74
     0
  0
LTYPE
  5
4D
330
5
100
AcDbSymbolTableRecord
100
AcDbLinetypeTableRecord
  2
DASHDOT
 70
     0
  3
DASHDOT
 72
    65
 73
     4
 40
25.4
 49
12.7
 74
     0
 49
-6.35
 74
     0
 49
0.0
 74
     0
 49
-6.35
 74
     0
  0
LTYPE
  5
4E
330
5
100
AcDbSymbolTableRecord
100
AcDbLinetypeTableRecord
  2
DASHDOTTINY
 70
     0
  3
DASHDOTTINY
 72
    65
 73
     4
 40
3.81
 49
1.905
 74
     0
 49
-0.9525
 74
     0
 49
0.0
 74
     0
 49
-0.9525
 74
     0
  0
LTYPE
  5
4F
330
5
100
AcDbSymbolTableRecord
100
AcDbLinetypeTableRecord
  2
DASHDOT2
 70
     0
  3
DASHDOT2
 72
    65
 73
     4
 40
12.7
 49
6.35
 74
     0
 49
-3.175
 74
     0
 49
0.0
 74
     0
 49
-3.175
 74
     0
  0
LTYPE
  5
50
330
5
100
AcDbSymbolTableRecord
100
AcDbLinetypeTableRecord
  2
DASHDOTX2
 70
     0
  3
DASHDOTX2
 72
    65
 73
     4
 40
50.8
 49
25.4
 74
     0
 49
-12.7
 74
     0
 49
0.0
 74
     0
 49
-12.7
 74
     0
  0
LTYPE
  5
51
330
5
100
AcDbSymbolTableRecord
100
AcDbLinetypeTableRecord
  2
DIVIDE
 70
     0
  3
DIVIDE
 72
    65
 73
     6
 40
31.75
 49
12.7
 74
     0
 49
-6.35
 74
     0
 49
0.0
 74
     0
 49
-6.35
 74
     0
 49
0.0
 74
     0
 49
-6.35
 74
     0
  0
LTYPE
  5
52
330
5
100
AcDbSymbolTableRecord
100
AcDbLinetypeTableRecord
  2
DIVIDETINY
 70
     0
  3
DIVIDETINY
 72
    65
 73
     6
 40
4.7625
 49
1.905
 74
     0
 49
-0.9525
 74
     0
 49
0.0
 74
     0
 49
-0.9525
 74
     0
 49
0.0
 74
     0
 49
-0.9525
 74
     0
  0
LTYPE
  5
53
330
5
100
AcDbSymbolTableRecord
100
AcDbLinetypeTableRecord
  2
DIVIDE2
 70
     0
  3
DIVIDE2
 72
    65
 73
     6
 40
15.875
 49
6.35
 74
     0
 49
-3.175
 74
     0
 49
0.0
 74
     0
 49
-3.175
 74
     0
 49
0.0
 74
     0
 49
-3.175
 74
     0
  0
LTYPE
  5
54
330
5
100
AcDbSymbolTableRecord
100
AcDbLinetypeTableRecord
  2
DIVIDEX2
 70
     0
  3
DIVIDEX2
 72
    65
 73
     6
 40
63.5
 49
25.4
 74
     0
 49
-12.7
 74
     0
 49
0.0
 74
     0
 49
-12.7
 74
     0
 49
0.0
 74
     0
 49
-12.7
 74
     0
  0
LTYPE
  5
55
330
5
100
AcDbSymbolTableRecord
100
AcDbLinetypeTableRecord
  2
BORDER
 70
     0
  3
BORDER
 72
    65
 73
     6
 40
44.45
 49
12.7
 74
     0
 49
-6.35
 74
     0
 49
12.7
 74
     0
 49
-6.35
 74
     0
 49
0.0
 74
     0
 49
-6.35
 74
     0
  0
LTYPE
  5
56
330
5
100
AcDbSymbolTableRecord
100
AcDbLinetypeTableRecord
  2
BORDERTINY
 70
     0
  3
BORDERTINY
 72
    65
 73
     6
 40
6.6675
 49
1.905
 74
     0
 49
-0.9525
 74
     0
 49
1.905
 74
     0
 49
-0.9525
 74
     0
 49
0.0
 74
     0
 49
-0.9525
 74
     0
  0
LTYPE
  5
57
330
5
100
AcDbSymbolTableRecord
100
AcDbLinetypeTableRecord
  2
BORDER2
 70
     0
  3
BORDER2
 72
    65
 73
     6
 40
22.225
 49
6.35
 74
     0
 49
-3.175
 74
     0
 49
6.35
 74
     0
 49
-3.175
 74
     0
 49
0.0
 74
     0
 49
-3.175
 74
     0
  0
LTYPE
  5
58
330
5
100
AcDbSymbolTableRecord
100
AcDbLinetypeTableRecord
  2
BORDERX2
 70
     0
  3
BORDERX2
 72
    65
 73
     6
 40
88.89999999999999
 49
25.4
 74
     0
 49
-12.7
 74
     0
 49
25.4
 74
     0
 49
-12.7
 74
     0
 49
0.0
 74
     0
 49
-12.7
 74
     0
  0
LTYPE
  5
59
330
5
100
AcDbSymbolTableRecord
100
AcDbLinetypeTableRecord
  2
CENTER
 70
     0
  3
CENTER
 72
    65
 73
     4
 40
50.8
 49
31.75
 74
     0
 49
-6.35
 74
     0
 49
6.35
 74
     0
 49
-6.35
 74
     0
  0
LTYPE
  5
5A
330
5
100
AcDbSymbolTableRecord
100
AcDbLinetypeTableRecord
  2
CENTERTINY
 70
     0
  3
CENTERTINY
 72
    65
 73
     4
 40
7.619999999999999
 49
4.7625
 74
     0
 49
-0.9525
 74
     0
 49
0.9525
 74
     0
 49
-0.9525
 74
     0
  0
LTYPE
  5
5B
330
5
100
AcDbSymbolTableRecord
100
AcDbLinetypeTableRecord
  2
CENTER2
 70
     0
  3
CENTER2
 72
    65
 73
     4
 40
28.575
 49
19.05
 74
     0
 49
-3.175
 74
     0
 49
3.175
 74
     0
 49
-3.175
 74
     0
  0
LTYPE
  5
5C
330
5
100
AcDbSymbolTableRecord
100
AcDbLinetypeTableRecord
  2
CENTERX2
 70
     0
  3
CENTERX2
 72
    65
 73
     4
 40
101.6
 49
63.5
 74
     0
 49
-12.7
 74
     0
 49
12.7
 74
     0
 49
-12.7
 74
     0
  0
LTYPE
  5
5D
330
5
100
AcDbSymbolTableRecord
100
AcDbLinetypeTableRecord
  2
$SNAPEXT
 70
     0
  3
$SNAPEXT
 72
    65
 73
     2
 40
0.04
 49
0.02
 74
     0
 49
-0.02
 74
     0
  0
LTYPE
  5
5E
330
5
100
AcDbSymbolTableRecord
100
AcDbLinetypeTableRecord
  2
$AUXILIARY
 70
     0
  3
$AUXILIARY
 72
    65
 73
     2
 40
0.1
 49
0.05
 74
     0
 49
-0.05
 74
     0
  0
ENDTAB
  0
TABLE
  2
LAYER
  5
2
330
0
100
AcDbSymbolTable
 70
     8
  0
LAYER
  5
10
330
2
100
AcDbSymbolTableRecord
100
AcDbLayerTableRecord
  2
0
 70
     4
 62
     7
  6
Continuous
370
     0
390
F
347
0
  0
LAYER
  5
5F
330
2
100
AcDbSymbolTableRecord
100
AcDbLayerTableRecord
  2
Bathroom
 70
     4
 62
     4
420
    65535
  6
Continuous
370
    40
390
F
347
0
  0
LAYER
  5
60
330
2
100
AcDbSymbolTableRecord
100
AcDbLayerTableRecord
  2
Bedroom
 70
     4
 62
   216
420
  8388736
  6
Continuous
370
    53
390
F
347
0
  0
LAYER
  5
61
330
2
100
AcDbSymbolTableRecord
100
AcDbLayerTableRecord
  2
Dining Area_ Kitchen
 70
     0
 62
    56
420
  8421376
  6
Continuous
370
    20
390
F
347
0
  0
LAYER
  5
62
330
2
100
AcDbSymbolTableRecord
100
AcDbLayerTableRecord
  2
Entry_ Living Room
 70
     4
 62
     3
420
    65280
  6
Continuous
370
    20
390
F
347
0
  0
LAYER
  5
63
330
2
100
AcDbSymbolTableRecord
100
AcDbLayerTableRecord
  2
Perimeter
 70
     4
 62
     8
420
  8421504
  6
Continuous
370
   106
390
F
347
0
  0
LAYER
  5
64
330
2
100
AcDbSymbolTableRecord
100
AcDbLayerTableRecord
  2
Stairs
 70
     4
 62
    18
420
  5570560
  6
Continuous
370
    20
390
F
347
0
  0
LAYER
  5
145
330
2
100
AcDbSymbolTableRecord
100
AcDbLayerTableRecord
  2
Defpoints
 70
     0
 62
     7
  6
Continuous
290
     0
370
    -3
390
F
347
0
  0
ENDTAB
  0
TABLE
  2
STYLE
  5
3
330
0
100
AcDbSymbolTable
 70
     3
  0
STYLE
  5
11
330
3
100
AcDbSymbolTableRecord
100
AcDbTextStyleTableRecord
  2
Standard
 70
     0
 40
0.0
 41
1.0
 50
0.0
 71
     0
 42
1.0
  3
TXT.SHX
  4

  0
STYLE
  5
66
330
3
100
AcDbSymbolTableRecord
100
AcDbTextStyleTableRecord
  2
amiri-regular
 70
     0
 40
0.0
 41
1.0
 50
0.0
 71
     0
 42
1.0
  3
AMIRI-REGULAR.SHX
  4

  0
STYLE
  5
EC
330
3
100
AcDbSymbolTableRecord
100
AcDbTextStyleTableRecord
  2
_TCW_TXTSTY_1
 70
     0
 40
0.0
 41
1.0
 50
0.0
 71
     0
 42
2.0
  3
AMIRI-REGULAR.SHX
  4

  0
ENDTAB
  0
TABLE
  2
VIEW
  5
6
330
0
100
AcDbSymbolTable
 70
     1
  0
VIEW
  5
65
330
6
100
AcDbSymbolTableRecord
100
AcDbViewTableRecord
  2
Ansicht_0
 70
     0
 40
210.0
 10
148.5
 20
105.0
 41
297.0
 11
0.0
 21
0.0
 31
1.0
 12
0.0
 22
0.0
 32
0.0
 42
50.0
 43
0.0
 44
0.0
 50
0.0
 71
     0
281
     0
 72
     0
 73
     0
  0
ENDTAB
  0
TABLE
  2
UCS
  5
7
330
0
100
AcDbSymbolTable
 70
     0
  0
ENDTAB
  0
TABLE
  2
APPID
  5
9
330
0
100
AcDbSymbolTable
 70
     2
  0
APPID
  5
12
330
9
100
AcDbSymbolTableRecord
100
AcDbRegAppTableRecord
  2
ACAD
 70
     0
  0
APPID
  5
3B
330
9
100
AcDbSymbolTableRecord
100
AcDbRegAppTableRecord
  2
TCAD
 70
     0
  0
ENDTAB
  0
TABLE
  2
DIMSTYLE
  5
A
330
0
100
AcDbSymbolTable
 70
     1
100
AcDbDimStyleTable
  0
DIMSTYLE
105
27
102
{ACAD_REACTORS
330
144
330
165
330
1D1
330
1DF
330
1ED
330
204
330
212
330
220
330
231
330
23F
330
25C
330
26A
330
27B
330
289
330
29D
330
2AE
330
2BC
330
2CD
330
2E3
330
2F7
330
305
330
313
330
32A
330
338
330
346
330
357
330
365
330
376
330
38D
330
3AA
330
3C6
330
3D5
330
3E3
330
3F1
330
40F
330
42F
330
43D
330
45B
330
491
330
49F
330
4B9
330
4D5
330
4E3
330
4F1
330
4FF
330
50D
330
521
102
}
330
A
100
AcDbSymbolTableRecord
100
AcDbDimStyleTableRecord
  2
Standard
 70
     0
  3
 mm
 41
2.0
 42
0.625
 44
0.00410105
 73
     0
 78
     1
140
2.5
147
0.625
179
     2
277
     4
278
     0
340
11
345
14
346
14
347
14
  0
ENDTAB
  0
TABLE
  2
BLOCK_RECORD
  5
1
330
0
100
AcDbSymbolTable
 70
    62
  0
BLOCK_RECORD
  5
1F
330
1
100
AcDbSymbolTableRecord
100
AcDbBlockTableRecord
  2
*Model_Space
340
22
 70
     0
280
     1
281
     0
  0
BLOCK_RECORD
  5
1B
330
1
100
AcDbSymbolTableRecord
100
AcDbBlockTableRecord
  2
*Paper_Space
340
1E
 70
     0
280
     1
281
     0
  0
BLOCK_RECORD
  5
69
330
1
100
AcDbSymbolTableRecord
100
AcDbBlockTableRecord
  2
36_ Door
340
0
102
{BLKREFS
331
3D4
331
428
102
}
 70
     0
280
     1
281
     0
  0
BLOCK_RECORD
  5
74
330
1
100
AcDbSymbolTableRecord
100
AcDbBlockTableRecord
  2
6_ Love Seat
340
0
102
{BLKREFS
331
40B
102
}
 70
     0
280
     1
281
     0
  0
BLOCK_RECORD
  5
95
330
1
100
AcDbSymbolTableRecord
100
AcDbBlockTableRecord
  2
Couch
340
0
102
{BLKREFS
331
41D
102
}
 70
     0
280
     1
281
     0
  0
BLOCK_RECORD
  5
BC
330
1
100
AcDbSymbolTableRecord
100
AcDbBlockTableRecord
  2
Stairs
340
0
102
{BLKREFS
331
421
102
}
 70
     0
280
     1
281
     0
  0
BLOCK_RECORD
  5
E6
330
1
100
AcDbSymbolTableRecord
100
AcDbBlockTableRecord
  2
Bar Stool
340
0
102
{BLKREFS
331
2DE
331
2DF
331
2E0
331
2E1
331
44B
331
44C
331
44D
102
}
 70
     0
280
     1
281
     0
  0
BLOCK_RECORD
  5
112
330
1
100
AcDbSymbolTableRecord
100
AcDbBlockTableRecord
  2
Dining Counter
340
0
102
{BLKREFS
331
44E
102
}
 70
     0
280
     1
281
     0
  0
BLOCK_RECORD
  5
115
330
1
100
AcDbSymbolTableRecord
100
AcDbBlockTableRecord
  2
Eating Counter_ Detail
340
0
102
{BLKREFS
331
164
331
2E2
102
}
 70
     0
280
     1
281
     0
  0
BLOCK_RECORD
  5
117
330
1
100
AcDbSymbolTableRecord
100
AcDbBlockTableRecord
  2
Eating Counter Detail
340
0
102
{BLKREFS
331
143
102
}
 70
     0
280
     1
281
     0
  0
BLOCK_RECORD
  5
146
330
1
100
AcDbSymbolTableRecord
100
AcDbBlockTableRecord
  2
*D9
340
0
 70
     0
280
     1
281
     0
  0
BLOCK_RECORD
  5
166
330
1
100
AcDbSymbolTableRecord
100
AcDbBlockTableRecord
  2
*D10
340
0
 70
     0
280
     1
281
     0
  0
BLOCK_RECORD
  5
173
330
1
100
AcDbSymbolTableRecord
100
AcDbBlockTableRecord
  2
Toilet
340
0
102
{BLKREFS
331
44F
102
}
 70
     0
280
     1
281
     0
  0
BLOCK_RECORD
  5
188
330
1
100
AcDbSymbolTableRecord
100
AcDbBlockTableRecord
  2
32_ Door w_Jamb
340
0
102
{BLKREFS
331
481
331
4D3
331
4D4
102
}
 70
     0
280
     1
281
     0
  0
BLOCK_RECORD
  5
19A
330
1
100
AcDbSymbolTableRecord
100
AcDbBlockTableRecord
  2
Door Jamb & Trim
340
0
102
{BLKREFS
331
1B5
102
}
 70
     0
280
     1
281
     0
  0
BLOCK_RECORD
  5
1CB
330
1
100
AcDbSymbolTableRecord
100
AcDbBlockTableRecord
  2
Kitchen2
340
0
102
{BLKREFS
331
532
102
}
 70
     0
280
     1
281
     0
  0
BLOCK_RECORD
  5
1D2
330
1
100
AcDbSymbolTableRecord
100
AcDbBlockTableRecord
  2
*D15
340
0
 70
     0
280
     1
281
     0
  0
BLOCK_RECORD
  5
1E0
330
1
100
AcDbSymbolTableRecord
100
AcDbBlockTableRecord
  2
*D16
340
0
 70
     0
280
     1
281
     0
  0
BLOCK_RECORD
  5
1EE
330
1
100
AcDbSymbolTableRecord
100
AcDbBlockTableRecord
  2
*D17
340
0
 70
     0
280
     1
281
     0
  0
BLOCK_RECORD
  5
205
330
1
100
AcDbSymbolTableRecord
100
AcDbBlockTableRecord
  2
*D18
340
0
 70
     0
280
     1
281
     0
  0
BLOCK_RECORD
  5
213
330
1
100
AcDbSymbolTableRecord
100
AcDbBlockTableRecord
  2
*D19
340
0
 70
     0
280
     1
281
     0
  0
BLOCK_RECORD
  5
221
330
1
100
AcDbSymbolTableRecord
100
AcDbBlockTableRecord
  2
*D20
340
0
 70
     0
280
     1
281
     0
  0
BLOCK_RECORD
  5
232
330
1
100
AcDbSymbolTableRecord
100
AcDbBlockTableRecord
  2
*D21
340
0
 70
     0
280
     1
281
     0
  0
BLOCK_RECORD
  5
240
330
1
100
AcDbSymbolTableRecord
100
AcDbBlockTableRecord
  2
*D22
340
0
 70
     0
280
     1
281
     0
  0
BLOCK_RECORD
  5
259
330
1
100
AcDbSymbolTableRecord
100
AcDbBlockTableRecord
  2
Eating _ Counter
340
0
 70
     0
280
     1
281
     0
  0
BLOCK_RECORD
  5
25D
330
1
100
AcDbSymbolTableRecord
100
AcDbBlockTableRecord
  2
*D24
340
0
 70
     0
280
     1
281
     0
  0
BLOCK_RECORD
  5
26B
330
1
100
AcDbSymbolTableRecord
100
AcDbBlockTableRecord
  2
*D25
340
0
 70
     0
280
     1
281
     0
  0
BLOCK_RECORD
  5
27C
330
1
100
AcDbSymbolTableRecord
100
AcDbBlockTableRecord
  2
*D26
340
0
 70
     0
280
     1
281
     0
  0
BLOCK_RECORD
  5
28A
330
1
100
AcDbSymbolTableRecord
100
AcDbBlockTableRecord
  2
*D27
340
0
 70
     0
280
     1
281
     0
  0
BLOCK_RECORD
  5
29E
330
1
100
AcDbSymbolTableRecord
100
AcDbBlockTableRecord
  2
*D28
340
0
 70
     0
280
     1
281
     0
  0
BLOCK_RECORD
  5
2AF
330
1
100
AcDbSymbolTableRecord
100
AcDbBlockTableRecord
  2
*D29
340
0
 70
     0
280
     1
281
     0
  0
BLOCK_RECORD
  5
2BD
330
1
100
AcDbSymbolTableRecord
100
AcDbBlockTableRecord
  2
*D30
340
0
 70
     0
280
     1
281
     0
  0
BLOCK_RECORD
  5
2CE
330
1
100
AcDbSymbolTableRecord
100
AcDbBlockTableRecord
  2
*D31
340
0
 70
     0
280
     1
281
     0
  0
BLOCK_RECORD
  5
2E4
330
1
100
AcDbSymbolTableRecord
100
AcDbBlockTableRecord
  2
*D32
340
0
 70
     0
280
     1
281
     0
  0
BLOCK_RECORD
  5
2F1
330
1
100
AcDbSymbolTableRecord
100
AcDbBlockTableRecord
  2
Kitchen
340
0
 70
     0
280
     1
281
     0
  0
BLOCK_RECORD
  5
2F8
330
1
100
AcDbSymbolTableRecord
100
AcDbBlockTableRecord
  2
*D34
340
0
 70
     0
280
     1
281
     0
  0
BLOCK_RECORD
  5
306
330
1
100
AcDbSymbolTableRecord
100
AcDbBlockTableRecord
  2
*D35
340
0
 70
     0
280
     1
281
     0
  0
BLOCK_RECORD
  5
314
330
1
100
AcDbSymbolTableRecord
100
AcDbBlockTableRecord
  2
*D36
340
0
 70
     0
280
     1
281
     0
  0
BLOCK_RECORD
  5
32B
330
1
100
AcDbSymbolTableRecord
100
AcDbBlockTableRecord
  2
*D37
340
0
 70
     0
280
     1
281
     0
  0
BLOCK_RECORD
  5
339
330
1
100
AcDbSymbolTableRecord
100
AcDbBlockTableRecord
  2
*D38
340
0
 70
     0
280
     1
281
     0
  0
BLOCK_RECORD
  5
347
330
1
100
AcDbSymbolTableRecord
100
AcDbBlockTableRecord
  2
*D39
340
0
 70
     0
280
     1
281
     0
  0
BLOCK_RECORD
  5
358
330
1
100
AcDbSymbolTableRecord
100
AcDbBlockTableRecord
  2
*D40
340
0
 70
     0
280
     1
281
     0
  0
BLOCK_RECORD
  5
366
330
1
100
AcDbSymbolTableRecord
100
AcDbBlockTableRecord
  2
*D41
340
0
 70
     0
280
     1
281
     0
  0
BLOCK_RECORD
  5
377
330
1
100
AcDbSymbolTableRecord
100
AcDbBlockTableRecord
  2
*D42
340
0
 70
     0
280
     1
281
     0
  0
BLOCK_RECORD
  5
38E
330
1
100
AcDbSymbolTableRecord
100
AcDbBlockTableRecord
  2
*D43
340
0
 70
     0
280
     1
281
     0
  0
BLOCK_RECORD
  5
3AB
330
1
100
AcDbSymbolTableRecord
100
AcDbBlockTableRecord
  2
*D44
340
0
 70
     0
280
     1
281
     0
  0
BLOCK_RECORD
  5
3C7
330
1
100
AcDbSymbolTableRecord
100
AcDbBlockTableRecord
  2
*D45
340
0
 70
     0
280
     1
281
     0
  0
BLOCK_RECORD
  5
3D6
330
1
100
AcDbSymbolTableRecord
100
AcDbBlockTableRecord
  2
*D46
340
0
 70
     0
280
     1
281
     0
  0
BLOCK_RECORD
  5
3E4
330
1
100
AcDbSymbolTableRecord
100
AcDbBlockTableRecord
  2
*D47
340
0
 70
     0
280
     1
281
     0
  0
BLOCK_RECORD
  5
3F2
330
1
100
AcDbSymbolTableRecord
100
AcDbBlockTableRecord
  2
*D48
340
0
 70
     0
280
     1
281
     0
  0
BLOCK_RECORD
  5
410
330
1
100
AcDbSymbolTableRecord
100
AcDbBlockTableRecord
  2
*D49
340
0
 70
     0
280
     1
281
     0
  0
BLOCK_RECORD
  5
430
330
1
100
AcDbSymbolTableRecord
100
AcDbBlockTableRecord
  2
*D50
340
0
 70
     0
280
     1
281
     0
  0
BLOCK_RECORD
  5
43E
330
1
100
AcDbSymbolTableRecord
100
AcDbBlockTableRecord
  2
*D51
340
0
 70
     0
280
     1
281
     0
  0
BLOCK_RECORD
  5
45C
330
1
100
AcDbSymbolTableRecord
100
AcDbBlockTableRecord
  2
*D52
340
0
 70
     0
280
     1
281
     0
  0
BLOCK_RECORD
  5
492
330
1
100
AcDbSymbolTableRecord
100
AcDbBlockTableRecord
  2
*D53
340
0
 70
     0
280
     1
281
     0
  0
BLOCK_RECORD
  5
4A0
330
1
100
AcDbSymbolTableRecord
100
AcDbBlockTableRecord
  2
*D54
340
0
 70
     0
280
     1
281
     0
  0
BLOCK_RECORD
  5
4BA
330
1
100
AcDbSymbolTableRecord
100
AcDbBlockTableRecord
  2
*D55
340
0
 70
     0
280
     1
281
     0
  0
BLOCK_RECORD
  5
4D6
330
1
100
AcDbSymbolTableRecord
100
AcDbBlockTableRecord
  2
*D56
340
0
 70
     0
280
     1
281
     0
  0
BLOCK_RECORD
  5
4E4
330
1
100
AcDbSymbolTableRecord
100
AcDbBlockTableRecord
  2
*D57
340
0
 70
     0
280
     1
281
     0
  0
BLOCK_RECORD
  5
4F2
330
1
100
AcDbSymbolTableRecord
100
AcDbBlockTableRecord
  2
*D58
340
0
 70
     0
280
     1
281
     0
  0
BLOCK_RECORD
  5
500
330
1
100
AcDbSymbolTableRecord
100
AcDbBlockTableRecord
  2
*D59
340
0
 70
     0
280
     1
281
     0
  0
BLOCK_RECORD
  5
50E
330
1
100
AcDbSymbolTableRecord
100
AcDbBlockTableRecord
  2
*D60
340
0
 70
     0
280
     1
281
     0
  0
BLOCK_RECORD
  5
522
330
1
100
AcDbSymbolTableRecord
100
AcDbBlockTableRecord
  2
*D61
340
0
 70
     0
280
     1
281
     0
  0
ENDTAB
  0
ENDSEC
  0
SECTION
  2
BLOCKS
  0
BLOCK
  5
20
330
1F
100
AcDbEntity
  8
0
100
AcDbBlockBegin
  2
*Model_Space
 70
     0
 10
0.0
 20
0.0
 30
0.0
  3
*Model_Space
  1

  0
ENDBLK
  5
21
330
1F
100
AcDbEntity
  8
0
100
AcDbBlockEnd
  0
BLOCK
  5
1C
330
1B
100
AcDbEntity
 67
     1
  8
0
100
AcDbBlockBegin
  2
*Paper_Space
 70
     0
 10
0.0
 20
0.0
 30
0.0
  3
*Paper_Space
  1

  0
ENDBLK
  5
1D
330
1B
100
AcDbEntity
 67
     1
  8
0
100
AcDbBlockEnd
  0
BLOCK
  5
6A
330
69
100
AcDbEntity
  8
0
100
AcDbBlockBegin
  2
36_ Door
 70
     0
 10
0.0
 20
0.0
 30
0.0
  3
36_ Door
  1

  0
LINE
  5
6D
102
{ACAD_XDICTIONARY
360
6B
102
}
330
69
100
AcDbEntity
  8
Entry_ Living Room
100
AcDbLine
 10
0.0
 20
0.0
 30
0.0
 11
36.0
 21
0.0
 31
0.0
  0
LINE
  5
70
102
{ACAD_XDICTIONARY
360
6E
102
}
330
69
100
AcDbEntity
  8
Entry_ Living Room
100
AcDbLine
 10
36.0
 20
36.0
 30
0.0
 11
36.0
 21
0.0
 31
0.0
  0
ARC
  5
73
102
{ACAD_XDICTIONARY
360
71
102
}
330
69
100
AcDbEntity
  8
Entry_ Living Room
100
AcDbCircle
 10
36.0
 20
0.0
 30
0.0
 40
35.77708763999664
100
AcDbArc
 50
90.0
 51
180.0
  0
ENDBLK
  5
76
330
69
100
AcDbEntity
  8
0
100
AcDbBlockEnd
  0
BLOCK
  5
75
330
74
100
AcDbEntity
  8
0
100
AcDbBlockBegin
  2
6_ Love Seat
 70
     0
 10
0.0
 20
0.0
 30
0.0
  3
6_ Love Seat
  1

  0
LINE
  5
79
102
{ACAD_XDICTIONARY
360
77
102
}
330
74
100
AcDbEntity
  8
Entry_ Living Room
100
AcDbLine
 10
40.0
 20
3.999999999999996
 30
0.0
 11
40.0
 21
-6.0
 31
0.0
  0
LINE
  5
7C
102
{ACAD_XDICTIONARY
360
7A
102
}
330
74
100
AcDbEntity
  8
Entry_ Living Room
100
AcDbLine
 10
10.0
 20
-6.0
 30
0.0
 11
40.0
 21
-6.0
 31
0.0
  0
LINE
  5
7F
102
{ACAD_XDICTIONARY
360
7D
102
}
330
74
100
AcDbEntity
  8
Entry_ Living Room
100
AcDbLine
 10
0.0
 20
-68.0
 30
0.0
 11
40.0
 21
-68.0
 31
0.0
  0
LINE
  5
82
102
{ACAD_XDICTIONARY
360
80
102
}
330
74
100
AcDbEntity
  8
Entry_ Living Room
100
AcDbLine
 10
40.0
 20
-68.0
 30
0.0
 11
40.00000000000001
 21
-58.0
 31
0.0
  0
LINE
  5
85
102
{ACAD_XDICTIONARY
360
83
102
}
330
74
100
AcDbEntity
  8
Entry_ Living Room
100
AcDbLine
 10
10.0
 20
-58.0
 30
0.0
 11
40.00000000000001
 21
-58.0
 31
0.0
  0
LINE
  5
88
102
{ACAD_XDICTIONARY
360
86
102
}
330
74
100
AcDbEntity
  8
Entry_ Living Room
100
AcDbLine
 10
10.00000000000003
 20
-6.0
 30
0.0
 11
10.0
 21
-58.0
 31
0.0
  0
LINE
  5
8B
102
{ACAD_XDICTIONARY
360
89
102
}
330
74
100
AcDbEntity
  8
Entry_ Living Room
100
AcDbLine
 10
0.0000000000000284
 20
4.000000000000004
 30
0.0
 11
40.0
 21
3.999999999999996
 31
0.0
  0
LINE
  5
8E
102
{ACAD_XDICTIONARY
360
8C
102
}
330
74
100
AcDbEntity
  8
Entry_ Living Room
100
AcDbLine
 10
0.0000000000000284
 20
4.000000000000004
 30
0.0
 11
0.0
 21
-68.0
 31
0.0
  0
LINE
  5
91
102
{ACAD_XDICTIONARY
360
8F
102
}
330
74
100
AcDbEntity
  8
Entry_ Living Room
100
AcDbLine
 10
38.0
 20
-58.0
 30
0.0
 11
38.0
 21
-6.0
 31
0.0
  0
LINE
  5
94
102
{ACAD_XDICTIONARY
360
92
102
}
330
74
100
AcDbEntity
  8
Entry_ Living Room
100
AcDbLine
 10
38.0
 20
-32.0
 30
0.0
 11
10.0
 21
-32.0
 31
0.0
  0
ENDBLK
  5
97
330
74
100
AcDbEntity
  8
0
100
AcDbBlockEnd
  0
BLOCK
  5
96
330
95
100
AcDbEntity
  8
0
100
AcDbBlockBegin
  2
Couch
 70
     0
 10
0.0
 20
0.0
 30
0.0
  3
Couch
  1

  0
LINE
  5
9A
102
{ACAD_XDICTIONARY
360
98
102
}
330
95
100
AcDbEntity
  8
Entry_ Living Room
100
AcDbLine
 10
0.0
 20
-24.0
 30
0.0
 11
120.0
 21
-24.0
 31
0.0
  0
LINE
  5
9D
102
{ACAD_XDICTIONARY
360
9B
102
}
330
95
100
AcDbEntity
  8
Entry_ Living Room
100
AcDbLine
 10
0.0
 20
-24.0
 30
0.0
 11
0.0
 21
16.0
 31
0.0
  0
LINE
  5
A0
102
{ACAD_XDICTIONARY
360
9E
102
}
330
95
100
AcDbEntity
  8
Entry_ Living Room
100
AcDbLine
 10
120.0
 20
-24.0
 30
0.0
 11
120.0
 21
16.0
 31
0.0
  0
LINE
  5
A3
102
{ACAD_XDICTIONARY
360
A1
102
}
330
95
100
AcDbEntity
  8
Entry_ Living Room
100
AcDbLine
 10
0.0
 20
16.0
 30
0.0
 11
10.0
 21
16.0
 31
0.0
  0
LINE
  5
A6
102
{ACAD_XDICTIONARY
360
A4
102
}
330
95
100
AcDbEntity
  8
Entry_ Living Room
100
AcDbLine
 10
120.0
 20
16.0
 30
0.0
 11
110.0
 21
16.0
 31
0.0
  0
LINE
  5
A9
102
{ACAD_XDICTIONARY
360
A7
102
}
330
95
100
AcDbEntity
  8
Entry_ Living Room
100
AcDbLine
 10
110.0
 20
-14.0
 30
0.0
 11
110.0
 21
16.0
 31
0.0
  0
LINE
  5
AC
102
{ACAD_XDICTIONARY
360
AA
102
}
330
95
100
AcDbEntity
  8
Entry_ Living Room
100
AcDbLine
 10
10.0
 20
-14.0
 30
0.0
 11
10.0
 21
16.0
 31
0.0
  0
LINE
  5
AF
102
{ACAD_XDICTIONARY
360
AD
102
}
330
95
100
AcDbEntity
  8
Entry_ Living Room
100
AcDbLine
 10
10.0
 20
-14.0
 30
0.0
 11
110.0
 21
-14.0
 31
0.0
  0
LINE
  5
B2
102
{ACAD_XDICTIONARY
360
B0
102
}
330
95
100
AcDbEntity
  8
Entry_ Living Room
100
AcDbLine
 10
110.0
 20
14.0
 30
0.0
 11
10.0
 21
14.0
 31
0.0
  0
LINE
  5
B5
102
{ACAD_XDICTIONARY
360
B3
102
}
330
95
100
AcDbEntity
  8
Entry_ Living Room
100
AcDbLine
 10
60.0
 20
14.0
 30
0.0
 11
60.0
 21
-14.0
 31
0.0
  0
LINE
  5
B8
102
{ACAD_XDICTIONARY
360
B6
102
}
330
95
100
AcDbEntity
  8
Entry_ Living Room
100
AcDbLine
 10
86.0
 20
14.0
 30
0.0
 11
86.0
 21
-14.0
 31
0.0
  0
LINE
  5
BB
102
{ACAD_XDICTIONARY
360
B9
102
}
330
95
100
AcDbEntity
  8
Entry_ Living Room
100
AcDbLine
 10
34.0
 20
14.0
 30
0.0
 11
34.0
 21
-14.0
 31
0.0
  0
ENDBLK
  5
BE
330
95
100
AcDbEntity
  8
0
100
AcDbBlockEnd
  0
BLOCK
  5
BD
330
BC
100
AcDbEntity
  8
0
100
AcDbBlockBegin
  2
Stairs
 70
     0
 10
0.0
 20
0.0
 30
0.0
  3
Stairs
  1

  0
LWPOLYLINE
  5
C1
102
{ACAD_XDICTIONARY
360
BF
102
}
330
BC
100
AcDbEntity
  8
Stairs
100
AcDbPolyline
 90
        4
 70
     1
 43
0.0
 10
-34.0
 20
-50.0
 10
2.0
 20
-50.0
 10
2.0
 20
-40.0
 10
-34.0
 20
-40.0
  0
LWPOLYLINE
  5
C4
102
{ACAD_XDICTIONARY
360
C2
102
}
330
BC
100
AcDbEntity
  8
Stairs
100
AcDbPolyline
 90
        4
 70
     1
 43
0.0
 10
-34.0
 20
-40.0
 10
2.0
 20
-40.0
 10
2.0
 20
-30.0
 10
-34.0
 20
-30.0
  0
LWPOLYLINE
  5
C7
102
{ACAD_XDICTIONARY
360
C5
102
}
330
BC
100
AcDbEntity
  8
Stairs
100
AcDbPolyline
 90
        4
 70
     1
 43
0.0
 10
-34.0
 20
-30.0
 10
2.0
 20
-30.0
 10
2.0
 20
6.0
 10
-34.0
 20
6.0
  0
LWPOLYLINE
  5
CA
102
{ACAD_XDICTIONARY
360
C8
102
}
330
BC
100
AcDbEntity
  8
Stairs
100
AcDbPolyline
 90
        4
 70
     1
 43
0.0
 10
2.0
 20
-30.0
 10
12.0
 20
-30.0
 10
12.0
 20
6.0
 10
2.0
 20
6.0
  0
LWPOLYLINE
  5
CD
102
{ACAD_XDICTIONARY
360
CB
102
}
330
BC
100
AcDbEntity
  8
Stairs
100
AcDbPolyline
 90
        4
 70
     1
 43
0.0
 10
12.0
 20
-30.0
 10
22.0
 20
-30.0
 10
22.0
 20
6.0
 10
12.0
 20
6.0
  0
LWPOLYLINE
  5
D0
102
{ACAD_XDICTIONARY
360
CE
102
}
330
BC
100
AcDbEntity
  8
Stairs
100
AcDbPolyline
 90
        4
 70
     1
 43
0.0
 10
22.0
 20
-30.0
 10
32.0
 20
-30.0
 10
32.0
 20
6.0
 10
22.0
 20
6.0
  0
LWPOLYLINE
  5
D3
102
{ACAD_XDICTIONARY
360
D1
102
}
330
BC
100
AcDbEntity
  8
Stairs
100
AcDbPolyline
 90
        4
 70
     1
 43
0.0
 10
32.0
 20
-30.0
 10
42.0
 20
-30.0
 10
42.0
 20
6.0
 10
32.0
 20
6.0
  0
LWPOLYLINE
  5
D6
102
{ACAD_XDICTIONARY
360
D4
102
}
330
BC
100
AcDbEntity
  8
Stairs
100
AcDbPolyline
 90
        4
 70
     1
 43
0.0
 10
42.0
 20
-30.0
 10
52.0
 20
-30.0
 10
52.0
 20
6.0
 10
42.0
 20
6.0
  0
LWPOLYLINE
  5
D9
102
{ACAD_XDICTIONARY
360
D7
102
}
330
BC
100
AcDbEntity
  8
Stairs
100
AcDbPolyline
 90
        4
 70
     1
 43
0.0
 10
52.0
 20
-30.0
 10
62.0
 20
-30.0
 10
62.0
 20
6.0
 10
52.0
 20
6.0
  0
LWPOLYLINE
  5
DC
102
{ACAD_XDICTIONARY
360
DA
102
}
330
BC
100
AcDbEntity
  8
Stairs
100
AcDbPolyline
 90
        4
 70
     1
 43
0.0
 10
62.0
 20
-30.0
 10
72.0
 20
-30.0
 10
72.0
 20
6.0
 10
62.0
 20
6.0
  0
LWPOLYLINE
  5
DF
102
{ACAD_XDICTIONARY
360
DD
102
}
330
BC
100
AcDbEntity
  8
Stairs
100
AcDbPolyline
 90
        4
 70
     1
 43
0.0
 10
72.0
 20
-30.0
 10
82.0
 20
-30.0
 10
82.0
 20
6.0
 10
72.0
 20
6.0
  0
LWPOLYLINE
  5
E2
102
{ACAD_XDICTIONARY
360
E0
102
}
330
BC
100
AcDbEntity
  8
Stairs
100
AcDbPolyline
 90
        4
 70
     1
 43
0.0
 10
82.0
 20
-30.0
 10
92.0
 20
-30.0
 10
92.0
 20
6.0
 10
82.0
 20
6.0
  0
LWPOLYLINE
  5
E5
102
{ACAD_XDICTIONARY
360
E3
102
}
330
BC
100
AcDbEntity
  8
Stairs
100
AcDbPolyline
 90
        4
 70
     1
 43
0.0
 10
92.0
 20
-30.0
 10
102.0
 20
-30.0
 10
102.0
 20
6.0
 10
92.0
 20
6.0
  0
ENDBLK
  5
E8
330
BC
100
AcDbEntity
  8
0
100
AcDbBlockEnd
  0
BLOCK
  5
E7
330
E6
100
AcDbEntity
  8
0
100
AcDbBlockBegin
  2
Bar Stool
 70
     0
 10
0.0
 20
0.0
 30
0.0
  3
Bar Stool
  1

  0
LWPOLYLINE
  5
EB
102
{ACAD_XDICTIONARY
360
E9
102
}
330
E6
100
AcDbEntity
  8
Dining Area_ Kitchen
100
AcDbPolyline
 90
        4
 70
     1
 43
0.0
 10
-5.0
 20
0.0
 10
13.0
 20
0.0
 10
13.0
 20
-18.0
 10
-5.0
 20
-18.0
  0
MTEXT
  5
111
102
{ACAD_XDICTIONARY
360
ED
102
}
330
E6
100
AcDbEntity
  8
Dining Area_ Kitchen
100
AcDbMText
 10
4.0
 20
-8.999999998061638
 30
0.0
 40
2.000000046520698
 41
15.17269977777777
 46
0.0
 71
     5
 72
     1
  1
18" x 18"\PBar Stool
  7
_TCW_TXTSTY_1
 73
     2
 44
1.0
  0
ENDBLK
  5
114
330
E6
100
AcDbEntity
  8
0
100
AcDbBlockEnd
  0
BLOCK
  5
113
330
112
100
AcDbEntity
  8
0
100
AcDbBlockBegin
  2
Dining Counter
 70
     0
 10
0.0
 20
0.0
 30
0.0
  3
Dining Counter
  1

  0
INSERT
  5
164
330
112
100
AcDbEntity
  8
Dining Area_ Kitchen
100
AcDbBlockReference
  2
Eating Counter_ Detail
 10
-32.0
 20
17.0
 30
0.0
  0
DIMENSION
  5
165
330
112
100
AcDbEntity
  8
Dining Area_ Kitchen
100
AcDbDimension
  2
*D10
 10
-40.5
 20
5.5
 30
0.0
 11
-49.10714285714286
 21
5.5
 31
0.0
 70
    32
  1
<>
 71
     5
 42
12.5
 73
     0
 74
     0
 75
     0
  3
Standard
100
AcDbAlignedDimension
 13
-28.0
 23
6.0
 33
0.0
 14
-40.5
 24
6.0
 34
0.0
100
AcDbRotatedDimension
1001
ACAD
1000
DSTYLE
1002
{
1070
   179
1070
     4
1070
   148
1040
0.0000001
1070
     3
1000

1070
    45
1040
0.0000001
1002
}
  0
ENDBLK
  5
175
330
112
100
AcDbEntity
  8
0
100
AcDbBlockEnd
  0
BLOCK
  5
116
330
115
100
AcDbEntity
  8
0
100
AcDbBlockBegin
  2
Eating Counter_ Detail
 70
     0
 10
0.0
 20
0.0
 30
0.0
  3
Eating Counter_ Detail
  1

  0
INSERT
  5
143
330
115
100
AcDbEntity
  8
Dining Area_ Kitchen
100
AcDbBlockReference
  2
Eating Counter Detail
 10
30.0
 20
-20.0
 30
0.0
  0
DIMENSION
  5
144
330
115
100
AcDbEntity
  8
Dining Area_ Kitchen
100
AcDbDimension
  2
*D9
 10
17.0
 20
-22.0
 30
0.0
 11
10.5
 21
-22.0
 31
0.0
 70
    33
  1
<>
 71
     5
 42
13.0
 73
     0
 74
     0
 75
     0
  3
Standard
100
AcDbAlignedDimension
 13
4.0
 23
-20.0
 33
0.0
 14
17.0
 24
-20.0
 34
0.0
1001
ACAD
1000
DSTYLE
1002
{
1070
   179
1070
     4
1070
   148
1040
0.0000001
1070
     3
1000

1070
    45
1040
0.0000001
1002
}
  0
LINE
  5
155
102
{ACAD_XDICTIONARY
360
153
102
}
330
115
100
AcDbEntity
  8
Dining Area_ Kitchen
100
AcDbLine
 10
17.0
 20
-6.5
 30
0.0
 11
17.0
 21
-5.125
 31
0.0
  0
LINE
  5
158
102
{ACAD_XDICTIONARY
360
156
102
}
330
115
100
AcDbEntity
  8
Dining Area_ Kitchen
100
AcDbLine
 10
-8.5
 20
-5.125
 30
0.0
 11
17.0
 21
-5.125
 31
0.0
  0
LINE
  5
15B
102
{ACAD_XDICTIONARY
360
159
102
}
330
115
100
AcDbEntity
  8
Dining Area_ Kitchen
100
AcDbLine
 10
-8.5
 20
-6.5
 30
0.0
 11
-8.5
 21
-5.125
 31
0.0
  0
LINE
  5
15E
102
{ACAD_XDICTIONARY
360
15C
102
}
330
115
100
AcDbEntity
  8
Dining Area_ Kitchen
100
AcDbLine
 10
-8.5
 20
-6.5
 30
0.0
 11
5.0
 21
-6.5
 31
0.0
  0
MTEXT
  5
161
102
{ACAD_XDICTIONARY
360
15F
102
}
330
115
100
AcDbEntity
  8
Dining Area_ Kitchen
100
AcDbMText
 10
2.25
 20
1.750000001938362
 30
0.0
 40
2.000000046520698
 41
30.20437333333333
 46
0.0
 71
     5
 72
     1
  1
25-1/2"D x 1-3/8"H\PCountertop
  7
_TCW_TXTSTY_1
 73
     2
 44
1.0
  0
LEADER
  5
162
330
115
100
AcDbEntity
  8
Dining Area_ Kitchen
100
AcDbLeader
  3
Standard
 76
     2
 10
1.0
 20
-6.0
 30
0.0
 10
5.0
 20
-2.0
 30
0.0
1001
ACAD
1000
DSTYLE
1002
{
1070
   179
1070
     4
1070
   148
1040
0.0000001
1070
     3
1000

1070
    45
1040
0.0000001
1070
    73
1070
     1
1070
   345
1005
15
1002
}
  0
ENDBLK
  5
163
330
115
100
AcDbEntity
  8
0
100
AcDbBlockEnd
  0
BLOCK
  5
118
330
117
100
AcDbEntity
  8
0
100
AcDbBlockBegin
  2
Eating Counter Detail
 70
     0
 10
0.0
 20
0.0
 30
0.0
  3
Eating Counter Detail
  1

  0
LINE
  5
11B
102
{ACAD_XDICTIONARY
360
119
102
}
330
117
100
AcDbEntity
  8
Dining Area_ Kitchen
100
AcDbLine
 10
-22.0
 20
-21.0
 30
0.0
 11
-22.0
 21
-16.5
 31
0.0
  0
LINE
  5
11E
102
{ACAD_XDICTIONARY
360
11C
102
}
330
117
100
AcDbEntity
  8
Dining Area_ Kitchen
100
AcDbLine
 10
-22.0
 20
-16.5
 30
0.0
 11
-25.0
 21
-16.5
 31
0.0
  0
LINE
  5
121
102
{ACAD_XDICTIONARY
360
11F
102
}
330
117
100
AcDbEntity
  8
Dining Area_ Kitchen
100
AcDbLine
 10
-25.0
 20
-16.5
 30
0.0
 11
-25.0
 21
13.5
 31
0.0
  0
LINE
  5
124
102
{ACAD_XDICTIONARY
360
122
102
}
330
117
100
AcDbEntity
  8
Dining Area_ Kitchen
100
AcDbLine
 10
-25.0
 20
11.5
 30
0.0
 11
-26.0
 21
11.5
 31
0.0
  0
LINE
  5
127
102
{ACAD_XDICTIONARY
360
125
102
}
330
117
100
AcDbEntity
  8
Dining Area_ Kitchen
100
AcDbLine
 10
-26.0
 20
11.5
 30
0.0
 11
-26.0
 21
-12.5
 31
0.0
  0
LINE
  5
12A
102
{ACAD_XDICTIONARY
360
128
102
}
330
117
100
AcDbEntity
  8
Dining Area_ Kitchen
100
AcDbLine
 10
-26.0
 20
-12.5
 30
0.0
 11
-25.0
 21
-12.5
 31
0.0
  0
LINE
  5
12D
102
{ACAD_XDICTIONARY
360
12B
102
}
330
117
100
AcDbEntity
  8
Dining Area_ Kitchen
100
AcDbLine
 10
-25.0
 20
13.5
 30
0.0
 11
-13.0
 21
13.5
 31
0.0
  0
LINE
  5
130
102
{ACAD_XDICTIONARY
360
12E
102
}
330
117
100
AcDbEntity
  8
Dining Area_ Kitchen
100
AcDbLine
 10
-13.0
 20
13.5
 30
0.0
 11
-13.0
 21
-16.5
 31
0.0
  0
LINE
  5
133
102
{ACAD_XDICTIONARY
360
131
102
}
330
117
100
AcDbEntity
  8
Dining Area_ Kitchen
100
AcDbLine
 10
-13.0
 20
-16.5
 30
0.0
 11
-22.0
 21
-16.5
 31
0.0
  0
LINE
  5
136
102
{ACAD_XDICTIONARY
360
134
102
}
330
117
100
AcDbEntity
  8
Dining Area_ Kitchen
100
AcDbLine
 10
-13.0
 20
-16.5
 30
0.0
 11
-13.0
 21
-21.0
 31
0.0
  0
LINE
  5
139
102
{ACAD_XDICTIONARY
360
137
102
}
330
117
100
AcDbEntity
  8
Dining Area_ Kitchen
100
AcDbLine
 10
-13.0
 20
-21.0
 30
0.0
 11
-22.0
 21
-21.0
 31
0.0
  0
MTEXT
  5
13C
102
{ACAD_XDICTIONARY
360
13A
102
}
330
117
100
AcDbEntity
  8
Dining Area_ Kitchen
100
AcDbMText
 10
4.0
 20
-0.9999999980616376
 30
0.0
 40
2.000000046520698
 41
21.70607111111111
 46
0.0
 71
     5
 72
     1
  1
12"D x 30"H\PWall Cabinet\Pused as base \Pcabinet
  7
_TCW_TXTSTY_1
 73
     2
 44
1.0
  0
MTEXT
  5
13F
102
{ACAD_XDICTIONARY
360
13D
102
}
330
117
100
AcDbEntity
  8
Dining Area_ Kitchen
100
AcDbMText
 10
6.0
 20
-18.99999999806164
 30
0.0
 40
2.000000046520698
 41
27.81447977777778
 46
0.0
 71
     5
 72
     1
  1
9"D x 4-1/2"H\PBase for Cabinet
  7
_TCW_TXTSTY_1
 73
     2
 44
1.0
  0
LEADER
  5
140
330
117
100
AcDbEntity
  8
Dining Area_ Kitchen
100
AcDbLeader
  3
Standard
 76
     3
 10
-18.0
 20
11.0
 30
0.0
 10
-4.0
 20
11.0
 30
0.0
 10
8.0
 20
5.0
 30
0.0
1001
ACAD
1000
DSTYLE
1002
{
1070
   179
1070
     4
1070
   148
1040
0.0000001
1070
     3
1000

1070
    45
1040
0.0000001
1070
    73
1070
     1
1070
   345
1005
15
1002
}
  0
LEADER
  5
141
330
117
100
AcDbEntity
  8
Dining Area_ Kitchen
100
AcDbLeader
  3
Standard
 76
     4
 10
-18.0
 20
-19.0
 30
0.0
 10
-4.0
 20
-31.0
 30
0.0
 10
4.0
 20
-31.0
 30
0.0
 10
8.0
 20
-25.0
 30
0.0
1001
ACAD
1000
DSTYLE
1002
{
1070
   179
1070
     4
1070
   148
1040
0.0000001
1070
     3
1000

1070
    45
1040
0.0000001
1070
    73
1070
     1
1070
   345
1005
15
1002
}
  0
ENDBLK
  5
142
330
117
100
AcDbEntity
  8
0
100
AcDbBlockEnd
  0
BLOCK
  5
151
330
146
100
AcDbEntity
  8
0
100
AcDbBlockBegin
  2
*D9
 70
     1
 10
0.0
 20
0.0
 30
0.0
  3
*D9
  1

  0
LINE
  5
147
330
146
100
AcDbEntity
  8
Dining Area_ Kitchen
  6
ByBlock
 62
     0
370
    -2
100
AcDbLine
 10
4.0
 20
-20.625
 30
0.0
 11
4.0
 21
-22.00410105
 31
0.0
  0
LINE
  5
148
330
146
100
AcDbEntity
  8
Dining Area_ Kitchen
  6
ByBlock
 62
     0
370
    -2
100
AcDbLine
 10
17.0
 20
-20.625
 30
0.0
 11
17.0
 21
-22.00410105
 31
0.0
  0
LINE
  5
149
330
146
100
AcDbEntity
  8
Dining Area_ Kitchen
  6
ByBlock
 62
     0
370
    -2
100
AcDbLine
 10
2.0
 20
-22.0
 30
0.0
 11
0.0
 21
-22.0
 31
0.0
  0
LINE
  5
14A
330
146
100
AcDbEntity
  8
Dining Area_ Kitchen
  6
ByBlock
 62
     0
370
    -2
100
AcDbLine
 10
19.0
 20
-22.0
 30
0.0
 11
21.0
 21
-22.0
 31
0.0
  0
SOLID
  5
14B
330
146
100
AcDbEntity
  8
Dining Area_ Kitchen
 62
     0
100
AcDbTrace
 10
2.0
 20
-22.33333333333333
 30
0.0
 11
2.0
 21
-21.66666666666667
 31
0.0
 12
4.0
 22
-22.0
 32
0.0
 13
4.0
 23
-22.0
 33
0.0
  0
SOLID
  5
14C
330
146
100
AcDbEntity
  8
Dining Area_ Kitchen
 62
     0
100
AcDbTrace
 10
19.0
 20
-21.66666666666667
 30
0.0
 11
19.0
 21
-22.33333333333333
 31
0.0
 12
17.0
 22
-22.0
 32
0.0
 13
17.0
 23
-22.0
 33
0.0
  0
MTEXT
  5
14D
330
146
100
AcDbEntity
  8
Dining Area_ Kitchen
 62
     0
100
AcDbMText
 10
10.5
 20
-22.0
 30
0.0
 40
2.5
 41
0.0
 46
0.0
 71
     5
 72
     1
  1
\A1;1'-1"
 73
     1
 44
1.0
  0
POINT
  5
14E
330
146
100
AcDbEntity
  8
Defpoints
 62
     0
100
AcDbPoint
 10
4.0
 20
-20.0
 30
0.0
  0
POINT
  5
14F
330
146
100
AcDbEntity
  8
Defpoints
 62
     0
100
AcDbPoint
 10
17.0
 20
-20.0
 30
0.0
  0
POINT
  5
150
330
146
100
AcDbEntity
  8
Defpoints
 62
     0
100
AcDbPoint
 10
17.0
 20
-22.0
 30
0.0
  0
ENDBLK
  5
152
330
146
100
AcDbEntity
  8
0
100
AcDbBlockEnd
  0
BLOCK
  5
171
330
166
100
AcDbEntity
  8
0
100
AcDbBlockBegin
  2
*D10
 70
     1
 10
0.0
 20
0.0
 30
0.0
  3
*D10
  1

  0
LINE
  5
167
330
166
100
AcDbEntity
  8
Dining Area_ Kitchen
  6
ByBlock
 62
     0
370
    -2
100
AcDbLine
 10
-28.0
 20
5.375
 30
0.0
 11
-28.0
 21
5.49589895
 31
0.0
  0
LINE
  5
168
330
166
100
AcDbEntity
  8
Dining Area_ Kitchen
  6
ByBlock
 62
     0
370
    -2
100
AcDbLine
 10
-40.5
 20
5.375
 30
0.0
 11
-40.5
 21
5.49589895
 31
0.0
  0
LINE
  5
169
330
166
100
AcDbEntity
  8
Dining Area_ Kitchen
  6
ByBlock
 62
     0
370
    -2
100
AcDbLine
 10
-40.5
 20
5.5
 30
0.0
 11
-42.5
 21
5.5
 31
0.0
  0
LINE
  5
16A
330
166
100
AcDbEntity
  8
Dining Area_ Kitchen
  6
ByBlock
 62
     0
370
    -2
100
AcDbLine
 10
-30.0
 20
5.5
 30
0.0
 11
-38.5
 21
5.5
 31
0.0
  0
SOLID
  5
16B
330
166
100
AcDbEntity
  8
Dining Area_ Kitchen
 62
     0
100
AcDbTrace
 10
-30.0
 20
5.166666666666667
 30
0.0
 11
-30.0
 21
5.833333333333333
 31
0.0
 12
-28.0
 22
5.5
 32
0.0
 13
-28.0
 23
5.5
 33
0.0
  0
SOLID
  5
16C
330
166
100
AcDbEntity
  8
Dining Area_ Kitchen
 62
     0
100
AcDbTrace
 10
-38.5
 20
5.833333333333333
 30
0.0
 11
-38.5
 21
5.166666666666667
 31
0.0
 12
-40.5
 22
5.5
 32
0.0
 13
-40.5
 23
5.5
 33
0.0
  0
MTEXT
  5
16D
330
166
100
AcDbEntity
  8
Dining Area_ Kitchen
 62
     0
100
AcDbMText
 10
-49.10714285714286
 20
5.5
 30
0.0
 40
2.5
 41
0.0
 46
0.0
 71
     5
 72
     1
  1
\A1;1'-0{\H1.000000x;\S1/2;}"
 73
     1
 44
1.0
  0
POINT
  5
16E
330
166
100
AcDbEntity
  8
Defpoints
 62
     0
100
AcDbPoint
 10
-28.0
 20
6.0
 30
0.0
  0
POINT
  5
16F
330
166
100
AcDbEntity
  8
Defpoints
 62
     0
100
AcDbPoint
 10
-40.5
 20
6.0
 30
0.0
  0
POINT
  5
170
330
166
100
AcDbEntity
  8
Defpoints
 62
     0
100
AcDbPoint
 10
-40.5
 20
5.5
 30
0.0
  0
ENDBLK
  5
172
330
166
100
AcDbEntity
  8
0
100
AcDbBlockEnd
  0
BLOCK
  5
174
330
173
100
AcDbEntity
  8
0
100
AcDbBlockBegin
  2
Toilet
 70
     0
 10
0.0
 20
0.0
 30
0.0
  3
Toilet
  1

  0
LWPOLYLINE
  5
178
102
{ACAD_XDICTIONARY
360
176
102
}
330
173
100
AcDbEntity
  8
Bathroom
100
AcDbPolyline
 90
        8
 70
     1
 43
0.0
 10
-1.5
 20
13.0
 10
14.5
 20
13.0
 10
15.5
 20
12.0
 10
15.5
 20
6.0
 10
14.5
 20
5.0
 10
-1.5
 20
5.0
 10
-2.5
 20
6.0
 10
-2.5
 20
12.0
  0
LINE
  5
17B
102
{ACAD_XDICTIONARY
360
179
102
}
330
173
100
AcDbEntity
  8
Bathroom
100
AcDbLine
 10
3.5
 20
5.0
 30
0.0
 11
3.5
 21
4.0
 31
0.0
  0
LINE
  5
17E
102
{ACAD_XDICTIONARY
360
17C
102
}
330
173
100
AcDbEntity
  8
Bathroom
100
AcDbLine
 10
3.5
 20
4.0
 30
0.0
 11
9.5
 21
4.0
 31
0.0
  0
LINE
  5
181
102
{ACAD_XDICTIONARY
360
17F
102
}
330
173
100
AcDbEntity
  8
Bathroom
100
AcDbLine
 10
9.5
 20
4.0
 30
0.0
 11
9.5
 21
5.0
 31
0.0
  0
ARC
  5
184
102
{ACAD_XDICTIONARY
360
182
102
}
330
173
100
AcDbEntity
  8
Bathroom
100
AcDbCircle
 10
10.26851851851852
 20
-5.663580246913568
 30
0.0
 40
11.79820436015865
100
AcDbArc
 50
125.0079831036486
 51
253.9166613124027
  0
ARC
  5
187
102
{ACAD_XDICTIONARY
360
185
102
}
330
173
100
AcDbEntity
  8
Bathroom
100
AcDbCircle
 10
2.430000000000007
 20
-5.807142857142878
 30
0.0
 40
12.08986976854623
100
AcDbArc
 50
292.2100025717152
 51
54.2120482794073
  0
ENDBLK
  5
18A
330
173
100
AcDbEntity
  8
0
100
AcDbBlockEnd
  0
BLOCK
  5
189
330
188
100
AcDbEntity
  8
0
100
AcDbBlockBegin
  2
32_ Door w_Jamb
 70
     0
 10
0.0
 20
0.0
 30
0.0
  3
32_ Door w_Jamb
  1

  0
LINE
  5
18D
102
{ACAD_XDICTIONARY
360
18B
102
}
330
188
100
AcDbEntity
  8
Bathroom
100
AcDbLine
 10
-2.75
 20
-16.5
 30
0.0
 11
3.25
 21
-16.5
 31
0.0
  0
LINE
  5
190
102
{ACAD_XDICTIONARY
360
18E
102
}
330
188
100
AcDbEntity
  8
Bathroom
100
AcDbLine
 10
-2.75
 20
-16.5
 30
0.0
 11
-2.75
 21
-20.0
 31
0.0
  0
LINE
  5
193
102
{ACAD_XDICTIONARY
360
191
102
}
330
188
100
AcDbEntity
  8
Bathroom
100
AcDbLine
 10
3.25
 20
-16.5
 30
0.0
 11
3.25
 21
-20.0
 31
0.0
  0
LINE
  5
196
102
{ACAD_XDICTIONARY
360
194
102
}
330
188
100
AcDbEntity
  8
Bathroom
100
AcDbLine
 10
3.25
 20
-20.0
 30
0.0
 11
2.5
 21
-20.0
 31
0.0
  0
LINE
  5
199
102
{ACAD_XDICTIONARY
360
197
102
}
330
188
100
AcDbEntity
  8
Bathroom
100
AcDbLine
 10
-2.0
 20
-20.0
 30
0.0
 11
-2.75
 21
-20.0
 31
0.0
  0
INSERT
  5
1B5
330
188
100
AcDbEntity
  8
Bathroom
100
AcDbBlockReference
  2
Door Jamb & Trim
 10
0.5
 20
15.5
 30
0.0
 43
-1.0
 50
180.0
210
0.0
220
0.0
230
-1.0
  0
LINE
  5
1B8
102
{ACAD_XDICTIONARY
360
1B6
102
}
330
188
100
AcDbEntity
  8
Bathroom
100
AcDbLine
 10
0.75
 20
-16.5
 30
0.0
 11
0.75
 21
15.5
 31
0.0
  0
LINE
  5
1BB
102
{ACAD_XDICTIONARY
360
1B9
102
}
330
188
100
AcDbEntity
  8
Bathroom
100
AcDbLine
 10
-0.625
 20
-16.5
 30
0.0
 11
-0.625
 21
15.5
 31
0.0
  0
LINE
  5
1BE
102
{ACAD_XDICTIONARY
360
1BC
102
}
330
188
100
AcDbEntity
  8
Bathroom
100
AcDbLine
 10
0.75
 20
-16.5
 30
0.0
 11
-31.25
 21
-16.5
 31
0.0
  0
LINE
  5
1C1
102
{ACAD_XDICTIONARY
360
1BF
102
}
330
188
100
AcDbEntity
  8
Bathroom
100
AcDbLine
 10
-31.25
 20
-15.125
 30
0.0
 11
0.75
 21
-15.125
 31
0.0
  0
LINE
  5
1C4
102
{ACAD_XDICTIONARY
360
1C2
102
}
330
188
100
AcDbEntity
  8
Bathroom
100
AcDbLine
 10
-3.144436802658589
 20
15.5
 30
0.0
 11
0.8944368026656377
 21
15.5
 31
0.0
  0
ARC
  5
1C7
102
{ACAD_XDICTIONARY
360
1C5
102
}
330
188
100
AcDbEntity
  8
Bathroom
100
AcDbCircle
 10
-0.625
 20
-15.125
 30
0.0
 40
30.76371645299053
100
AcDbArc
 50
92.90191046888364
 51
182.5093647398517
  0
MTEXT
  5
1CA
102
{ACAD_XDICTIONARY
360
1C8
102
}
330
188
100
AcDbEntity
  8
Bathroom
100
AcDbMText
 10
-14.0
 20
-1.999999998061637
 30
0.0
 40
2.000000046520698
 41
13.92232266666667
 46
0.0
 71
     5
 72
     1
  1
32" Door
  7
_TCW_TXTSTY_1
 73
     2
 44
1.0
  0
ENDBLK
  5
1CD
330
188
100
AcDbEntity
  8
0
100
AcDbBlockEnd
  0
BLOCK
  5
19B
330
19A
100
AcDbEntity
  8
0
100
AcDbBlockBegin
  2
Door Jamb & Trim
 70
     0
 10
0.0
 20
0.0
 30
0.0
  3
Door Jamb & Trim
  1

  0
LINE
  5
19E
102
{ACAD_XDICTIONARY
360
19C
102
}
330
19A
100
AcDbEntity
  8
Bathroom
100
AcDbLine
 10
-2.25
 20
0.0
 30
0.0
 11
3.75
 21
0.0
 31
0.0
  0
LINE
  5
1A1
102
{ACAD_XDICTIONARY
360
19F
102
}
330
19A
100
AcDbEntity
  8
Bathroom
100
AcDbLine
 10
-2.25
 20
0.0
 30
0.0
 11
-2.25
 21
-3.5
 31
0.0
  0
LINE
  5
1A4
102
{ACAD_XDICTIONARY
360
1A2
102
}
330
19A
100
AcDbEntity
  8
Bathroom
100
AcDbLine
 10
3.75
 20
0.0
 30
0.0
 11
3.75
 21
-3.5
 31
0.0
  0
LINE
  5
1A7
102
{ACAD_XDICTIONARY
360
1A5
102
}
330
19A
100
AcDbEntity
  8
Bathroom
100
AcDbLine
 10
3.75
 20
-3.5
 30
0.0
 11
3.0
 21
-3.5
 31
0.0
  0
LINE
  5
1AA
102
{ACAD_XDICTIONARY
360
1A8
102
}
330
19A
100
AcDbEntity
  8
Bathroom
100
AcDbLine
 10
-1.5
 20
-3.5
 30
0.0
 11
-2.25
 21
-3.5
 31
0.0
  0
LINE
  5
1AD
102
{ACAD_XDICTIONARY
360
1AB
102
}
330
19A
100
AcDbEntity
  8
Bathroom
100
AcDbLine
 10
1.25
 20
0.75
 30
0.0
 11
2.0
 21
0.75
 31
0.0
  0
LINE
  5
1B0
102
{ACAD_XDICTIONARY
360
1AE
102
}
330
19A
100
AcDbEntity
  8
Bathroom
100
AcDbLine
 10
2.0
 20
0.75
 30
0.0
 11
2.25
 21
0.0
 31
0.0
  0
LINE
  5
1B3
102
{ACAD_XDICTIONARY
360
1B1
102
}
330
19A
100
AcDbEntity
  8
Bathroom
100
AcDbLine
 10
1.25
 20
0.75
 30
0.0
 11
1.25
 21
0.0
 31
0.0
  0
ENDBLK
  5
1B4
330
19A
100
AcDbEntity
  8
0
100
AcDbBlockEnd
  0
BLOCK
  5
1CC
330
1CB
100
AcDbEntity
  8
0
100
AcDbBlockBegin
  2
Kitchen2
 70
     0
 10
0.0
 20
0.0
 30
0.0
  3
Kitchen2
  1

  0
LINE
  5
1D0
102
{ACAD_XDICTIONARY
360
1CE
102
}
330
1CB
100
AcDbEntity
  8
Dining Area_ Kitchen
100
AcDbLine
 10
0.0
 20
47.5
 30
0.0
 11
0.0
 21
83.5
 31
0.0
  0
DIMENSION
  5
1D1
330
1CB
100
AcDbEntity
  8
Dining Area_ Kitchen
100
AcDbDimension
  2
*D15
 10
-4.0
 20
83.5
 30
0.0
 11
-4.0
 21
65.5
 31
0.0
 70
    33
  1
<>
 71
     5
 42
36.0
 73
     0
 74
     0
 75
     0
  3
Standard
100
AcDbAlignedDimension
 13
-4.0
 23
47.5
 33
0.0
 14
-4.0
 24
83.5
 34
0.0
1001
ACAD
1000
DSTYLE
1002
{
1070
   179
1070
     4
1070
   148
1040
0.0000001
1070
     3
1000

1070
    45
1040
0.0000001
1002
}
  0
DIMENSION
  5
1DF
330
1CB
100
AcDbEntity
  8
Dining Area_ Kitchen
100
AcDbDimension
  2
*D16
 10
18.5
 20
83.5
 30
0.0
 11
18.5
 21
96.25
 31
0.0
 70
    32
  1
<>
 71
     5
 42
25.5
 73
     0
 74
     0
 75
     0
  3
Standard
100
AcDbAlignedDimension
 13
19.0
 23
109.0
 33
0.0
 14
19.0
 24
83.5
 34
0.0
 50
90.0
100
AcDbRotatedDimension
1001
ACAD
1000
DSTYLE
1002
{
1070
   179
1070
     4
1070
   148
1040
0.0000001
1070
     3
1000

1070
    45
1040
0.0000001
1002
}
  0
DIMENSION
  5
1ED
330
1CB
100
AcDbEntity
  8
Dining Area_ Kitchen
100
AcDbDimension
  2
*D17
 10
62.0
 20
97.5
 30
0.0
 11
33.0
 21
97.5
 31
0.0
 70
    33
  1
<>
 71
     5
 42
58.0
 73
     0
 74
     0
 75
     0
  3
Standard
100
AcDbAlignedDimension
 13
4.0
 23
97.5
 33
0.0
 14
62.0
 24
97.5
 34
0.0
1001
ACAD
1000
DSTYLE
1002
{
1070
   179
1070
     4
1070
   148
1040
0.0000001
1070
     3
1000

1070
    45
1040
0.0000001
1002
}
  0
LWPOLYLINE
  5
1FD
102
{ACAD_XDICTIONARY
360
1FB
102
}
330
1CB
100
AcDbEntity
  8
Dining Area_ Kitchen
100
AcDbPolyline
 90
        4
 70
     1
 43
0.0
 10
62.0
 20
83.5
 10
4.0
 20
83.5
 10
4.0
 20
109.0
 10
62.0
 20
109.0
  0
MTEXT
  5
200
102
{ACAD_XDICTIONARY
360
1FE
102
}
330
1CB
100
AcDbEntity
  8
Dining Area_ Kitchen
100
AcDbMText
 10
52.99999999806164
 20
24.28846155555561
 30
0.0
 40
2.000000046520698
 41
22.91478133333333
 46
0.0
 71
     5
 72
     1
  1
Main Counter
  7
_TCW_TXTSTY_1
 11
6.123233995736766E-17
 21
1.0
 31
0.0
 73
     2
 44
1.0
  0
LWPOLYLINE
  5
203
102
{ACAD_XDICTIONARY
360
201
102
}
330
1CB
100
AcDbEntity
  8
Dining Area_ Kitchen
100
AcDbPolyline
 90
        4
 70
     1
 43
0.0
 10
62.0
 20
-62.0
 10
4.0
 20
-62.0
 10
4.0
 20
-36.5
 10
62.0
 20
-36.5
  0
DIMENSION
  5
204
330
1CB
100
AcDbEntity
  8
Dining Area_ Kitchen
100
AcDbDimension
  2
*D18
 10
18.5
 20
-62.0
 30
0.0
 11
18.5
 21
-49.25
 31
0.0
 70
    32
  1
<>
 71
     5
 42
25.5
 73
     0
 74
     0
 75
     0
  3
Standard
100
AcDbAlignedDimension
 13
19.0
 23
-36.5
 33
0.0
 14
19.0
 24
-62.0
 34
0.0
 50
90.0
100
AcDbRotatedDimension
1001
ACAD
1000
DSTYLE
1002
{
1070
   179
1070
     4
1070
   148
1040
0.0000001
1070
     3
1000

1070
    45
1040
0.0000001
1002
}
  0
DIMENSION
  5
212
330
1CB
100
AcDbEntity
  8
Dining Area_ Kitchen
100
AcDbDimension
  2
*D19
 10
62.0
 20
-48.0
 30
0.0
 11
33.0
 21
-48.0
 31
0.0
 70
    33
  1
<>
 71
     5
 42
58.0
 73
     0
 74
     0
 75
     0
  3
Standard
100
AcDbAlignedDimension
 13
4.0
 23
-48.0
 33
0.0
 14
62.0
 24
-48.0
 34
0.0
1001
ACAD
1000
DSTYLE
1002
{
1070
   179
1070
     4
1070
   148
1040
0.0000001
1070
     3
1000

1070
    45
1040
0.0000001
1002
}
  0
DIMENSION
  5
220
330
1CB
100
AcDbEntity
  8
Dining Area_ Kitchen
100
AcDbDimension
  2
*D20
 10
36.5
 20
2.0
 30
0.0
 11
18.5
 21
2.0
 31
0.0
 70
    32
  1
<>
 71
     5
 42
36.0
 73
     0
 74
     0
 75
     0
  3
Standard
100
AcDbAlignedDimension
 13
0.5
 23
1.5
 33
0.0
 14
36.5
 24
2.0
 34
0.0
100
AcDbRotatedDimension
1001
ACAD
1000
DSTYLE
1002
{
1070
   179
1070
     4
1070
   148
1040
0.0000001
1070
     3
1000

1070
    45
1040
0.0000001
1002
}
  0
LWPOLYLINE
  5
230
102
{ACAD_XDICTIONARY
360
22E
102
}
330
1CB
100
AcDbEntity
  8
Dining Area_ Kitchen
100
AcDbPolyline
 90
        4
 70
     1
 43
0.0
 10
-47.5
 20
-0.5
 10
0.5
 20
-0.5
 10
0.5
 20
47.5
 10
-47.5
 20
47.5
  0
DIMENSION
  5
231
330
1CB
100
AcDbEntity
  8
Dining Area_ Kitchen
100
AcDbDimension
  2
*D21
 10
4.0
 20
-0.5
 30
0.0
 11
4.0
 21
-18.5
 31
0.0
 70
    33
  1
<>
 71
     5
 42
36.0
 73
     0
 74
     0
 75
     0
  3
Standard
100
AcDbAlignedDimension
 13
4.0
 23
-36.5
 33
0.0
 14
4.0
 24
-0.5
 34
0.0
1001
ACAD
1000
DSTYLE
1002
{
1070
   179
1070
     4
1070
   148
1040
0.0000001
1070
     3
1000

1070
    45
1040
0.0000001
1002
}
  0
DIMENSION
  5
23F
330
1CB
100
AcDbEntity
  8
Dining Area_ Kitchen
100
AcDbDimension
  2
*D22
 10
50.5
 20
83.5
 30
0.0
 11
50.5
 21
23.5
 31
0.0
 70
    32
  1
<>
 71
     5
 42
120.0
 73
     0
 74
     0
 75
     0
  3
Standard
100
AcDbAlignedDimension
 13
51.0
 23
-36.5
 33
0.0
 14
50.5
 24
83.5
 34
0.0
 50
90.0
100
AcDbRotatedDimension
1001
ACAD
1000
DSTYLE
1002
{
1070
   179
1070
     4
1070
   148
1040
0.0000001
1070
     3
1000

1070
    45
1040
0.0000001
1002
}
  0
LWPOLYLINE
  5
24F
102
{ACAD_XDICTIONARY
360
24D
102
}
330
1CB
100
AcDbEntity
  8
Dining Area_ Kitchen
100
AcDbPolyline
 90
        4
 70
     1
 43
0.0
 10
62.0
 20
-36.5
 10
36.5
 20
-36.5
 10
36.5
 20
83.5
 10
62.0
 20
83.5
  0
MTEXT
  5
252
102
{ACAD_XDICTIONARY
360
250
102
}
330
1CB
100
AcDbEntity
  8
Dining Area_ Kitchen
100
AcDbMText
 10
-21.00000000193836
 20
24.28846155555561
 30
0.0
 40
2.000000046520698
 41
10.20135755555556
 46
0.0
 71
     5
 72
     1
  1
Island\P4' x 4'
  7
_TCW_TXTSTY_1
 11
6.123233995736766E-17
 21
1.0
 31
0.0
 73
     2
 44
1.0
  0
LWPOLYLINE
  5
255
102
{ACAD_XDICTIONARY
360
253
102
}
330
1CB
100
AcDbEntity
  8
Dining Area_ Kitchen
100
AcDbPolyline
 90
        4
 70
     1
 43
0.0
 10
4.0
 20
109.0
 10
-28.0
 20
109.0
 10
-28.0
 20
83.5
 10
4.0
 20
83.5
  0
MTEXT
  5
258
102
{ACAD_XDICTIONARY
360
256
102
}
330
1CB
100
AcDbEntity
  8
Dining Area_ Kitchen
100
AcDbMText
 10
-12.0
 20
95.00000000193836
 30
0.0
 40
2.000000046520698
 41
14.96898577777778
 46
0.0
 71
     5
 72
     1
  1
32" Stove\P
  7
_TCW_TXTSTY_1
 73
     2
 44
1.0
  0
ENDBLK
  5
25B
330
1CB
100
AcDbEntity
  8
0
100
AcDbBlockEnd
  0
BLOCK
  5
1DD
330
1D2
100
AcDbEntity
  8
0
100
AcDbBlockBegin
  2
*D15
 70
     1
 10
0.0
 20
0.0
 30
0.0
  3
*D15
  1

  0
LINE
  5
1D3
330
1D2
100
AcDbEntity
  8
Dining Area_ Kitchen
  6
ByBlock
 62
     0
370
    -2
100
AcDbLine
 10
-4.625
 20
47.5
 30
0.0
 11
-4.00410105
 21
47.5
 31
0.0
  0
LINE
  5
1D4
330
1D2
100
AcDbEntity
  8
Dining Area_ Kitchen
  6
ByBlock
 62
     0
370
    -2
100
AcDbLine
 10
-4.625
 20
83.5
 30
0.0
 11
-4.00410105
 21
83.5
 31
0.0
  0
LINE
  5
1D5
330
1D2
100
AcDbEntity
  8
Dining Area_ Kitchen
  6
ByBlock
 62
     0
370
    -2
100
AcDbLine
 10
-4.0
 20
49.5
 30
0.0
 11
-4.0
 21
59.81547619047619
 31
0.0
  0
LINE
  5
1D6
330
1D2
100
AcDbEntity
  8
Dining Area_ Kitchen
  6
ByBlock
 62
     0
370
    -2
100
AcDbLine
 10
-4.0
 20
81.5
 30
0.0
 11
-4.0
 21
71.18452380952381
 31
0.0
  0
SOLID
  5
1D7
330
1D2
100
AcDbEntity
  8
Dining Area_ Kitchen
 62
     0
100
AcDbTrace
 10
-4.333333333333333
 20
49.5
 30
0.0
 11
-3.666666666666667
 21
49.5
 31
0.0
 12
-4.0
 22
47.5
 32
0.0
 13
-4.0
 23
47.5
 33
0.0
  0
SOLID
  5
1D8
330
1D2
100
AcDbEntity
  8
Dining Area_ Kitchen
 62
     0
100
AcDbTrace
 10
-3.666666666666667
 20
81.5
 30
0.0
 11
-4.333333333333333
 21
81.5
 31
0.0
 12
-4.0
 22
83.5
 32
0.0
 13
-4.0
 23
83.5
 33
0.0
  0
MTEXT
  5
1D9
330
1D2
100
AcDbEntity
  8
Dining Area_ Kitchen
 62
     0
100
AcDbMText
 10
-4.0
 20
65.5
 30
0.0
 40
2.5
 41
0.0
 46
0.0
 71
     5
 72
     1
  1
\A1;3'-0"
 11
0.0
 21
1.0
 31
0.0
 73
     1
 44
1.0
  0
POINT
  5
1DA
330
1D2
100
AcDbEntity
  8
Defpoints
 62
     0
100
AcDbPoint
 10
-4.0
 20
47.5
 30
0.0
  0
POINT
  5
1DB
330
1D2
100
AcDbEntity
  8
Defpoints
 62
     0
100
AcDbPoint
 10
-4.0
 20
83.5
 30
0.0
  0
POINT
  5
1DC
330
1D2
100
AcDbEntity
  8
Defpoints
 62
     0
100
AcDbPoint
 10
-4.0
 20
83.5
 30
0.0
  0
ENDBLK
  5
1DE
330
1D2
100
AcDbEntity
  8
0
100
AcDbBlockEnd
  0
BLOCK
  5
1EB
330
1E0
100
AcDbEntity
  8
0
100
AcDbBlockBegin
  2
*D16
 70
     1
 10
0.0
 20
0.0
 30
0.0
  3
*D16
  1

  0
LINE
  5
1E1
330
1E0
100
AcDbEntity
  8
Dining Area_ Kitchen
  6
ByBlock
 62
     0
370
    -2
100
AcDbLine
 10
18.375
 20
109.0
 30
0.0
 11
18.49589895
 21
109.0
 31
0.0
  0
LINE
  5
1E2
330
1E0
100
AcDbEntity
  8
Dining Area_ Kitchen
  6
ByBlock
 62
     0
370
    -2
100
AcDbLine
 10
18.375
 20
83.5
 30
0.0
 11
18.49589895
 21
83.5
 31
0.0
  0
LINE
  5
1E3
330
1E0
100
AcDbEntity
  8
Dining Area_ Kitchen
  6
ByBlock
 62
     0
370
    -2
100
AcDbLine
 10
18.5
 20
107.0
 30
0.0
 11
18.5
 21
103.0357142857143
 31
0.0
  0
LINE
  5
1E4
330
1E0
100
AcDbEntity
  8
Dining Area_ Kitchen
  6
ByBlock
 62
     0
370
    -2
100
AcDbLine
 10
18.5
 20
85.5
 30
0.0
 11
18.5
 21
89.46428571428572
 31
0.0
  0
SOLID
  5
1E5
330
1E0
100
AcDbEntity
  8
Dining Area_ Kitchen
 62
     0
100
AcDbTrace
 10
18.83333333333333
 20
107.0
 30
0.0
 11
18.16666666666667
 21
107.0
 31
0.0
 12
18.5
 22
109.0
 32
0.0
 13
18.5
 23
109.0
 33
0.0
  0
SOLID
  5
1E6
330
1E0
100
AcDbEntity
  8
Dining Area_ Kitchen
 62
     0
100
AcDbTrace
 10
18.16666666666667
 20
85.5
 30
0.0
 11
18.83333333333333
 21
85.5
 31
0.0
 12
18.5
 22
83.5
 32
0.0
 13
18.5
 23
83.5
 33
0.0
  0
MTEXT
  5
1E7
330
1E0
100
AcDbEntity
  8
Dining Area_ Kitchen
 62
     0
100
AcDbMText
 10
18.5
 20
96.25
 30
0.0
 40
2.5
 41
0.0
 46
0.0
 71
     5
 72
     1
  1
\A1;2'-1{\H1.000000x;\S1/2;}"
 11
0.0
 21
1.0
 31
0.0
 73
     1
 44
1.0
  0
POINT
  5
1E8
330
1E0
100
AcDbEntity
  8
Defpoints
 62
     0
100
AcDbPoint
 10
19.0
 20
109.0
 30
0.0
  0
POINT
  5
1E9
330
1E0
100
AcDbEntity
  8
Defpoints
 62
     0
100
AcDbPoint
 10
19.0
 20
83.5
 30
0.0
  0
POINT
  5
1EA
330
1E0
100
AcDbEntity
  8
Defpoints
 62
     0
100
AcDbPoint
 10
18.5
 20
83.5
 30
0.0
  0
ENDBLK
  5
1EC
330
1E0
100
AcDbEntity
  8
0
100
AcDbBlockEnd
  0
BLOCK
  5
1F9
330
1EE
100
AcDbEntity
  8
0
100
AcDbBlockBegin
  2
*D17
 70
     1
 10
0.0
 20
0.0
 30
0.0
  3
*D17
  1

  0
LINE
  5
1EF
330
1EE
100
AcDbEntity
  8
Dining Area_ Kitchen
  6
ByBlock
 62
     0
370
    -2
100
AcDbLine
 10
4.0
 20
98.125
 30
0.0
 11
4.0
 21
97.50410105
 31
0.0
  0
LINE
  5
1F0
330
1EE
100
AcDbEntity
  8
Dining Area_ Kitchen
  6
ByBlock
 62
     0
370
    -2
100
AcDbLine
 10
62.0
 20
98.125
 30
0.0
 11
62.0
 21
97.50410105
 31
0.0
  0
LINE
  5
1F1
330
1EE
100
AcDbEntity
  8
Dining Area_ Kitchen
  6
ByBlock
 62
     0
370
    -2
100
AcDbLine
 10
6.0
 20
97.5
 30
0.0
 11
26.125
 21
97.5
 31
0.0
  0
LINE
  5
1F2
330
1EE
100
AcDbEntity
  8
Dining Area_ Kitchen
  6
ByBlock
 62
     0
370
    -2
100
AcDbLine
 10
60.0
 20
97.5
 30
0.0
 11
39.875
 21
97.5
 31
0.0
  0
SOLID
  5
1F3
330
1EE
100
AcDbEntity
  8
Dining Area_ Kitchen
 62
     0
100
AcDbTrace
 10
6.0
 20
97.83333333333333
 30
0.0
 11
6.0
 21
97.16666666666667
 31
0.0
 12
4.0
 22
97.5
 32
0.0
 13
4.0
 23
97.5
 33
0.0
  0
SOLID
  5
1F4
330
1EE
100
AcDbEntity
  8
Dining Area_ Kitchen
 62
     0
100
AcDbTrace
 10
60.0
 20
97.16666666666667
 30
0.0
 11
60.0
 21
97.83333333333333
 31
0.0
 12
62.0
 22
97.5
 32
0.0
 13
62.0
 23
97.5
 33
0.0
  0
MTEXT
  5
1F5
330
1EE
100
AcDbEntity
  8
Dining Area_ Kitchen
 62
     0
100
AcDbMText
 10
33.0
 20
97.5
 30
0.0
 40
2.5
 41
0.0
 46
0.0
 71
     5
 72
     1
  1
\A1;4'-10"
 73
     1
 44
1.0
  0
POINT
  5
1F6
330
1EE
100
AcDbEntity
  8
Defpoints
 62
     0
100
AcDbPoint
 10
4.0
 20
97.5
 30
0.0
  0
POINT
  5
1F7
330
1EE
100
AcDbEntity
  8
Defpoints
 62
     0
100
AcDbPoint
 10
62.0
 20
97.5
 30
0.0
  0
POINT
  5
1F8
330
1EE
100
AcDbEntity
  8
Defpoints
 62
     0
100
AcDbPoint
 10
62.0
 20
97.5
 30
0.0
  0
ENDBLK
  5
1FA
330
1EE
100
AcDbEntity
  8
0
100
AcDbBlockEnd
  0
BLOCK
  5
210
330
205
100
AcDbEntity
  8
0
100
AcDbBlockBegin
  2
*D18
 70
     1
 10
0.0
 20
0.0
 30
0.0
  3
*D18
  1

  0
LINE
  5
206
330
205
100
AcDbEntity
  8
Dining Area_ Kitchen
  6
ByBlock
 62
     0
370
    -2
100
AcDbLine
 10
18.375
 20
-36.5
 30
0.0
 11
18.49589895
 21
-36.5
 31
0.0
  0
LINE
  5
207
330
205
100
AcDbEntity
  8
Dining Area_ Kitchen
  6
ByBlock
 62
     0
370
    -2
100
AcDbLine
 10
18.375
 20
-62.0
 30
0.0
 11
18.49589895
 21
-62.0
 31
0.0
  0
LINE
  5
208
330
205
100
AcDbEntity
  8
Dining Area_ Kitchen
  6
ByBlock
 62
     0
370
    -2
100
AcDbLine
 10
18.5
 20
-38.5
 30
0.0
 11
18.5
 21
-42.46428571428572
 31
0.0
  0
LINE
  5
209
330
205
100
AcDbEntity
  8
Dining Area_ Kitchen
  6
ByBlock
 62
     0
370
    -2
100
AcDbLine
 10
18.5
 20
-60.0
 30
0.0
 11
18.5
 21
-56.03571428571429
 31
0.0
  0
SOLID
  5
20A
330
205
100
AcDbEntity
  8
Dining Area_ Kitchen
 62
     0
100
AcDbTrace
 10
18.83333333333333
 20
-38.5
 30
0.0
 11
18.16666666666667
 21
-38.5
 31
0.0
 12
18.5
 22
-36.5
 32
0.0
 13
18.5
 23
-36.5
 33
0.0
  0
SOLID
  5
20B
330
205
100
AcDbEntity
  8
Dining Area_ Kitchen
 62
     0
100
AcDbTrace
 10
18.16666666666667
 20
-60.0
 30
0.0
 11
18.83333333333333
 21
-60.0
 31
0.0
 12
18.5
 22
-62.0
 32
0.0
 13
18.5
 23
-62.0
 33
0.0
  0
MTEXT
  5
20C
330
205
100
AcDbEntity
  8
Dining Area_ Kitchen
 62
     0
100
AcDbMText
 10
18.5
 20
-49.25
 30
0.0
 40
2.5
 41
0.0
 46
0.0
 71
     5
 72
     1
  1
\A1;2'-1{\H1.000000x;\S1/2;}"
 11
0.0
 21
1.0
 31
0.0
 73
     1
 44
1.0
  0
POINT
  5
20D
330
205
100
AcDbEntity
  8
Defpoints
 62
     0
100
AcDbPoint
 10
19.0
 20
-36.5
 30
0.0
  0
POINT
  5
20E
330
205
100
AcDbEntity
  8
Defpoints
 62
     0
100
AcDbPoint
 10
19.0
 20
-62.0
 30
0.0
  0
POINT
  5
20F
330
205
100
AcDbEntity
  8
Defpoints
 62
     0
100
AcDbPoint
 10
18.5
 20
-62.0
 30
0.0
  0
ENDBLK
  5
211
330
205
100
AcDbEntity
  8
0
100
AcDbBlockEnd
  0
BLOCK
  5
21E
330
213
100
AcDbEntity
  8
0
100
AcDbBlockBegin
  2
*D19
 70
     1
 10
0.0
 20
0.0
 30
0.0
  3
*D19
  1

  0
LINE
  5
214
330
213
100
AcDbEntity
  8
Dining Area_ Kitchen
  6
ByBlock
 62
     0
370
    -2
100
AcDbLine
 10
4.0
 20
-47.375
 30
0.0
 11
4.0
 21
-47.99589895
 31
0.0
  0
LINE
  5
215
330
213
100
AcDbEntity
  8
Dining Area_ Kitchen
  6
ByBlock
 62
     0
370
    -2
100
AcDbLine
 10
62.0
 20
-47.375
 30
0.0
 11
62.0
 21
-47.99589895
 31
0.0
  0
LINE
  5
216
330
213
100
AcDbEntity
  8
Dining Area_ Kitchen
  6
ByBlock
 62
     0
370
    -2
100
AcDbLine
 10
6.0
 20
-48.0
 30
0.0
 11
26.125
 21
-48.0
 31
0.0
  0
LINE
  5
217
330
213
100
AcDbEntity
  8
Dining Area_ Kitchen
  6
ByBlock
 62
     0
370
    -2
100
AcDbLine
 10
60.0
 20
-48.0
 30
0.0
 11
39.875
 21
-48.0
 31
0.0
  0
SOLID
  5
218
330
213
100
AcDbEntity
  8
Dining Area_ Kitchen
 62
     0
100
AcDbTrace
 10
6.0
 20
-47.66666666666666
 30
0.0
 11
6.0
 21
-48.33333333333334
 31
0.0
 12
4.0
 22
-48.0
 32
0.0
 13
4.0
 23
-48.0
 33
0.0
  0
SOLID
  5
219
330
213
100
AcDbEntity
  8
Dining Area_ Kitchen
 62
     0
100
AcDbTrace
 10
60.0
 20
-48.33333333333334
 30
0.0
 11
60.0
 21
-47.66666666666666
 31
0.0
 12
62.0
 22
-48.0
 32
0.0
 13
62.0
 23
-48.0
 33
0.0
  0
MTEXT
  5
21A
330
213
100
AcDbEntity
  8
Dining Area_ Kitchen
 62
     0
100
AcDbMText
 10
33.0
 20
-48.0
 30
0.0
 40
2.5
 41
0.0
 46
0.0
 71
     5
 72
     1
  1
\A1;4'-10"
 73
     1
 44
1.0
  0
POINT
  5
21B
330
213
100
AcDbEntity
  8
Defpoints
 62
     0
100
AcDbPoint
 10
4.0
 20
-48.0
 30
0.0
  0
POINT
  5
21C
330
213
100
AcDbEntity
  8
Defpoints
 62
     0
100
AcDbPoint
 10
62.0
 20
-48.0
 30
0.0
  0
POINT
  5
21D
330
213
100
AcDbEntity
  8
Defpoints
 62
     0
100
AcDbPoint
 10
62.0
 20
-48.0
 30
0.0
  0
ENDBLK
  5
21F
330
213
100
AcDbEntity
  8
0
100
AcDbBlockEnd
  0
BLOCK
  5
22C
330
221
100
AcDbEntity
  8
0
100
AcDbBlockBegin
  2
*D20
 70
     1
 10
0.0
 20
0.0
 30
0.0
  3
*D20
  1

  0
LINE
  5
222
330
221
100
AcDbEntity
  8
Dining Area_ Kitchen
  6
ByBlock
 62
     0
370
    -2
100
AcDbLine
 10
0.5
 20
2.125
 30
0.0
 11
0.5
 21
2.00410105
 31
0.0
  0
LINE
  5
223
330
221
100
AcDbEntity
  8
Dining Area_ Kitchen
  6
ByBlock
 62
     0
370
    -2
100
AcDbLine
 10
36.5
 20
2.625
 30
0.0
 11
36.5
 21
2.00410105
 31
0.0
  0
LINE
  5
224
330
221
100
AcDbEntity
  8
Dining Area_ Kitchen
  6
ByBlock
 62
     0
370
    -2
100
AcDbLine
 10
2.5
 20
2.0
 30
0.0
 11
12.81547619047619
 21
2.0
 31
0.0
  0
LINE
  5
225
330
221
100
AcDbEntity
  8
Dining Area_ Kitchen
  6
ByBlock
 62
     0
370
    -2
100
AcDbLine
 10
34.5
 20
2.0
 30
0.0
 11
24.18452380952381
 21
2.0
 31
0.0
  0
SOLID
  5
226
330
221
100
AcDbEntity
  8
Dining Area_ Kitchen
 62
     0
100
AcDbTrace
 10
2.5
 20
2.333333333333333
 30
0.0
 11
2.5
 21
1.666666666666667
 31
0.0
 12
0.5
 22
2.0
 32
0.0
 13
0.5
 23
2.0
 33
0.0
  0
SOLID
  5
227
330
221
100
AcDbEntity
  8
Dining Area_ Kitchen
 62
     0
100
AcDbTrace
 10
34.5
 20
1.666666666666667
 30
0.0
 11
34.5
 21
2.333333333333333
 31
0.0
 12
36.5
 22
2.0
 32
0.0
 13
36.5
 23
2.0
 33
0.0
  0
MTEXT
  5
228
330
221
100
AcDbEntity
  8
Dining Area_ Kitchen
 62
     0
100
AcDbMText
 10
18.5
 20
2.0
 30
0.0
 40
2.5
 41
0.0
 46
0.0
 71
     5
 72
     1
  1
\A1;3'-0"
 73
     1
 44
1.0
  0
POINT
  5
229
330
221
100
AcDbEntity
  8
Defpoints
 62
     0
100
AcDbPoint
 10
0.5
 20
1.5
 30
0.0
  0
POINT
  5
22A
330
221
100
AcDbEntity
  8
Defpoints
 62
     0
100
AcDbPoint
 10
36.5
 20
2.0
 30
0.0
  0
POINT
  5
22B
330
221
100
AcDbEntity
  8
Defpoints
 62
     0
100
AcDbPoint
 10
36.5
 20
2.0
 30
0.0
  0
ENDBLK
  5
22D
330
221
100
AcDbEntity
  8
0
100
AcDbBlockEnd
  0
BLOCK
  5
23D
330
232
100
AcDbEntity
  8
0
100
AcDbBlockBegin
  2
*D21
 70
     1
 10
0.0
 20
0.0
 30
0.0
  3
*D21
  1

  0
LINE
  5
233
330
232
100
AcDbEntity
  8
Dining Area_ Kitchen
  6
ByBlock
 62
     0
370
    -2
100
AcDbLine
 10
3.375
 20
-36.5
 30
0.0
 11
3.99589895
 21
-36.5
 31
0.0
  0
LINE
  5
234
330
232
100
AcDbEntity
  8
Dining Area_ Kitchen
  6
ByBlock
 62
     0
370
    -2
100
AcDbLine
 10
3.375
 20
-0.5
 30
0.0
 11
3.99589895
 21
-0.5
 31
0.0
  0
LINE
  5
235
330
232
100
AcDbEntity
  8
Dining Area_ Kitchen
  6
ByBlock
 62
     0
370
    -2
100
AcDbLine
 10
4.0
 20
-34.5
 30
0.0
 11
4.0
 21
-24.18452380952381
 31
0.0
  0
LINE
  5
236
330
232
100
AcDbEntity
  8
Dining Area_ Kitchen
  6
ByBlock
 62
     0
370
    -2
100
AcDbLine
 10
4.0
 20
-2.5
 30
0.0
 11
4.0
 21
-12.81547619047619
 31
0.0
  0
SOLID
  5
237
330
232
100
AcDbEntity
  8
Dining Area_ Kitchen
 62
     0
100
AcDbTrace
 10
3.666666666666667
 20
-34.5
 30
0.0
 11
4.333333333333333
 21
-34.5
 31
0.0
 12
4.0
 22
-36.5
 32
0.0
 13
4.0
 23
-36.5
 33
0.0
  0
SOLID
  5
238
330
232
100
AcDbEntity
  8
Dining Area_ Kitchen
 62
     0
100
AcDbTrace
 10
4.333333333333333
 20
-2.5
 30
0.0
 11
3.666666666666667
 21
-2.5
 31
0.0
 12
4.0
 22
-0.5
 32
0.0
 13
4.0
 23
-0.5
 33
0.0
  0
MTEXT
  5
239
330
232
100
AcDbEntity
  8
Dining Area_ Kitchen
 62
     0
100
AcDbMText
 10
4.0
 20
-18.5
 30
0.0
 40
2.5
 41
0.0
 46
0.0
 71
     5
 72
     1
  1
\A1;3'-0"
 11
0.0
 21
1.0
 31
0.0
 73
     1
 44
1.0
  0
POINT
  5
23A
330
232
100
AcDbEntity
  8
Defpoints
 62
     0
100
AcDbPoint
 10
4.0
 20
-36.5
 30
0.0
  0
POINT
  5
23B
330
232
100
AcDbEntity
  8
Defpoints
 62
     0
100
AcDbPoint
 10
4.0
 20
-0.5
 30
0.0
  0
POINT
  5
23C
330
232
100
AcDbEntity
  8
Defpoints
 62
     0
100
AcDbPoint
 10
4.0
 20
-0.5
 30
0.0
  0
ENDBLK
  5
23E
330
232
100
AcDbEntity
  8
0
100
AcDbBlockEnd
  0
BLOCK
  5
24B
330
240
100
AcDbEntity
  8
0
100
AcDbBlockBegin
  2
*D22
 70
     1
 10
0.0
 20
0.0
 30
0.0
  3
*D22
  1

  0
LINE
  5
241
330
240
100
AcDbEntity
  8
Dining Area_ Kitchen
  6
ByBlock
 62
     0
370
    -2
100
AcDbLine
 10
50.375
 20
-36.5
 30
0.0
 11
50.49589894999999
 21
-36.5
 31
0.0
  0
LINE
  5
242
330
240
100
AcDbEntity
  8
Dining Area_ Kitchen
  6
ByBlock
 62
     0
370
    -2
100
AcDbLine
 10
49.875
 20
83.5
 30
0.0
 11
50.49589895
 21
83.5
 31
0.0
  0
LINE
  5
243
330
240
100
AcDbEntity
  8
Dining Area_ Kitchen
  6
ByBlock
 62
     0
370
    -2
100
AcDbLine
 10
50.49999999999999
 20
-34.5
 30
0.0
 11
50.49999999999999
 21
16.80357142857143
 31
0.0
  0
LINE
  5
244
330
240
100
AcDbEntity
  8
Dining Area_ Kitchen
  6
ByBlock
 62
     0
370
    -2
100
AcDbLine
 10
50.5
 20
81.5
 30
0.0
 11
50.5
 21
30.19642857142857
 31
0.0
  0
SOLID
  5
245
330
240
100
AcDbEntity
  8
Dining Area_ Kitchen
 62
     0
100
AcDbTrace
 10
50.16666666666666
 20
-34.5
 30
0.0
 11
50.83333333333333
 21
-34.5
 31
0.0
 12
50.49999999999999
 22
-36.5
 32
0.0
 13
50.49999999999999
 23
-36.5
 33
0.0
  0
SOLID
  5
246
330
240
100
AcDbEntity
  8
Dining Area_ Kitchen
 62
     0
100
AcDbTrace
 10
50.83333333333334
 20
81.5
 30
0.0
 11
50.16666666666666
 21
81.5
 31
0.0
 12
50.5
 22
83.5
 32
0.0
 13
50.5
 23
83.5
 33
0.0
  0
MTEXT
  5
247
330
240
100
AcDbEntity
  8
Dining Area_ Kitchen
 62
     0
100
AcDbMText
 10
50.5
 20
23.5
 30
0.0
 40
2.5
 41
0.0
 46
0.0
 71
     5
 72
     1
  1
\A1;10'-0"
 11
5.921189464667501E-17
 21
1.0
 31
0.0
 73
     1
 44
1.0
  0
POINT
  5
248
330
240
100
AcDbEntity
  8
Defpoints
 62
     0
100
AcDbPoint
 10
51.0
 20
-36.5
 30
0.0
  0
POINT
  5
249
330
240
100
AcDbEntity
  8
Defpoints
 62
     0
100
AcDbPoint
 10
50.5
 20
83.5
 30
0.0
  0
POINT
  5
24A
330
240
100
AcDbEntity
  8
Defpoints
 62
     0
100
AcDbPoint
 10
50.5
 20
83.5
 30
0.0
  0
ENDBLK
  5
24C
330
240
100
AcDbEntity
  8
0
100
AcDbBlockEnd
  0
BLOCK
  5
25A
330
259
100
AcDbEntity
  8
0
100
AcDbBlockBegin
  2
Eating _ Counter
 70
     0
 10
0.0
 20
0.0
 30
0.0
  3
Eating _ Counter
  1

  0
DIMENSION
  5
25C
330
259
100
AcDbEntity
  8
Dining Area_ Kitchen
100
AcDbDimension
  2
*D24
 10
235.25
 20
222.625
 30
0.0
 11
248.0
 21
222.625
 31
0.0
 70
    32
  1
<>
 71
     5
 42
25.5
 73
     0
 74
     0
 75
     0
  3
Standard
100
AcDbAlignedDimension
 13
260.75
 23
221.625
 33
0.0
 14
235.25
 24
221.625
 34
0.0
100
AcDbRotatedDimension
1001
ACAD
1000
DSTYLE
1002
{
1070
   179
1070
     4
1070
   148
1040
0.0000001
1070
     3
1000

1070
    45
1040
0.0000001
1002
}
  0
DIMENSION
  5
26A
330
259
100
AcDbEntity
  8
Dining Area_ Kitchen
100
AcDbDimension
  2
*D25
 10
199.5
 20
208.625
 30
0.0
 11
212.25
 21
208.625
 31
0.0
 70
    32
  1
<>
 71
     5
 42
25.5
 73
     0
 74
     0
 75
     0
  3
Standard
100
AcDbAlignedDimension
 13
225.0
 23
207.625
 33
0.0
 14
199.5
 24
207.625
 34
0.0
100
AcDbRotatedDimension
1001
ACAD
1000
DSTYLE
1002
{
1070
   179
1070
     4
1070
   148
1040
0.0000001
1070
     3
1000

1070
    45
1040
0.0000001
1002
}
  0
LWPOLYLINE
  5
27A
102
{ACAD_XDICTIONARY
360
278
102
}
330
259
100
AcDbEntity
  8
Dining Area_ Kitchen
100
AcDbPolyline
 90
        4
 70
     1
 43
0.0
 10
225.0
 20
221.5
 10
167.0
 20
221.5
 10
167.0
 20
247.0
 10
225.0
 20
247.0
  0
DIMENSION
  5
27B
330
259
100
AcDbEntity
  8
Dining Area_ Kitchen
100
AcDbDimension
  2
*D26
 10
181.5
 20
221.5
 30
0.0
 11
181.5
 21
234.25
 31
0.0
 70
    32
  1
<>
 71
     5
 42
25.5
 73
     0
 74
     0
 75
     0
  3
Standard
100
AcDbAlignedDimension
 13
182.0
 23
247.0
 33
0.0
 14
182.0
 24
221.5
 34
0.0
 50
90.0
100
AcDbRotatedDimension
1001
ACAD
1000
DSTYLE
1002
{
1070
   179
1070
     4
1070
   148
1040
0.0000001
1070
     3
1000

1070
    45
1040
0.0000001
1002
}
  0
DIMENSION
  5
289
330
259
100
AcDbEntity
  8
Dining Area_ Kitchen
100
AcDbDimension
  2
*D27
 10
225.0
 20
235.5
 30
0.0
 11
196.0
 21
235.5
 31
0.0
 70
    33
  1
<>
 71
     5
 42
58.0
 73
     0
 74
     0
 75
     0
  3
Standard
100
AcDbAlignedDimension
 13
167.0
 23
235.5
 33
0.0
 14
225.0
 24
235.5
 34
0.0
1001
ACAD
1000
DSTYLE
1002
{
1070
   179
1070
     4
1070
   148
1040
0.0000001
1070
     3
1000

1070
    45
1040
0.0000001
1002
}
  0
LWPOLYLINE
  5
299
102
{ACAD_XDICTIONARY
360
297
102
}
330
259
100
AcDbEntity
  8
Dining Area_ Kitchen
100
AcDbPolyline
 90
        4
 70
     1
 43
0.0
 10
225.0
 20
129.5
 10
199.5
 20
129.5
 10
199.5
 20
221.5
 10
225.0
 20
221.5
  0
MTEXT
  5
29C
102
{ACAD_XDICTIONARY
360
29A
102
}
330
259
100
AcDbEntity
  8
Dining Area_ Kitchen
100
AcDbMText
 10
211.9999999980616
 20
175.7884615555556
 30
0.0
 40
2.000000046520698
 41
50.62820488888889
 46
0.0
 71
     5
 72
     1
  1
Eating Counter 25-1/2" x 7'-8"
  7
_TCW_TXTSTY_1
 11
6.123233995736766E-17
 21
1.0
 31
0.0
 73
     2
 44
1.0
  0
DIMENSION
  5
29D
330
259
100
AcDbEntity
  8
Dining Area_ Kitchen
100
AcDbDimension
  2
*D28
 10
199.5
 20
285.5
 30
0.0
 11
181.5
 21
285.5
 31
0.0
 70
    32
  1
<>
 71
     5
 42
36.0
 73
     0
 74
     0
 75
     0
  3
Standard
100
AcDbAlignedDimension
 13
163.5
 23
285.0
 33
0.0
 14
199.5
 24
285.5
 34
0.0
100
AcDbRotatedDimension
1001
ACAD
1000
DSTYLE
1002
{
1070
   179
1070
     4
1070
   148
1040
0.0000001
1070
     3
1000

1070
    45
1040
0.0000001
1002
}
  0
LWPOLYLINE
  5
2AD
102
{ACAD_XDICTIONARY
360
2AB
102
}
330
259
100
AcDbEntity
  8
Dining Area_ Kitchen
100
AcDbPolyline
 90
        4
 70
     1
 43
0.0
 10
115.5
 20
283.0
 10
163.5
 20
283.0
 10
163.5
 20
331.0
 10
115.5
 20
331.0
  0
DIMENSION
  5
2AE
330
259
100
AcDbEntity
  8
Dining Area_ Kitchen
100
AcDbDimension
  2
*D29
 10
167.0
 20
283.0
 30
0.0
 11
167.0
 21
265.0
 31
0.0
 70
    33
  1
<>
 71
     5
 42
36.0
 73
     0
 74
     0
 75
     0
  3
Standard
100
AcDbAlignedDimension
 13
167.0
 23
247.0
 33
0.0
 14
167.0
 24
283.0
 34
0.0
1001
ACAD
1000
DSTYLE
1002
{
1070
   179
1070
     4
1070
   148
1040
0.0000001
1070
     3
1000

1070
    45
1040
0.0000001
1002
}
  0
DIMENSION
  5
2BC
330
259
100
AcDbEntity
  8
Dining Area_ Kitchen
100
AcDbDimension
  2
*D30
 10
213.5
 20
367.0
 30
0.0
 11
213.5
 21
307.0
 31
0.0
 70
    32
  1
<>
 71
     5
 42
120.0
 73
     0
 74
     0
 75
     0
  3
Standard
100
AcDbAlignedDimension
 13
214.0
 23
247.0
 33
0.0
 14
213.5
 24
367.0
 34
0.0
 50
90.0
100
AcDbRotatedDimension
1001
ACAD
1000
DSTYLE
1002
{
1070
   179
1070
     4
1070
   148
1040
0.0000001
1070
     3
1000

1070
    45
1040
0.0000001
1002
}
  0
LWPOLYLINE
  5
2CC
102
{ACAD_XDICTIONARY
360
2CA
102
}
330
259
100
AcDbEntity
  8
Dining Area_ Kitchen
100
AcDbPolyline
 90
        4
 70
     1
 43
0.0
 10
225.0
 20
247.0
 10
199.5
 20
247.0
 10
199.5
 20
367.0
 10
225.0
 20
367.0
  0
DIMENSION
  5
2CD
330
259
100
AcDbEntity
  8
Dining Area_ Kitchen
100
AcDbDimension
  2
*D31
 10
115.5
 20
292.5
 30
0.0
 11
98.25
 21
292.5
 31
0.0
 70
    33
  1
<>
 71
     5
 42
34.5
 73
     0
 74
     0
 75
     0
  3
Standard
100
AcDbAlignedDimension
 13
81.0
 23
292.0
 33
0.0
 14
115.5
 24
292.0
 34
0.0
1001
ACAD
1000
DSTYLE
1002
{
1070
   179
1070
     4
1070
   148
1040
0.0000001
1070
     3
1000

1070
    45
1040
0.0000001
1002
}
  0
MTEXT
  5
2DD
102
{ACAD_XDICTIONARY
360
2DB
102
}
330
259
100
AcDbEntity
  8
Dining Area_ Kitchen
100
AcDbMText
 10
141.9999999980616
 20
307.7884615555556
 30
0.0
 40
2.000000046520698
 41
10.20135755555556
 46
0.0
 71
     5
 72
     1
  1
Island\P4' x 4'
  7
_TCW_TXTSTY_1
 11
6.123233995736766E-17
 21
1.0
 31
0.0
 73
     2
 44
1.0
  0
INSERT
  5
2DE
330
259
100
AcDbEntity
  8
Dining Area_ Kitchen
100
AcDbBlockReference
  2
Bar Stool
 10
183.0
 20
171.5
 30
0.0
  0
INSERT
  5
2DF
330
259
100
AcDbEntity
  8
Dining Area_ Kitchen
100
AcDbBlockReference
  2
Bar Stool
 10
183.0
 20
149.5
 30
0.0
  0
INSERT
  5
2E0
330
259
100
AcDbEntity
  8
Dining Area_ Kitchen
100
AcDbBlockReference
  2
Bar Stool
 10
183.0
 20
193.5
 30
0.0
  0
INSERT
  5
2E1
330
259
100
AcDbEntity
  8
Dining Area_ Kitchen
100
AcDbBlockReference
  2
Bar Stool
 10
183.0
 20
215.5
 30
0.0
  0
INSERT
  5
2E2
330
259
100
AcDbEntity
  8
Dining Area_ Kitchen
100
AcDbBlockReference
  2
Eating Counter_ Detail
 10
-5.0
 20
8.5
 30
0.0
  0
DIMENSION
  5
2E3
330
259
100
AcDbEntity
  8
Dining Area_ Kitchen
100
AcDbDimension
  2
*D32
 10
-13.5
 20
-3.0
 30
0.0
 11
-22.10714285714286
 21
-3.0
 31
0.0
 70
    32
  1
<>
 71
     5
 42
12.5
 73
     0
 74
     0
 75
     0
  3
Standard
100
AcDbAlignedDimension
 13
-1.0
 23
-2.5
 33
0.0
 14
-13.5
 24
-2.5
 34
0.0
100
AcDbRotatedDimension
1001
ACAD
1000
DSTYLE
1002
{
1070
   179
1070
     4
1070
   148
1040
0.0000001
1070
     3
1000

1070
    45
1040
0.0000001
1002
}
  0
ENDBLK
  5
2F3
330
259
100
AcDbEntity
  8
0
100
AcDbBlockEnd
  0
BLOCK
  5
268
330
25D
100
AcDbEntity
  8
0
100
AcDbBlockBegin
  2
*D24
 70
     1
 10
0.0
 20
0.0
 30
0.0
  3
*D24
  1

  0
LINE
  5
25E
330
25D
100
AcDbEntity
  8
Dining Area_ Kitchen
  6
ByBlock
 62
     0
370
    -2
100
AcDbLine
 10
260.75
 20
222.25
 30
0.0
 11
260.75
 21
222.62910105
 31
0.0
  0
LINE
  5
25F
330
25D
100
AcDbEntity
  8
Dining Area_ Kitchen
  6
ByBlock
 62
     0
370
    -2
100
AcDbLine
 10
235.25
 20
222.25
 30
0.0
 11
235.25
 21
222.62910105
 31
0.0
  0
LINE
  5
260
330
25D
100
AcDbEntity
  8
Dining Area_ Kitchen
  6
ByBlock
 62
     0
370
    -2
100
AcDbLine
 10
258.75
 20
222.625
 30
0.0
 11
254.7857142857143
 21
222.625
 31
0.0
  0
LINE
  5
261
330
25D
100
AcDbEntity
  8
Dining Area_ Kitchen
  6
ByBlock
 62
     0
370
    -2
100
AcDbLine
 10
237.25
 20
222.625
 30
0.0
 11
241.2142857142857
 21
222.625
 31
0.0
  0
SOLID
  5
262
330
25D
100
AcDbEntity
  8
Dining Area_ Kitchen
 62
     0
100
AcDbTrace
 10
258.75
 20
222.2916666666667
 30
0.0
 11
258.75
 21
222.9583333333333
 31
0.0
 12
260.75
 22
222.625
 32
0.0
 13
260.75
 23
222.625
 33
0.0
  0
SOLID
  5
263
330
25D
100
AcDbEntity
  8
Dining Area_ Kitchen
 62
     0
100
AcDbTrace
 10
237.25
 20
222.9583333333333
 30
0.0
 11
237.25
 21
222.2916666666667
 31
0.0
 12
235.25
 22
222.625
 32
0.0
 13
235.25
 23
222.625
 33
0.0
  0
MTEXT
  5
264
330
25D
100
AcDbEntity
  8
Dining Area_ Kitchen
 62
     0
100
AcDbMText
 10
248.0
 20
222.625
 30
0.0
 40
2.5
 41
0.0
 46
0.0
 71
     5
 72
     1
  1
\A1;2'-1{\H1.000000x;\S1/2;}"
 73
     1
 44
1.0
  0
POINT
  5
265
330
25D
100
AcDbEntity
  8
Defpoints
 62
     0
100
AcDbPoint
 10
260.75
 20
221.625
 30
0.0
  0
POINT
  5
266
330
25D
100
AcDbEntity
  8
Defpoints
 62
     0
100
AcDbPoint
 10
235.25
 20
221.625
 30
0.0
  0
POINT
  5
267
330
25D
100
AcDbEntity
  8
Defpoints
 62
     0
100
AcDbPoint
 10
235.25
 20
222.625
 30
0.0
  0
ENDBLK
  5
269
330
25D
100
AcDbEntity
  8
0
100
AcDbBlockEnd
  0
BLOCK
  5
276
330
26B
100
AcDbEntity
  8
0
100
AcDbBlockBegin
  2
*D25
 70
     1
 10
0.0
 20
0.0
 30
0.0
  3
*D25
  1

  0
LINE
  5
26C
330
26B
100
AcDbEntity
  8
Dining Area_ Kitchen
  6
ByBlock
 62
     0
370
    -2
100
AcDbLine
 10
225.0
 20
208.25
 30
0.0
 11
225.0
 21
208.62910105
 31
0.0
  0
LINE
  5
26D
330
26B
100
AcDbEntity
  8
Dining Area_ Kitchen
  6
ByBlock
 62
     0
370
    -2
100
AcDbLine
 10
199.5
 20
208.25
 30
0.0
 11
199.5
 21
208.62910105
 31
0.0
  0
LINE
  5
26E
330
26B
100
AcDbEntity
  8
Dining Area_ Kitchen
  6
ByBlock
 62
     0
370
    -2
100
AcDbLine
 10
223.0
 20
208.625
 30
0.0
 11
219.0357142857143
 21
208.625
 31
0.0
  0
LINE
  5
26F
330
26B
100
AcDbEntity
  8
Dining Area_ Kitchen
  6
ByBlock
 62
     0
370
    -2
100
AcDbLine
 10
201.5
 20
208.625
 30
0.0
 11
205.4642857142857
 21
208.625
 31
0.0
  0
SOLID
  5
270
330
26B
100
AcDbEntity
  8
Dining Area_ Kitchen
 62
     0
100
AcDbTrace
 10
223.0
 20
208.2916666666667
 30
0.0
 11
223.0
 21
208.9583333333333
 31
0.0
 12
225.0
 22
208.625
 32
0.0
 13
225.0
 23
208.625
 33
0.0
  0
SOLID
  5
271
330
26B
100
AcDbEntity
  8
Dining Area_ Kitchen
 62
     0
100
AcDbTrace
 10
201.5
 20
208.9583333333333
 30
0.0
 11
201.5
 21
208.2916666666667
 31
0.0
 12
199.5
 22
208.625
 32
0.0
 13
199.5
 23
208.625
 33
0.0
  0
MTEXT
  5
272
330
26B
100
AcDbEntity
  8
Dining Area_ Kitchen
 62
     0
100
AcDbMText
 10
212.25
 20
208.625
 30
0.0
 40
2.5
 41
0.0
 46
0.0
 71
     5
 72
     1
  1
\A1;2'-1{\H1.000000x;\S1/2;}"
 73
     1
 44
1.0
  0
POINT
  5
273
330
26B
100
AcDbEntity
  8
Defpoints
 62
     0
100
AcDbPoint
 10
225.0
 20
207.625
 30
0.0
  0
POINT
  5
274
330
26B
100
AcDbEntity
  8
Defpoints
 62
     0
100
AcDbPoint
 10
199.5
 20
207.625
 30
0.0
  0
POINT
  5
275
330
26B
100
AcDbEntity
  8
Defpoints
 62
     0
100
AcDbPoint
 10
199.5
 20
208.625
 30
0.0
  0
ENDBLK
  5
277
330
26B
100
AcDbEntity
  8
0
100
AcDbBlockEnd
  0
BLOCK
  5
287
330
27C
100
AcDbEntity
  8
0
100
AcDbBlockBegin
  2
*D26
 70
     1
 10
0.0
 20
0.0
 30
0.0
  3
*D26
  1

  0
LINE
  5
27D
330
27C
100
AcDbEntity
  8
Dining Area_ Kitchen
  6
ByBlock
 62
     0
370
    -2
100
AcDbLine
 10
181.375
 20
247.0
 30
0.0
 11
181.49589895
 21
247.0
 31
0.0
  0
LINE
  5
27E
330
27C
100
AcDbEntity
  8
Dining Area_ Kitchen
  6
ByBlock
 62
     0
370
    -2
100
AcDbLine
 10
181.375
 20
221.5
 30
0.0
 11
181.49589895
 21
221.5
 31
0.0
  0
LINE
  5
27F
330
27C
100
AcDbEntity
  8
Dining Area_ Kitchen
  6
ByBlock
 62
     0
370
    -2
100
AcDbLine
 10
181.5
 20
245.0
 30
0.0
 11
181.5
 21
241.0357142857143
 31
0.0
  0
LINE
  5
280
330
27C
100
AcDbEntity
  8
Dining Area_ Kitchen
  6
ByBlock
 62
     0
370
    -2
100
AcDbLine
 10
181.5
 20
223.5
 30
0.0
 11
181.5
 21
227.4642857142857
 31
0.0
  0
SOLID
  5
281
330
27C
100
AcDbEntity
  8
Dining Area_ Kitchen
 62
     0
100
AcDbTrace
 10
181.8333333333333
 20
245.0
 30
0.0
 11
181.1666666666667
 21
245.0
 31
0.0
 12
181.5
 22
247.0
 32
0.0
 13
181.5
 23
247.0
 33
0.0
  0
SOLID
  5
282
330
27C
100
AcDbEntity
  8
Dining Area_ Kitchen
 62
     0
100
AcDbTrace
 10
181.1666666666667
 20
223.5
 30
0.0
 11
181.8333333333333
 21
223.5
 31
0.0
 12
181.5
 22
221.5
 32
0.0
 13
181.5
 23
221.5
 33
0.0
  0
MTEXT
  5
283
330
27C
100
AcDbEntity
  8
Dining Area_ Kitchen
 62
     0
100
AcDbMText
 10
181.5
 20
234.25
 30
0.0
 40
2.5
 41
0.0
 46
0.0
 71
     5
 72
     1
  1
\A1;2'-1{\H1.000000x;\S1/2;}"
 11
0.0
 21
1.0
 31
0.0
 73
     1
 44
1.0
  0
POINT
  5
284
330
27C
100
AcDbEntity
  8
Defpoints
 62
     0
100
AcDbPoint
 10
182.0
 20
247.0
 30
0.0
  0
POINT
  5
285
330
27C
100
AcDbEntity
  8
Defpoints
 62
     0
100
AcDbPoint
 10
182.0
 20
221.5
 30
0.0
  0
POINT
  5
286
330
27C
100
AcDbEntity
  8
Defpoints
 62
     0
100
AcDbPoint
 10
181.5
 20
221.5
 30
0.0
  0
ENDBLK
  5
288
330
27C
100
AcDbEntity
  8
0
100
AcDbBlockEnd
  0
BLOCK
  5
295
330
28A
100
AcDbEntity
  8
0
100
AcDbBlockBegin
  2
*D27
 70
     1
 10
0.0
 20
0.0
 30
0.0
  3
*D27
  1

  0
LINE
  5
28B
330
28A
100
AcDbEntity
  8
Dining Area_ Kitchen
  6
ByBlock
 62
     0
370
    -2
100
AcDbLine
 10
167.0
 20
236.125
 30
0.0
 11
167.0
 21
235.50410105
 31
0.0
  0
LINE
  5
28C
330
28A
100
AcDbEntity
  8
Dining Area_ Kitchen
  6
ByBlock
 62
     0
370
    -2
100
AcDbLine
 10
225.0
 20
236.125
 30
0.0
 11
225.0
 21
235.50410105
 31
0.0
  0
LINE
  5
28D
330
28A
100
AcDbEntity
  8
Dining Area_ Kitchen
  6
ByBlock
 62
     0
370
    -2
100
AcDbLine
 10
169.0
 20
235.5
 30
0.0
 11
189.125
 21
235.5
 31
0.0
  0
LINE
  5
28E
330
28A
100
AcDbEntity
  8
Dining Area_ Kitchen
  6
ByBlock
 62
     0
370
    -2
100
AcDbLine
 10
223.0
 20
235.5
 30
0.0
 11
202.875
 21
235.5
 31
0.0
  0
SOLID
  5
28F
330
28A
100
AcDbEntity
  8
Dining Area_ Kitchen
 62
     0
100
AcDbTrace
 10
169.0
 20
235.8333333333333
 30
0.0
 11
169.0
 21
235.1666666666667
 31
0.0
 12
167.0
 22
235.5
 32
0.0
 13
167.0
 23
235.5
 33
0.0
  0
SOLID
  5
290
330
28A
100
AcDbEntity
  8
Dining Area_ Kitchen
 62
     0
100
AcDbTrace
 10
223.0
 20
235.1666666666667
 30
0.0
 11
223.0
 21
235.8333333333333
 31
0.0
 12
225.0
 22
235.5
 32
0.0
 13
225.0
 23
235.5
 33
0.0
  0
MTEXT
  5
291
330
28A
100
AcDbEntity
  8
Dining Area_ Kitchen
 62
     0
100
AcDbMText
 10
196.0
 20
235.5
 30
0.0
 40
2.5
 41
0.0
 46
0.0
 71
     5
 72
     1
  1
\A1;4'-10"
 73
     1
 44
1.0
  0
POINT
  5
292
330
28A
100
AcDbEntity
  8
Defpoints
 62
     0
100
AcDbPoint
 10
167.0
 20
235.5
 30
0.0
  0
POINT
  5
293
330
28A
100
AcDbEntity
  8
Defpoints
 62
     0
100
AcDbPoint
 10
225.0
 20
235.5
 30
0.0
  0
POINT
  5
294
330
28A
100
AcDbEntity
  8
Defpoints
 62
     0
100
AcDbPoint
 10
225.0
 20
235.5
 30
0.0
  0
ENDBLK
  5
296
330
28A
100
AcDbEntity
  8
0
100
AcDbBlockEnd
  0
BLOCK
  5
2A9
330
29E
100
AcDbEntity
  8
0
100
AcDbBlockBegin
  2
*D28
 70
     1
 10
0.0
 20
0.0
 30
0.0
  3
*D28
  1

  0
LINE
  5
29F
330
29E
100
AcDbEntity
  8
Dining Area_ Kitchen
  6
ByBlock
 62
     0
370
    -2
100
AcDbLine
 10
163.5
 20
285.625
 30
0.0
 11
163.5
 21
285.50410105
 31
0.0
  0
LINE
  5
2A0
330
29E
100
AcDbEntity
  8
Dining Area_ Kitchen
  6
ByBlock
 62
     0
370
    -2
100
AcDbLine
 10
199.5
 20
286.125
 30
0.0
 11
199.5
 21
285.50410105
 31
0.0
  0
LINE
  5
2A1
330
29E
100
AcDbEntity
  8
Dining Area_ Kitchen
  6
ByBlock
 62
     0
370
    -2
100
AcDbLine
 10
165.5
 20
285.5
 30
0.0
 11
175.8154761904762
 21
285.5
 31
0.0
  0
LINE
  5
2A2
330
29E
100
AcDbEntity
  8
Dining Area_ Kitchen
  6
ByBlock
 62
     0
370
    -2
100
AcDbLine
 10
197.5
 20
285.5
 30
0.0
 11
187.1845238095238
 21
285.5
 31
0.0
  0
SOLID
  5
2A3
330
29E
100
AcDbEntity
  8
Dining Area_ Kitchen
 62
     0
100
AcDbTrace
 10
165.5
 20
285.8333333333333
 30
0.0
 11
165.5
 21
285.1666666666667
 31
0.0
 12
163.5
 22
285.5
 32
0.0
 13
163.5
 23
285.5
 33
0.0
  0
SOLID
  5
2A4
330
29E
100
AcDbEntity
  8
Dining Area_ Kitchen
 62
     0
100
AcDbTrace
 10
197.5
 20
285.1666666666667
 30
0.0
 11
197.5
 21
285.8333333333333
 31
0.0
 12
199.5
 22
285.5
 32
0.0
 13
199.5
 23
285.5
 33
0.0
  0
MTEXT
  5
2A5
330
29E
100
AcDbEntity
  8
Dining Area_ Kitchen
 62
     0
100
AcDbMText
 10
181.5
 20
285.5
 30
0.0
 40
2.5
 41
0.0
 46
0.0
 71
     5
 72
     1
  1
\A1;3'-0"
 73
     1
 44
1.0
  0
POINT
  5
2A6
330
29E
100
AcDbEntity
  8
Defpoints
 62
     0
100
AcDbPoint
 10
163.5
 20
285.0
 30
0.0
  0
POINT
  5
2A7
330
29E
100
AcDbEntity
  8
Defpoints
 62
     0
100
AcDbPoint
 10
199.5
 20
285.5
 30
0.0
  0
POINT
  5
2A8
330
29E
100
AcDbEntity
  8
Defpoints
 62
     0
100
AcDbPoint
 10
199.5
 20
285.5
 30
0.0
  0
ENDBLK
  5
2AA
330
29E
100
AcDbEntity
  8
0
100
AcDbBlockEnd
  0
BLOCK
  5
2BA
330
2AF
100
AcDbEntity
  8
0
100
AcDbBlockBegin
  2
*D29
 70
     1
 10
0.0
 20
0.0
 30
0.0
  3
*D29
  1

  0
LINE
  5
2B0
330
2AF
100
AcDbEntity
  8
Dining Area_ Kitchen
  6
ByBlock
 62
     0
370
    -2
100
AcDbLine
 10
166.375
 20
247.0
 30
0.0
 11
166.99589895
 21
247.0
 31
0.0
  0
LINE
  5
2B1
330
2AF
100
AcDbEntity
  8
Dining Area_ Kitchen
  6
ByBlock
 62
     0
370
    -2
100
AcDbLine
 10
166.375
 20
283.0
 30
0.0
 11
166.99589895
 21
283.0
 31
0.0
  0
LINE
  5
2B2
330
2AF
100
AcDbEntity
  8
Dining Area_ Kitchen
  6
ByBlock
 62
     0
370
    -2
100
AcDbLine
 10
167.0
 20
249.0
 30
0.0
 11
167.0
 21
259.3154761904762
 31
0.0
  0
LINE
  5
2B3
330
2AF
100
AcDbEntity
  8
Dining Area_ Kitchen
  6
ByBlock
 62
     0
370
    -2
100
AcDbLine
 10
167.0
 20
281.0
 30
0.0
 11
167.0
 21
270.6845238095238
 31
0.0
  0
SOLID
  5
2B4
330
2AF
100
AcDbEntity
  8
Dining Area_ Kitchen
 62
     0
100
AcDbTrace
 10
166.6666666666667
 20
249.0
 30
0.0
 11
167.3333333333333
 21
249.0
 31
0.0
 12
167.0
 22
247.0
 32
0.0
 13
167.0
 23
247.0
 33
0.0
  0
SOLID
  5
2B5
330
2AF
100
AcDbEntity
  8
Dining Area_ Kitchen
 62
     0
100
AcDbTrace
 10
167.3333333333333
 20
281.0
 30
0.0
 11
166.6666666666667
 21
281.0
 31
0.0
 12
167.0
 22
283.0
 32
0.0
 13
167.0
 23
283.0
 33
0.0
  0
MTEXT
  5
2B6
330
2AF
100
AcDbEntity
  8
Dining Area_ Kitchen
 62
     0
100
AcDbMText
 10
167.0
 20
265.0
 30
0.0
 40
2.5
 41
0.0
 46
0.0
 71
     5
 72
     1
  1
\A1;3'-0"
 11
0.0
 21
1.0
 31
0.0
 73
     1
 44
1.0
  0
POINT
  5
2B7
330
2AF
100
AcDbEntity
  8
Defpoints
 62
     0
100
AcDbPoint
 10
167.0
 20
247.0
 30
0.0
  0
POINT
  5
2B8
330
2AF
100
AcDbEntity
  8
Defpoints
 62
     0
100
AcDbPoint
 10
167.0
 20
283.0
 30
0.0
  0
POINT
  5
2B9
330
2AF
100
AcDbEntity
  8
Defpoints
 62
     0
100
AcDbPoint
 10
167.0
 20
283.0
 30
0.0
  0
ENDBLK
  5
2BB
330
2AF
100
AcDbEntity
  8
0
100
AcDbBlockEnd
  0
BLOCK
  5
2C8
330
2BD
100
AcDbEntity
  8
0
100
AcDbBlockBegin
  2
*D30
 70
     1
 10
0.0
 20
0.0
 30
0.0
  3
*D30
  1

  0
LINE
  5
2BE
330
2BD
100
AcDbEntity
  8
Dining Area_ Kitchen
  6
ByBlock
 62
     0
370
    -2
100
AcDbLine
 10
213.375
 20
247.0
 30
0.0
 11
213.49589895
 21
247.0
 31
0.0
  0
LINE
  5
2BF
330
2BD
100
AcDbEntity
  8
Dining Area_ Kitchen
  6
ByBlock
 62
     0
370
    -2
100
AcDbLine
 10
212.875
 20
367.0
 30
0.0
 11
213.49589895
 21
367.0
 31
0.0
  0
LINE
  5
2C0
330
2BD
100
AcDbEntity
  8
Dining Area_ Kitchen
  6
ByBlock
 62
     0
370
    -2
100
AcDbLine
 10
213.5
 20
249.0
 30
0.0
 11
213.5
 21
300.3035714285714
 31
0.0
  0
LINE
  5
2C1
330
2BD
100
AcDbEntity
  8
Dining Area_ Kitchen
  6
ByBlock
 62
     0
370
    -2
100
AcDbLine
 10
213.5
 20
365.0
 30
0.0
 11
213.5
 21
313.6964285714286
 31
0.0
  0
SOLID
  5
2C2
330
2BD
100
AcDbEntity
  8
Dining Area_ Kitchen
 62
     0
100
AcDbTrace
 10
213.1666666666667
 20
249.0
 30
0.0
 11
213.8333333333333
 21
249.0
 31
0.0
 12
213.5
 22
247.0
 32
0.0
 13
213.5
 23
247.0
 33
0.0
  0
SOLID
  5
2C3
330
2BD
100
AcDbEntity
  8
Dining Area_ Kitchen
 62
     0
100
AcDbTrace
 10
213.8333333333333
 20
365.0
 30
0.0
 11
213.1666666666667
 21
365.0
 31
0.0
 12
213.5
 22
367.0
 32
0.0
 13
213.5
 23
367.0
 33
0.0
  0
MTEXT
  5
2C4
330
2BD
100
AcDbEntity
  8
Dining Area_ Kitchen
 62
     0
100
AcDbMText
 10
213.5
 20
307.0
 30
0.0
 40
2.5
 41
0.0
 46
0.0
 71
     5
 72
     1
  1
\A1;10'-0"
 11
0.0
 21
1.0
 31
0.0
 73
     1
 44
1.0
  0
POINT
  5
2C5
330
2BD
100
AcDbEntity
  8
Defpoints
 62
     0
100
AcDbPoint
 10
214.0
 20
247.0
 30
0.0
  0
POINT
  5
2C6
330
2BD
100
AcDbEntity
  8
Defpoints
 62
     0
100
AcDbPoint
 10
213.5
 20
367.0
 30
0.0
  0
POINT
  5
2C7
330
2BD
100
AcDbEntity
  8
Defpoints
 62
     0
100
AcDbPoint
 10
213.5
 20
367.0
 30
0.0
  0
ENDBLK
  5
2C9
330
2BD
100
AcDbEntity
  8
0
100
AcDbBlockEnd
  0
BLOCK
  5
2D9
330
2CE
100
AcDbEntity
  8
0
100
AcDbBlockBegin
  2
*D31
 70
     1
 10
0.0
 20
0.0
 30
0.0
  3
*D31
  1

  0
LINE
  5
2CF
330
2CE
100
AcDbEntity
  8
Dining Area_ Kitchen
  6
ByBlock
 62
     0
370
    -2
100
AcDbLine
 10
81.0
 20
292.625
 30
0.0
 11
81.0
 21
292.50410105
 31
0.0
  0
LINE
  5
2D0
330
2CE
100
AcDbEntity
  8
Dining Area_ Kitchen
  6
ByBlock
 62
     0
370
    -2
100
AcDbLine
 10
115.5
 20
292.625
 30
0.0
 11
115.5
 21
292.50410105
 31
0.0
  0
LINE
  5
2D1
330
2CE
100
AcDbEntity
  8
Dining Area_ Kitchen
  6
ByBlock
 62
     0
370
    -2
100
AcDbLine
 10
83.0
 20
292.5
 30
0.0
 11
90.27380952380952
 21
292.5
 31
0.0
  0
LINE
  5
2D2
330
2CE
100
AcDbEntity
  8
Dining Area_ Kitchen
  6
ByBlock
 62
     0
370
    -2
100
AcDbLine
 10
113.5
 20
292.5
 30
0.0
 11
106.2261904761905
 21
292.5
 31
0.0
  0
SOLID
  5
2D3
330
2CE
100
AcDbEntity
  8
Dining Area_ Kitchen
 62
     0
100
AcDbTrace
 10
83.0
 20
292.8333333333333
 30
0.0
 11
83.0
 21
292.1666666666667
 31
0.0
 12
81.0
 22
292.5
 32
0.0
 13
81.0
 23
292.5
 33
0.0
  0
SOLID
  5
2D4
330
2CE
100
AcDbEntity
  8
Dining Area_ Kitchen
 62
     0
100
AcDbTrace
 10
113.5
 20
292.1666666666667
 30
0.0
 11
113.5
 21
292.8333333333333
 31
0.0
 12
115.5
 22
292.5
 32
0.0
 13
115.5
 23
292.5
 33
0.0
  0
MTEXT
  5
2D5
330
2CE
100
AcDbEntity
  8
Dining Area_ Kitchen
 62
     0
100
AcDbMText
 10
98.25
 20
292.5
 30
0.0
 40
2.5
 41
0.0
 46
0.0
 71
     5
 72
     1
  1
\A1;2'-10{\H1.000000x;\S1/2;}"
 73
     1
 44
1.0
  0
POINT
  5
2D6
330
2CE
100
AcDbEntity
  8
Defpoints
 62
     0
100
AcDbPoint
 10
81.0
 20
292.0
 30
0.0
  0
POINT
  5
2D7
330
2CE
100
AcDbEntity
  8
Defpoints
 62
     0
100
AcDbPoint
 10
115.5
 20
292.0
 30
0.0
  0
POINT
  5
2D8
330
2CE
100
AcDbEntity
  8
Defpoints
 62
     0
100
AcDbPoint
 10
115.5
 20
292.5
 30
0.0
  0
ENDBLK
  5
2DA
330
2CE
100
AcDbEntity
  8
0
100
AcDbBlockEnd
  0
BLOCK
  5
2EF
330
2E4
100
AcDbEntity
  8
0
100
AcDbBlockBegin
  2
*D32
 70
     1
 10
0.0
 20
0.0
 30
0.0
  3
*D32
  1

  0
LINE
  5
2E5
330
2E4
100
AcDbEntity
  8
Dining Area_ Kitchen
  6
ByBlock
 62
     0
370
    -2
100
AcDbLine
 10
-1.0
 20
-3.125
 30
0.0
 11
-1.0
 21
-3.00410105
 31
0.0
  0
LINE
  5
2E6
330
2E4
100
AcDbEntity
  8
Dining Area_ Kitchen
  6
ByBlock
 62
     0
370
    -2
100
AcDbLine
 10
-13.5
 20
-3.125
 30
0.0
 11
-13.5
 21
-3.00410105
 31
0.0
  0
LINE
  5
2E7
330
2E4
100
AcDbEntity
  8
Dining Area_ Kitchen
  6
ByBlock
 62
     0
370
    -2
100
AcDbLine
 10
-13.5
 20
-3.0
 30
0.0
 11
-15.5
 21
-3.0
 31
0.0
  0
LINE
  5
2E8
330
2E4
100
AcDbEntity
  8
Dining Area_ Kitchen
  6
ByBlock
 62
     0
370
    -2
100
AcDbLine
 10
-3.0
 20
-3.0
 30
0.0
 11
-11.5
 21
-3.0
 31
0.0
  0
SOLID
  5
2E9
330
2E4
100
AcDbEntity
  8
Dining Area_ Kitchen
 62
     0
100
AcDbTrace
 10
-3.0
 20
-3.333333333333333
 30
0.0
 11
-3.0
 21
-2.666666666666667
 31
0.0
 12
-1.0
 22
-3.0
 32
0.0
 13
-1.0
 23
-3.0
 33
0.0
  0
SOLID
  5
2EA
330
2E4
100
AcDbEntity
  8
Dining Area_ Kitchen
 62
     0
100
AcDbTrace
 10
-11.5
 20
-2.666666666666667
 30
0.0
 11
-11.5
 21
-3.333333333333333
 31
0.0
 12
-13.5
 22
-3.0
 32
0.0
 13
-13.5
 23
-3.0
 33
0.0
  0
MTEXT
  5
2EB
330
2E4
100
AcDbEntity
  8
Dining Area_ Kitchen
 62
     0
100
AcDbMText
 10
-22.10714285714286
 20
-3.0
 30
0.0
 40
2.5
 41
0.0
 46
0.0
 71
     5
 72
     1
  1
\A1;1'-0{\H1.000000x;\S1/2;}"
 73
     1
 44
1.0
  0
POINT
  5
2EC
330
2E4
100
AcDbEntity
  8
Defpoints
 62
     0
100
AcDbPoint
 10
-1.0
 20
-2.5
 30
0.0
  0
POINT
  5
2ED
330
2E4
100
AcDbEntity
  8
Defpoints
 62
     0
100
AcDbPoint
 10
-13.5
 20
-2.5
 30
0.0
  0
POINT
  5
2EE
330
2E4
100
AcDbEntity
  8
Defpoints
 62
     0
100
AcDbPoint
 10
-13.5
 20
-3.0
 30
0.0
  0
ENDBLK
  5
2F0
330
2E4
100
AcDbEntity
  8
0
100
AcDbBlockEnd
  0
BLOCK
  5
2F2
330
2F1
100
AcDbEntity
  8
0
100
AcDbBlockBegin
  2
Kitchen
 70
     0
 10
0.0
 20
0.0
 30
0.0
  3
Kitchen
  1

  0
LINE
  5
2F6
102
{ACAD_XDICTIONARY
360
2F4
102
}
330
2F1
100
AcDbEntity
  8
Dining Area_ Kitchen
100
AcDbLine
 10
-20.0
 20
87.5
 30
0.0
 11
-20.0
 21
123.5
 31
0.0
  0
DIMENSION
  5
2F7
330
2F1
100
AcDbEntity
  8
Dining Area_ Kitchen
100
AcDbDimension
  2
*D34
 10
-24.0
 20
123.5
 30
0.0
 11
-24.0
 21
105.5
 31
0.0
 70
    33
  1
<>
 71
     5
 42
36.0
 73
     0
 74
     0
 75
     0
  3
Standard
100
AcDbAlignedDimension
 13
-24.0
 23
87.5
 33
0.0
 14
-24.0
 24
123.5
 34
0.0
1001
ACAD
1000
DSTYLE
1002
{
1070
   179
1070
     4
1070
   148
1040
0.0000001
1070
     3
1000

1070
    45
1040
0.0000001
1002
}
  0
DIMENSION
  5
305
330
2F1
100
AcDbEntity
  8
Dining Area_ Kitchen
100
AcDbDimension
  2
*D35
 10
-1.5
 20
123.5
 30
0.0
 11
-1.499999999999999
 21
136.25
 31
0.0
 70
    32
  1
<>
 71
     5
 42
25.5
 73
     0
 74
     0
 75
     0
  3
Standard
100
AcDbAlignedDimension
 13
-1.0
 23
149.0
 33
0.0
 14
-1.0
 24
123.5
 34
0.0
 50
90.0
100
AcDbRotatedDimension
1001
ACAD
1000
DSTYLE
1002
{
1070
   179
1070
     4
1070
   148
1040
0.0000001
1070
     3
1000

1070
    45
1040
0.0000001
1002
}
  0
DIMENSION
  5
313
330
2F1
100
AcDbEntity
  8
Dining Area_ Kitchen
100
AcDbDimension
  2
*D36
 10
42.0
 20
137.5
 30
0.0
 11
13.0
 21
137.5
 31
0.0
 70
    33
  1
<>
 71
     5
 42
58.0
 73
     0
 74
     0
 75
     0
  3
Standard
100
AcDbAlignedDimension
 13
-16.0
 23
137.5
 33
0.0
 14
42.0
 24
137.5
 34
0.0
1001
ACAD
1000
DSTYLE
1002
{
1070
   179
1070
     4
1070
   148
1040
0.0000001
1070
     3
1000

1070
    45
1040
0.0000001
1002
}
  0
LWPOLYLINE
  5
323
102
{ACAD_XDICTIONARY
360
321
102
}
330
2F1
100
AcDbEntity
  8
Dining Area_ Kitchen
100
AcDbPolyline
 90
        4
 70
     1
 43
0.0
 10
42.0
 20
123.5
 10
-16.0
 20
123.5
 10
-16.0
 20
149.0
 10
42.0
 20
149.0
  0
MTEXT
  5
326
102
{ACAD_XDICTIONARY
360
324
102
}
330
2F1
100
AcDbEntity
  8
Dining Area_ Kitchen
100
AcDbMText
 10
32.99999999806164
 20
64.28846155555561
 30
0.0
 40
2.000000046520698
 41
22.91478133333333
 46
0.0
 71
     5
 72
     1
  1
Main Counter
  7
_TCW_TXTSTY_1
 11
6.123233995736766E-17
 21
1.0
 31
0.0
 73
     2
 44
1.0
  0
LWPOLYLINE
  5
329
102
{ACAD_XDICTIONARY
360
327
102
}
330
2F1
100
AcDbEntity
  8
Dining Area_ Kitchen
100
AcDbPolyline
 90
        4
 70
     1
 43
0.0
 10
42.0
 20
-22.0
 10
-16.0
 20
-22.0
 10
-16.0
 20
3.5
 10
42.0
 20
3.5
  0
DIMENSION
  5
32A
330
2F1
100
AcDbEntity
  8
Dining Area_ Kitchen
100
AcDbDimension
  2
*D37
 10
-1.5
 20
-22.0
 30
0.0
 11
-1.499999999999999
 21
-9.25
 31
0.0
 70
    32
  1
<>
 71
     5
 42
25.5
 73
     0
 74
     0
 75
     0
  3
Standard
100
AcDbAlignedDimension
 13
-1.0
 23
3.5
 33
0.0
 14
-1.0
 24
-22.0
 34
0.0
 50
90.0
100
AcDbRotatedDimension
1001
ACAD
1000
DSTYLE
1002
{
1070
   179
1070
     4
1070
   148
1040
0.0000001
1070
     3
1000

1070
    45
1040
0.0000001
1002
}
  0
DIMENSION
  5
338
330
2F1
100
AcDbEntity
  8
Dining Area_ Kitchen
100
AcDbDimension
  2
*D38
 10
42.0
 20
-8.0
 30
0.0
 11
13.0
 21
-8.0
 31
0.0
 70
    33
  1
<>
 71
     5
 42
58.0
 73
     0
 74
     0
 75
     0
  3
Standard
100
AcDbAlignedDimension
 13
-16.0
 23
-8.0
 33
0.0
 14
42.0
 24
-8.0
 34
0.0
1001
ACAD
1000
DSTYLE
1002
{
1070
   179
1070
     4
1070
   148
1040
0.0000001
1070
     3
1000

1070
    45
1040
0.0000001
1002
}
  0
DIMENSION
  5
346
330
2F1
100
AcDbEntity
  8
Dining Area_ Kitchen
100
AcDbDimension
  2
*D39
 10
16.5
 20
42.0
 30
0.0
 11
-1.5
 21
42.0
 31
0.0
 70
    32
  1
<>
 71
     5
 42
36.0
 73
     0
 74
     0
 75
     0
  3
Standard
100
AcDbAlignedDimension
 13
-19.5
 23
41.5
 33
0.0
 14
16.5
 24
42.0
 34
0.0
100
AcDbRotatedDimension
1001
ACAD
1000
DSTYLE
1002
{
1070
   179
1070
     4
1070
   148
1040
0.0000001
1070
     3
1000

1070
    45
1040
0.0000001
1002
}
  0
LWPOLYLINE
  5
356
102
{ACAD_XDICTIONARY
360
354
102
}
330
2F1
100
AcDbEntity
  8
Dining Area_ Kitchen
100
AcDbPolyline
 90
        4
 70
     1
 43
0.0
 10
-67.5
 20
39.5
 10
-19.5
 20
39.5
 10
-19.5
 20
87.5
 10
-67.5
 20
87.5
  0
DIMENSION
  5
357
330
2F1
100
AcDbEntity
  8
Dining Area_ Kitchen
100
AcDbDimension
  2
*D40
 10
-16.0
 20
39.5
 30
0.0
 11
-16.0
 21
21.5
 31
0.0
 70
    33
  1
<>
 71
     5
 42
36.0
 73
     0
 74
     0
 75
     0
  3
Standard
100
AcDbAlignedDimension
 13
-16.0
 23
3.5
 33
0.0
 14
-16.0
 24
39.5
 34
0.0
1001
ACAD
1000
DSTYLE
1002
{
1070
   179
1070
     4
1070
   148
1040
0.0000001
1070
     3
1000

1070
    45
1040
0.0000001
1002
}
  0
DIMENSION
  5
365
330
2F1
100
AcDbEntity
  8
Dining Area_ Kitchen
100
AcDbDimension
  2
*D41
 10
30.5
 20
123.5
 30
0.0
 11
30.5
 21
63.5
 31
0.0
 70
    32
  1
<>
 71
     5
 42
120.0
 73
     0
 74
     0
 75
     0
  3
Standard
100
AcDbAlignedDimension
 13
31.0
 23
3.5
 33
0.0
 14
30.5
 24
123.5
 34
0.0
 50
90.0
100
AcDbRotatedDimension
1001
ACAD
1000
DSTYLE
1002
{
1070
   179
1070
     4
1070
   148
1040
0.0000001
1070
     3
1000

1070
    45
1040
0.0000001
1002
}
  0
LWPOLYLINE
  5
375
102
{ACAD_XDICTIONARY
360
373
102
}
330
2F1
100
AcDbEntity
  8
Dining Area_ Kitchen
100
AcDbPolyline
 90
        4
 70
     1
 43
0.0
 10
42.0
 20
3.5
 10
16.5
 20
3.5
 10
16.5
 20
123.5
 10
42.0
 20
123.5
  0
DIMENSION
  5
376
330
2F1
100
AcDbEntity
  8
Dining Area_ Kitchen
100
AcDbDimension
  2
*D42
 10
-67.5
 20
49.0
 30
0.0
 11
-84.75
 21
49.0
 31
0.0
 70
    33
  1
<>
 71
     5
 42
34.5
 73
     0
 74
     0
 75
     0
  3
Standard
100
AcDbAlignedDimension
 13
-102.0
 23
48.5
 33
0.0
 14
-67.5
 24
48.5
 34
0.0
1001
ACAD
1000
DSTYLE
1002
{
1070
   179
1070
     4
1070
   148
1040
0.0000001
1070
     3
1000

1070
    45
1040
0.0000001
1002
}
  0
MTEXT
  5
386
102
{ACAD_XDICTIONARY
360
384
102
}
330
2F1
100
AcDbEntity
  8
Dining Area_ Kitchen
100
AcDbMText
 10
-41.00000000193836
 20
64.28846155555561
 30
0.0
 40
2.000000046520698
 41
10.20135755555556
 46
0.0
 71
     5
 72
     1
  1
Island\P4' x 4'
  7
_TCW_TXTSTY_1
 11
6.123233995736766E-17
 21
1.0
 31
0.0
 73
     2
 44
1.0
  0
LWPOLYLINE
  5
389
102
{ACAD_XDICTIONARY
360
387
102
}
330
2F1
100
AcDbEntity
  8
Dining Area_ Kitchen
100
AcDbPolyline
 90
        4
 70
     1
 43
0.0
 10
-16.0
 20
149.0
 10
-48.0
 20
149.0
 10
-48.0
 20
123.5
 10
-16.0
 20
123.5
  0
MTEXT
  5
38C
102
{ACAD_XDICTIONARY
360
38A
102
}
330
2F1
100
AcDbEntity
  8
Dining Area_ Kitchen
100
AcDbMText
 10
-32.0
 20
135.0000000019384
 30
0.0
 40
2.000000046520698
 41
14.96898577777778
 46
0.0
 71
     5
 72
     1
  1
32" Stove\P
  7
_TCW_TXTSTY_1
 73
     2
 44
1.0
  0
DIMENSION
  5
38D
330
2F1
100
AcDbEntity
  8
Dining Area_ Kitchen
100
AcDbDimension
  2
*D43
 10
-48.0
 20
146.0
 30
0.0
 11
-86.75
 21
146.0
 31
0.0
 70
    33
  1
<>
 71
     5
 42
77.5
 73
     0
 74
     0
 75
     0
  3
Standard
100
AcDbAlignedDimension
 13
-125.5
 23
145.0
 33
0.0
 14
-48.0
 24
145.0
 34
0.0
1001
ACAD
1000
DSTYLE
1002
{
1070
   179
1070
     4
1070
   148
1040
0.0000001
1070
     3
1000

1070
    45
1040
0.0000001
1002
}
  0
ENDBLK
  5
39B
330
2F1
100
AcDbEntity
  8
0
100
AcDbBlockEnd
  0
BLOCK
  5
303
330
2F8
100
AcDbEntity
  8
0
100
AcDbBlockBegin
  2
*D34
 70
     1
 10
0.0
 20
0.0
 30
0.0
  3
*D34
  1

  0
LINE
  5
2F9
330
2F8
100
AcDbEntity
  8
Dining Area_ Kitchen
  6
ByBlock
 62
     0
370
    -2
100
AcDbLine
 10
-24.625
 20
87.5
 30
0.0
 11
-24.00410105
 21
87.5
 31
0.0
  0
LINE
  5
2FA
330
2F8
100
AcDbEntity
  8
Dining Area_ Kitchen
  6
ByBlock
 62
     0
370
    -2
100
AcDbLine
 10
-24.625
 20
123.5
 30
0.0
 11
-24.00410105
 21
123.5
 31
0.0
  0
LINE
  5
2FB
330
2F8
100
AcDbEntity
  8
Dining Area_ Kitchen
  6
ByBlock
 62
     0
370
    -2
100
AcDbLine
 10
-24.0
 20
89.5
 30
0.0
 11
-24.0
 21
99.8154761904762
 31
0.0
  0
LINE
  5
2FC
330
2F8
100
AcDbEntity
  8
Dining Area_ Kitchen
  6
ByBlock
 62
     0
370
    -2
100
AcDbLine
 10
-24.0
 20
121.5
 30
0.0
 11
-24.0
 21
111.1845238095238
 31
0.0
  0
SOLID
  5
2FD
330
2F8
100
AcDbEntity
  8
Dining Area_ Kitchen
 62
     0
100
AcDbTrace
 10
-24.33333333333333
 20
89.5
 30
0.0
 11
-23.66666666666667
 21
89.5
 31
0.0
 12
-24.0
 22
87.5
 32
0.0
 13
-24.0
 23
87.5
 33
0.0
  0
SOLID
  5
2FE
330
2F8
100
AcDbEntity
  8
Dining Area_ Kitchen
 62
     0
100
AcDbTrace
 10
-23.66666666666667
 20
121.5
 30
0.0
 11
-24.33333333333333
 21
121.5
 31
0.0
 12
-24.0
 22
123.5
 32
0.0
 13
-24.0
 23
123.5
 33
0.0
  0
MTEXT
  5
2FF
330
2F8
100
AcDbEntity
  8
Dining Area_ Kitchen
 62
     0
100
AcDbMText
 10
-24.0
 20
105.5
 30
0.0
 40
2.5
 41
0.0
 46
0.0
 71
     5
 72
     1
  1
\A1;3'-0"
 11
0.0
 21
1.0
 31
0.0
 73
     1
 44
1.0
  0
POINT
  5
300
330
2F8
100
AcDbEntity
  8
Defpoints
 62
     0
100
AcDbPoint
 10
-24.0
 20
87.5
 30
0.0
  0
POINT
  5
301
330
2F8
100
AcDbEntity
  8
Defpoints
 62
     0
100
AcDbPoint
 10
-24.0
 20
123.5
 30
0.0
  0
POINT
  5
302
330
2F8
100
AcDbEntity
  8
Defpoints
 62
     0
100
AcDbPoint
 10
-24.0
 20
123.5
 30
0.0
  0
ENDBLK
  5
304
330
2F8
100
AcDbEntity
  8
0
100
AcDbBlockEnd
  0
BLOCK
  5
311
330
306
100
AcDbEntity
  8
0
100
AcDbBlockBegin
  2
*D35
 70
     1
 10
0.0
 20
0.0
 30
0.0
  3
*D35
  1

  0
LINE
  5
307
330
306
100
AcDbEntity
  8
Dining Area_ Kitchen
  6
ByBlock
 62
     0
370
    -2
100
AcDbLine
 10
-1.625
 20
149.0
 30
0.0
 11
-1.504101049999998
 21
149.0
 31
0.0
  0
LINE
  5
308
330
306
100
AcDbEntity
  8
Dining Area_ Kitchen
  6
ByBlock
 62
     0
370
    -2
100
AcDbLine
 10
-1.625
 20
123.5
 30
0.0
 11
-1.50410105
 21
123.5
 31
0.0
  0
LINE
  5
309
330
306
100
AcDbEntity
  8
Dining Area_ Kitchen
  6
ByBlock
 62
     0
370
    -2
100
AcDbLine
 10
-1.499999999999999
 20
147.0
 30
0.0
 11
-1.499999999999999
 21
143.0357142857143
 31
0.0
  0
LINE
  5
30A
330
306
100
AcDbEntity
  8
Dining Area_ Kitchen
  6
ByBlock
 62
     0
370
    -2
100
AcDbLine
 10
-1.5
 20
125.5
 30
0.0
 11
-1.5
 21
129.4642857142857
 31
0.0
  0
SOLID
  5
30B
330
306
100
AcDbEntity
  8
Dining Area_ Kitchen
 62
     0
100
AcDbTrace
 10
-1.166666666666665
 20
147.0
 30
0.0
 11
-1.833333333333332
 21
147.0
 31
0.0
 12
-1.499999999999998
 22
149.0
 32
0.0
 13
-1.499999999999998
 23
149.0
 33
0.0
  0
SOLID
  5
30C
330
306
100
AcDbEntity
  8
Dining Area_ Kitchen
 62
     0
100
AcDbTrace
 10
-1.833333333333333
 20
125.5
 30
0.0
 11
-1.166666666666667
 21
125.5
 31
0.0
 12
-1.5
 22
123.5
 32
0.0
 13
-1.5
 23
123.5
 33
0.0
  0
MTEXT
  5
30D
330
306
100
AcDbEntity
  8
Dining Area_ Kitchen
 62
     0
100
AcDbMText
 10
-1.499999999999999
 20
136.25
 30
0.0
 40
2.5
 41
0.0
 46
0.0
 71
     5
 72
     1
  1
\A1;2'-1{\H1.000000x;\S1/2;}"
 11
6.095342095981252E-17
 21
1.0
 31
0.0
 73
     1
 44
1.0
  0
POINT
  5
30E
330
306
100
AcDbEntity
  8
Defpoints
 62
     0
100
AcDbPoint
 10
-1.0
 20
149.0
 30
0.0
  0
POINT
  5
30F
330
306
100
AcDbEntity
  8
Defpoints
 62
     0
100
AcDbPoint
 10
-1.0
 20
123.5
 30
0.0
  0
POINT
  5
310
330
306
100
AcDbEntity
  8
Defpoints
 62
     0
100
AcDbPoint
 10
-1.5
 20
123.5
 30
0.0
  0
ENDBLK
  5
312
330
306
100
AcDbEntity
  8
0
100
AcDbBlockEnd
  0
BLOCK
  5
31F
330
314
100
AcDbEntity
  8
0
100
AcDbBlockBegin
  2
*D36
 70
     1
 10
0.0
 20
0.0
 30
0.0
  3
*D36
  1

  0
LINE
  5
315
330
314
100
AcDbEntity
  8
Dining Area_ Kitchen
  6
ByBlock
 62
     0
370
    -2
100
AcDbLine
 10
-16.0
 20
138.125
 30
0.0
 11
-16.0
 21
137.50410105
 31
0.0
  0
LINE
  5
316
330
314
100
AcDbEntity
  8
Dining Area_ Kitchen
  6
ByBlock
 62
     0
370
    -2
100
AcDbLine
 10
42.0
 20
138.125
 30
0.0
 11
42.0
 21
137.50410105
 31
0.0
  0
LINE
  5
317
330
314
100
AcDbEntity
  8
Dining Area_ Kitchen
  6
ByBlock
 62
     0
370
    -2
100
AcDbLine
 10
-14.0
 20
137.5
 30
0.0
 11
6.125
 21
137.5
 31
0.0
  0
LINE
  5
318
330
314
100
AcDbEntity
  8
Dining Area_ Kitchen
  6
ByBlock
 62
     0
370
    -2
100
AcDbLine
 10
40.0
 20
137.5
 30
0.0
 11
19.875
 21
137.5
 31
0.0
  0
SOLID
  5
319
330
314
100
AcDbEntity
  8
Dining Area_ Kitchen
 62
     0
100
AcDbTrace
 10
-14.0
 20
137.8333333333333
 30
0.0
 11
-14.0
 21
137.1666666666667
 31
0.0
 12
-16.0
 22
137.5
 32
0.0
 13
-16.0
 23
137.5
 33
0.0
  0
SOLID
  5
31A
330
314
100
AcDbEntity
  8
Dining Area_ Kitchen
 62
     0
100
AcDbTrace
 10
40.0
 20
137.1666666666667
 30
0.0
 11
40.0
 21
137.8333333333333
 31
0.0
 12
42.0
 22
137.5
 32
0.0
 13
42.0
 23
137.5
 33
0.0
  0
MTEXT
  5
31B
330
314
100
AcDbEntity
  8
Dining Area_ Kitchen
 62
     0
100
AcDbMText
 10
13.0
 20
137.5
 30
0.0
 40
2.5
 41
0.0
 46
0.0
 71
     5
 72
     1
  1
\A1;4'-10"
 73
     1
 44
1.0
  0
POINT
  5
31C
330
314
100
AcDbEntity
  8
Defpoints
 62
     0
100
AcDbPoint
 10
-16.0
 20
137.5
 30
0.0
  0
POINT
  5
31D
330
314
100
AcDbEntity
  8
Defpoints
 62
     0
100
AcDbPoint
 10
42.0
 20
137.5
 30
0.0
  0
POINT
  5
31E
330
314
100
AcDbEntity
  8
Defpoints
 62
     0
100
AcDbPoint
 10
42.0
 20
137.5
 30
0.0
  0
ENDBLK
  5
320
330
314
100
AcDbEntity
  8
0
100
AcDbBlockEnd
  0
BLOCK
  5
336
330
32B
100
AcDbEntity
  8
0
100
AcDbBlockBegin
  2
*D37
 70
     1
 10
0.0
 20
0.0
 30
0.0
  3
*D37
  1

  0
LINE
  5
32C
330
32B
100
AcDbEntity
  8
Dining Area_ Kitchen
  6
ByBlock
 62
     0
370
    -2
100
AcDbLine
 10
-1.625
 20
3.5
 30
0.0
 11
-1.504101049999998
 21
3.5
 31
0.0
  0
LINE
  5
32D
330
32B
100
AcDbEntity
  8
Dining Area_ Kitchen
  6
ByBlock
 62
     0
370
    -2
100
AcDbLine
 10
-1.625
 20
-22.0
 30
0.0
 11
-1.50410105
 21
-22.0
 31
0.0
  0
LINE
  5
32E
330
32B
100
AcDbEntity
  8
Dining Area_ Kitchen
  6
ByBlock
 62
     0
370
    -2
100
AcDbLine
 10
-1.499999999999999
 20
1.5
 30
0.0
 11
-1.499999999999999
 21
-2.464285714285714
 31
0.0
  0
LINE
  5
32F
330
32B
100
AcDbEntity
  8
Dining Area_ Kitchen
  6
ByBlock
 62
     0
370
    -2
100
AcDbLine
 10
-1.5
 20
-20.0
 30
0.0
 11
-1.5
 21
-16.03571428571428
 31
0.0
  0
SOLID
  5
330
330
32B
100
AcDbEntity
  8
Dining Area_ Kitchen
 62
     0
100
AcDbTrace
 10
-1.166666666666665
 20
1.5
 30
0.0
 11
-1.833333333333332
 21
1.5
 31
0.0
 12
-1.499999999999998
 22
3.5
 32
0.0
 13
-1.499999999999998
 23
3.5
 33
0.0
  0
SOLID
  5
331
330
32B
100
AcDbEntity
  8
Dining Area_ Kitchen
 62
     0
100
AcDbTrace
 10
-1.833333333333333
 20
-20.0
 30
0.0
 11
-1.166666666666667
 21
-20.0
 31
0.0
 12
-1.5
 22
-22.0
 32
0.0
 13
-1.5
 23
-22.0
 33
0.0
  0
MTEXT
  5
332
330
32B
100
AcDbEntity
  8
Dining Area_ Kitchen
 62
     0
100
AcDbMText
 10
-1.499999999999999
 20
-9.25
 30
0.0
 40
2.5
 41
0.0
 46
0.0
 71
     5
 72
     1
  1
\A1;2'-1{\H1.000000x;\S1/2;}"
 11
6.095342095981252E-17
 21
1.0
 31
0.0
 73
     1
 44
1.0
  0
POINT
  5
333
330
32B
100
AcDbEntity
  8
Defpoints
 62
     0
100
AcDbPoint
 10
-1.0
 20
3.5
 30
0.0
  0
POINT
  5
334
330
32B
100
AcDbEntity
  8
Defpoints
 62
     0
100
AcDbPoint
 10
-1.0
 20
-22.0
 30
0.0
  0
POINT
  5
335
330
32B
100
AcDbEntity
  8
Defpoints
 62
     0
100
AcDbPoint
 10
-1.5
 20
-22.0
 30
0.0
  0
ENDBLK
  5
337
330
32B
100
AcDbEntity
  8
0
100
AcDbBlockEnd
  0
BLOCK
  5
344
330
339
100
AcDbEntity
  8
0
100
AcDbBlockBegin
  2
*D38
 70
     1
 10
0.0
 20
0.0
 30
0.0
  3
*D38
  1

  0
LINE
  5
33A
330
339
100
AcDbEntity
  8
Dining Area_ Kitchen
  6
ByBlock
 62
     0
370
    -2
100
AcDbLine
 10
-16.0
 20
-7.375
 30
0.0
 11
-16.0
 21
-7.99589895
 31
0.0
  0
LINE
  5
33B
330
339
100
AcDbEntity
  8
Dining Area_ Kitchen
  6
ByBlock
 62
     0
370
    -2
100
AcDbLine
 10
42.0
 20
-7.375
 30
0.0
 11
42.0
 21
-7.99589895
 31
0.0
  0
LINE
  5
33C
330
339
100
AcDbEntity
  8
Dining Area_ Kitchen
  6
ByBlock
 62
     0
370
    -2
100
AcDbLine
 10
-14.0
 20
-8.0
 30
0.0
 11
6.125
 21
-8.0
 31
0.0
  0
LINE
  5
33D
330
339
100
AcDbEntity
  8
Dining Area_ Kitchen
  6
ByBlock
 62
     0
370
    -2
100
AcDbLine
 10
40.0
 20
-8.0
 30
0.0
 11
19.875
 21
-8.0
 31
0.0
  0
SOLID
  5
33E
330
339
100
AcDbEntity
  8
Dining Area_ Kitchen
 62
     0
100
AcDbTrace
 10
-14.0
 20
-7.666666666666667
 30
0.0
 11
-14.0
 21
-8.333333333333334
 31
0.0
 12
-16.0
 22
-8.0
 32
0.0
 13
-16.0
 23
-8.0
 33
0.0
  0
SOLID
  5
33F
330
339
100
AcDbEntity
  8
Dining Area_ Kitchen
 62
     0
100
AcDbTrace
 10
40.0
 20
-8.333333333333334
 30
0.0
 11
40.0
 21
-7.666666666666667
 31
0.0
 12
42.0
 22
-8.0
 32
0.0
 13
42.0
 23
-8.0
 33
0.0
  0
MTEXT
  5
340
330
339
100
AcDbEntity
  8
Dining Area_ Kitchen
 62
     0
100
AcDbMText
 10
13.0
 20
-8.0
 30
0.0
 40
2.5
 41
0.0
 46
0.0
 71
     5
 72
     1
  1
\A1;4'-10"
 73
     1
 44
1.0
  0
POINT
  5
341
330
339
100
AcDbEntity
  8
Defpoints
 62
     0
100
AcDbPoint
 10
-16.0
 20
-8.0
 30
0.0
  0
POINT
  5
342
330
339
100
AcDbEntity
  8
Defpoints
 62
     0
100
AcDbPoint
 10
42.0
 20
-8.0
 30
0.0
  0
POINT
  5
343
330
339
100
AcDbEntity
  8
Defpoints
 62
     0
100
AcDbPoint
 10
42.0
 20
-8.0
 30
0.0
  0
ENDBLK
  5
345
330
339
100
AcDbEntity
  8
0
100
AcDbBlockEnd
  0
BLOCK
  5
352
330
347
100
AcDbEntity
  8
0
100
AcDbBlockBegin
  2
*D39
 70
     1
 10
0.0
 20
0.0
 30
0.0
  3
*D39
  1

  0
LINE
  5
348
330
347
100
AcDbEntity
  8
Dining Area_ Kitchen
  6
ByBlock
 62
     0
370
    -2
100
AcDbLine
 10
-19.5
 20
42.125
 30
0.0
 11
-19.5
 21
42.00410105
 31
0.0
  0
LINE
  5
349
330
347
100
AcDbEntity
  8
Dining Area_ Kitchen
  6
ByBlock
 62
     0
370
    -2
100
AcDbLine
 10
16.5
 20
42.625
 30
0.0
 11
16.5
 21
42.00410105
 31
0.0
  0
LINE
  5
34A
330
347
100
AcDbEntity
  8
Dining Area_ Kitchen
  6
ByBlock
 62
     0
370
    -2
100
AcDbLine
 10
-17.5
 20
42.0
 30
0.0
 11
-7.18452380952381
 21
42.0
 31
0.0
  0
LINE
  5
34B
330
347
100
AcDbEntity
  8
Dining Area_ Kitchen
  6
ByBlock
 62
     0
370
    -2
100
AcDbLine
 10
14.5
 20
42.0
 30
0.0
 11
4.18452380952381
 21
42.0
 31
0.0
  0
SOLID
  5
34C
330
347
100
AcDbEntity
  8
Dining Area_ Kitchen
 62
     0
100
AcDbTrace
 10
-17.5
 20
42.33333333333334
 30
0.0
 11
-17.5
 21
41.66666666666666
 31
0.0
 12
-19.5
 22
42.0
 32
0.0
 13
-19.5
 23
42.0
 33
0.0
  0
SOLID
  5
34D
330
347
100
AcDbEntity
  8
Dining Area_ Kitchen
 62
     0
100
AcDbTrace
 10
14.5
 20
41.66666666666666
 30
0.0
 11
14.5
 21
42.33333333333334
 31
0.0
 12
16.5
 22
42.0
 32
0.0
 13
16.5
 23
42.0
 33
0.0
  0
MTEXT
  5
34E
330
347
100
AcDbEntity
  8
Dining Area_ Kitchen
 62
     0
100
AcDbMText
 10
-1.5
 20
42.0
 30
0.0
 40
2.5
 41
0.0
 46
0.0
 71
     5
 72
     1
  1
\A1;3'-0"
 73
     1
 44
1.0
  0
POINT
  5
34F
330
347
100
AcDbEntity
  8
Defpoints
 62
     0
100
AcDbPoint
 10
-19.5
 20
41.5
 30
0.0
  0
POINT
  5
350
330
347
100
AcDbEntity
  8
Defpoints
 62
     0
100
AcDbPoint
 10
16.5
 20
42.0
 30
0.0
  0
POINT
  5
351
330
347
100
AcDbEntity
  8
Defpoints
 62
     0
100
AcDbPoint
 10
16.5
 20
42.0
 30
0.0
  0
ENDBLK
  5
353
330
347
100
AcDbEntity
  8
0
100
AcDbBlockEnd
  0
BLOCK
  5
363
330
358
100
AcDbEntity
  8
0
100
AcDbBlockBegin
  2
*D40
 70
     1
 10
0.0
 20
0.0
 30
0.0
  3
*D40
  1

  0
LINE
  5
359
330
358
100
AcDbEntity
  8
Dining Area_ Kitchen
  6
ByBlock
 62
     0
370
    -2
100
AcDbLine
 10
-16.625
 20
3.5
 30
0.0
 11
-16.00410105
 21
3.5
 31
0.0
  0
LINE
  5
35A
330
358
100
AcDbEntity
  8
Dining Area_ Kitchen
  6
ByBlock
 62
     0
370
    -2
100
AcDbLine
 10
-16.625
 20
39.5
 30
0.0
 11
-16.00410105
 21
39.5
 31
0.0
  0
LINE
  5
35B
330
358
100
AcDbEntity
  8
Dining Area_ Kitchen
  6
ByBlock
 62
     0
370
    -2
100
AcDbLine
 10
-16.0
 20
5.5
 30
0.0
 11
-16.0
 21
15.81547619047619
 31
0.0
  0
LINE
  5
35C
330
358
100
AcDbEntity
  8
Dining Area_ Kitchen
  6
ByBlock
 62
     0
370
    -2
100
AcDbLine
 10
-16.0
 20
37.5
 30
0.0
 11
-16.0
 21
27.18452380952381
 31
0.0
  0
SOLID
  5
35D
330
358
100
AcDbEntity
  8
Dining Area_ Kitchen
 62
     0
100
AcDbTrace
 10
-16.33333333333333
 20
5.5
 30
0.0
 11
-15.66666666666667
 21
5.5
 31
0.0
 12
-16.0
 22
3.5
 32
0.0
 13
-16.0
 23
3.5
 33
0.0
  0
SOLID
  5
35E
330
358
100
AcDbEntity
  8
Dining Area_ Kitchen
 62
     0
100
AcDbTrace
 10
-15.66666666666667
 20
37.5
 30
0.0
 11
-16.33333333333333
 21
37.5
 31
0.0
 12
-16.0
 22
39.5
 32
0.0
 13
-16.0
 23
39.5
 33
0.0
  0
MTEXT
  5
35F
330
358
100
AcDbEntity
  8
Dining Area_ Kitchen
 62
     0
100
AcDbMText
 10
-16.0
 20
21.5
 30
0.0
 40
2.5
 41
0.0
 46
0.0
 71
     5
 72
     1
  1
\A1;3'-0"
 11
0.0
 21
1.0
 31
0.0
 73
     1
 44
1.0
  0
POINT
  5
360
330
358
100
AcDbEntity
  8
Defpoints
 62
     0
100
AcDbPoint
 10
-16.0
 20
3.5
 30
0.0
  0
POINT
  5
361
330
358
100
AcDbEntity
  8
Defpoints
 62
     0
100
AcDbPoint
 10
-16.0
 20
39.5
 30
0.0
  0
POINT
  5
362
330
358
100
AcDbEntity
  8
Defpoints
 62
     0
100
AcDbPoint
 10
-16.0
 20
39.5
 30
0.0
  0
ENDBLK
  5
364
330
358
100
AcDbEntity
  8
0
100
AcDbBlockEnd
  0
BLOCK
  5
371
330
366
100
AcDbEntity
  8
0
100
AcDbBlockBegin
  2
*D41
 70
     1
 10
0.0
 20
0.0
 30
0.0
  3
*D41
  1

  0
LINE
  5
367
330
366
100
AcDbEntity
  8
Dining Area_ Kitchen
  6
ByBlock
 62
     0
370
    -2
100
AcDbLine
 10
30.375
 20
3.5
 30
0.0
 11
30.49589894999999
 21
3.5
 31
0.0
  0
LINE
  5
368
330
366
100
AcDbEntity
  8
Dining Area_ Kitchen
  6
ByBlock
 62
     0
370
    -2
100
AcDbLine
 10
29.875
 20
123.5
 30
0.0
 11
30.49589895
 21
123.5
 31
0.0
  0
LINE
  5
369
330
366
100
AcDbEntity
  8
Dining Area_ Kitchen
  6
ByBlock
 62
     0
370
    -2
100
AcDbLine
 10
30.49999999999999
 20
5.5
 30
0.0
 11
30.5
 21
56.80357142857143
 31
0.0
  0
LINE
  5
36A
330
366
100
AcDbEntity
  8
Dining Area_ Kitchen
  6
ByBlock
 62
     0
370
    -2
100
AcDbLine
 10
30.5
 20
121.5
 30
0.0
 11
30.5
 21
70.19642857142858
 31
0.0
  0
SOLID
  5
36B
330
366
100
AcDbEntity
  8
Dining Area_ Kitchen
 62
     0
100
AcDbTrace
 10
30.16666666666666
 20
5.5
 30
0.0
 11
30.83333333333333
 21
5.5
 31
0.0
 12
30.49999999999999
 22
3.5
 32
0.0
 13
30.49999999999999
 23
3.5
 33
0.0
  0
SOLID
  5
36C
330
366
100
AcDbEntity
  8
Dining Area_ Kitchen
 62
     0
100
AcDbTrace
 10
30.83333333333333
 20
121.5
 30
0.0
 11
30.16666666666667
 21
121.5
 31
0.0
 12
30.5
 22
123.5
 32
0.0
 13
30.5
 23
123.5
 33
0.0
  0
MTEXT
  5
36D
330
366
100
AcDbEntity
  8
Dining Area_ Kitchen
 62
     0
100
AcDbMText
 10
30.5
 20
63.5
 30
0.0
 40
2.5
 41
0.0
 46
0.0
 71
     5
 72
     1
  1
\A1;10'-0"
 11
5.921189464667501E-17
 21
1.0
 31
0.0
 73
     1
 44
1.0
  0
POINT
  5
36E
330
366
100
AcDbEntity
  8
Defpoints
 62
     0
100
AcDbPoint
 10
31.0
 20
3.5
 30
0.0
  0
POINT
  5
36F
330
366
100
AcDbEntity
  8
Defpoints
 62
     0
100
AcDbPoint
 10
30.5
 20
123.5
 30
0.0
  0
POINT
  5
370
330
366
100
AcDbEntity
  8
Defpoints
 62
     0
100
AcDbPoint
 10
30.5
 20
123.5
 30
0.0
  0
ENDBLK
  5
372
330
366
100
AcDbEntity
  8
0
100
AcDbBlockEnd
  0
BLOCK
  5
382
330
377
100
AcDbEntity
  8
0
100
AcDbBlockBegin
  2
*D42
 70
     1
 10
0.0
 20
0.0
 30
0.0
  3
*D42
  1

  0
LINE
  5
378
330
377
100
AcDbEntity
  8
Dining Area_ Kitchen
  6
ByBlock
 62
     0
370
    -2
100
AcDbLine
 10
-102.0
 20
49.125
 30
0.0
 11
-102.0
 21
49.00410105
 31
0.0
  0
LINE
  5
379
330
377
100
AcDbEntity
  8
Dining Area_ Kitchen
  6
ByBlock
 62
     0
370
    -2
100
AcDbLine
 10
-67.5
 20
49.125
 30
0.0
 11
-67.5
 21
49.00410105
 31
0.0
  0
LINE
  5
37A
330
377
100
AcDbEntity
  8
Dining Area_ Kitchen
  6
ByBlock
 62
     0
370
    -2
100
AcDbLine
 10
-100.0
 20
49.0
 30
0.0
 11
-92.72619047619048
 21
49.0
 31
0.0
  0
LINE
  5
37B
330
377
100
AcDbEntity
  8
Dining Area_ Kitchen
  6
ByBlock
 62
     0
370
    -2
100
AcDbLine
 10
-69.5
 20
49.0
 30
0.0
 11
-76.77380952380952
 21
49.0
 31
0.0
  0
SOLID
  5
37C
330
377
100
AcDbEntity
  8
Dining Area_ Kitchen
 62
     0
100
AcDbTrace
 10
-100.0
 20
49.33333333333334
 30
0.0
 11
-100.0
 21
48.66666666666666
 31
0.0
 12
-102.0
 22
49.0
 32
0.0
 13
-102.0
 23
49.0
 33
0.0
  0
SOLID
  5
37D
330
377
100
AcDbEntity
  8
Dining Area_ Kitchen
 62
     0
100
AcDbTrace
 10
-69.5
 20
48.66666666666666
 30
0.0
 11
-69.5
 21
49.33333333333334
 31
0.0
 12
-67.5
 22
49.0
 32
0.0
 13
-67.5
 23
49.0
 33
0.0
  0
MTEXT
  5
37E
330
377
100
AcDbEntity
  8
Dining Area_ Kitchen
 62
     0
100
AcDbMText
 10
-84.75
 20
49.0
 30
0.0
 40
2.5
 41
0.0
 46
0.0
 71
     5
 72
     1
  1
\A1;2'-10{\H1.000000x;\S1/2;}"
 73
     1
 44
1.0
  0
POINT
  5
37F
330
377
100
AcDbEntity
  8
Defpoints
 62
     0
100
AcDbPoint
 10
-102.0
 20
48.5
 30
0.0
  0
POINT
  5
380
330
377
100
AcDbEntity
  8
Defpoints
 62
     0
100
AcDbPoint
 10
-67.5
 20
48.5
 30
0.0
  0
POINT
  5
381
330
377
100
AcDbEntity
  8
Defpoints
 62
     0
100
AcDbPoint
 10
-67.5
 20
49.0
 30
0.0
  0
ENDBLK
  5
383
330
377
100
AcDbEntity
  8
0
100
AcDbBlockEnd
  0
BLOCK
  5
399
330
38E
100
AcDbEntity
  8
0
100
AcDbBlockBegin
  2
*D43
 70
     1
 10
0.0
 20
0.0
 30
0.0
  3
*D43
  1

  0
LINE
  5
38F
330
38E
100
AcDbEntity
  8
Dining Area_ Kitchen
  6
ByBlock
 62
     0
370
    -2
100
AcDbLine
 10
-125.5
 20
145.625
 30
0.0
 11
-125.5
 21
146.00410105
 31
0.0
  0
LINE
  5
390
330
38E
100
AcDbEntity
  8
Dining Area_ Kitchen
  6
ByBlock
 62
     0
370
    -2
100
AcDbLine
 10
-48.0
 20
145.625
 30
0.0
 11
-48.0
 21
146.00410105
 31
0.0
  0
LINE
  5
391
330
38E
100
AcDbEntity
  8
Dining Area_ Kitchen
  6
ByBlock
 62
     0
370
    -2
100
AcDbLine
 10
-123.5
 20
146.0
 30
0.0
 11
-93.47619047619048
 21
146.0
 31
0.0
  0
LINE
  5
392
330
38E
100
AcDbEntity
  8
Dining Area_ Kitchen
  6
ByBlock
 62
     0
370
    -2
100
AcDbLine
 10
-50.0
 20
146.0
 30
0.0
 11
-80.02380952380952
 21
146.0
 31
0.0
  0
SOLID
  5
393
330
38E
100
AcDbEntity
  8
Dining Area_ Kitchen
 62
     0
100
AcDbTrace
 10
-123.5
 20
146.3333333333333
 30
0.0
 11
-123.5
 21
145.6666666666667
 31
0.0
 12
-125.5
 22
146.0
 32
0.0
 13
-125.5
 23
146.0
 33
0.0
  0
SOLID
  5
394
330
38E
100
AcDbEntity
  8
Dining Area_ Kitchen
 62
     0
100
AcDbTrace
 10
-50.0
 20
145.6666666666667
 30
0.0
 11
-50.0
 21
146.3333333333333
 31
0.0
 12
-48.0
 22
146.0
 32
0.0
 13
-48.0
 23
146.0
 33
0.0
  0
MTEXT
  5
395
330
38E
100
AcDbEntity
  8
Dining Area_ Kitchen
 62
     0
100
AcDbMText
 10
-86.75
 20
146.0
 30
0.0
 40
2.5
 41
0.0
 46
0.0
 71
     5
 72
     1
  1
\A1;6'-5{\H1.000000x;\S1/2;}"
 73
     1
 44
1.0
  0
POINT
  5
396
330
38E
100
AcDbEntity
  8
Defpoints
 62
     0
100
AcDbPoint
 10
-125.5
 20
145.0
 30
0.0
  0
POINT
  5
397
330
38E
100
AcDbEntity
  8
Defpoints
 62
     0
100
AcDbPoint
 10
-48.0
 20
145.0
 30
0.0
  0
POINT
  5
398
330
38E
100
AcDbEntity
  8
Defpoints
 62
     0
100
AcDbPoint
 10
-48.0
 20
146.0
 30
0.0
  0
ENDBLK
  5
39A
330
38E
100
AcDbEntity
  8
0
100
AcDbBlockEnd
  0
BLOCK
  5
3B7
330
3AB
100
AcDbEntity
  8
0
100
AcDbBlockBegin
  2
*D44
 70
     1
 10
0.0
 20
0.0
 30
0.0
  3
*D44
  1

  0
LINE
  5
3AC
330
3AB
100
AcDbEntity
  8
Entry_ Living Room
  6
ByBlock
 62
     0
370
    -2
100
AcDbLine
 10
280.125
 20
0.0
 30
0.0
 11
292.50410105
 21
0.0
 31
0.0
  0
LINE
  5
3AD
330
3AB
100
AcDbEntity
  8
Entry_ Living Room
  6
ByBlock
 62
     0
370
    -2
100
AcDbLine
 10
280.125
 20
5.5
 30
0.0
 11
292.50410105
 21
5.5
 31
0.0
  0
LINE
  5
3AE
330
3AB
100
AcDbEntity
  8
Entry_ Living Room
  6
ByBlock
 62
     0
370
    -2
100
AcDbLine
 10
292.5
 20
7.5
 30
0.0
 11
290.5
 21
7.5
 31
0.0
  0
LINE
  5
3AF
330
3AB
100
AcDbEntity
  8
Entry_ Living Room
  6
ByBlock
 62
     0
370
    -2
100
AcDbLine
 10
292.5
 20
2.0
 30
0.0
 11
292.5
 21
3.5
 31
0.0
  0
LINE
  5
3B0
330
3AB
100
AcDbEntity
  8
Entry_ Living Room
  6
ByBlock
 62
     0
370
    -2
100
AcDbLine
 10
292.5
 20
5.5
 30
0.0
 11
292.5
 21
7.5
 31
0.0
  0
SOLID
  5
3B1
330
3AB
100
AcDbEntity
  8
Entry_ Living Room
 62
     0
100
AcDbTrace
 10
292.1666666666667
 20
2.0
 30
0.0
 11
292.8333333333333
 21
2.0
 31
0.0
 12
292.5
 22
0.0
 32
0.0
 13
292.5
 23
0.0
 33
0.0
  0
SOLID
  5
3B2
330
3AB
100
AcDbEntity
  8
Entry_ Living Room
 62
     0
100
AcDbTrace
 10
292.8333333333333
 20
3.5
 30
0.0
 11
292.1666666666667
 21
3.5
 31
0.0
 12
292.5
 22
5.5
 32
0.0
 13
292.5
 23
5.5
 33
0.0
  0
MTEXT
  5
3B3
330
3AB
100
AcDbEntity
  8
Entry_ Living Room
 62
     0
100
AcDbMText
 10
283.7142857142857
 20
7.5
 30
0.0
 40
2.5
 41
0.0
 46
0.0
 71
     5
 72
     1
  1
\A1;0'-5{\H1.000000x;\S1/2;}"
 73
     1
 44
1.0
  0
POINT
  5
3B4
330
3AB
100
AcDbEntity
  8
Defpoints
 62
     0
100
AcDbPoint
 10
279.5
 20
0.0
 30
0.0
  0
POINT
  5
3B5
330
3AB
100
AcDbEntity
  8
Defpoints
 62
     0
100
AcDbPoint
 10
279.5
 20
5.5
 30
0.0
  0
POINT
  5
3B6
330
3AB
100
AcDbEntity
  8
Defpoints
 62
     0
100
AcDbPoint
 10
292.5
 20
5.5
 30
0.0
  0
ENDBLK
  5
3B8
330
3AB
100
AcDbEntity
  8
0
100
AcDbBlockEnd
  0
BLOCK
  5
3D2
330
3C7
100
AcDbEntity
  8
0
100
AcDbBlockBegin
  2
*D45
 70
     1
 10
0.0
 20
0.0
 30
0.0
  3
*D45
  1

  0
LINE
  5
3C8
330
3C7
100
AcDbEntity
  8
Entry_ Living Room
  6
ByBlock
 62
     0
370
    -2
100
AcDbLine
 10
6.0
 20
5.375
 30
0.0
 11
6.0
 21
-24.00410105
 31
0.0
  0
LINE
  5
3C9
330
3C7
100
AcDbEntity
  8
Entry_ Living Room
  6
ByBlock
 62
     0
370
    -2
100
AcDbLine
 10
282.0
 20
5.375
 30
0.0
 11
282.0
 21
-24.00410105
 31
0.0
  0
LINE
  5
3CA
330
3C7
100
AcDbEntity
  8
Entry_ Living Room
  6
ByBlock
 62
     0
370
    -2
100
AcDbLine
 10
8.0
 20
-24.0
 30
0.0
 11
137.125
 21
-24.0
 31
0.0
  0
LINE
  5
3CB
330
3C7
100
AcDbEntity
  8
Entry_ Living Room
  6
ByBlock
 62
     0
370
    -2
100
AcDbLine
 10
280.0
 20
-24.0
 30
0.0
 11
150.875
 21
-24.0
 31
0.0
  0
SOLID
  5
3CC
330
3C7
100
AcDbEntity
  8
Entry_ Living Room
 62
     0
100
AcDbTrace
 10
8.0
 20
-23.66666666666667
 30
0.0
 11
8.0
 21
-24.33333333333333
 31
0.0
 12
6.0
 22
-24.0
 32
0.0
 13
6.0
 23
-24.0
 33
0.0
  0
SOLID
  5
3CD
330
3C7
100
AcDbEntity
  8
Entry_ Living Room
 62
     0
100
AcDbTrace
 10
280.0
 20
-24.33333333333333
 30
0.0
 11
280.0
 21
-23.66666666666667
 31
0.0
 12
282.0
 22
-24.0
 32
0.0
 13
282.0
 23
-24.0
 33
0.0
  0
MTEXT
  5
3CE
330
3C7
100
AcDbEntity
  8
Entry_ Living Room
 62
     0
100
AcDbMText
 10
144.0
 20
-24.0
 30
0.0
 40
2.5
 41
0.0
 46
0.0
 71
     5
 72
     1
  1
\A1;23'-0"
 73
     1
 44
1.0
  0
POINT
  5
3CF
330
3C7
100
AcDbEntity
  8
Defpoints
 62
     0
100
AcDbPoint
 10
6.0
 20
6.0
 30
0.0
  0
POINT
  5
3D0
330
3C7
100
AcDbEntity
  8
Defpoints
 62
     0
100
AcDbPoint
 10
282.0
 20
6.0
 30
0.0
  0
POINT
  5
3D1
330
3C7
100
AcDbEntity
  8
Defpoints
 62
     0
100
AcDbPoint
 10
282.0
 20
-24.0
 30
0.0
  0
ENDBLK
  5
3D3
330
3C7
100
AcDbEntity
  8
0
100
AcDbBlockEnd
  0
BLOCK
  5
3E1
330
3D6
100
AcDbEntity
  8
0
100
AcDbBlockBegin
  2
*D46
 70
     1
 10
0.0
 20
0.0
 30
0.0
  3
*D46
  1

  0
LINE
  5
3D7
330
3D6
100
AcDbEntity
  8
Entry_ Living Room
  6
ByBlock
 62
     0
370
    -2
100
AcDbLine
 10
186.0
 20
1.375
 30
0.0
 11
186.0
 21
-5.50410105
 31
0.0
  0
LINE
  5
3D8
330
3D6
100
AcDbEntity
  8
Entry_ Living Room
  6
ByBlock
 62
     0
370
    -2
100
AcDbLine
 10
222.0
 20
1.375
 30
0.0
 11
222.0
 21
-5.50410105
 31
0.0
  0
LINE
  5
3D9
330
3D6
100
AcDbEntity
  8
Entry_ Living Room
  6
ByBlock
 62
     0
370
    -2
100
AcDbLine
 10
188.0
 20
-5.5
 30
0.0
 11
198.3154761904762
 21
-5.5
 31
0.0
  0
LINE
  5
3DA
330
3D6
100
AcDbEntity
  8
Entry_ Living Room
  6
ByBlock
 62
     0
370
    -2
100
AcDbLine
 10
220.0
 20
-5.5
 30
0.0
 11
209.6845238095238
 21
-5.5
 31
0.0
  0
SOLID
  5
3DB
330
3D6
100
AcDbEntity
  8
Entry_ Living Room
 62
     0
100
AcDbTrace
 10
188.0
 20
-5.166666666666667
 30
0.0
 11
188.0
 21
-5.833333333333333
 31
0.0
 12
186.0
 22
-5.5
 32
0.0
 13
186.0
 23
-5.5
 33
0.0
  0
SOLID
  5
3DC
330
3D6
100
AcDbEntity
  8
Entry_ Living Room
 62
     0
100
AcDbTrace
 10
220.0
 20
-5.833333333333333
 30
0.0
 11
220.0
 21
-5.166666666666667
 31
0.0
 12
222.0
 22
-5.5
 32
0.0
 13
222.0
 23
-5.5
 33
0.0
  0
MTEXT
  5
3DD
330
3D6
100
AcDbEntity
  8
Entry_ Living Room
 62
     0
100
AcDbMText
 10
204.0
 20
-5.5
 30
0.0
 40
2.5
 41
0.0
 46
0.0
 71
     5
 72
     1
  1
\A1;3'-0"
 73
     1
 44
1.0
  0
POINT
  5
3DE
330
3D6
100
AcDbEntity
  8
Defpoints
 62
     0
100
AcDbPoint
 10
186.0
 20
2.0
 30
0.0
  0
POINT
  5
3DF
330
3D6
100
AcDbEntity
  8
Defpoints
 62
     0
100
AcDbPoint
 10
222.0
 20
2.0
 30
0.0
  0
POINT
  5
3E0
330
3D6
100
AcDbEntity
  8
Defpoints
 62
     0
100
AcDbPoint
 10
222.0
 20
-5.5
 30
0.0
  0
ENDBLK
  5
3E2
330
3D6
100
AcDbEntity
  8
0
100
AcDbBlockEnd
  0
BLOCK
  5
3EF
330
3E4
100
AcDbEntity
  8
0
100
AcDbBlockBegin
  2
*D47
 70
     1
 10
0.0
 20
0.0
 30
0.0
  3
*D47
  1

  0
LINE
  5
3E5
330
3E4
100
AcDbEntity
  8
Entry_ Living Room
  6
ByBlock
 62
     0
370
    -2
100
AcDbLine
 10
222.0
 20
4.875
 30
0.0
 11
222.0
 21
-5.50410105
 31
0.0
  0
LINE
  5
3E6
330
3E4
100
AcDbEntity
  8
Entry_ Living Room
  6
ByBlock
 62
     0
370
    -2
100
AcDbLine
 10
282.0
 20
4.875
 30
0.0
 11
282.0
 21
-5.50410105
 31
0.0
  0
LINE
  5
3E7
330
3E4
100
AcDbEntity
  8
Entry_ Living Room
  6
ByBlock
 62
     0
370
    -2
100
AcDbLine
 10
224.0
 20
-5.5
 30
0.0
 11
246.3154761904762
 21
-5.5
 31
0.0
  0
LINE
  5
3E8
330
3E4
100
AcDbEntity
  8
Entry_ Living Room
  6
ByBlock
 62
     0
370
    -2
100
AcDbLine
 10
280.0
 20
-5.5
 30
0.0
 11
257.6845238095238
 21
-5.5
 31
0.0
  0
SOLID
  5
3E9
330
3E4
100
AcDbEntity
  8
Entry_ Living Room
 62
     0
100
AcDbTrace
 10
224.0
 20
-5.166666666666667
 30
0.0
 11
224.0
 21
-5.833333333333333
 31
0.0
 12
222.0
 22
-5.5
 32
0.0
 13
222.0
 23
-5.5
 33
0.0
  0
SOLID
  5
3EA
330
3E4
100
AcDbEntity
  8
Entry_ Living Room
 62
     0
100
AcDbTrace
 10
280.0
 20
-5.833333333333333
 30
0.0
 11
280.0
 21
-5.166666666666667
 31
0.0
 12
282.0
 22
-5.5
 32
0.0
 13
282.0
 23
-5.5
 33
0.0
  0
MTEXT
  5
3EB
330
3E4
100
AcDbEntity
  8
Entry_ Living Room
 62
     0
100
AcDbMText
 10
252.0
 20
-5.5
 30
0.0
 40
2.5
 41
0.0
 46
0.0
 71
     5
 72
     1
  1
\A1;5'-0"
 73
     1
 44
1.0
  0
POINT
  5
3EC
330
3E4
100
AcDbEntity
  8
Defpoints
 62
     0
100
AcDbPoint
 10
222.0
 20
5.5
 30
0.0
  0
POINT
  5
3ED
330
3E4
100
AcDbEntity
  8
Defpoints
 62
     0
100
AcDbPoint
 10
282.0
 20
5.5
 30
0.0
  0
POINT
  5
3EE
330
3E4
100
AcDbEntity
  8
Defpoints
 62
     0
100
AcDbPoint
 10
282.0
 20
-5.5
 30
0.0
  0
ENDBLK
  5
3F0
330
3E4
100
AcDbEntity
  8
0
100
AcDbBlockEnd
  0
BLOCK
  5
3FD
330
3F2
100
AcDbEntity
  8
0
100
AcDbBlockBegin
  2
*D48
 70
     1
 10
0.0
 20
0.0
 30
0.0
  3
*D48
  1

  0
LINE
  5
3F3
330
3F2
100
AcDbEntity
  8
Entry_ Living Room
  6
ByBlock
 62
     0
370
    -2
100
AcDbLine
 10
182.5
 20
4.875
 30
0.0
 11
182.5
 21
-11.00410105
 31
0.0
  0
LINE
  5
3F4
330
3F2
100
AcDbEntity
  8
Entry_ Living Room
  6
ByBlock
 62
     0
370
    -2
100
AcDbLine
 10
225.5
 20
4.875
 30
0.0
 11
225.5
 21
-11.00410105
 31
0.0
  0
LINE
  5
3F5
330
3F2
100
AcDbEntity
  8
Entry_ Living Room
  6
ByBlock
 62
     0
370
    -2
100
AcDbLine
 10
184.5
 20
-11.0
 30
0.0
 11
198.3154761904762
 21
-11.0
 31
0.0
  0
LINE
  5
3F6
330
3F2
100
AcDbEntity
  8
Entry_ Living Room
  6
ByBlock
 62
     0
370
    -2
100
AcDbLine
 10
223.5
 20
-11.0
 30
0.0
 11
209.6845238095238
 21
-11.0
 31
0.0
  0
SOLID
  5
3F7
330
3F2
100
AcDbEntity
  8
Entry_ Living Room
 62
     0
100
AcDbTrace
 10
184.5
 20
-10.66666666666667
 30
0.0
 11
184.5
 21
-11.33333333333333
 31
0.0
 12
182.5
 22
-11.0
 32
0.0
 13
182.5
 23
-11.0
 33
0.0
  0
SOLID
  5
3F8
330
3F2
100
AcDbEntity
  8
Entry_ Living Room
 62
     0
100
AcDbTrace
 10
223.5
 20
-11.33333333333333
 30
0.0
 11
223.5
 21
-10.66666666666667
 31
0.0
 12
225.5
 22
-11.0
 32
0.0
 13
225.5
 23
-11.0
 33
0.0
  0
MTEXT
  5
3F9
330
3F2
100
AcDbEntity
  8
Entry_ Living Room
 62
     0
100
AcDbMText
 10
204.0
 20
-11.0
 30
0.0
 40
2.5
 41
0.0
 46
0.0
 71
     5
 72
     1
  1
\A1;3'-7"
 73
     1
 44
1.0
  0
POINT
  5
3FA
330
3F2
100
AcDbEntity
  8
Defpoints
 62
     0
100
AcDbPoint
 10
182.5
 20
5.5
 30
0.0
  0
POINT
  5
3FB
330
3F2
100
AcDbEntity
  8
Defpoints
 62
     0
100
AcDbPoint
 10
225.5
 20
5.5
 30
0.0
  0
POINT
  5
3FC
330
3F2
100
AcDbEntity
  8
Defpoints
 62
     0
100
AcDbPoint
 10
225.5
 20
-11.0
 30
0.0
  0
ENDBLK
  5
3FE
330
3F2
100
AcDbEntity
  8
0
100
AcDbBlockEnd
  0
BLOCK
  5
41B
330
410
100
AcDbEntity
  8
0
100
AcDbBlockBegin
  2
*D49
 70
     1
 10
0.0
 20
0.0
 30
0.0
  3
*D49
  1

  0
LINE
  5
411
330
410
100
AcDbEntity
  8
Entry_ Living Room
  6
ByBlock
 62
     0
370
    -2
100
AcDbLine
 10
26.375
 20
118.0
 30
0.0
 11
25.99589895
 21
118.0
 31
0.0
  0
LINE
  5
412
330
410
100
AcDbEntity
  8
Entry_ Living Room
  6
ByBlock
 62
     0
370
    -2
100
AcDbLine
 10
26.375
 20
154.0
 30
0.0
 11
25.99589895
 21
154.0
 31
0.0
  0
LINE
  5
413
330
410
100
AcDbEntity
  8
Entry_ Living Room
  6
ByBlock
 62
     0
370
    -2
100
AcDbLine
 10
26.0
 20
120.0
 30
0.0
 11
26.0
 21
130.3154761904762
 31
0.0
  0
LINE
  5
414
330
410
100
AcDbEntity
  8
Entry_ Living Room
  6
ByBlock
 62
     0
370
    -2
100
AcDbLine
 10
26.0
 20
152.0
 30
0.0
 11
26.0
 21
141.6845238095238
 31
0.0
  0
SOLID
  5
415
330
410
100
AcDbEntity
  8
Entry_ Living Room
 62
     0
100
AcDbTrace
 10
25.66666666666667
 20
120.0
 30
0.0
 11
26.33333333333333
 21
120.0
 31
0.0
 12
26.0
 22
118.0
 32
0.0
 13
26.0
 23
118.0
 33
0.0
  0
SOLID
  5
416
330
410
100
AcDbEntity
  8
Entry_ Living Room
 62
     0
100
AcDbTrace
 10
26.33333333333333
 20
152.0
 30
0.0
 11
25.66666666666667
 21
152.0
 31
0.0
 12
26.0
 22
154.0
 32
0.0
 13
26.0
 23
154.0
 33
0.0
  0
MTEXT
  5
417
330
410
100
AcDbEntity
  8
Entry_ Living Room
 62
     0
100
AcDbMText
 10
26.0
 20
136.0
 30
0.0
 40
2.5
 41
0.0
 46
0.0
 71
     5
 72
     1
  1
\A1;3'-0"
 11
0.0
 21
1.0
 31
0.0
 73
     1
 44
1.0
  0
POINT
  5
418
330
410
100
AcDbEntity
  8
Defpoints
 62
     0
100
AcDbPoint
 10
27.0
 20
118.0
 30
0.0
  0
POINT
  5
419
330
410
100
AcDbEntity
  8
Defpoints
 62
     0
100
AcDbPoint
 10
27.0
 20
154.0
 30
0.0
  0
POINT
  5
41A
330
410
100
AcDbEntity
  8
Defpoints
 62
     0
100
AcDbPoint
 10
26.0
 20
154.0
 30
0.0
  0
ENDBLK
  5
41C
330
410
100
AcDbEntity
  8
0
100
AcDbBlockEnd
  0
BLOCK
  5
43B
330
430
100
AcDbEntity
  8
0
100
AcDbBlockBegin
  2
*D50
 70
     1
 10
0.0
 20
0.0
 30
0.0
  3
*D50
  1

  0
LINE
  5
431
330
430
100
AcDbEntity
  8
Dining Area_ Kitchen
  6
ByBlock
 62
     0
370
    -2
100
AcDbLine
 10
317.75
 20
98.75
 30
0.0
 11
317.75
 21
99.12910105
 31
0.0
  0
LINE
  5
432
330
430
100
AcDbEntity
  8
Dining Area_ Kitchen
  6
ByBlock
 62
     0
370
    -2
100
AcDbLine
 10
292.25
 20
98.75
 30
0.0
 11
292.25
 21
99.12910105
 31
0.0
  0
LINE
  5
433
330
430
100
AcDbEntity
  8
Dining Area_ Kitchen
  6
ByBlock
 62
     0
370
    -2
100
AcDbLine
 10
315.75
 20
99.125
 30
0.0
 11
311.7857142857143
 21
99.125
 31
0.0
  0
LINE
  5
434
330
430
100
AcDbEntity
  8
Dining Area_ Kitchen
  6
ByBlock
 62
     0
370
    -2
100
AcDbLine
 10
294.25
 20
99.125
 30
0.0
 11
298.2142857142857
 21
99.125
 31
0.0
  0
SOLID
  5
435
330
430
100
AcDbEntity
  8
Dining Area_ Kitchen
 62
     0
100
AcDbTrace
 10
315.75
 20
98.79166666666667
 30
0.0
 11
315.75
 21
99.45833333333333
 31
0.0
 12
317.75
 22
99.125
 32
0.0
 13
317.75
 23
99.125
 33
0.0
  0
SOLID
  5
436
330
430
100
AcDbEntity
  8
Dining Area_ Kitchen
 62
     0
100
AcDbTrace
 10
294.25
 20
99.45833333333333
 30
0.0
 11
294.25
 21
98.79166666666667
 31
0.0
 12
292.25
 22
99.125
 32
0.0
 13
292.25
 23
99.125
 33
0.0
  0
MTEXT
  5
437
330
430
100
AcDbEntity
  8
Dining Area_ Kitchen
 62
     0
100
AcDbMText
 10
305.0
 20
99.125
 30
0.0
 40
2.5
 41
0.0
 46
0.0
 71
     5
 72
     1
  1
\A1;2'-1{\H1.000000x;\S1/2;}"
 73
     1
 44
1.0
  0
POINT
  5
438
330
430
100
AcDbEntity
  8
Defpoints
 62
     0
100
AcDbPoint
 10
317.75
 20
98.125
 30
0.0
  0
POINT
  5
439
330
430
100
AcDbEntity
  8
Defpoints
 62
     0
100
AcDbPoint
 10
292.25
 20
98.125
 30
0.0
  0
POINT
  5
43A
330
430
100
AcDbEntity
  8
Defpoints
 62
     0
100
AcDbPoint
 10
292.25
 20
99.125
 30
0.0
  0
ENDBLK
  5
43C
330
430
100
AcDbEntity
  8
0
100
AcDbBlockEnd
  0
BLOCK
  5
449
330
43E
100
AcDbEntity
  8
0
100
AcDbBlockBegin
  2
*D51
 70
     1
 10
0.0
 20
0.0
 30
0.0
  3
*D51
  1

  0
LINE
  5
43F
330
43E
100
AcDbEntity
  8
Dining Area_ Kitchen
  6
ByBlock
 62
     0
370
    -2
100
AcDbLine
 10
138.0
 20
169.125
 30
0.0
 11
138.0
 21
169.00410105
 31
0.0
  0
LINE
  5
440
330
43E
100
AcDbEntity
  8
Dining Area_ Kitchen
  6
ByBlock
 62
     0
370
    -2
100
AcDbLine
 10
172.5
 20
169.125
 30
0.0
 11
172.5
 21
169.00410105
 31
0.0
  0
LINE
  5
441
330
43E
100
AcDbEntity
  8
Dining Area_ Kitchen
  6
ByBlock
 62
     0
370
    -2
100
AcDbLine
 10
140.0
 20
169.0
 30
0.0
 11
147.2738095238095
 21
169.0
 31
0.0
  0
LINE
  5
442
330
43E
100
AcDbEntity
  8
Dining Area_ Kitchen
  6
ByBlock
 62
     0
370
    -2
100
AcDbLine
 10
170.5
 20
169.0
 30
0.0
 11
163.2261904761905
 21
169.0
 31
0.0
  0
SOLID
  5
443
330
43E
100
AcDbEntity
  8
Dining Area_ Kitchen
 62
     0
100
AcDbTrace
 10
140.0
 20
169.3333333333333
 30
0.0
 11
140.0
 21
168.6666666666667
 31
0.0
 12
138.0
 22
169.0
 32
0.0
 13
138.0
 23
169.0
 33
0.0
  0
SOLID
  5
444
330
43E
100
AcDbEntity
  8
Dining Area_ Kitchen
 62
     0
100
AcDbTrace
 10
170.5
 20
168.6666666666667
 30
0.0
 11
170.5
 21
169.3333333333333
 31
0.0
 12
172.5
 22
169.0
 32
0.0
 13
172.5
 23
169.0
 33
0.0
  0
MTEXT
  5
445
330
43E
100
AcDbEntity
  8
Dining Area_ Kitchen
 62
     0
100
AcDbMText
 10
155.25
 20
169.0
 30
0.0
 40
2.5
 41
0.0
 46
0.0
 71
     5
 72
     1
  1
\A1;2'-10{\H1.000000x;\S1/2;}"
 73
     1
 44
1.0
  0
POINT
  5
446
330
43E
100
AcDbEntity
  8
Defpoints
 62
     0
100
AcDbPoint
 10
138.0
 20
168.5
 30
0.0
  0
POINT
  5
447
330
43E
100
AcDbEntity
  8
Defpoints
 62
     0
100
AcDbPoint
 10
172.5
 20
168.5
 30
0.0
  0
POINT
  5
448
330
43E
100
AcDbEntity
  8
Defpoints
 62
     0
100
AcDbPoint
 10
172.5
 20
169.0
 30
0.0
  0
ENDBLK
  5
44A
330
43E
100
AcDbEntity
  8
0
100
AcDbBlockEnd
  0
BLOCK
  5
467
330
45C
100
AcDbEntity
  8
0
100
AcDbBlockBegin
  2
*D52
 70
     1
 10
0.0
 20
0.0
 30
0.0
  3
*D52
  1

  0
LINE
  5
45D
330
45C
100
AcDbEntity
  8
Dining Area_ Kitchen
  6
ByBlock
 62
     0
370
    -2
100
AcDbLine
 10
235.0
 20
21.375
 30
0.0
 11
235.0
 21
20.99589895
 31
0.0
  0
LINE
  5
45E
330
45C
100
AcDbEntity
  8
Dining Area_ Kitchen
  6
ByBlock
 62
     0
370
    -2
100
AcDbLine
 10
222.0
 20
21.375
 30
0.0
 11
222.0
 21
20.99589895
 31
0.0
  0
LINE
  5
45F
330
45C
100
AcDbEntity
  8
Dining Area_ Kitchen
  6
ByBlock
 62
     0
370
    -2
100
AcDbLine
 10
237.0
 20
21.0
 30
0.0
 11
239.0
 21
21.0
 31
0.0
  0
LINE
  5
460
330
45C
100
AcDbEntity
  8
Dining Area_ Kitchen
  6
ByBlock
 62
     0
370
    -2
100
AcDbLine
 10
220.0
 20
21.0
 30
0.0
 11
218.0
 21
21.0
 31
0.0
  0
SOLID
  5
461
330
45C
100
AcDbEntity
  8
Dining Area_ Kitchen
 62
     0
100
AcDbTrace
 10
237.0
 20
21.33333333333333
 30
0.0
 11
237.0
 21
20.66666666666667
 31
0.0
 12
235.0
 22
21.0
 32
0.0
 13
235.0
 23
21.0
 33
0.0
  0
SOLID
  5
462
330
45C
100
AcDbEntity
  8
Dining Area_ Kitchen
 62
     0
100
AcDbTrace
 10
220.0
 20
20.66666666666667
 30
0.0
 11
220.0
 21
21.33333333333333
 31
0.0
 12
222.0
 22
21.0
 32
0.0
 13
222.0
 23
21.0
 33
0.0
  0
MTEXT
  5
463
330
45C
100
AcDbEntity
  8
Dining Area_ Kitchen
 62
     0
100
AcDbMText
 10
228.5
 20
21.0
 30
0.0
 40
2.5
 41
0.0
 46
0.0
 71
     5
 72
     1
  1
\A1;1'-1"
 73
     1
 44
1.0
  0
POINT
  5
464
330
45C
100
AcDbEntity
  8
Defpoints
 62
     0
100
AcDbPoint
 10
235.0
 20
22.0
 30
0.0
  0
POINT
  5
465
330
45C
100
AcDbEntity
  8
Defpoints
 62
     0
100
AcDbPoint
 10
222.0
 20
22.0
 30
0.0
  0
POINT
  5
466
330
45C
100
AcDbEntity
  8
Defpoints
 62
     0
100
AcDbPoint
 10
222.0
 20
21.0
 30
0.0
  0
ENDBLK
  5
468
330
45C
100
AcDbEntity
  8
0
100
AcDbBlockEnd
  0
BLOCK
  5
49D
330
492
100
AcDbEntity
  8
0
100
AcDbBlockBegin
  2
*D53
 70
     1
 10
0.0
 20
0.0
 30
0.0
  3
*D53
  1

  0
LINE
  5
493
330
492
100
AcDbEntity
  8
Bedroom
  6
ByBlock
 62
     0
370
    -2
100
AcDbLine
 10
194.5
 20
279.875
 30
0.0
 11
194.5
 21
279.99589895
 31
0.0
  0
LINE
  5
494
330
492
100
AcDbEntity
  8
Bedroom
  6
ByBlock
 62
     0
370
    -2
100
AcDbLine
 10
233.5
 20
279.875
 30
0.0
 11
233.5
 21
279.99589895
 31
0.0
  0
LINE
  5
495
330
492
100
AcDbEntity
  8
Bedroom
  6
ByBlock
 62
     0
370
    -2
100
AcDbLine
 10
196.5
 20
280.0
 30
0.0
 11
208.3154761904762
 21
280.0
 31
0.0
  0
LINE
  5
496
330
492
100
AcDbEntity
  8
Bedroom
  6
ByBlock
 62
     0
370
    -2
100
AcDbLine
 10
231.5
 20
280.0
 30
0.0
 11
219.6845238095238
 21
280.0
 31
0.0
  0
SOLID
  5
497
330
492
100
AcDbEntity
  8
Bedroom
 62
     0
100
AcDbTrace
 10
196.5
 20
280.3333333333333
 30
0.0
 11
196.5
 21
279.6666666666667
 31
0.0
 12
194.5
 22
280.0
 32
0.0
 13
194.5
 23
280.0
 33
0.0
  0
SOLID
  5
498
330
492
100
AcDbEntity
  8
Bedroom
 62
     0
100
AcDbTrace
 10
231.5
 20
279.6666666666667
 30
0.0
 11
231.5
 21
280.3333333333333
 31
0.0
 12
233.5
 22
280.0
 32
0.0
 13
233.5
 23
280.0
 33
0.0
  0
MTEXT
  5
499
330
492
100
AcDbEntity
  8
Bedroom
 62
     0
100
AcDbMText
 10
214.0
 20
280.0
 30
0.0
 40
2.5
 41
0.0
 46
0.0
 71
     5
 72
     1
  1
\A1;3'-3"
 73
     1
 44
1.0
  0
POINT
  5
49A
330
492
100
AcDbEntity
  8
Defpoints
 62
     0
100
AcDbPoint
 10
194.5
 20
280.5
 30
0.0
  0
POINT
  5
49B
330
492
100
AcDbEntity
  8
Defpoints
 62
     0
100
AcDbPoint
 10
233.5
 20
280.5
 30
0.0
  0
POINT
  5
49C
330
492
100
AcDbEntity
  8
Defpoints
 62
     0
100
AcDbPoint
 10
233.5
 20
280.0
 30
0.0
  0
ENDBLK
  5
49E
330
492
100
AcDbEntity
  8
0
100
AcDbBlockEnd
  0
BLOCK
  5
4AB
330
4A0
100
AcDbEntity
  8
0
100
AcDbBlockBegin
  2
*D54
 70
     1
 10
0.0
 20
0.0
 30
0.0
  3
*D54
  1

  0
LINE
  5
4A1
330
4A0
100
AcDbEntity
  8
Bedroom
  6
ByBlock
 62
     0
370
    -2
100
AcDbLine
 10
237.5
 20
279.875
 30
0.0
 11
237.5
 21
279.99589895
 31
0.0
  0
LINE
  5
4A2
330
4A0
100
AcDbEntity
  8
Bedroom
  6
ByBlock
 62
     0
370
    -2
100
AcDbLine
 10
282.0
 20
279.875
 30
0.0
 11
282.0
 21
279.99589895
 31
0.0
  0
LINE
  5
4A3
330
4A0
100
AcDbEntity
  8
Bedroom
  6
ByBlock
 62
     0
370
    -2
100
AcDbLine
 10
239.5
 20
280.0
 30
0.0
 11
252.9642857142857
 21
280.0
 31
0.0
  0
LINE
  5
4A4
330
4A0
100
AcDbEntity
  8
Bedroom
  6
ByBlock
 62
     0
370
    -2
100
AcDbLine
 10
280.0
 20
280.0
 30
0.0
 11
266.5357142857143
 21
280.0
 31
0.0
  0
SOLID
  5
4A5
330
4A0
100
AcDbEntity
  8
Bedroom
 62
     0
100
AcDbTrace
 10
239.5
 20
280.3333333333333
 30
0.0
 11
239.5
 21
279.6666666666667
 31
0.0
 12
237.5
 22
280.0
 32
0.0
 13
237.5
 23
280.0
 33
0.0
  0
SOLID
  5
4A6
330
4A0
100
AcDbEntity
  8
Bedroom
 62
     0
100
AcDbTrace
 10
280.0
 20
279.6666666666667
 30
0.0
 11
280.0
 21
280.3333333333333
 31
0.0
 12
282.0
 22
280.0
 32
0.0
 13
282.0
 23
280.0
 33
0.0
  0
MTEXT
  5
4A7
330
4A0
100
AcDbEntity
  8
Bedroom
 62
     0
100
AcDbMText
 10
259.75
 20
280.0
 30
0.0
 40
2.5
 41
0.0
 46
0.0
 71
     5
 72
     1
  1
\A1;3'-8{\H1.000000x;\S1/2;}"
 73
     1
 44
1.0
  0
POINT
  5
4A8
330
4A0
100
AcDbEntity
  8
Defpoints
 62
     0
100
AcDbPoint
 10
237.5
 20
280.5
 30
0.0
  0
POINT
  5
4A9
330
4A0
100
AcDbEntity
  8
Defpoints
 62
     0
100
AcDbPoint
 10
282.0
 20
280.5
 30
0.0
  0
POINT
  5
4AA
330
4A0
100
AcDbEntity
  8
Defpoints
 62
     0
100
AcDbPoint
 10
282.0
 20
280.0
 30
0.0
  0
ENDBLK
  5
4AC
330
4A0
100
AcDbEntity
  8
0
100
AcDbBlockEnd
  0
BLOCK
  5
4C5
330
4BA
100
AcDbEntity
  8
0
100
AcDbBlockBegin
  2
*D55
 70
     1
 10
0.0
 20
0.0
 30
0.0
  3
*D55
  1

  0
LINE
  5
4BB
330
4BA
100
AcDbEntity
  8
Bedroom
  6
ByBlock
 62
     0
370
    -2
100
AcDbLine
 10
201.625
 20
273.0
 30
0.0
 11
202.00410105
 21
273.0
 31
0.0
  0
LINE
  5
4BC
330
4BA
100
AcDbEntity
  8
Bedroom
  6
ByBlock
 62
     0
370
    -2
100
AcDbLine
 10
201.625
 20
290.0
 30
0.0
 11
202.00410105
 21
290.0
 31
0.0
  0
LINE
  5
4BD
330
4BA
100
AcDbEntity
  8
Bedroom
  6
ByBlock
 62
     0
370
    -2
100
AcDbLine
 10
202.0
 20
275.0
 30
0.0
 11
202.0
 21
275.9940476190476
 31
0.0
  0
LINE
  5
4BE
330
4BA
100
AcDbEntity
  8
Bedroom
  6
ByBlock
 62
     0
370
    -2
100
AcDbLine
 10
202.0
 20
288.0
 30
0.0
 11
202.0
 21
287.0059523809524
 31
0.0
  0
SOLID
  5
4BF
330
4BA
100
AcDbEntity
  8
Bedroom
 62
     0
100
AcDbTrace
 10
201.6666666666667
 20
275.0
 30
0.0
 11
202.3333333333333
 21
275.0
 31
0.0
 12
202.0
 22
273.0
 32
0.0
 13
202.0
 23
273.0
 33
0.0
  0
SOLID
  5
4C0
330
4BA
100
AcDbEntity
  8
Bedroom
 62
     0
100
AcDbTrace
 10
202.3333333333333
 20
288.0
 30
0.0
 11
201.6666666666667
 21
288.0
 31
0.0
 12
202.0
 22
290.0
 32
0.0
 13
202.0
 23
290.0
 33
0.0
  0
MTEXT
  5
4C1
330
4BA
100
AcDbEntity
  8
Bedroom
 62
     0
100
AcDbMText
 10
202.0
 20
281.5
 30
0.0
 40
2.5
 41
0.0
 46
0.0
 71
     5
 72
     1
  1
\A1;1'-5"
 11
0.0
 21
1.0
 31
0.0
 73
     1
 44
1.0
  0
POINT
  5
4C2
330
4BA
100
AcDbEntity
  8
Defpoints
 62
     0
100
AcDbPoint
 10
201.0
 20
273.0
 30
0.0
  0
POINT
  5
4C3
330
4BA
100
AcDbEntity
  8
Defpoints
 62
     0
100
AcDbPoint
 10
201.0
 20
290.0
 30
0.0
  0
POINT
  5
4C4
330
4BA
100
AcDbEntity
  8
Defpoints
 62
     0
100
AcDbPoint
 10
202.0
 20
290.0
 30
0.0
  0
ENDBLK
  5
4C6
330
4BA
100
AcDbEntity
  8
0
100
AcDbBlockEnd
  0
BLOCK
  5
4E1
330
4D6
100
AcDbEntity
  8
0
100
AcDbBlockBegin
  2
*D56
 70
     1
 10
0.0
 20
0.0
 30
0.0
  3
*D56
  1

  0
LINE
  5
4D7
330
4D6
100
AcDbEntity
  8
Bedroom
  6
ByBlock
 62
     0
370
    -2
100
AcDbLine
 10
151.0
 20
286.375
 30
0.0
 11
151.0
 21
285.99589895
 31
0.0
  0
LINE
  5
4D8
330
4D6
100
AcDbEntity
  8
Bedroom
  6
ByBlock
 62
     0
370
    -2
100
AcDbLine
 10
190.0
 20
286.375
 30
0.0
 11
190.0
 21
285.99589895
 31
0.0
  0
LINE
  5
4D9
330
4D6
100
AcDbEntity
  8
Bedroom
  6
ByBlock
 62
     0
370
    -2
100
AcDbLine
 10
153.0
 20
286.0
 30
0.0
 11
164.8154761904762
 21
286.0
 31
0.0
  0
LINE
  5
4DA
330
4D6
100
AcDbEntity
  8
Bedroom
  6
ByBlock
 62
     0
370
    -2
100
AcDbLine
 10
188.0
 20
286.0
 30
0.0
 11
176.1845238095238
 21
286.0
 31
0.0
  0
SOLID
  5
4DB
330
4D6
100
AcDbEntity
  8
Bedroom
 62
     0
100
AcDbTrace
 10
153.0
 20
286.3333333333333
 30
0.0
 11
153.0
 21
285.6666666666667
 31
0.0
 12
151.0
 22
286.0
 32
0.0
 13
151.0
 23
286.0
 33
0.0
  0
SOLID
  5
4DC
330
4D6
100
AcDbEntity
  8
Bedroom
 62
     0
100
AcDbTrace
 10
188.0
 20
285.6666666666667
 30
0.0
 11
188.0
 21
286.3333333333333
 31
0.0
 12
190.0
 22
286.0
 32
0.0
 13
190.0
 23
286.0
 33
0.0
  0
MTEXT
  5
4DD
330
4D6
100
AcDbEntity
  8
Bedroom
 62
     0
100
AcDbMText
 10
170.5
 20
286.0
 30
0.0
 40
2.5
 41
0.0
 46
0.0
 71
     5
 72
     1
  1
\A1;3'-3"
 73
     1
 44
1.0
  0
POINT
  5
4DE
330
4D6
100
AcDbEntity
  8
Defpoints
 62
     0
100
AcDbPoint
 10
151.0
 20
287.0
 30
0.0
  0
POINT
  5
4DF
330
4D6
100
AcDbEntity
  8
Defpoints
 62
     0
100
AcDbPoint
 10
190.0
 20
287.0
 30
0.0
  0
POINT
  5
4E0
330
4D6
100
AcDbEntity
  8
Defpoints
 62
     0
100
AcDbPoint
 10
190.0
 20
286.0
 30
0.0
  0
ENDBLK
  5
4E2
330
4D6
100
AcDbEntity
  8
0
100
AcDbBlockEnd
  0
BLOCK
  5
4EF
330
4E4
100
AcDbEntity
  8
0
100
AcDbBlockBegin
  2
*D57
 70
     1
 10
0.0
 20
0.0
 30
0.0
  3
*D57
  1

  0
LINE
  5
4E5
330
4E4
100
AcDbEntity
  8
Dining Area_ Kitchen
  6
ByBlock
 62
     0
370
    -2
100
AcDbLine
 10
114.5
 20
265.625
 30
0.0
 11
114.5
 21
266.00410105
 31
0.0
  0
LINE
  5
4E6
330
4E4
100
AcDbEntity
  8
Dining Area_ Kitchen
  6
ByBlock
 62
     0
370
    -2
100
AcDbLine
 10
192.0
 20
265.625
 30
0.0
 11
192.0
 21
266.00410105
 31
0.0
  0
LINE
  5
4E7
330
4E4
100
AcDbEntity
  8
Dining Area_ Kitchen
  6
ByBlock
 62
     0
370
    -2
100
AcDbLine
 10
116.5
 20
266.0
 30
0.0
 11
146.5238095238095
 21
266.0
 31
0.0
  0
LINE
  5
4E8
330
4E4
100
AcDbEntity
  8
Dining Area_ Kitchen
  6
ByBlock
 62
     0
370
    -2
100
AcDbLine
 10
190.0
 20
266.0
 30
0.0
 11
159.9761904761905
 21
266.0
 31
0.0
  0
SOLID
  5
4E9
330
4E4
100
AcDbEntity
  8
Dining Area_ Kitchen
 62
     0
100
AcDbTrace
 10
116.5
 20
266.3333333333333
 30
0.0
 11
116.5
 21
265.6666666666667
 31
0.0
 12
114.5
 22
266.0
 32
0.0
 13
114.5
 23
266.0
 33
0.0
  0
SOLID
  5
4EA
330
4E4
100
AcDbEntity
  8
Dining Area_ Kitchen
 62
     0
100
AcDbTrace
 10
190.0
 20
265.6666666666667
 30
0.0
 11
190.0
 21
266.3333333333333
 31
0.0
 12
192.0
 22
266.0
 32
0.0
 13
192.0
 23
266.0
 33
0.0
  0
MTEXT
  5
4EB
330
4E4
100
AcDbEntity
  8
Dining Area_ Kitchen
 62
     0
100
AcDbMText
 10
153.25
 20
266.0
 30
0.0
 40
2.5
 41
0.0
 46
0.0
 71
     5
 72
     1
  1
\A1;6'-5{\H1.000000x;\S1/2;}"
 73
     1
 44
1.0
  0
POINT
  5
4EC
330
4E4
100
AcDbEntity
  8
Defpoints
 62
     0
100
AcDbPoint
 10
114.5
 20
265.0
 30
0.0
  0
POINT
  5
4ED
330
4E4
100
AcDbEntity
  8
Defpoints
 62
     0
100
AcDbPoint
 10
192.0
 20
265.0
 30
0.0
  0
POINT
  5
4EE
330
4E4
100
AcDbEntity
  8
Defpoints
 62
     0
100
AcDbPoint
 10
192.0
 20
266.0
 30
0.0
  0
ENDBLK
  5
4F0
330
4E4
100
AcDbEntity
  8
0
100
AcDbBlockEnd
  0
BLOCK
  5
4FD
330
4F2
100
AcDbEntity
  8
0
100
AcDbBlockBegin
  2
*D58
 70
     1
 10
0.0
 20
0.0
 30
0.0
  3
*D58
  1

  0
LINE
  5
4F3
330
4F2
100
AcDbEntity
  8
Bedroom
  6
ByBlock
 62
     0
370
    -2
100
AcDbLine
 10
282.0
 20
263.375
 30
0.0
 11
282.0
 21
262.49589895
 31
0.0
  0
LINE
  5
4F4
330
4F2
100
AcDbEntity
  8
Bedroom
  6
ByBlock
 62
     0
370
    -2
100
AcDbLine
 10
190.5
 20
263.375
 30
0.0
 11
190.5
 21
262.49589895
 31
0.0
  0
LINE
  5
4F5
330
4F2
100
AcDbEntity
  8
Bedroom
  6
ByBlock
 62
     0
370
    -2
100
AcDbLine
 10
280.0
 20
262.5
 30
0.0
 11
243.0357142857143
 21
262.5
 31
0.0
  0
LINE
  5
4F6
330
4F2
100
AcDbEntity
  8
Bedroom
  6
ByBlock
 62
     0
370
    -2
100
AcDbLine
 10
192.5
 20
262.5
 30
0.0
 11
229.4642857142857
 21
262.5
 31
0.0
  0
SOLID
  5
4F7
330
4F2
100
AcDbEntity
  8
Bedroom
 62
     0
100
AcDbTrace
 10
280.0
 20
262.1666666666667
 30
0.0
 11
280.0
 21
262.8333333333333
 31
0.0
 12
282.0
 22
262.5
 32
0.0
 13
282.0
 23
262.5
 33
0.0
  0
SOLID
  5
4F8
330
4F2
100
AcDbEntity
  8
Bedroom
 62
     0
100
AcDbTrace
 10
192.5
 20
262.8333333333333
 30
0.0
 11
192.5
 21
262.1666666666667
 31
0.0
 12
190.5
 22
262.5
 32
0.0
 13
190.5
 23
262.5
 33
0.0
  0
MTEXT
  5
4F9
330
4F2
100
AcDbEntity
  8
Bedroom
 62
     0
100
AcDbMText
 10
236.25
 20
262.5
 30
0.0
 40
2.5
 41
0.0
 46
0.0
 71
     5
 72
     1
  1
\A1;7'-7{\H1.000000x;\S1/2;}"
 73
     1
 44
1.0
  0
POINT
  5
4FA
330
4F2
100
AcDbEntity
  8
Defpoints
 62
     0
100
AcDbPoint
 10
282.0
 20
264.0
 30
0.0
  0
POINT
  5
4FB
330
4F2
100
AcDbEntity
  8
Defpoints
 62
     0
100
AcDbPoint
 10
190.5
 20
264.0
 30
0.0
  0
POINT
  5
4FC
330
4F2
100
AcDbEntity
  8
Defpoints
 62
     0
100
AcDbPoint
 10
190.5
 20
262.5
 30
0.0
  0
ENDBLK
  5
4FE
330
4F2
100
AcDbEntity
  8
0
100
AcDbBlockEnd
  0
BLOCK
  5
50B
330
500
100
AcDbEntity
  8
0
100
AcDbBlockBegin
  2
*D59
 70
     1
 10
0.0
 20
0.0
 30
0.0
  3
*D59
  1

  0
LINE
  5
501
330
500
100
AcDbEntity
  8
Bedroom
  6
ByBlock
 62
     0
370
    -2
100
AcDbLine
 10
6.0
 20
300.625
 30
0.0
 11
6.0
 21
300.00410105
 31
0.0
  0
LINE
  5
502
330
500
100
AcDbEntity
  8
Bedroom
  6
ByBlock
 62
     0
370
    -2
100
AcDbLine
 10
110.0
 20
300.625
 30
0.0
 11
110.0
 21
300.00410105
 31
0.0
  0
LINE
  5
503
330
500
100
AcDbEntity
  8
Bedroom
  6
ByBlock
 62
     0
370
    -2
100
AcDbLine
 10
8.0
 20
300.0
 30
0.0
 11
52.31547619047619
 21
300.0
 31
0.0
  0
LINE
  5
504
330
500
100
AcDbEntity
  8
Bedroom
  6
ByBlock
 62
     0
370
    -2
100
AcDbLine
 10
108.0
 20
300.0
 30
0.0
 11
63.68452380952381
 21
300.0
 31
0.0
  0
SOLID
  5
505
330
500
100
AcDbEntity
  8
Bedroom
 62
     0
100
AcDbTrace
 10
8.0
 20
300.3333333333333
 30
0.0
 11
8.0
 21
299.6666666666667
 31
0.0
 12
6.0
 22
300.0
 32
0.0
 13
6.0
 23
300.0
 33
0.0
  0
SOLID
  5
506
330
500
100
AcDbEntity
  8
Bedroom
 62
     0
100
AcDbTrace
 10
108.0
 20
299.6666666666667
 30
0.0
 11
108.0
 21
300.3333333333333
 31
0.0
 12
110.0
 22
300.0
 32
0.0
 13
110.0
 23
300.0
 33
0.0
  0
MTEXT
  5
507
330
500
100
AcDbEntity
  8
Bedroom
 62
     0
100
AcDbMText
 10
58.0
 20
300.0
 30
0.0
 40
2.5
 41
0.0
 46
0.0
 71
     5
 72
     1
  1
\A1;8'-8"
 73
     1
 44
1.0
  0
POINT
  5
508
330
500
100
AcDbEntity
  8
Defpoints
 62
     0
100
AcDbPoint
 10
6.0
 20
300.0
 30
0.0
  0
POINT
  5
509
330
500
100
AcDbEntity
  8
Defpoints
 62
     0
100
AcDbPoint
 10
110.0
 20
300.0
 30
0.0
  0
POINT
  5
50A
330
500
100
AcDbEntity
  8
Defpoints
 62
     0
100
AcDbPoint
 10
110.0
 20
300.0
 30
0.0
  0
ENDBLK
  5
50C
330
500
100
AcDbEntity
  8
0
100
AcDbBlockEnd
  0
BLOCK
  5
519
330
50E
100
AcDbEntity
  8
0
100
AcDbBlockBegin
  2
*D60
 70
     1
 10
0.0
 20
0.0
 30
0.0
  3
*D60
  1

  0
LINE
  5
50F
330
50E
100
AcDbEntity
  8
Bedroom
  6
ByBlock
 62
     0
370
    -2
100
AcDbLine
 10
6.5
 20
252.625
 30
0.0
 11
6.5
 21
253.00410105
 31
0.0
  0
LINE
  5
510
330
50E
100
AcDbEntity
  8
Bedroom
  6
ByBlock
 62
     0
370
    -2
100
AcDbLine
 10
72.5
 20
252.625
 30
0.0
 11
72.5
 21
253.00410105
 31
0.0
  0
LINE
  5
511
330
50E
100
AcDbEntity
  8
Bedroom
  6
ByBlock
 62
     0
370
    -2
100
AcDbLine
 10
8.5
 20
253.0
 30
0.0
 11
33.81547619047619
 21
253.0
 31
0.0
  0
LINE
  5
512
330
50E
100
AcDbEntity
  8
Bedroom
  6
ByBlock
 62
     0
370
    -2
100
AcDbLine
 10
70.5
 20
253.0
 30
0.0
 11
45.1845238095238
 21
253.0
 31
0.0
  0
SOLID
  5
513
330
50E
100
AcDbEntity
  8
Bedroom
 62
     0
100
AcDbTrace
 10
8.5
 20
253.3333333333333
 30
0.0
 11
8.5
 21
252.6666666666667
 31
0.0
 12
6.5
 22
253.0
 32
0.0
 13
6.5
 23
253.0
 33
0.0
  0
SOLID
  5
514
330
50E
100
AcDbEntity
  8
Bedroom
 62
     0
100
AcDbTrace
 10
70.5
 20
252.6666666666667
 30
0.0
 11
70.5
 21
253.3333333333333
 31
0.0
 12
72.5
 22
253.0
 32
0.0
 13
72.5
 23
253.0
 33
0.0
  0
MTEXT
  5
515
330
50E
100
AcDbEntity
  8
Bedroom
 62
     0
100
AcDbMText
 10
39.5
 20
253.0
 30
0.0
 40
2.5
 41
0.0
 46
0.0
 71
     5
 72
     1
  1
\A1;5'-6"
 73
     1
 44
1.0
  0
POINT
  5
516
330
50E
100
AcDbEntity
  8
Defpoints
 62
     0
100
AcDbPoint
 10
6.5
 20
252.0
 30
0.0
  0
POINT
  5
517
330
50E
100
AcDbEntity
  8
Defpoints
 62
     0
100
AcDbPoint
 10
72.5
 20
252.0
 30
0.0
  0
POINT
  5
518
330
50E
100
AcDbEntity
  8
Defpoints
 62
     0
100
AcDbPoint
 10
72.5
 20
253.0
 30
0.0
  0
ENDBLK
  5
51A
330
50E
100
AcDbEntity
  8
0
100
AcDbBlockEnd
  0
BLOCK
  5
52D
330
522
100
AcDbEntity
  8
0
100
AcDbBlockBegin
  2
*D61
 70
     1
 10
0.0
 20
0.0
 30
0.0
  3
*D61
  1

  0
LINE
  5
523
330
522
100
AcDbEntity
  8
Dining Area_ Kitchen
  6
ByBlock
 62
     0
370
    -2
100
AcDbLine
 10
282.0
 20
62.25
 30
0.0
 11
282.0
 21
62.62910105
 31
0.0
  0
LINE
  5
524
330
522
100
AcDbEntity
  8
Dining Area_ Kitchen
  6
ByBlock
 62
     0
370
    -2
100
AcDbLine
 10
256.5
 20
62.25
 30
0.0
 11
256.5
 21
62.62910105
 31
0.0
  0
LINE
  5
525
330
522
100
AcDbEntity
  8
Dining Area_ Kitchen
  6
ByBlock
 62
     0
370
    -2
100
AcDbLine
 10
280.0
 20
62.625
 30
0.0
 11
276.0357142857143
 21
62.625
 31
0.0
  0
LINE
  5
526
330
522
100
AcDbEntity
  8
Dining Area_ Kitchen
  6
ByBlock
 62
     0
370
    -2
100
AcDbLine
 10
258.5
 20
62.625
 30
0.0
 11
262.4642857142857
 21
62.625
 31
0.0
  0
SOLID
  5
527
330
522
100
AcDbEntity
  8
Dining Area_ Kitchen
 62
     0
100
AcDbTrace
 10
280.0
 20
62.29166666666666
 30
0.0
 11
280.0
 21
62.95833333333334
 31
0.0
 12
282.0
 22
62.625
 32
0.0
 13
282.0
 23
62.625
 33
0.0
  0
SOLID
  5
528
330
522
100
AcDbEntity
  8
Dining Area_ Kitchen
 62
     0
100
AcDbTrace
 10
258.5
 20
62.95833333333334
 30
0.0
 11
258.5
 21
62.29166666666666
 31
0.0
 12
256.5
 22
62.625
 32
0.0
 13
256.5
 23
62.625
 33
0.0
  0
MTEXT
  5
529
330
522
100
AcDbEntity
  8
Dining Area_ Kitchen
 62
     0
100
AcDbMText
 10
269.25
 20
62.625
 30
0.0
 40
2.5
 41
0.0
 46
0.0
 71
     5
 72
     1
  1
\A1;2'-1{\H1.000000x;\S1/2;}"
 73
     1
 44
1.0
  0
POINT
  5
52A
330
522
100
AcDbEntity
  8
Defpoints
 62
     0
100
AcDbPoint
 10
282.0
 20
61.625
 30
0.0
  0
POINT
  5
52B
330
522
100
AcDbEntity
  8
Defpoints
 62
     0
100
AcDbPoint
 10
256.5
 20
61.625
 30
0.0
  0
POINT
  5
52C
330
522
100
AcDbEntity
  8
Defpoints
 62
     0
100
AcDbPoint
 10
256.5
 20
62.625
 30
0.0
  0
ENDBLK
  5
52E
330
522
100
AcDbEntity
  8
0
100
AcDbBlockEnd
  0
ENDSEC
  0
SECTION
  2
ENTITIES
  0
LWPOLYLINE
  5
39E
102
{ACAD_XDICTIONARY
360
39C
102
}
330
1F
100
AcDbEntity
  8
0
100
AcDbPolyline
 90
        4
 70
     1
 43
0.0
 10
0.0
 20
0.0
 10
288.0
 20
0.0
 10
288.0
 20
444.0
 10
0.0
 20
444.0
  0
LWPOLYLINE
  5
3A3
102
{ACAD_XDICTIONARY
360
3A1
102
}
330
1F
100
AcDbEntity
  8
Perimeter
100
AcDbPolyline
 90
        4
 70
     1
 43
0.0
 10
5.5
 20
5.5
 10
5.5
 20
5.5
 10
5.5
 20
438.5
 10
5.5
 20
438.5
  0
LWPOLYLINE
  5
3A6
102
{ACAD_XDICTIONARY
360
3A4
102
}
330
1F
100
AcDbEntity
  8
Perimeter
100
AcDbPolyline
 90
        3
 70
     1
 43
0.0
 10
5.5
 20
438.5
 10
5.5
 20
438.5
 10
8.25
 20
438.5
  0
LWPOLYLINE
  5
3A9
102
{ACAD_XDICTIONARY
360
3A7
102
}
330
1F
100
AcDbEntity
  8
Perimeter
100
AcDbPolyline
 90
        4
 70
     1
 43
0.0
 10
5.5
 20
438.5
 10
282.5
 20
438.5
 10
282.5
 20
5.5
 10
5.5
 20
5.5
  0
DIMENSION
  5
3AA
330
1F
100
AcDbEntity
  8
Entry_ Living Room
100
AcDbDimension
  2
*D44
 10
292.5
 20
5.5
 30
0.0
 11
283.7142857142857
 21
7.5
 31
0.0
 70
    33
  1
<>
 71
     5
 42
5.5
 73
     0
 74
     0
 75
     0
  3
Standard
100
AcDbAlignedDimension
 13
279.5
 23
0.0
 33
0.0
 14
279.5
 24
5.5
 34
0.0
1001
ACAD
1000
DSTYLE
1002
{
1070
   179
1070
     4
1070
   148
1040
0.0000001
1070
     3
1000

1070
    45
1040
0.0000001
1002
}
  0
LWPOLYLINE
  5
3BB
102
{ACAD_XDICTIONARY
360
3B9
102
}
330
1F
100
AcDbEntity
  8
Perimeter
100
AcDbPolyline
 90
        4
 70
     1
 43
0.0
 10
6.0
 20
6.0
 10
282.0
 20
6.0
 10
282.0
 20
438.0
 10
6.0
 20
438.0
  0
LEADER
  5
3BC
330
1F
100
AcDbEntity
  8
Perimeter
100
AcDbLeader
  3
Standard
 76
     3
 10
5.75
 20
7.5
 30
0.0
 10
-3.0
 20
7.5
 30
0.0
 10
-5.25
 20
6.0
 30
0.0
1001
ACAD
1000
DSTYLE
1002
{
1070
   179
1070
     4
1070
   148
1040
0.0000001
1070
     3
1000

1070
    45
1040
0.0000001
1070
    73
1070
     1
1070
   345
1005
15
1002
}
  0
MTEXT
  5
3BF
102
{ACAD_XDICTIONARY
360
3BD
102
}
330
1F
100
AcDbEntity
  8
Perimeter
100
AcDbMText
 10
-21.25
 20
5.499999984493101
 30
0.0
 40
2.000000046520698
 41
20.62547111111111
 46
0.0
 71
     1
 72
     1
  1
1/2" Drywall
  7
_TCW_TXTSTY_1
 73
     2
 44
1.0
  0
LWPOLYLINE
  5
3C2
102
{ACAD_XDICTIONARY
360
3C0
102
}
330
1F
100
AcDbEntity
  8
Entry_ Living Room
100
AcDbPolyline
 90
        4
 70
     1
 43
0.0
 10
8.0
 20
8.0
 10
44.0
 20
8.0
 10
44.0
 20
44.0
 10
8.0
 20
44.0
  0
MTEXT
  5
3C5
102
{ACAD_XDICTIONARY
360
3C3
102
}
330
1F
100
AcDbEntity
  8
Entry_ Living Room
100
AcDbMText
 10
12.0
 20
27.9999999844931
 30
0.0
 40
2.000000046520698
 41
28.60407266666667
 46
0.0
 71
     1
 72
     1
  1
3' x 3' End Table
  7
_TCW_TXTSTY_1
 73
     2
 44
1.0
  0
DIMENSION
  5
3C6
330
1F
100
AcDbEntity
  8
Entry_ Living Room
100
AcDbDimension
  2
*D45
 10
282.0
 20
-24.0
 30
0.0
 11
144.0
 21
-24.0
 31
0.0
 70
    33
  1
<>
 71
     5
 42
276.0
 73
     0
 74
     0
 75
     0
  3
Standard
100
AcDbAlignedDimension
 13
6.0
 23
6.0
 33
0.0
 14
282.0
 24
6.0
 34
0.0
1001
ACAD
1000
DSTYLE
1002
{
1070
   179
1070
     4
1070
   148
1040
0.0000001
1070
     3
1000

1070
    45
1040
0.0000001
1002
}
  0
INSERT
  5
3D4
330
1F
100
AcDbEntity
  8
Entry_ Living Room
100
AcDbBlockReference
  2
36_ Door
 10
186.0
 20
2.5
 30
0.0
  0
DIMENSION
  5
3D5
330
1F
100
AcDbEntity
  8
Entry_ Living Room
100
AcDbDimension
  2
*D46
 10
222.0
 20
-5.5
 30
0.0
 11
204.0
 21
-5.5
 31
0.0
 70
    33
  1
<>
 71
     5
 42
36.0
 73
     0
 74
     0
 75
     0
  3
Standard
100
AcDbAlignedDimension
 13
186.0
 23
2.0
 33
0.0
 14
222.0
 24
2.0
 34
0.0
1001
ACAD
1000
DSTYLE
1002
{
1070
   179
1070
     4
1070
   148
1040
0.0000001
1070
     3
1000

1070
    45
1040
0.0000001
1002
}
  0
DIMENSION
  5
3E3
330
1F
100
AcDbEntity
  8
Entry_ Living Room
100
AcDbDimension
  2
*D47
 10
282.0
 20
-5.5
 30
0.0
 11
252.0
 21
-5.5
 31
0.0
 70
    33
  1
<>
 71
     5
 42
60.0
 73
     0
 74
     0
 75
     0
  3
Standard
100
AcDbAlignedDimension
 13
222.0
 23
5.5
 33
0.0
 14
282.0
 24
5.5
 34
0.0
1001
ACAD
1000
DSTYLE
1002
{
1070
   179
1070
     4
1070
   148
1040
0.0000001
1070
     3
1000

1070
    45
1040
0.0000001
1002
}
  0
DIMENSION
  5
3F1
330
1F
100
AcDbEntity
  8
Entry_ Living Room
100
AcDbDimension
  2
*D48
 10
225.5
 20
-11.0
 30
0.0
 11
204.0
 21
-11.0
 31
0.0
 70
    33
  1
<>
 71
     5
 42
43.0
 73
     0
 74
     0
 75
     0
  3
Standard
100
AcDbAlignedDimension
 13
182.5
 23
5.5
 33
0.0
 14
225.5
 24
5.5
 34
0.0
1001
ACAD
1000
DSTYLE
1002
{
1070
   179
1070
     4
1070
   148
1040
0.0000001
1070
     3
1000

1070
    45
1040
0.0000001
1002
}
  0
MTEXT
  5
401
102
{ACAD_XDICTIONARY
360
3FF
102
}
330
1F
100
AcDbEntity
  8
Entry_ Living Room
100
AcDbMText
 10
209.0
 20
-8.000000015506899
 30
0.0
 40
2.000000046520698
 41
7.751131111111111
 46
0.0
 71
     1
 72
     1
  1
Trim
  7
_TCW_TXTSTY_1
 73
     2
 44
1.0
  0
MTEXT
  5
404
102
{ACAD_XDICTIONARY
360
402
102
}
330
1F
100
AcDbEntity
  8
Entry_ Living Room
100
AcDbMText
 10
209.0
 20
-2.5000000155069
 30
0.0
 40
2.000000046520698
 41
7.453996888888888
 46
0.0
 71
     1
 72
     1
  1
Door
  7
_TCW_TXTSTY_1
 73
     2
 44
1.0
  0
LINE
  5
407
102
{ACAD_XDICTIONARY
360
405
102
}
330
1F
100
AcDbEntity
  8
Entry_ Living Room
100
AcDbLine
 10
186.0
 20
6.0
 30
0.0
 11
182.5
 21
6.0
 31
0.0
  0
LINE
  5
40A
102
{ACAD_XDICTIONARY
360
408
102
}
330
1F
100
AcDbEntity
  8
Entry_ Living Room
100
AcDbLine
 10
222.0
 20
6.0
 30
0.0
 11
225.5
 21
6.0
 31
0.0
  0
INSERT
  5
40B
330
1F
100
AcDbEntity
  8
Entry_ Living Room
100
AcDbBlockReference
  2
6_ Love Seat
 10
8.0
 20
114.0
 30
0.0
  0
MTEXT
  5
40E
102
{ACAD_XDICTIONARY
360
40C
102
}
330
1F
100
AcDbEntity
  8
Entry_ Living Room
100
AcDbMText
 10
12.99999999806164
 20
82.34846333333333
 30
0.0
 40
2.000000046520698
 41
20.04515511111111
 46
0.0
 71
     5
 72
     1
  1
6' Love Seat
  7
_TCW_TXTSTY_1
 11
6.123233995736766E-17
 21
1.0
 31
0.0
 73
     2
 44
1.0
  0
DIMENSION
  5
40F
330
1F
100
AcDbEntity
  8
Entry_ Living Room
100
AcDbDimension
  2
*D49
 10
26.0
 20
154.0
 30
0.0
 11
26.0
 21
136.0
 31
0.0
 70
    33
  1
<>
 71
     5
 42
36.0
 73
     0
 74
     0
 75
     0
  3
Standard
100
AcDbAlignedDimension
 13
27.0
 23
118.0
 33
0.0
 14
27.0
 24
154.0
 34
0.0
1001
ACAD
1000
DSTYLE
1002
{
1070
   179
1070
     4
1070
   148
1040
0.0000001
1070
     3
1000

1070
    45
1040
0.0000001
1002
}
  0
INSERT
  5
41D
330
1F
100
AcDbEntity
  8
Entry_ Living Room
100
AcDbBlockReference
  2
Couch
 10
54.0
 20
32.0
 30
0.0
  0
MTEXT
  5
420
102
{ACAD_XDICTIONARY
360
41E
102
}
330
1F
100
AcDbEntity
  8
Entry_ Living Room
100
AcDbMText
 10
107.0
 20
12.9999999844931
 30
0.0
 40
2.000000046520698
 41
15.52564088888889
 46
0.0
 71
     1
 72
     1
  1
10' Couch
  7
_TCW_TXTSTY_1
 73
     2
 44
1.0
  0
INSERT
  5
421
330
1F
100
AcDbEntity
  8
Stairs
100
AcDbBlockReference
  2
Stairs
 10
40.0
 20
204.0
 30
0.0
  0
LWPOLYLINE
  5
424
102
{ACAD_XDICTIONARY
360
422
102
}
330
1F
100
AcDbEntity
  8
Entry_ Living Room
100
AcDbPolyline
 90
        4
 70
     1
 43
0.0
 10
42.0
 20
154.0
 10
138.0
 20
154.0
 10
138.0
 20
174.0
 10
42.0
 20
174.0
  0
MTEXT
  5
427
102
{ACAD_XDICTIONARY
360
425
102
}
330
1F
100
AcDbEntity
  8
Entry_ Living Room
100
AcDbMText
 10
92.0
 20
166.0000000019384
 30
0.0
 40
2.000000046520698
 41
56.67204022222222
 46
0.0
 71
     5
 72
     1
  1
8' Fireplace, TV, Built-in Shelves
  7
_TCW_TXTSTY_1
 73
     2
 44
1.0
  0
INSERT
  5
428
330
1F
100
AcDbEntity
  8
Entry_ Living Room
100
AcDbBlockReference
  2
36_ Door
 10
-264.0
 20
-84.0
 30
0.0
  0
LINE
  5
42B
102
{ACAD_XDICTIONARY
360
429
102
}
330
1F
100
AcDbEntity
  8
Entry_ Living Room
100
AcDbLine
 10
-228.0
 20
-12.0
 30
0.0
 11
-256.0
 21
-12.0
 31
0.0
  0
LINE
  5
42E
102
{ACAD_XDICTIONARY
360
42C
102
}
330
1F
100
AcDbEntity
  8
Dining Area_ Kitchen
100
AcDbLine
 10
320.0
 20
120.0
 30
0.0
 11
320.0
 21
156.0
 31
0.0
  0
DIMENSION
  5
42F
330
1F
100
AcDbEntity
  8
Dining Area_ Kitchen
100
AcDbDimension
  2
*D50
 10
292.25
 20
99.125
 30
0.0
 11
305.0
 21
99.125
 31
0.0
 70
    32
  1
<>
 71
     5
 42
25.5
 73
     0
 74
     0
 75
     0
  3
Standard
100
AcDbAlignedDimension
 13
317.75
 23
98.125
 33
0.0
 14
292.25
 24
98.125
 34
0.0
100
AcDbRotatedDimension
1001
ACAD
1000
DSTYLE
1002
{
1070
   179
1070
     4
1070
   148
1040
0.0000001
1070
     3
1000

1070
    45
1040
0.0000001
1002
}
  0
DIMENSION
  5
43D
330
1F
100
AcDbEntity
  8
Dining Area_ Kitchen
100
AcDbDimension
  2
*D51
 10
172.5
 20
169.0
 30
0.0
 11
155.25
 21
169.0
 31
0.0
 70
    33
  1
<>
 71
     5
 42
34.5
 73
     0
 74
     0
 75
     0
  3
Standard
100
AcDbAlignedDimension
 13
138.0
 23
168.5
 33
0.0
 14
172.5
 24
168.5
 34
0.0
1001
ACAD
1000
DSTYLE
1002
{
1070
   179
1070
     4
1070
   148
1040
0.0000001
1070
     3
1000

1070
    45
1040
0.0000001
1002
}
  0
INSERT
  5
44B
330
1F
100
AcDbEntity
  8
Dining Area_ Kitchen
100
AcDbBlockReference
  2
Bar Stool
 10
240.0
 20
48.0
 30
0.0
  0
INSERT
  5
44C
330
1F
100
AcDbEntity
  8
Dining Area_ Kitchen
100
AcDbBlockReference
  2
Bar Stool
 10
240.0
 20
26.0
 30
0.0
  0
INSERT
  5
44D
330
1F
100
AcDbEntity
  8
Dining Area_ Kitchen
100
AcDbBlockReference
  2
Bar Stool
 10
240.0
 20
70.0
 30
0.0
  0
INSERT
  5
44E
330
1F
100
AcDbEntity
  8
Dining Area_ Kitchen
100
AcDbBlockReference
  2
Dining Counter
 10
348.0
 20
48.0
 30
0.0
  0
INSERT
  5
44F
330
1F
100
AcDbEntity
  8
Bathroom
100
AcDbBlockReference
  2
Toilet
 10
15.0
 20
276.0
 30
0.0
  0
LWPOLYLINE
  5
452
102
{ACAD_XDICTIONARY
360
450
102
}
330
1F
100
AcDbEntity
  8
Bathroom
100
AcDbPolyline
 90
        4
 70
     1
 43
0.0
 10
37.0
 20
289.0
 10
97.0
 20
289.0
 10
97.0
 20
268.0
 10
37.0
 20
268.0
  0
LWPOLYLINE
  5
453
330
1F
100
AcDbEntity
  8
Bathroom
370
    40
100
AcDbPolyline
 90
        3
 70
     1
 10
90.0
 20
278.0
 40
0.015748031437397
 41
0.015748031437397
 42
0.4142135623731
 10
80.94461486186259
 20
287.0553851381374
 40
0.015748031437397
 41
0.015748031437397
 42
2.414213562373
 10
90.0
 20
278.0
 40
0.015748031437397
 41
0.015748031437397
  0
LWPOLYLINE
  5
454
330
1F
100
AcDbEntity
  8
Bathroom
370
    40
100
AcDbPolyline
 90
        3
 70
     1
 10
62.0
 20
278.0
 40
0.015748031437397
 41
0.015748031437397
 42
0.4142135623731
 10
52.94461486186258
 20
287.0553851381374
 40
0.015748031437397
 41
0.015748031437397
 42
2.414213562373
 10
62.0
 20
278.0
 40
0.015748031437397
 41
0.015748031437397
  0
MTEXT
  5
457
102
{ACAD_XDICTIONARY
360
455
102
}
330
1F
100
AcDbEntity
  8
Bathroom
100
AcDbMText
 10
67.0
 20
279.0000000019384
 30
0.0
 40
2.000000046520698
 41
30.67656488888889
 46
0.0
 71
     5
 72
     1
  1
60" Double Vanity
  7
_TCW_TXTSTY_1
 73
     2
 44
1.0
  0
MTEXT
  5
45A
102
{ACAD_XDICTIONARY
360
458
102
}
330
1F
100
AcDbEntity
  8
Bathroom
100
AcDbMText
 10
67.0
 20
279.0000000019384
 30
0.0
 40
2.000000046520698
 41
30.67656488888889
 46
0.0
 71
     5
 72
     1
  1
60" Double Vanity
  7
_TCW_TXTSTY_1
 73
     2
 44
1.0
  0
DIMENSION
  5
45B
330
1F
100
AcDbEntity
  8
Dining Area_ Kitchen
100
AcDbDimension
  2
*D52
 10
222.0
 20
21.0
 30
0.0
 11
228.5
 21
21.0
 31
0.0
 70
    32
  1
<>
 71
     5
 42
13.0
 73
     0
 74
     0
 75
     0
  3
Standard
100
AcDbAlignedDimension
 13
235.0
 23
22.0
 33
0.0
 14
222.0
 24
22.0
 34
0.0
100
AcDbRotatedDimension
1001
ACAD
1000
DSTYLE
1002
{
1070
   179
1070
     4
1070
   148
1040
0.0000001
1070
     3
1000

1070
    45
1040
0.0000001
1002
}
  0
LWPOLYLINE
  5
46B
102
{ACAD_XDICTIONARY
360
469
102
}
330
1F
100
AcDbEntity
  8
Dining Area_ Kitchen
100
AcDbPolyline
 90
        4
 70
     1
 43
0.0
 10
138.0
 20
210.0
 10
102.0
 20
210.0
 10
102.0
 20
174.0
 10
138.0
 20
174.0
  0
MTEXT
  5
46E
102
{ACAD_XDICTIONARY
360
46C
102
}
330
1F
100
AcDbEntity
  8
Dining Area_ Kitchen
100
AcDbMText
 10
120.0
 20
194.0000000019384
 30
0.0
 40
2.000000046520698
 41
26.91317888888889
 46
0.0
 71
     5
 72
     1
  1
36" Refrigerator
  7
_TCW_TXTSTY_1
 73
     2
 44
1.0
  0
MTEXT
  5
471
102
{ACAD_XDICTIONARY
360
46F
102
}
330
1F
100
AcDbEntity
  8
Stairs
100
AcDbMText
 10
24.0
 20
192.0000000019384
 30
0.0
 40
2.000000046520698
 41
28.07390666666667
 46
0.0
 71
     5
 72
     1
  1
36' Wide\PStaircase to Loft
  7
_TCW_TXTSTY_1
 73
     2
 44
1.0
  0
LINE
  5
474
102
{ACAD_XDICTIONARY
360
472
102
}
330
1F
100
AcDbEntity
  8
Bathroom
100
AcDbLine
 10
8.0
 20
236.0
 30
0.0
 11
8.0
 21
224.0
 31
0.0
  0
LINE
  5
477
102
{ACAD_XDICTIONARY
360
475
102
}
330
1F
100
AcDbEntity
  8
Bathroom
100
AcDbLine
 10
76.0
 20
236.0
 30
0.0
 11
76.0
 21
224.0
 31
0.0
  0
ARC
  5
47A
102
{ACAD_XDICTIONARY
360
478
102
}
330
1F
100
AcDbEntity
  8
Bathroom
100
AcDbCircle
 10
41.99999999999998
 20
161.1081081081081
 30
0.0
 40
82.24837670827809
100
AcDbArc
 50
65.5825342512205
 51
114.4174657487795
  0
ARC
  5
47D
102
{ACAD_XDICTIONARY
360
47B
102
}
330
1F
100
AcDbEntity
  8
Bathroom
100
AcDbCircle
 10
41.99999999999999
 20
298.8918918918919
 30
0.0
 40
82.24837670827807
100
AcDbArc
 50
245.5825342512205
 51
294.4174657487795
  0
MTEXT
  5
480
102
{ACAD_XDICTIONARY
360
47E
102
}
330
1F
100
AcDbEntity
  8
Bathroom
100
AcDbMText
 10
46.0
 20
230.0000000019384
 30
0.0
 40
2.000000046520698
 41
27.08861222222222
 46
0.0
 71
     5
 72
     1
  1
6' Tub / Shower
  7
_TCW_TXTSTY_1
 73
     2
 44
1.0
  0
INSERT
  5
481
330
1F
100
AcDbEntity
  8
Bedroom
100
AcDbBlockReference
  2
32_ Door w_Jamb
 10
112.0
 20
237.5
 30
0.0
  0
LWPOLYLINE
  5
484
102
{ACAD_XDICTIONARY
360
482
102
}
330
1F
100
AcDbEntity
  8
Bathroom
100
AcDbPolyline
 90
        4
 70
     1
 43
0.0
 10
110.0
 20
214.0
 10
6.5
 20
214.0
 10
6.5
 20
290.0
 10
110.0
 20
290.0
  0
LWPOLYLINE
  5
487
102
{ACAD_XDICTIONARY
360
485
102
}
330
1F
100
AcDbEntity
  8
Bathroom
100
AcDbPolyline
 90
        4
 70
     1
 43
0.0
 10
6.0
 20
210.0
 10
114.5
 20
210.0
 10
114.5
 20
294.0
 10
6.0
 20
294.0
  0
LINE
  5
48A
102
{ACAD_XDICTIONARY
360
488
102
}
330
1F
100
AcDbEntity
  8
Bedroom
100
AcDbLine
 10
282.0
 20
273.0
 30
0.0
 11
190.5
 21
273.0
 31
0.0
  0
LINE
  5
48D
102
{ACAD_XDICTIONARY
360
48B
102
}
330
1F
100
AcDbEntity
  8
Bedroom
100
AcDbLine
 10
282.0
 20
269.0
 30
0.0
 11
190.5
 21
269.0
 31
0.0
  0
LINE
  5
490
102
{ACAD_XDICTIONARY
360
48E
102
}
330
1F
100
AcDbEntity
  8
Bedroom
100
AcDbLine
 10
190.5
 20
269.0
 30
0.0
 11
190.5
 21
273.0
 31
0.0
  0
DIMENSION
  5
491
330
1F
100
AcDbEntity
  8
Bedroom
100
AcDbDimension
  2
*D53
 10
233.5
 20
280.0
 30
0.0
 11
214.0
 21
280.0
 31
0.0
 70
    33
  1
<>
 71
     5
 42
39.0
 73
     0
 74
     0
 75
     0
  3
Standard
100
AcDbAlignedDimension
 13
194.5
 23
280.5
 33
0.0
 14
233.5
 24
280.5
 34
0.0
1001
ACAD
1000
DSTYLE
1002
{
1070
   179
1070
     4
1070
   148
1040
0.0000001
1070
     3
1000

1070
    45
1040
0.0000001
1002
}
  0
DIMENSION
  5
49F
330
1F
100
AcDbEntity
  8
Bedroom
100
AcDbDimension
  2
*D54
 10
282.0
 20
280.0
 30
0.0
 11
259.75
 21
280.0
 31
0.0
 70
    33
  1
<>
 71
     5
 42
44.5
 73
     0
 74
     0
 75
     0
  3
Standard
100
AcDbAlignedDimension
 13
237.5
 23
280.5
 33
0.0
 14
282.0
 24
280.5
 34
0.0
1001
ACAD
1000
DSTYLE
1002
{
1070
   179
1070
     4
1070
   148
1040
0.0000001
1070
     3
1000

1070
    45
1040
0.0000001
1002
}
  0
MTEXT
  5
4AF
102
{ACAD_XDICTIONARY
360
4AD
102
}
330
1F
100
AcDbEntity
  8
Bedroom
100
AcDbMText
 10
260.0
 20
278.5000000019384
 30
0.0
 40
2.000000046520698
 41
40.99868022222223
 46
0.0
 71
     5
 72
     1
  1
Chase Open to Well Box
  7
_TCW_TXTSTY_1
 73
     2
 44
1.0
  0
MTEXT
  5
4B2
102
{ACAD_XDICTIONARY
360
4B0
102
}
330
1F
100
AcDbEntity
  8
Bedroom
100
AcDbMText
 10
213.0
 20
278.0000000019384
 30
0.0
 40
2.000000046520698
 41
14.85011311111111
 46
0.0
 71
     5
 72
     1
  1
Well Box
  7
_TCW_TXTSTY_1
 73
     2
 44
1.0
  0
LINE
  5
4B5
102
{ACAD_XDICTIONARY
360
4B3
102
}
330
1F
100
AcDbEntity
  8
Bedroom
100
AcDbLine
 10
190.5
 20
273.0
 30
0.0
 11
190.5
 21
290.0
 31
0.0
  0
LINE
  5
4B8
102
{ACAD_XDICTIONARY
360
4B6
102
}
330
1F
100
AcDbEntity
  8
Bedroom
100
AcDbLine
 10
194.5
 20
290.0
 30
0.0
 11
194.5
 21
273.0
 31
0.0
  0
DIMENSION
  5
4B9
330
1F
100
AcDbEntity
  8
Bedroom
100
AcDbDimension
  2
*D55
 10
202.0
 20
290.0
 30
0.0
 11
202.0
 21
281.5
 31
0.0
 70
    33
  1
<>
 71
     5
 42
17.0
 73
     0
 74
     0
 75
     0
  3
Standard
100
AcDbAlignedDimension
 13
201.0
 23
273.0
 33
0.0
 14
201.0
 24
290.0
 34
0.0
1001
ACAD
1000
DSTYLE
1002
{
1070
   179
1070
     4
1070
   148
1040
0.0000001
1070
     3
1000

1070
    45
1040
0.0000001
1002
}
  0
LINE
  5
4C9
102
{ACAD_XDICTIONARY
360
4C7
102
}
330
1F
100
AcDbEntity
  8
Bedroom
100
AcDbLine
 10
233.5
 20
273.0
 30
0.0
 11
233.5
 21
290.0
 31
0.0
  0
LINE
  5
4CC
102
{ACAD_XDICTIONARY
360
4CA
102
}
330
1F
100
AcDbEntity
  8
Bedroom
100
AcDbLine
 10
237.5
 20
290.0
 30
0.0
 11
237.5
 21
273.0
 31
0.0
  0
LINE
  5
4CF
102
{ACAD_XDICTIONARY
360
4CD
102
}
330
1F
100
AcDbEntity
  8
Bedroom
100
AcDbLine
 10
114.5
 20
290.0
 30
0.0
 11
282.0
 21
290.0
 31
0.0
  0
LINE
  5
4D2
102
{ACAD_XDICTIONARY
360
4D0
102
}
330
1F
100
AcDbEntity
  8
Bedroom
100
AcDbLine
 10
114.5
 20
294.0
 30
0.0
 11
282.0
 21
294.0
 31
0.0
  0
INSERT
  5
4D3
330
1F
100
AcDbEntity
  8
Bedroom
100
AcDbBlockReference
  2
32_ Door w_Jamb
 10
171.0
 20
292.25
 30
0.0
 50
-90.0
  0
INSERT
  5
4D4
330
1F
100
AcDbEntity
  8
Bedroom
100
AcDbBlockReference
  2
32_ Door w_Jamb
 10
131.0
 20
296.25
 30
0.0
 50
-90.0
  0
DIMENSION
  5
4D5
330
1F
100
AcDbEntity
  8
Bedroom
100
AcDbDimension
  2
*D56
 10
190.0
 20
286.0
 30
0.0
 11
170.5
 21
286.0
 31
0.0
 70
    33
  1
<>
 71
     5
 42
39.0
 73
     0
 74
     0
 75
     0
  3
Standard
100
AcDbAlignedDimension
 13
151.0
 23
287.0
 33
0.0
 14
190.0
 24
287.0
 34
0.0
1001
ACAD
1000
DSTYLE
1002
{
1070
   179
1070
     4
1070
   148
1040
0.0000001
1070
     3
1000

1070
    45
1040
0.0000001
1002
}
  0
DIMENSION
  5
4E3
330
1F
100
AcDbEntity
  8
Dining Area_ Kitchen
100
AcDbDimension
  2
*D57
 10
192.0
 20
266.0
 30
0.0
 11
153.25
 21
266.0
 31
0.0
 70
    33
  1
<>
 71
     5
 42
77.5
 73
     0
 74
     0
 75
     0
  3
Standard
100
AcDbAlignedDimension
 13
114.5
 23
265.0
 33
0.0
 14
192.0
 24
265.0
 34
0.0
1001
ACAD
1000
DSTYLE
1002
{
1070
   179
1070
     4
1070
   148
1040
0.0000001
1070
     3
1000

1070
    45
1040
0.0000001
1002
}
  0
DIMENSION
  5
4F1
330
1F
100
AcDbEntity
  8
Bedroom
100
AcDbDimension
  2
*D58
 10
190.5
 20
262.5
 30
0.0
 11
236.25
 21
262.5
 31
0.0
 70
    32
  1
<>
 71
     5
 42
91.5
 73
     0
 74
     0
 75
     0
  3
Standard
100
AcDbAlignedDimension
 13
282.0
 23
264.0
 33
0.0
 14
190.5
 24
264.0
 34
0.0
100
AcDbRotatedDimension
1001
ACAD
1000
DSTYLE
1002
{
1070
   179
1070
     4
1070
   148
1040
0.0000001
1070
     3
1000

1070
    45
1040
0.0000001
1002
}
  0
DIMENSION
  5
4FF
330
1F
100
AcDbEntity
  8
Bedroom
100
AcDbDimension
  2
*D59
 10
110.0
 20
300.0
 30
0.0
 11
58.0
 21
300.0
 31
0.0
 70
    33
  1
<>
 71
     5
 42
104.0
 73
     0
 74
     0
 75
     0
  3
Standard
100
AcDbAlignedDimension
 13
6.0
 23
300.0
 33
0.0
 14
110.0
 24
300.0
 34
0.0
1001
ACAD
1000
DSTYLE
1002
{
1070
   179
1070
     4
1070
   148
1040
0.0000001
1070
     3
1000

1070
    45
1040
0.0000001
1002
}
  0
DIMENSION
  5
50D
330
1F
100
AcDbEntity
  8
Bedroom
100
AcDbDimension
  2
*D60
 10
72.5
 20
253.0
 30
0.0
 11
39.5
 21
253.0
 31
0.0
 70
    33
  1
<>
 71
     5
 42
66.0
 73
     0
 74
     0
 75
     0
  3
Standard
100
AcDbAlignedDimension
 13
6.5
 23
252.0
 33
0.0
 14
72.5
 24
252.0
 34
0.0
1001
ACAD
1000
DSTYLE
1002
{
1070
   179
1070
     4
1070
   148
1040
0.0000001
1070
     3
1000

1070
    45
1040
0.0000001
1002
}
  0
LWPOLYLINE
  5
51D
102
{ACAD_XDICTIONARY
360
51B
102
}
330
1F
100
AcDbEntity
  8
Bathroom
100
AcDbPolyline
 90
        4
 70
     1
 43
0.0
 10
6.5
 20
214.0
 10
78.5
 20
214.0
 10
72.5
 20
246.0
 10
6.5
 20
246.0
  0
LWPOLYLINE
  5
520
102
{ACAD_XDICTIONARY
360
51E
102
}
330
1F
100
AcDbEntity
  8
Dining Area_ Kitchen
100
AcDbPolyline
 90
        4
 70
     1
 43
0.0
 10
282.0
 20
6.0
 10
256.5
 20
6.0
 10
256.5
 20
72.0
 10
282.0
 20
72.0
  0
DIMENSION
  5
521
330
1F
100
AcDbEntity
  8
Dining Area_ Kitchen
100
AcDbDimension
  2
*D61
 10
256.5
 20
62.625
 30
0.0
 11
269.25
 21
62.625
 31
0.0
 70
    32
  1
<>
 71
     5
 42
25.5
 73
     0
 74
     0
 75
     0
  3
Standard
100
AcDbAlignedDimension
 13
282.0
 23
61.625
 33
0.0
 14
256.5
 24
61.625
 34
0.0
100
AcDbRotatedDimension
1001
ACAD
1000
DSTYLE
1002
{
1070
   179
1070
     4
1070
   148
1040
0.0000001
1070
     3
1000

1070
    45
1040
0.0000001
1002
}
  0
MTEXT
  5
531
102
{ACAD_XDICTIONARY
360
52F
102
}
330
1F
100
AcDbEntity
  8
Dining Area_ Kitchen
100
AcDbMText
 10
268.9999999980616
 20
25.072398
 30
0.0
 40
2.000000046520698
 41
50.62820488888889
 46
0.0
 71
     5
 72
     1
  1
Eating Counter 25-1/2" x 7'-8"
  7
_TCW_TXTSTY_1
 11
6.123233995736766E-17
 21
1.0
 31
0.0
 73
     2
 44
1.0
  0
INSERT
  5
532
330
1F
100
AcDbEntity
  8
Bedroom
100
AcDbBlockReference
  2
Kitchen2
 10
220.0
 20
160.0
 30
0.0
  0
VIEWPORT
  5
533
330
1B
100
AcDbEntity
 67
     1
  8
0
100
AcDbViewport
 10
50.41145848246606
 20
180.0
 30
0.0
 40
628.8229169649321
 41
528.0
 68
     1
 69
     1
 12
50.41145848246606
 22
180.0
 13
0.0
 23
0.0
 14
5.0
 24
5.0
 15
5.0
 25
5.0
 16
0.0
 26
0.0
 36
1.0
 17
0.0
 27
0.0
 37
0.0
 42
50.0
 43
0.0
 44
0.0
 45
528.0
 50
0.0
 51
0.0
 72
  1000
 90
    32800
  1

281
     0
 71
     1
 74
     0
110
0.0
120
0.0
130
0.0
111
1.0
121
0.0
131
0.0
112
0.0
122
1.0
132
0.0
 79
     0
146
0.0
170
     0
 61
     5
292
     1
282
     1
141
0.0
142
0.0
 63
   256
  0
ENDSEC
  0
SECTION
  2
OBJECTS
  0
DICTIONARY
  5
C
330
0
100
AcDbDictionary
281
     1
  3
ACAD_GROUP
350
D
  3
ACAD_LAYOUT
350
1A
  3
ACAD_MLEADERSTYLE
350
539
  3
ACAD_MLINESTYLE
350
17
  3
ACAD_PLOTSETTINGS
350
19
  3
ACAD_PLOTSTYLENAME
350
E
  3
ACAD_SCALELIST
350
EF
  3
ACAD_TABLESTYLE
350
67
  3
ACAD_VISUALSTYLE
350
2A
  3
ACDB_RECOMPOSE_DATA
350
538
  3
AcDbVariableDictionary
350
534
  0
DICTIONARY
  5
6B
330
6D
100
AcDbDictionary
280
     1
281
     1
  3
TC_OPTIONAL_DATA
360
6C
  0
DICTIONARY
  5
6E
330
70
100
AcDbDictionary
280
     1
281
     1
  3
TC_OPTIONAL_DATA
360
6F
  0
DICTIONARY
  5
71
330
73
100
AcDbDictionary
280
     1
281
     1
  3
TC_OPTIONAL_DATA
360
72
  0
DICTIONARY
  5
77
330
79
100
AcDbDictionary
280
     1
281
     1
  3
TC_OPTIONAL_DATA
360
78
  0
DICTIONARY
  5
7A
330
7C
100
AcDbDictionary
280
     1
281
     1
  3
TC_OPTIONAL_DATA
360
7B
  0
DICTIONARY
  5
7D
330
7F
100
AcDbDictionary
280
     1
281
     1
  3
TC_OPTIONAL_DATA
360
7E
  0
DICTIONARY
  5
80
330
82
100
AcDbDictionary
280
     1
281
     1
  3
TC_OPTIONAL_DATA
360
81
  0
DICTIONARY
  5
83
330
85
100
AcDbDictionary
280
     1
281
     1
  3
TC_OPTIONAL_DATA
360
84
  0
DICTIONARY
  5
86
330
88
100
AcDbDictionary
280
     1
281
     1
  3
TC_OPTIONAL_DATA
360
87
  0
DICTIONARY
  5
89
330
8B
100
AcDbDictionary
280
     1
281
     1
  3
TC_OPTIONAL_DATA
360
8A
  0
DICTIONARY
  5
8C
330
8E
100
AcDbDictionary
280
     1
281
     1
  3
TC_OPTIONAL_DATA
360
8D
  0
DICTIONARY
  5
8F
330
91
100
AcDbDictionary
280
     1
281
     1
  3
TC_OPTIONAL_DATA
360
90
  0
DICTIONARY
  5
92
330
94
100
AcDbDictionary
280
     1
281
     1
  3
TC_OPTIONAL_DATA
360
93
  0
DICTIONARY
  5
98
330
9A
100
AcDbDictionary
280
     1
281
     1
  3
TC_OPTIONAL_DATA
360
99
  0
DICTIONARY
  5
9B
330
9D
100
AcDbDictionary
280
     1
281
     1
  3
TC_OPTIONAL_DATA
360
9C
  0
DICTIONARY
  5
9E
330
A0
100
AcDbDictionary
280
     1
281
     1
  3
TC_OPTIONAL_DATA
360
9F
  0
DICTIONARY
  5
A1
330
A3
100
AcDbDictionary
280
     1
281
     1
  3
TC_OPTIONAL_DATA
360
A2
  0
DICTIONARY
  5
A4
330
A6
100
AcDbDictionary
280
     1
281
     1
  3
TC_OPTIONAL_DATA
360
A5
  0
DICTIONARY
  5
A7
330
A9
100
AcDbDictionary
280
     1
281
     1
  3
TC_OPTIONAL_DATA
360
A8
  0
DICTIONARY
  5
AA
330
AC
100
AcDbDictionary
280
     1
281
     1
  3
TC_OPTIONAL_DATA
360
AB
  0
DICTIONARY
  5
AD
330
AF
100
AcDbDictionary
280
     1
281
     1
  3
TC_OPTIONAL_DATA
360
AE
  0
DICTIONARY
  5
B0
330
B2
100
AcDbDictionary
280
     1
281
     1
  3
TC_OPTIONAL_DATA
360
B1
  0
DICTIONARY
  5
B3
330
B5
100
AcDbDictionary
280
     1
281
     1
  3
TC_OPTIONAL_DATA
360
B4
  0
DICTIONARY
  5
B6
330
B8
100
AcDbDictionary
280
     1
281
     1
  3
TC_OPTIONAL_DATA
360
B7
  0
DICTIONARY
  5
B9
330
BB
100
AcDbDictionary
280
     1
281
     1
  3
TC_OPTIONAL_DATA
360
BA
  0
DICTIONARY
  5
BF
330
C1
100
AcDbDictionary
280
     1
281
     1
  3
TC_OPTIONAL_DATA
360
C0
  0
DICTIONARY
  5
C2
330
C4
100
AcDbDictionary
280
     1
281
     1
  3
TC_OPTIONAL_DATA
360
C3
  0
DICTIONARY
  5
C5
330
C7
100
AcDbDictionary
280
     1
281
     1
  3
TC_OPTIONAL_DATA
360
C6
  0
DICTIONARY
  5
C8
330
CA
100
AcDbDictionary
280
     1
281
     1
  3
TC_OPTIONAL_DATA
360
C9
  0
DICTIONARY
  5
CB
330
CD
100
AcDbDictionary
280
     1
281
     1
  3
TC_OPTIONAL_DATA
360
CC
  0
DICTIONARY
  5
CE
330
D0
100
AcDbDictionary
280
     1
281
     1
  3
TC_OPTIONAL_DATA
360
CF
  0
DICTIONARY
  5
D1
330
D3
100
AcDbDictionary
280
     1
281
     1
  3
TC_OPTIONAL_DATA
360
D2
  0
DICTIONARY
  5
D4
330
D6
100
AcDbDictionary
280
     1
281
     1
  3
TC_OPTIONAL_DATA
360
D5
  0
DICTIONARY
  5
D7
330
D9
100
AcDbDictionary
280
     1
281
     1
  3
TC_OPTIONAL_DATA
360
D8
  0
DICTIONARY
  5
DA
330
DC
100
AcDbDictionary
280
     1
281
     1
  3
TC_OPTIONAL_DATA
360
DB
  0
DICTIONARY
  5
DD
330
DF
100
AcDbDictionary
280
     1
281
     1
  3
TC_OPTIONAL_DATA
360
DE
  0
DICTIONARY
  5
E0
330
E2
100
AcDbDictionary
280
     1
281
     1
  3
TC_OPTIONAL_DATA
360
E1
  0
DICTIONARY
  5
E3
330
E5
100
AcDbDictionary
280
     1
281
     1
  3
TC_OPTIONAL_DATA
360
E4
  0
DICTIONARY
  5
E9
330
EB
100
AcDbDictionary
280
     1
281
     1
  3
TC_OPTIONAL_DATA
360
EA
  0
DICTIONARY
  5
ED
330
111
100
AcDbDictionary
280
     1
281
     1
  3
TC_OPTIONAL_DATA
360
EE
  0
DICTIONARY
  5
153
330
155
100
AcDbDictionary
280
     1
281
     1
  3
TC_OPTIONAL_DATA
360
154
  0
DICTIONARY
  5
156
330
158
100
AcDbDictionary
280
     1
281
     1
  3
TC_OPTIONAL_DATA
360
157
  0
DICTIONARY
  5
159
330
15B
100
AcDbDictionary
280
     1
281
     1
  3
TC_OPTIONAL_DATA
360
15A
  0
DICTIONARY
  5
15C
330
15E
100
AcDbDictionary
280
     1
281
     1
  3
TC_OPTIONAL_DATA
360
15D
  0
DICTIONARY
  5
15F
330
161
100
AcDbDictionary
280
     1
281
     1
  3
TC_OPTIONAL_DATA
360
160
  0
DICTIONARY
  5
119
330
11B
100
AcDbDictionary
280
     1
281
     1
  3
TC_OPTIONAL_DATA
360
11A
  0
DICTIONARY
  5
11C
330
11E
100
AcDbDictionary
280
     1
281
     1
  3
TC_OPTIONAL_DATA
360
11D
  0
DICTIONARY
  5
11F
330
121
100
AcDbDictionary
280
     1
281
     1
  3
TC_OPTIONAL_DATA
360
120
  0
DICTIONARY
  5
122
330
124
100
AcDbDictionary
280
     1
281
     1
  3
TC_OPTIONAL_DATA
360
123
  0
DICTIONARY
  5
125
330
127
100
AcDbDictionary
280
     1
281
     1
  3
TC_OPTIONAL_DATA
360
126
  0
DICTIONARY
  5
128
330
12A
100
AcDbDictionary
280
     1
281
     1
  3
TC_OPTIONAL_DATA
360
129
  0
DICTIONARY
  5
12B
330
12D
100
AcDbDictionary
280
     1
281
     1
  3
TC_OPTIONAL_DATA
360
12C
  0
DICTIONARY
  5
12E
330
130
100
AcDbDictionary
280
     1
281
     1
  3
TC_OPTIONAL_DATA
360
12F
  0
DICTIONARY
  5
131
330
133
100
AcDbDictionary
280
     1
281
     1
  3
TC_OPTIONAL_DATA
360
132
  0
DICTIONARY
  5
134
330
136
100
AcDbDictionary
280
     1
281
     1
  3
TC_OPTIONAL_DATA
360
135
  0
DICTIONARY
  5
137
330
139
100
AcDbDictionary
280
     1
281
     1
  3
TC_OPTIONAL_DATA
360
138
  0
DICTIONARY
  5
13A
330
13C
100
AcDbDictionary
280
     1
281
     1
  3
TC_OPTIONAL_DATA
360
13B
  0
DICTIONARY
  5
13D
330
13F
100
AcDbDictionary
280
     1
281
     1
  3
TC_OPTIONAL_DATA
360
13E
  0
DICTIONARY
  5
176
330
178
100
AcDbDictionary
280
     1
281
     1
  3
TC_OPTIONAL_DATA
360
177
  0
DICTIONARY
  5
179
330
17B
100
AcDbDictionary
280
     1
281
     1
  3
TC_OPTIONAL_DATA
360
17A
  0
DICTIONARY
  5
17C
330
17E
100
AcDbDictionary
280
     1
281
     1
  3
TC_OPTIONAL_DATA
360
17D
  0
DICTIONARY
  5
17F
330
181
100
AcDbDictionary
280
     1
281
     1
  3
TC_OPTIONAL_DATA
360
180
  0
DICTIONARY
  5
182
330
184
100
AcDbDictionary
280
     1
281
     1
  3
TC_OPTIONAL_DATA
360
183
  0
DICTIONARY
  5
185
330
187
100
AcDbDictionary
280
     1
281
     1
  3
TC_OPTIONAL_DATA
360
186
  0
DICTIONARY
  5
18B
330
18D
100
AcDbDictionary
280
     1
281
     1
  3
TC_OPTIONAL_DATA
360
18C
  0
DICTIONARY
  5
18E
330
190
100
AcDbDictionary
280
     1
281
     1
  3
TC_OPTIONAL_DATA
360
18F
  0
DICTIONARY
  5
191
330
193
100
AcDbDictionary
280
     1
281
     1
  3
TC_OPTIONAL_DATA
360
192
  0
DICTIONARY
  5
194
330
196
100
AcDbDictionary
280
     1
281
     1
  3
TC_OPTIONAL_DATA
360
195
  0
DICTIONARY
  5
197
330
199
100
AcDbDictionary
280
     1
281
     1
  3
TC_OPTIONAL_DATA
360
198
  0
DICTIONARY
  5
1B6
330
1B8
100
AcDbDictionary
280
     1
281
     1
  3
TC_OPTIONAL_DATA
360
1B7
  0
DICTIONARY
  5
1B9
330
1BB
100
AcDbDictionary
280
     1
281
     1
  3
TC_OPTIONAL_DATA
360
1BA
  0
DICTIONARY
  5
1BC
330
1BE
100
AcDbDictionary
280
     1
281
     1
  3
TC_OPTIONAL_DATA
360
1BD
  0
DICTIONARY
  5
1BF
330
1C1
100
AcDbDictionary
280
     1
281
     1
  3
TC_OPTIONAL_DATA
360
1C0
  0
DICTIONARY
  5
1C2
330
1C4
100
AcDbDictionary
280
     1
281
     1
  3
TC_OPTIONAL_DATA
360
1C3
  0
DICTIONARY
  5
1C5
330
1C7
100
AcDbDictionary
280
     1
281
     1
  3
TC_OPTIONAL_DATA
360
1C6
  0
DICTIONARY
  5
1C8
330
1CA
100
AcDbDictionary
280
     1
281
     1
  3
TC_OPTIONAL_DATA
360
1C9
  0
DICTIONARY
  5
19C
330
19E
100
AcDbDictionary
280
     1
281
     1
  3
TC_OPTIONAL_DATA
360
19D
  0
DICTIONARY
  5
19F
330
1A1
100
AcDbDictionary
280
     1
281
     1
  3
TC_OPTIONAL_DATA
360
1A0
  0
DICTIONARY
  5
1A2
330
1A4
100
AcDbDictionary
280
     1
281
     1
  3
TC_OPTIONAL_DATA
360
1A3
  0
DICTIONARY
  5
1A5
330
1A7
100
AcDbDictionary
280
     1
281
     1
  3
TC_OPTIONAL_DATA
360
1A6
  0
DICTIONARY
  5
1A8
330
1AA
100
AcDbDictionary
280
     1
281
     1
  3
TC_OPTIONAL_DATA
360
1A9
  0
DICTIONARY
  5
1AB
330
1AD
100
AcDbDictionary
280
     1
281
     1
  3
TC_OPTIONAL_DATA
360
1AC
  0
DICTIONARY
  5
1AE
330
1B0
100
AcDbDictionary
280
     1
281
     1
  3
TC_OPTIONAL_DATA
360
1AF
  0
DICTIONARY
  5
1B1
330
1B3
100
AcDbDictionary
280
     1
281
     1
  3
TC_OPTIONAL_DATA
360
1B2
  0
DICTIONARY
  5
1CE
330
1D0
100
AcDbDictionary
280
     1
281
     1
  3
TC_OPTIONAL_DATA
360
1CF
  0
DICTIONARY
  5
1FB
330
1FD
100
AcDbDictionary
280
     1
281
     1
  3
TC_OPTIONAL_DATA
360
1FC
  0
DICTIONARY
  5
1FE
330
200
100
AcDbDictionary
280
     1
281
     1
  3
TC_OPTIONAL_DATA
360
1FF
  0
DICTIONARY
  5
201
330
203
100
AcDbDictionary
280
     1
281
     1
  3
TC_OPTIONAL_DATA
360
202
  0
DICTIONARY
  5
22E
330
230
100
AcDbDictionary
280
     1
281
     1
  3
TC_OPTIONAL_DATA
360
22F
  0
DICTIONARY
  5
24D
330
24F
100
AcDbDictionary
280
     1
281
     1
  3
TC_OPTIONAL_DATA
360
24E
  0
DICTIONARY
  5
250
330
252
100
AcDbDictionary
280
     1
281
     1
  3
TC_OPTIONAL_DATA
360
251
  0
DICTIONARY
  5
253
330
255
100
AcDbDictionary
280
     1
281
     1
  3
TC_OPTIONAL_DATA
360
254
  0
DICTIONARY
  5
256
330
258
100
AcDbDictionary
280
     1
281
     1
  3
TC_OPTIONAL_DATA
360
257
  0
DICTIONARY
  5
278
330
27A
100
AcDbDictionary
280
     1
281
     1
  3
TC_OPTIONAL_DATA
360
279
  0
DICTIONARY
  5
297
330
299
100
AcDbDictionary
280
     1
281
     1
  3
TC_OPTIONAL_DATA
360
298
  0
DICTIONARY
  5
29A
330
29C
100
AcDbDictionary
280
     1
281
     1
  3
TC_OPTIONAL_DATA
360
29B
  0
DICTIONARY
  5
2AB
330
2AD
100
AcDbDictionary
280
     1
281
     1
  3
TC_OPTIONAL_DATA
360
2AC
  0
DICTIONARY
  5
2CA
330
2CC
100
AcDbDictionary
280
     1
281
     1
  3
TC_OPTIONAL_DATA
360
2CB
  0
DICTIONARY
  5
2DB
330
2DD
100
AcDbDictionary
280
     1
281
     1
  3
TC_OPTIONAL_DATA
360
2DC
  0
DICTIONARY
  5
2F4
330
2F6
100
AcDbDictionary
280
     1
281
     1
  3
TC_OPTIONAL_DATA
360
2F5
  0
DICTIONARY
  5
321
330
323
100
AcDbDictionary
280
     1
281
     1
  3
TC_OPTIONAL_DATA
360
322
  0
DICTIONARY
  5
324
330
326
100
AcDbDictionary
280
     1
281
     1
  3
TC_OPTIONAL_DATA
360
325
  0
DICTIONARY
  5
327
330
329
100
AcDbDictionary
280
     1
281
     1
  3
TC_OPTIONAL_DATA
360
328
  0
DICTIONARY
  5
354
330
356
100
AcDbDictionary
280
     1
281
     1
  3
TC_OPTIONAL_DATA
360
355
  0
DICTIONARY
  5
373
330
375
100
AcDbDictionary
280
     1
281
     1
  3
TC_OPTIONAL_DATA
360
374
  0
DICTIONARY
  5
384
330
386
100
AcDbDictionary
280
     1
281
     1
  3
TC_OPTIONAL_DATA
360
385
  0
DICTIONARY
  5
387
330
389
100
AcDbDictionary
280
     1
281
     1
  3
TC_OPTIONAL_DATA
360
388
  0
DICTIONARY
  5
38A
330
38C
100
AcDbDictionary
280
     1
281
     1
  3
TC_OPTIONAL_DATA
360
38B
  0
DICTIONARY
  5
39C
330
39E
100
AcDbDictionary
280
     1
281
     1
  3
TC_OPTIONAL_DATA
360
39D
  0
DICTIONARY
  5
3A1
330
3A3
100
AcDbDictionary
280
     1
281
     1
  3
TC_OPTIONAL_DATA
360
3A2
  0
DICTIONARY
  5
3A4
330
3A6
100
AcDbDictionary
280
     1
281
     1
  3
TC_OPTIONAL_DATA
360
3A5
  0
DICTIONARY
  5
3A7
330
3A9
100
AcDbDictionary
280
     1
281
     1
  3
TC_OPTIONAL_DATA
360
3A8
  0
DICTIONARY
  5
3B9
330
3BB
100
AcDbDictionary
280
     1
281
     1
  3
TC_OPTIONAL_DATA
360
3BA
  0
DICTIONARY
  5
3BD
330
3BF
100
AcDbDictionary
280
     1
281
     1
  3
TC_OPTIONAL_DATA
360
3BE
  0
DICTIONARY
  5
3C0
330
3C2
100
AcDbDictionary
280
     1
281
     1
  3
TC_OPTIONAL_DATA
360
3C1
  0
DICTIONARY
  5
3C3
330
3C5
100
AcDbDictionary
280
     1
281
     1
  3
TC_OPTIONAL_DATA
360
3C4
  0
DICTIONARY
  5
3FF
330
401
100
AcDbDictionary
280
     1
281
     1
  3
TC_OPTIONAL_DATA
360
400
  0
DICTIONARY
  5
402
330
404
100
AcDbDictionary
280
     1
281
     1
  3
TC_OPTIONAL_DATA
360
403
  0
DICTIONARY
  5
405
330
407
100
AcDbDictionary
280
     1
281
     1
  3
TC_OPTIONAL_DATA
360
406
  0
DICTIONARY
  5
408
330
40A
100
AcDbDictionary
280
     1
281
     1
  3
TC_OPTIONAL_DATA
360
409
  0
DICTIONARY
  5
40C
330
40E
100
AcDbDictionary
280
     1
281
     1
  3
TC_OPTIONAL_DATA
360
40D
  0
DICTIONARY
  5
41E
330
420
100
AcDbDictionary
280
     1
281
     1
  3
TC_OPTIONAL_DATA
360
41F
  0
DICTIONARY
  5
422
330
424
100
AcDbDictionary
280
     1
281
     1
  3
TC_OPTIONAL_DATA
360
423
  0
DICTIONARY
  5
425
330
427
100
AcDbDictionary
280
     1
281
     1
  3
TC_OPTIONAL_DATA
360
426
  0
DICTIONARY
  5
429
330
42B
100
AcDbDictionary
280
     1
281
     1
  3
TC_OPTIONAL_DATA
360
42A
  0
DICTIONARY
  5
42C
330
42E
100
AcDbDictionary
280
     1
281
     1
  3
TC_OPTIONAL_DATA
360
42D
  0
DICTIONARY
  5
450
330
452
100
AcDbDictionary
280
     1
281
     1
  3
TC_OPTIONAL_DATA
360
451
  0
DICTIONARY
  5
455
330
457
100
AcDbDictionary
280
     1
281
     1
  3
TC_OPTIONAL_DATA
360
456
  0
DICTIONARY
  5
458
330
45A
100
AcDbDictionary
280
     1
281
     1
  3
TC_OPTIONAL_DATA
360
459
  0
DICTIONARY
  5
469
330
46B
100
AcDbDictionary
280
     1
281
     1
  3
TC_OPTIONAL_DATA
360
46A
  0
DICTIONARY
  5
46C
330
46E
100
AcDbDictionary
280
     1
281
     1
  3
TC_OPTIONAL_DATA
360
46D
  0
DICTIONARY
  5
46F
330
471
100
AcDbDictionary
280
     1
281
     1
  3
TC_OPTIONAL_DATA
360
470
  0
DICTIONARY
  5
472
330
474
100
AcDbDictionary
280
     1
281
     1
  3
TC_OPTIONAL_DATA
360
473
  0
DICTIONARY
  5
475
330
477
100
AcDbDictionary
280
     1
281
     1
  3
TC_OPTIONAL_DATA
360
476
  0
DICTIONARY
  5
478
330
47A
100
AcDbDictionary
280
     1
281
     1
  3
TC_OPTIONAL_DATA
360
479
  0
DICTIONARY
  5
47B
330
47D
100
AcDbDictionary
280
     1
281
     1
  3
TC_OPTIONAL_DATA
360
47C
  0
DICTIONARY
  5
47E
330
480
100
AcDbDictionary
280
     1
281
     1
  3
TC_OPTIONAL_DATA
360
47F
  0
DICTIONARY
  5
482
330
484
100
AcDbDictionary
280
     1
281
     1
  3
TC_OPTIONAL_DATA
360
483
  0
DICTIONARY
  5
485
330
487
100
AcDbDictionary
280
     1
281
     1
  3
TC_OPTIONAL_DATA
360
486
  0
DICTIONARY
  5
488
330
48A
100
AcDbDictionary
280
     1
281
     1
  3
TC_OPTIONAL_DATA
360
489
  0
DICTIONARY
  5
48B
330
48D
100
AcDbDictionary
280
     1
281
     1
  3
TC_OPTIONAL_DATA
360
48C
  0
DICTIONARY
  5
48E
330
490
100
AcDbDictionary
280
     1
281
     1
  3
TC_OPTIONAL_DATA
360
48F
  0
DICTIONARY
  5
4AD
330
4AF
100
AcDbDictionary
280
     1
281
     1
  3
TC_OPTIONAL_DATA
360
4AE
  0
DICTIONARY
  5
4B0
330
4B2
100
AcDbDictionary
280
     1
281
     1
  3
TC_OPTIONAL_DATA
360
4B1
  0
DICTIONARY
  5
4B3
330
4B5
100
AcDbDictionary
280
     1
281
     1
  3
TC_OPTIONAL_DATA
360
4B4
  0
DICTIONARY
  5
4B6
330
4B8
100
AcDbDictionary
280
     1
281
     1
  3
TC_OPTIONAL_DATA
360
4B7
  0
DICTIONARY
  5
4C7
330
4C9
100
AcDbDictionary
280
     1
281
     1
  3
TC_OPTIONAL_DATA
360
4C8
  0
DICTIONARY
  5
4CA
330
4CC
100
AcDbDictionary
280
     1
281
     1
  3
TC_OPTIONAL_DATA
360
4CB
  0
DICTIONARY
  5
4CD
330
4CF
100
AcDbDictionary
280
     1
281
     1
  3
TC_OPTIONAL_DATA
360
4CE
  0
DICTIONARY
  5
4D0
330
4D2
100
AcDbDictionary
280
     1
281
     1
  3
TC_OPTIONAL_DATA
360
4D1
  0
DICTIONARY
  5
51B
330
51D
100
AcDbDictionary
280
     1
281
     1
  3
TC_OPTIONAL_DATA
360
51C
  0
DICTIONARY
  5
51E
330
520
100
AcDbDictionary
280
     1
281
     1
  3
TC_OPTIONAL_DATA
360
51F
  0
DICTIONARY
  5
52F
330
531
100
AcDbDictionary
280
     1
281
     1
  3
TC_OPTIONAL_DATA
360
530
  0
DICTIONARY
  5
D
102
{ACAD_REACTORS
330
C
102
}
330
C
100
AcDbDictionary
281
     1
  0
DICTIONARY
  5
1A
102
{ACAD_REACTORS
330
C
102
}
330
C
100
AcDbDictionary
281
     1
  3
Layout1
350
1E
  3
Model
350
22
  0
DICTIONARY
  5
539
102
{ACAD_REACTORS
330
C
102
}
330
C
100
AcDbDictionary
281
     1
  0
DICTIONARY
  5
17
102
{ACAD_REACTORS
330
C
102
}
330
C
100
AcDbDictionary
281
     1
  3
Standard
350
18
  0
DICTIONARY
  5
19
102
{ACAD_REACTORS
330
C
102
}
330
C
100
AcDbDictionary
281
     1
  0
ACDBDICTIONARYWDFLT
  5
E
102
{ACAD_REACTORS
330
C
102
}
330
C
100
AcDbDictionary
281
     1
  3
Normal
350
F
100
AcDbDictionaryWithDefault
340
F
  0
DICTIONARY
  5
EF
102
{ACAD_REACTORS
330
C
102
}
330
C
100
AcDbDictionary
281
     1
  3
A0
350
F0
  3
A1
350
F1
  3
A2
350
F2
  3
A3
350
F3
  3
A4
350
F4
  3
A5
350
F5
  3
A6
350
F6
  3
A7
350
F7
  3
A8
350
F8
  3
A9
350
F9
  3
B0
350
FA
  3
B1
350
FB
  3
B2
350
FC
  3
B3
350
FD
  3
B4
350
FE
  3
B5
350
FF
  3
B6
350
100
  3
B7
350
101
  3
B8
350
102
  3
B9
350
103
  3
C0
350
104
  3
C1
350
105
  3
C2
350
106
  3
C3
350
107
  3
C4
350
108
  3
C5
350
109
  3
C6
350
10A
  3
C7
350
10B
  3
C8
350
10C
  3
C9
350
10D
  3
D0
350
10E
  3
D1
350
10F
  3
D2
350
110
  0
DICTIONARY
  5
67
102
{ACAD_REACTORS
330
C
102
}
330
C
100
AcDbDictionary
281
     1
  3
Standard
350
68
  0
DICTIONARY
  5
2A
102
{ACAD_REACTORS
330
C
102
}
330
C
100
AcDbDictionary
281
     1
  3
2dWireframe
350
2F
  3
3D Hidden
350
31
  3
3dWireframe
350
30
  3
Basic
350
32
  3
Brighten
350
36
  3
ColorChange
350
3A
  3
Conceptual
350
34
  3
Dim
350
35
  3
Facepattern
350
39
  3
Flat
350
2B
  3
FlatWithEdges
350
2C
  3
Gouraud
350
2D
  3
GouraudWithEdges
350
2E
  3
Linepattern
350
38
  3
Realistic
350
33
  3
Thicken
350
37
  0
XRECORD
  5
538
102
{ACAD_REACTORS
330
C
102
}
330
C
100
AcDbXrecord
280
     1
 90
        1
330
68
  0
DICTIONARY
  5
534
102
{ACAD_REACTORS
330
C
102
}
330
C
100
AcDbDictionary
281
     1
  3
CANNOSCALE
350
535
  0
TCOPTIONALDATA
  5
6C
102
{ACAD_REACTORS
330
6B
102
}
330
6B
100
TcOptionalData
 70
     1
 70
    32
 40
-3.0
  0
TCOPTIONALDATA
  5
6F
102
{ACAD_REACTORS
330
6E
102
}
330
6E
100
TcOptionalData
 70
     1
 70
    32
 40
-3.0
  0
TCOPTIONALDATA
  5
72
102
{ACAD_REACTORS
330
71
102
}
330
71
100
TcOptionalData
 70
     1
 70
    32
 40
-3.0
  0
TCOPTIONALDATA
  5
78
102
{ACAD_REACTORS
330
77
102
}
330
77
100
TcOptionalData
 70
     1
 70
    32
 40
-3.0
  0
TCOPTIONALDATA
  5
7B
102
{ACAD_REACTORS
330
7A
102
}
330
7A
100
TcOptionalData
 70
     1
 70
    32
 40
-3.0
  0
TCOPTIONALDATA
  5
7E
102
{ACAD_REACTORS
330
7D
102
}
330
7D
100
TcOptionalData
 70
     1
 70
    32
 40
-3.0
  0
TCOPTIONALDATA
  5
81
102
{ACAD_REACTORS
330
80
102
}
330
80
100
TcOptionalData
 70
     1
 70
    32
 40
-3.0
  0
TCOPTIONALDATA
  5
84
102
{ACAD_REACTORS
330
83
102
}
330
83
100
TcOptionalData
 70
     1
 70
    32
 40
-3.0
  0
TCOPTIONALDATA
  5
87
102
{ACAD_REACTORS
330
86
102
}
330
86
100
TcOptionalData
 70
     1
 70
    32
 40
-3.0
  0
TCOPTIONALDATA
  5
8A
102
{ACAD_REACTORS
330
89
102
}
330
89
100
TcOptionalData
 70
     1
 70
    32
 40
-3.0
  0
TCOPTIONALDATA
  5
8D
102
{ACAD_REACTORS
330
8C
102
}
330
8C
100
TcOptionalData
 70
     1
 70
    32
 40
-3.0
  0
TCOPTIONALDATA
  5
90
102
{ACAD_REACTORS
330
8F
102
}
330
8F
100
TcOptionalData
 70
     1
 70
    32
 40
-3.0
  0
TCOPTIONALDATA
  5
93
102
{ACAD_REACTORS
330
92
102
}
330
92
100
TcOptionalData
 70
     1
 70
    32
 40
-3.0
  0
TCOPTIONALDATA
  5
99
102
{ACAD_REACTORS
330
98
102
}
330
98
100
TcOptionalData
 70
     1
 70
    32
 40
-3.0
  0
TCOPTIONALDATA
  5
9C
102
{ACAD_REACTORS
330
9B
102
}
330
9B
100
TcOptionalData
 70
     1
 70
    32
 40
-3.0
  0
TCOPTIONALDATA
  5
9F
102
{ACAD_REACTORS
330
9E
102
}
330
9E
100
TcOptionalData
 70
     1
 70
    32
 40
-3.0
  0
TCOPTIONALDATA
  5
A2
102
{ACAD_REACTORS
330
A1
102
}
330
A1
100
TcOptionalData
 70
     1
 70
    32
 40
-3.0
  0
TCOPTIONALDATA
  5
A5
102
{ACAD_REACTORS
330
A4
102
}
330
A4
100
TcOptionalData
 70
     1
 70
    32
 40
-3.0
  0
TCOPTIONALDATA
  5
A8
102
{ACAD_REACTORS
330
A7
102
}
330
A7
100
TcOptionalData
 70
     1
 70
    32
 40
-3.0
  0
TCOPTIONALDATA
  5
AB
102
{ACAD_REACTORS
330
AA
102
}
330
AA
100
TcOptionalData
 70
     1
 70
    32
 40
-3.0
  0
TCOPTIONALDATA
  5
AE
102
{ACAD_REACTORS
330
AD
102
}
330
AD
100
TcOptionalData
 70
     1
 70
    32
 40
-3.0
  0
TCOPTIONALDATA
  5
B1
102
{ACAD_REACTORS
330
B0
102
}
330
B0
100
TcOptionalData
 70
     1
 70
    32
 40
-3.0
  0
TCOPTIONALDATA
  5
B4
102
{ACAD_REACTORS
330
B3
102
}
330
B3
100
TcOptionalData
 70
     1
 70
    32
 40
-3.0
  0
TCOPTIONALDATA
  5
B7
102
{ACAD_REACTORS
330
B6
102
}
330
B6
100
TcOptionalData
 70
     1
 70
    32
 40
-3.0
  0
TCOPTIONALDATA
  5
BA
102
{ACAD_REACTORS
330
B9
102
}
330
B9
100
TcOptionalData
 70
     1
 70
    32
 40
-3.0
  0
TCOPTIONALDATA
  5
C0
102
{ACAD_REACTORS
330
BF
102
}
330
BF
100
TcOptionalData
 70
     1
 70
    32
 40
-3.0
  0
TCOPTIONALDATA
  5
C3
102
{ACAD_REACTORS
330
C2
102
}
330
C2
100
TcOptionalData
 70
     1
 70
    32
 40
-3.0
  0
TCOPTIONALDATA
  5
C6
102
{ACAD_REACTORS
330
C5
102
}
330
C5
100
TcOptionalData
 70
     1
 70
    32
 40
-3.0
  0
TCOPTIONALDATA
  5
C9
102
{ACAD_REACTORS
330
C8
102
}
330
C8
100
TcOptionalData
 70
     1
 70
    32
 40
-3.0
  0
TCOPTIONALDATA
  5
CC
102
{ACAD_REACTORS
330
CB
102
}
330
CB
100
TcOptionalData
 70
     1
 70
    32
 40
-3.0
  0
TCOPTIONALDATA
  5
CF
102
{ACAD_REACTORS
330
CE
102
}
330
CE
100
TcOptionalData
 70
     1
 70
    32
 40
-3.0
  0
TCOPTIONALDATA
  5
D2
102
{ACAD_REACTORS
330
D1
102
}
330
D1
100
TcOptionalData
 70
     1
 70
    32
 40
-3.0
  0
TCOPTIONALDATA
  5
D5
102
{ACAD_REACTORS
330
D4
102
}
330
D4
100
TcOptionalData
 70
     1
 70
    32
 40
-3.0
  0
TCOPTIONALDATA
  5
D8
102
{ACAD_REACTORS
330
D7
102
}
330
D7
100
TcOptionalData
 70
     1
 70
    32
 40
-3.0
  0
TCOPTIONALDATA
  5
DB
102
{ACAD_REACTORS
330
DA
102
}
330
DA
100
TcOptionalData
 70
     1
 70
    32
 40
-3.0
  0
TCOPTIONALDATA
  5
DE
102
{ACAD_REACTORS
330
DD
102
}
330
DD
100
TcOptionalData
 70
     1
 70
    32
 40
-3.0
  0
TCOPTIONALDATA
  5
E1
102
{ACAD_REACTORS
330
E0
102
}
330
E0
100
TcOptionalData
 70
     1
 70
    32
 40
-3.0
  0
TCOPTIONALDATA
  5
E4
102
{ACAD_REACTORS
330
E3
102
}
330
E3
100
TcOptionalData
 70
     1
 70
    32
 40
-3.0
  0
TCOPTIONALDATA
  5
EA
102
{ACAD_REACTORS
330
E9
102
}
330
E9
100
TcOptionalData
 70
     1
 70
    32
 40
-3.0
  0
TCOPTIONALDATA
  5
EE
102
{ACAD_REACTORS
330
ED
102
}
330
ED
100
TcOptionalData
 70
     1
 70
     2
 10
4.0
 20
-9.083333333333334
 30
0.0
  0
TCOPTIONALDATA
  5
154
102
{ACAD_REACTORS
330
153
102
}
330
153
100
TcOptionalData
 70
     1
 70
    32
 40
-3.0
  0
TCOPTIONALDATA
  5
157
102
{ACAD_REACTORS
330
156
102
}
330
156
100
TcOptionalData
 70
     1
 70
    32
 40
-3.0
  0
TCOPTIONALDATA
  5
15A
102
{ACAD_REACTORS
330
159
102
}
330
159
100
TcOptionalData
 70
     1
 70
    32
 40
-3.0
  0
TCOPTIONALDATA
  5
15D
102
{ACAD_REACTORS
330
15C
102
}
330
15C
100
TcOptionalData
 70
     1
 70
    32
 40
-3.0
  0
TCOPTIONALDATA
  5
160
102
{ACAD_REACTORS
330
15F
102
}
330
15F
100
TcOptionalData
 70
     1
 70
     2
 10
2.25
 20
1.666666666666667
 30
0.0
  0
TCOPTIONALDATA
  5
11A
102
{ACAD_REACTORS
330
119
102
}
330
119
100
TcOptionalData
 70
     1
 70
    32
 40
-3.0
  0
TCOPTIONALDATA
  5
11D
102
{ACAD_REACTORS
330
11C
102
}
330
11C
100
TcOptionalData
 70
     1
 70
    32
 40
-3.0
  0
TCOPTIONALDATA
  5
120
102
{ACAD_REACTORS
330
11F
102
}
330
11F
100
TcOptionalData
 70
     1
 70
    32
 40
-3.0
  0
TCOPTIONALDATA
  5
123
102
{ACAD_REACTORS
330
122
102
}
330
122
100
TcOptionalData
 70
     1
 70
    32
 40
-3.0
  0
TCOPTIONALDATA
  5
126
102
{ACAD_REACTORS
330
125
102
}
330
125
100
TcOptionalData
 70
     1
 70
    32
 40
-3.0
  0
TCOPTIONALDATA
  5
129
102
{ACAD_REACTORS
330
128
102
}
330
128
100
TcOptionalData
 70
     1
 70
    32
 40
-3.0
  0
TCOPTIONALDATA
  5
12C
102
{ACAD_REACTORS
330
12B
102
}
330
12B
100
TcOptionalData
 70
     1
 70
    32
 40
-3.0
  0
TCOPTIONALDATA
  5
12F
102
{ACAD_REACTORS
330
12E
102
}
330
12E
100
TcOptionalData
 70
     1
 70
    32
 40
-3.0
  0
TCOPTIONALDATA
  5
132
102
{ACAD_REACTORS
330
131
102
}
330
131
100
TcOptionalData
 70
     1
 70
    32
 40
-3.0
  0
TCOPTIONALDATA
  5
135
102
{ACAD_REACTORS
330
134
102
}
330
134
100
TcOptionalData
 70
     1
 70
    32
 40
-3.0
  0
TCOPTIONALDATA
  5
138
102
{ACAD_REACTORS
330
137
102
}
330
137
100
TcOptionalData
 70
     1
 70
    32
 40
-3.0
  0
TCOPTIONALDATA
  5
13B
102
{ACAD_REACTORS
330
13A
102
}
330
13A
100
TcOptionalData
 70
     1
 70
     2
 10
4.0
 20
-1.083333333333333
 30
0.0
  0
TCOPTIONALDATA
  5
13E
102
{ACAD_REACTORS
330
13D
102
}
330
13D
100
TcOptionalData
 70
     1
 70
     2
 10
6.0
 20
-19.08333333333333
 30
0.0
  0
TCOPTIONALDATA
  5
177
102
{ACAD_REACTORS
330
176
102
}
330
176
100
TcOptionalData
 70
     1
 70
    32
 40
-3.0
  0
TCOPTIONALDATA
  5
17A
102
{ACAD_REACTORS
330
179
102
}
330
179
100
TcOptionalData
 70
     1
 70
    32
 40
-3.0
  0
TCOPTIONALDATA
  5
17D
102
{ACAD_REACTORS
330
17C
102
}
330
17C
100
TcOptionalData
 70
     1
 70
    32
 40
-3.0
  0
TCOPTIONALDATA
  5
180
102
{ACAD_REACTORS
330
17F
102
}
330
17F
100
TcOptionalData
 70
     1
 70
    32
 40
-3.0
  0
TCOPTIONALDATA
  5
183
102
{ACAD_REACTORS
330
182
102
}
330
182
100
TcOptionalData
 70
     1
 70
    32
 40
-3.0
  0
TCOPTIONALDATA
  5
186
102
{ACAD_REACTORS
330
185
102
}
330
185
100
TcOptionalData
 70
     1
 70
    32
 40
-3.0
  0
TCOPTIONALDATA
  5
18C
102
{ACAD_REACTORS
330
18B
102
}
330
18B
100
TcOptionalData
 70
     1
 70
    32
 40
-3.0
  0
TCOPTIONALDATA
  5
18F
102
{ACAD_REACTORS
330
18E
102
}
330
18E
100
TcOptionalData
 70
     1
 70
    32
 40
-3.0
  0
TCOPTIONALDATA
  5
192
102
{ACAD_REACTORS
330
191
102
}
330
191
100
TcOptionalData
 70
     1
 70
    32
 40
-3.0
  0
TCOPTIONALDATA
  5
195
102
{ACAD_REACTORS
330
194
102
}
330
194
100
TcOptionalData
 70
     1
 70
    32
 40
-3.0
  0
TCOPTIONALDATA
  5
198
102
{ACAD_REACTORS
330
197
102
}
330
197
100
TcOptionalData
 70
     1
 70
    32
 40
-3.0
  0
TCOPTIONALDATA
  5
1B7
102
{ACAD_REACTORS
330
1B6
102
}
330
1B6
100
TcOptionalData
 70
     1
 70
    32
 40
-3.0
  0
TCOPTIONALDATA
  5
1BA
102
{ACAD_REACTORS
330
1B9
102
}
330
1B9
100
TcOptionalData
 70
     1
 70
    32
 40
-3.0
  0
TCOPTIONALDATA
  5
1BD
102
{ACAD_REACTORS
330
1BC
102
}
330
1BC
100
TcOptionalData
 70
     1
 70
    32
 40
-3.0
  0
TCOPTIONALDATA
  5
1C0
102
{ACAD_REACTORS
330
1BF
102
}
330
1BF
100
TcOptionalData
 70
     1
 70
    32
 40
-3.0
  0
TCOPTIONALDATA
  5
1C3
102
{ACAD_REACTORS
330
1C2
102
}
330
1C2
100
TcOptionalData
 70
     1
 70
    32
 40
-3.0
  0
TCOPTIONALDATA
  5
1C6
102
{ACAD_REACTORS
330
1C5
102
}
330
1C5
100
TcOptionalData
 70
     1
 70
    32
 40
-3.0
  0
TCOPTIONALDATA
  5
1C9
102
{ACAD_REACTORS
330
1C8
102
}
330
1C8
100
TcOptionalData
 70
     1
 70
     2
 10
-14.0
 20
-2.083333333333333
 30
0.0
  0
TCOPTIONALDATA
  5
19D
102
{ACAD_REACTORS
330
19C
102
}
330
19C
100
TcOptionalData
 70
     1
 70
    32
 40
-3.0
  0
TCOPTIONALDATA
  5
1A0
102
{ACAD_REACTORS
330
19F
102
}
330
19F
100
TcOptionalData
 70
     1
 70
    32
 40
-3.0
  0
TCOPTIONALDATA
  5
1A3
102
{ACAD_REACTORS
330
1A2
102
}
330
1A2
100
TcOptionalData
 70
     1
 70
    32
 40
-3.0
  0
TCOPTIONALDATA
  5
1A6
102
{ACAD_REACTORS
330
1A5
102
}
330
1A5
100
TcOptionalData
 70
     1
 70
    32
 40
-3.0
  0
TCOPTIONALDATA
  5
1A9
102
{ACAD_REACTORS
330
1A8
102
}
330
1A8
100
TcOptionalData
 70
     1
 70
    32
 40
-3.0
  0
TCOPTIONALDATA
  5
1AC
102
{ACAD_REACTORS
330
1AB
102
}
330
1AB
100
TcOptionalData
 70
     1
 70
    32
 40
-3.0
  0
TCOPTIONALDATA
  5
1AF
102
{ACAD_REACTORS
330
1AE
102
}
330
1AE
100
TcOptionalData
 70
     1
 70
    32
 40
-3.0
  0
TCOPTIONALDATA
  5
1B2
102
{ACAD_REACTORS
330
1B1
102
}
330
1B1
100
TcOptionalData
 70
     1
 70
    32
 40
-3.0
  0
TCOPTIONALDATA
  5
1CF
102
{ACAD_REACTORS
330
1CE
102
}
330
1CE
100
TcOptionalData
 70
     1
 70
    32
 40
-3.0
  0
TCOPTIONALDATA
  5
1FC
102
{ACAD_REACTORS
330
1FB
102
}
330
1FB
100
TcOptionalData
 70
     1
 70
    32
 40
-3.0
  0
TCOPTIONALDATA
  5
1FF
102
{ACAD_REACTORS
330
1FE
102
}
330
1FE
100
TcOptionalData
 70
     1
 70
     2
 10
53.08333333333334
 20
24.28846155555561
 30
0.0
  0
TCOPTIONALDATA
  5
202
102
{ACAD_REACTORS
330
201
102
}
330
201
100
TcOptionalData
 70
     1
 70
    32
 40
-3.0
  0
TCOPTIONALDATA
  5
22F
102
{ACAD_REACTORS
330
22E
102
}
330
22E
100
TcOptionalData
 70
     1
 70
    32
 40
-3.0
  0
TCOPTIONALDATA
  5
24E
102
{ACAD_REACTORS
330
24D
102
}
330
24D
100
TcOptionalData
 70
     1
 70
    32
 40
-3.0
  0
TCOPTIONALDATA
  5
251
102
{ACAD_REACTORS
330
250
102
}
330
250
100
TcOptionalData
 70
     1
 70
     2
 10
-20.91666666666667
 20
24.28846155555561
 30
0.0
  0
TCOPTIONALDATA
  5
254
102
{ACAD_REACTORS
330
253
102
}
330
253
100
TcOptionalData
 70
     1
 70
    32
 40
-3.0
  0
TCOPTIONALDATA
  5
257
102
{ACAD_REACTORS
330
256
102
}
330
256
100
TcOptionalData
 70
     1
 70
     2
 10
-12.0
 20
94.91666666666667
 30
0.0
  0
TCOPTIONALDATA
  5
279
102
{ACAD_REACTORS
330
278
102
}
330
278
100
TcOptionalData
 70
     1
 70
    32
 40
-3.0
  0
TCOPTIONALDATA
  5
298
102
{ACAD_REACTORS
330
297
102
}
330
297
100
TcOptionalData
 70
     1
 70
    32
 40
-3.0
  0
TCOPTIONALDATA
  5
29B
102
{ACAD_REACTORS
330
29A
102
}
330
29A
100
TcOptionalData
 70
     1
 70
     2
 10
212.0833333333333
 20
175.7884615555556
 30
0.0
  0
TCOPTIONALDATA
  5
2AC
102
{ACAD_REACTORS
330
2AB
102
}
330
2AB
100
TcOptionalData
 70
     1
 70
    32
 40
-3.0
  0
TCOPTIONALDATA
  5
2CB
102
{ACAD_REACTORS
330
2CA
102
}
330
2CA
100
TcOptionalData
 70
     1
 70
    32
 40
-3.0
  0
TCOPTIONALDATA
  5
2DC
102
{ACAD_REACTORS
330
2DB
102
}
330
2DB
100
TcOptionalData
 70
     1
 70
     2
 10
142.0833333333333
 20
307.7884615555556
 30
0.0
  0
TCOPTIONALDATA
  5
2F5
102
{ACAD_REACTORS
330
2F4
102
}
330
2F4
100
TcOptionalData
 70
     1
 70
    32
 40
-3.0
  0
TCOPTIONALDATA
  5
322
102
{ACAD_REACTORS
330
321
102
}
330
321
100
TcOptionalData
 70
     1
 70
    32
 40
-3.0
  0
TCOPTIONALDATA
  5
325
102
{ACAD_REACTORS
330
324
102
}
330
324
100
TcOptionalData
 70
     1
 70
     2
 10
33.08333333333334
 20
64.28846155555561
 30
0.0
  0
TCOPTIONALDATA
  5
328
102
{ACAD_REACTORS
330
327
102
}
330
327
100
TcOptionalData
 70
     1
 70
    32
 40
-3.0
  0
TCOPTIONALDATA
  5
355
102
{ACAD_REACTORS
330
354
102
}
330
354
100
TcOptionalData
 70
     1
 70
    32
 40
-3.0
  0
TCOPTIONALDATA
  5
374
102
{ACAD_REACTORS
330
373
102
}
330
373
100
TcOptionalData
 70
     1
 70
    32
 40
-3.0
  0
TCOPTIONALDATA
  5
385
102
{ACAD_REACTORS
330
384
102
}
330
384
100
TcOptionalData
 70
     1
 70
     2
 10
-40.91666666666666
 20
64.28846155555561
 30
0.0
  0
TCOPTIONALDATA
  5
388
102
{ACAD_REACTORS
330
387
102
}
330
387
100
TcOptionalData
 70
     1
 70
    32
 40
-3.0
  0
TCOPTIONALDATA
  5
38B
102
{ACAD_REACTORS
330
38A
102
}
330
38A
100
TcOptionalData
 70
     1
 70
     2
 10
-32.0
 20
134.9166666666667
 30
0.0
  0
TCOPTIONALDATA
  5
39D
102
{ACAD_REACTORS
330
39C
102
}
330
39C
100
TcOptionalData
 70
     1
 70
    32
 40
-3.0
  0
TCOPTIONALDATA
  5
3A2
102
{ACAD_REACTORS
330
3A1
102
}
330
3A1
100
TcOptionalData
 70
     1
 70
    32
 40
-3.0
  0
TCOPTIONALDATA
  5
3A5
102
{ACAD_REACTORS
330
3A4
102
}
330
3A4
100
TcOptionalData
 70
     1
 70
    32
 40
-3.0
  0
TCOPTIONALDATA
  5
3A8
102
{ACAD_REACTORS
330
3A7
102
}
330
3A7
100
TcOptionalData
 70
     1
 70
    32
 40
-3.0
  0
TCOPTIONALDATA
  5
3BA
102
{ACAD_REACTORS
330
3B9
102
}
330
3B9
100
TcOptionalData
 70
     1
 70
    32
 40
-3.0
  0
TCOPTIONALDATA
  5
3BE
102
{ACAD_REACTORS
330
3BD
102
}
330
3BD
100
TcOptionalData
 70
     1
 70
     2
 10
-21.25
 20
6.166666666666667
 30
0.0
  0
TCOPTIONALDATA
  5
3C1
102
{ACAD_REACTORS
330
3C0
102
}
330
3C0
100
TcOptionalData
 70
     1
 70
    32
 40
-3.0
  0
TCOPTIONALDATA
  5
3C4
102
{ACAD_REACTORS
330
3C3
102
}
330
3C3
100
TcOptionalData
 70
     1
 70
     2
 10
12.0
 20
28.66666666666667
 30
0.0
  0
TCOPTIONALDATA
  5
400
102
{ACAD_REACTORS
330
3FF
102
}
330
3FF
100
TcOptionalData
 70
     1
 70
     2
 10
209.0
 20
-7.333333333333333
 30
0.0
  0
TCOPTIONALDATA
  5
403
102
{ACAD_REACTORS
330
402
102
}
330
402
100
TcOptionalData
 70
     1
 70
     2
 10
209.0
 20
-1.833333333333333
 30
0.0
  0
TCOPTIONALDATA
  5
406
102
{ACAD_REACTORS
330
405
102
}
330
405
100
TcOptionalData
 70
     1
 70
    32
 40
-3.0
  0
TCOPTIONALDATA
  5
409
102
{ACAD_REACTORS
330
408
102
}
330
408
100
TcOptionalData
 70
     1
 70
    32
 40
-3.0
  0
TCOPTIONALDATA
  5
40D
102
{ACAD_REACTORS
330
40C
102
}
330
40C
100
TcOptionalData
 70
     1
 70
     2
 10
13.08333333333333
 20
82.34846333333333
 30
0.0
  0
TCOPTIONALDATA
  5
41F
102
{ACAD_REACTORS
330
41E
102
}
330
41E
100
TcOptionalData
 70
     1
 70
     2
 10
107.0
 20
13.66666666666667
 30
0.0
  0
TCOPTIONALDATA
  5
423
102
{ACAD_REACTORS
330
422
102
}
330
422
100
TcOptionalData
 70
     1
 70
    32
 40
-3.0
  0
TCOPTIONALDATA
  5
426
102
{ACAD_REACTORS
330
425
102
}
330
425
100
TcOptionalData
 70
     1
 70
     2
 10
92.0
 20
165.9166666666667
 30
0.0
  0
TCOPTIONALDATA
  5
42A
102
{ACAD_REACTORS
330
429
102
}
330
429
100
TcOptionalData
 70
     1
 70
    32
 40
-3.0
  0
TCOPTIONALDATA
  5
42D
102
{ACAD_REACTORS
330
42C
102
}
330
42C
100
TcOptionalData
 70
     1
 70
    32
 40
-3.0
  0
TCOPTIONALDATA
  5
451
102
{ACAD_REACTORS
330
450
102
}
330
450
100
TcOptionalData
 70
     1
 70
    32
 40
-3.0
  0
TCOPTIONALDATA
  5
456
102
{ACAD_REACTORS
330
455
102
}
330
455
100
TcOptionalData
 70
     1
 70
     2
 10
67.0
 20
278.9166666666667
 30
0.0
  0
TCOPTIONALDATA
  5
459
102
{ACAD_REACTORS
330
458
102
}
330
458
100
TcOptionalData
 70
     1
 70
     2
 10
67.0
 20
278.9166666666667
 30
0.0
  0
TCOPTIONALDATA
  5
46A
102
{ACAD_REACTORS
330
469
102
}
330
469
100
TcOptionalData
 70
     1
 70
    32
 40
-3.0
  0
TCOPTIONALDATA
  5
46D
102
{ACAD_REACTORS
330
46C
102
}
330
46C
100
TcOptionalData
 70
     1
 70
     2
 10
120.0
 20
193.9166666666667
 30
0.0
  0
TCOPTIONALDATA
  5
470
102
{ACAD_REACTORS
330
46F
102
}
330
46F
100
TcOptionalData
 70
     1
 70
     2
 10
24.0
 20
191.9166666666667
 30
0.0
  0
TCOPTIONALDATA
  5
473
102
{ACAD_REACTORS
330
472
102
}
330
472
100
TcOptionalData
 70
     1
 70
    32
 40
-3.0
  0
TCOPTIONALDATA
  5
476
102
{ACAD_REACTORS
330
475
102
}
330
475
100
TcOptionalData
 70
     1
 70
    32
 40
-3.0
  0
TCOPTIONALDATA
  5
479
102
{ACAD_REACTORS
330
478
102
}
330
478
100
TcOptionalData
 70
     1
 70
    32
 40
-3.0
  0
TCOPTIONALDATA
  5
47C
102
{ACAD_REACTORS
330
47B
102
}
330
47B
100
TcOptionalData
 70
     1
 70
    32
 40
-3.0
  0
TCOPTIONALDATA
  5
47F
102
{ACAD_REACTORS
330
47E
102
}
330
47E
100
TcOptionalData
 70
     1
 70
     2
 10
46.0
 20
229.9166666666667
 30
0.0
  0
TCOPTIONALDATA
  5
483
102
{ACAD_REACTORS
330
482
102
}
330
482
100
TcOptionalData
 70
     1
 70
    32
 40
-3.0
  0
TCOPTIONALDATA
  5
486
102
{ACAD_REACTORS
330
485
102
}
330
485
100
TcOptionalData
 70
     1
 70
    32
 40
-3.0
  0
TCOPTIONALDATA
  5
489
102
{ACAD_REACTORS
330
488
102
}
330
488
100
TcOptionalData
 70
     1
 70
    32
 40
-3.0
  0
TCOPTIONALDATA
  5
48C
102
{ACAD_REACTORS
330
48B
102
}
330
48B
100
TcOptionalData
 70
     1
 70
    32
 40
-3.0
  0
TCOPTIONALDATA
  5
48F
102
{ACAD_REACTORS
330
48E
102
}
330
48E
100
TcOptionalData
 70
     1
 70
    32
 40
-3.0
  0
TCOPTIONALDATA
  5
4AE
102
{ACAD_REACTORS
330
4AD
102
}
330
4AD
100
TcOptionalData
 70
     1
 70
     2
 10
260.0
 20
278.4166666666667
 30
0.0
  0
TCOPTIONALDATA
  5
4B1
102
{ACAD_REACTORS
330
4B0
102
}
330
4B0
100
TcOptionalData
 70
     1
 70
     2
 10
213.0
 20
277.9166666666667
 30
0.0
  0
TCOPTIONALDATA
  5
4B4
102
{ACAD_REACTORS
330
4B3
102
}
330
4B3
100
TcOptionalData
 70
     1
 70
    32
 40
-3.0
  0
TCOPTIONALDATA
  5
4B7
102
{ACAD_REACTORS
330
4B6
102
}
330
4B6
100
TcOptionalData
 70
     1
 70
    32
 40
-3.0
  0
TCOPTIONALDATA
  5
4C8
102
{ACAD_REACTORS
330
4C7
102
}
330
4C7
100
TcOptionalData
 70
     1
 70
    32
 40
-3.0
  0
TCOPTIONALDATA
  5
4CB
102
{ACAD_REACTORS
330
4CA
102
}
330
4CA
100
TcOptionalData
 70
     1
 70
    32
 40
-3.0
  0
TCOPTIONALDATA
  5
4CE
102
{ACAD_REACTORS
330
4CD
102
}
330
4CD
100
TcOptionalData
 70
     1
 70
    32
 40
-3.0
  0
TCOPTIONALDATA
  5
4D1
102
{ACAD_REACTORS
330
4D0
102
}
330
4D0
100
TcOptionalData
 70
     1
 70
    32
 40
-3.0
  0
TCOPTIONALDATA
  5
51C
102
{ACAD_REACTORS
330
51B
102
}
330
51B
100
TcOptionalData
 70
     1
 70
    32
 40
-3.0
  0
TCOPTIONALDATA
  5
51F
102
{ACAD_REACTORS
330
51E
102
}
330
51E
100
TcOptionalData
 70
     1
 70
    32
 40
-3.0
  0
TCOPTIONALDATA
  5
530
102
{ACAD_REACTORS
330
52F
102
}
330
52F
100
TcOptionalData
 70
     1
 70
     2
 10
269.0833333333333
 20
25.072398
 30
0.0
  0
LAYOUT
  5
1E
102
{ACAD_REACTORS
330
1A
102
}
330
1A
100
AcDbPlotSettings
  1

  2
TCAD_Plot
  4
8.50 x 11.00 MM
  6

 40
0.0
 41
0.0
 42
0.0
 43
0.0
 44
8.5
 45
11.0
 46
0.0
 47
0.0
 48
0.0
 49
0.0
140
0.0
141
0.0
142
1.0
143
1.0
 70
   672
 72
     1
 73
     0
 74
     5
  7

 75
    16
 76
     0
 77
     2
 78
   300
147
1.0
148
0.0
149
0.0
100
AcDbLayout
  1
Layout1
 70
     1
 71
     1
 10
0.0
 20
0.0
 11
8.5
 21
11.0
 12
0.0
 22
0.0
 32
0.0
 14
0.0
 24
0.0
 34
0.0
 15
8.5
 25
11.0
 35
0.0
146
0.0
 13
0.0
 23
0.0
 33
0.0
 16
1.0
 26
0.0
 36
0.0
 17
0.0
 27
1.0
 37
0.0
 76
     0
330
1B
331
533
  0
LAYOUT
  5
22
102
{ACAD_REACTORS
330
1A
102
}
330
1A
100
AcDbPlotSettings
  1

  2
TCAD_Plot
  4
628.82 x 528.00 MM
  6

 40
0.0
 41
0.0
 42
0.0
 43
0.0
 44
628.8229169649321
 45
528.0
 46
0.0
 47
0.0
 48
-314.4114584824661
 49
-264.0
140
314.4114584824661
141
264.0
142
1.0
143
1.0
 70
  1696
 72
     1
 73
     0
 74
     4
  7

 75
     0
 76
     0
 77
     2
 78
   300
147
0.6104573704670317
148
0.0
149
0.0
100
AcDbLayout
  1
Model
 70
     1
 71
     0
 10
-264.0
 20
-84.0
 11
364.8229169649321
 21
444.0
 12
0.0
 22
0.0
 32
0.0
 14
-264.2670989334583
 24
-84.26709893345833
 34
0.0
 15
365.0900158983905
 25
444.0
 35
0.0
146
0.0
 13
0.0
 23
0.0
 33
0.0
 16
1.0
 26
0.0
 36
0.0
 17
0.0
 27
1.0
 37
0.0
 76
     0
330
1F
331
29
  0
MLINESTYLE
  5
18
102
{ACAD_REACTORS
330
17
102
}
330
17
100
AcDbMlineStyle
  2
Standard
 70
     0
  3

 62
   256
 51
90.0
 52
90.0
 71
     4
 49
0.5
 62
   256
  6
BYLAYER
 49
-0.5
 62
   256
  6
BYLAYER
 49
0.5
 62
   256
  6
BYLAYER
 49
-0.5
 62
   256
  6
BYLAYER
  0
ACDBPLACEHOLDER
  5
F
102
{ACAD_REACTORS
330
E
102
}
330
E
  0
SCALE
  5
F0
102
{ACAD_REACTORS
330
EF
102
}
330
EF
100
AcDbScale
 70
     0
300
1:1
140
1.0
141
1.0
290
     1
  0
SCALE
  5
F1
102
{ACAD_REACTORS
330
EF
102
}
330
EF
100
AcDbScale
 70
     0
300
1:2
140
1.0
141
2.0
290
     0
  0
SCALE
  5
F2
102
{ACAD_REACTORS
330
EF
102
}
330
EF
100
AcDbScale
 70
     0
300
1:4
140
1.0
141
4.0
290
     0
  0
SCALE
  5
F3
102
{ACAD_REACTORS
330
EF
102
}
330
EF
100
AcDbScale
 70
     0
300
1:5
140
1.0
141
5.0
290
     0
  0
SCALE
  5
F4
102
{ACAD_REACTORS
330
EF
102
}
330
EF
100
AcDbScale
 70
     0
300
1:8
140
1.0
141
8.0
290
     0
  0
SCALE
  5
F5
102
{ACAD_REACTORS
330
EF
102
}
330
EF
100
AcDbScale
 70
     0
300
1:10
140
1.0
141
10.0
290
     0
  0
SCALE
  5
F6
102
{ACAD_REACTORS
330
EF
102
}
330
EF
100
AcDbScale
 70
     0
300
1:16
140
1.0
141
16.0
290
     0
  0
SCALE
  5
F7
102
{ACAD_REACTORS
330
EF
102
}
330
EF
100
AcDbScale
 70
     0
300
1:20
140
1.0
141
20.0
290
     0
  0
SCALE
  5
F8
102
{ACAD_REACTORS
330
EF
102
}
330
EF
100
AcDbScale
 70
     0
300
1:30
140
1.0
141
30.0
290
     0
  0
SCALE
  5
F9
102
{ACAD_REACTORS
330
EF
102
}
330
EF
100
AcDbScale
 70
     0
300
1:40
140
1.0
141
40.0
290
     0
  0
SCALE
  5
FA
102
{ACAD_REACTORS
330
EF
102
}
330
EF
100
AcDbScale
 70
     0
300
1:50
140
1.0
141
50.0
290
     0
  0
SCALE
  5
FB
102
{ACAD_REACTORS
330
EF
102
}
330
EF
100
AcDbScale
 70
     0
300
1:100
140
1.0
141
100.0
290
     0
  0
SCALE
  5
FC
102
{ACAD_REACTORS
330
EF
102
}
330
EF
100
AcDbScale
 70
     0
300
2:1
140
2.0
141
1.0
290
     0
  0
SCALE
  5
FD
102
{ACAD_REACTORS
330
EF
102
}
330
EF
100
AcDbScale
 70
     0
300
4:1
140
4.0
141
1.0
290
     0
  0
SCALE
  5
FE
102
{ACAD_REACTORS
330
EF
102
}
330
EF
100
AcDbScale
 70
     0
300
8:1
140
8.0
141
1.0
290
     0
  0
SCALE
  5
FF
102
{ACAD_REACTORS
330
EF
102
}
330
EF
100
AcDbScale
 70
     0
300
10:1
140
10.0
141
1.0
290
     0
  0
SCALE
  5
100
102
{ACAD_REACTORS
330
EF
102
}
330
EF
100
AcDbScale
 70
     0
300
100:1
140
100.0
141
1.0
290
     0
  0
SCALE
  5
101
102
{ACAD_REACTORS
330
EF
102
}
330
EF
100
AcDbScale
 70
     0
300
1/128" = 1'-0"
140
0.0078125
141
12.0
290
     0
  0
SCALE
  5
102
102
{ACAD_REACTORS
330
EF
102
}
330
EF
100
AcDbScale
 70
     0
300
1/64" = 1'-0"
140
0.015625
141
12.0
290
     0
  0
SCALE
  5
103
102
{ACAD_REACTORS
330
EF
102
}
330
EF
100
AcDbScale
 70
     0
300
1/32" = 1'-0"
140
0.03125
141
12.0
290
     0
  0
SCALE
  5
104
102
{ACAD_REACTORS
330
EF
102
}
330
EF
100
AcDbScale
 70
     0
300
1/16" = 1'-0"
140
0.0625
141
12.0
290
     0
  0
SCALE
  5
105
102
{ACAD_REACTORS
330
EF
102
}
330
EF
100
AcDbScale
 70
     0
300
3/32" = 1'-0"
140
0.09375
141
12.0
290
     0
  0
SCALE
  5
106
102
{ACAD_REACTORS
330
EF
102
}
330
EF
100
AcDbScale
 70
     0
300
1/8" = 1'-0"
140
0.125
141
12.0
290
     0
  0
SCALE
  5
107
102
{ACAD_REACTORS
330
EF
102
}
330
EF
100
AcDbScale
 70
     0
300
3/16" = 1'-0"
140
0.1875
141
12.0
290
     0
  0
SCALE
  5
108
102
{ACAD_REACTORS
330
EF
102
}
330
EF
100
AcDbScale
 70
     0
300
1/4" = 1'-0"
140
0.25
141
12.0
290
     0
  0
SCALE
  5
109
102
{ACAD_REACTORS
330
EF
102
}
330
EF
100
AcDbScale
 70
     0
300
3/8" = 1'-0"
140
0.375
141
12.0
290
     0
  0
SCALE
  5
10A
102
{ACAD_REACTORS
330
EF
102
}
330
EF
100
AcDbScale
 70
     0
300
1/2" = 1'-0"
140
0.5
141
12.0
290
     0
  0
SCALE
  5
10B
102
{ACAD_REACTORS
330
EF
102
}
330
EF
100
AcDbScale
 70
     0
300
3/4" = 1'-0"
140
0.75
141
12.0
290
     0
  0
SCALE
  5
10C
102
{ACAD_REACTORS
330
EF
102
}
330
EF
100
AcDbScale
 70
     0
300
1" = 1'-0"
140
1.0
141
12.0
290
     0
  0
SCALE
  5
10D
102
{ACAD_REACTORS
330
EF
102
}
330
EF
100
AcDbScale
 70
     0
300
1-1/2" = 1'-0"
140
1.5
141
12.0
290
     0
  0
SCALE
  5
10E
102
{ACAD_REACTORS
330
EF
102
}
330
EF
100
AcDbScale
 70
     0
300
3" = 1'-0"
140
3.0
141
12.0
290
     0
  0
SCALE
  5
10F
102
{ACAD_REACTORS
330
EF
102
}
330
EF
100
AcDbScale
 70
     0
300
6" = 1'-0"
140
6.0
141
12.0
290
     0
  0
SCALE
  5
110
102
{ACAD_REACTORS
330
EF
102
}
330
EF
100
AcDbScale
 70
     0
300
1'-0" = 1'-0"
140
12.0
141
12.0
290
     0
  0
TABLESTYLE
  5
68
102
{ACAD_REACTORS
330
67
102
}
102
{ACAD_XDICTIONARY
360
536
102
}
330
67
100
AcDbTableStyle
  3

 70
     0
 71
     0
 40
0.9848484848484849
 41
0.9848484848484849
280
     0
281
     0
  7
Standard
140
3.0
170
     5
 62
     0
 63
   257
283
     0
 90
        4
 91
        0
  1

274
    -2
284
     1
 64
     0
275
    -2
285
     1
 65
     0
276
    -2
286
     1
 66
     0
277
    -2
287
     1
 67
     0
278
    -2
288
     1
 68
     0
279
    -2
289
     1
 69
     0
  7
Standard
140
3.0
170
     5
 62
     0
 63
   257
283
     0
 90
        4
 91
        0
  1

274
    -2
284
     1
 64
     0
275
    -2
285
     1
 65
     0
276
    -2
286
     1
 66
     0
277
    -2
287
     1
 67
     0
278
    -2
288
     1
 68
     0
279
    -2
289
     1
 69
     0
  7
Standard
140
3.0
170
     5
 62
     0
 63
   257
283
     0
 90
        4
 91
        0
  1

274
    -2
284
     1
 64
     0
275
    -2
285
     1
 65
     0
276
    -2
286
     1
 66
     0
277
    -2
287
     1
 67
     0
278
    -2
288
     1
 68
     0
279
    -2
289
     1
 69
     0
  0
VISUALSTYLE
  5
2F
102
{ACAD_REACTORS
330
2A
102
}
330
2A
100
AcDbVisualStyle
  2
2dWireframe
 70
     4
 71
     0
 72
     2
 73
     0
 90
        0
 40
-0.6
 41
-30.0
 62
     5
 63
     7
421
 16777215
 74
     1
 91
        4
 64
     7
 65
   257
 75
     1
175
     1
 42
1.0
 92
        0
 66
   257
 43
1.0
 76
     1
 77
     6
 78
     2
 67
     7
 79
     5
170
     0
171
     0
290
     0
174
     0
 93
        1
 44
0.0
173
     0
291
     0
 45
0.0
  0
VISUALSTYLE
  5
31
102
{ACAD_REACTORS
330
2A
102
}
330
2A
100
AcDbVisualStyle
  2
3D Hidden
 70
     6
 71
     1
 72
     2
 73
     2
 90
        0
 40
-0.6
 41
-30.0
 62
     5
 63
     7
421
 16777215
 74
     2
 91
        2
 64
     7
 65
   257
 75
     2
175
     1
 42
40.0
 92
        0
 66
   257
 43
1.0
 76
     1
 77
     6
 78
     2
 67
     7
 79
     3
170
     0
171
     0
290
     0
174
     0
 93
        1
 44
0.0
173
     0
291
     0
 45
0.0
  0
VISUALSTYLE
  5
30
102
{ACAD_REACTORS
330
2A
102
}
330
2A
100
AcDbVisualStyle
  2
3dWireframe
 70
     5
 71
     0
 72
     2
 73
     0
 90
        0
 40
-0.6
 41
-30.0
 62
     5
 63
     7
421
 16777215
 74
     1
 91
        4
 64
     7
 65
   257
 75
     1
175
     1
 42
1.0
 92
        0
 66
   257
 43
1.0
 76
     1
 77
     6
 78
     2
 67
     7
 79
     5
170
     0
171
     0
290
     0
174
     0
 93
        1
 44
0.0
173
     0
291
     0
 45
0.0
  0
VISUALSTYLE
  5
32
102
{ACAD_REACTORS
330
2A
102
}
330
2A
100
AcDbVisualStyle
  2
Basic
 70
     7
 71
     1
 72
     0
 73
     1
 90
        0
 40
-0.6
 41
-30.0
 62
     5
 63
     7
421
 16777215
 74
     0
 91
        4
 64
     7
 65
   257
 75
     1
175
     1
 42
1.0
 92
        8
 66
     7
 43
1.0
 76
     1
 77
     6
 78
     2
 67
     7
 79
     5
170
     0
171
     0
290
     0
174
     0
 93
        1
 44
0.0
173
     0
291
     1
 45
0.0
  0
VISUALSTYLE
  5
36
102
{ACAD_REACTORS
330
2A
102
}
330
2A
100
AcDbVisualStyle
  2
Brighten
 70
    12
 71
     2
 72
     2
 73
     0
 90
        0
 40
-0.6
 41
-30.0
 62
     5
 63
     7
421
 16777215
 74
     1
 91
        4
 64
     7
 65
   257
 75
     1
175
     1
 42
1.0
 92
        8
 66
     7
 43
1.0
 76
     1
 77
     6
 78
     2
 67
     7
 79
     5
170
     0
171
     0
290
     0
174
     0
 93
        1
 44
50.0
173
     0
291
     1
 45
0.0
  0
VISUALSTYLE
  5
3A
102
{ACAD_REACTORS
330
2A
102
}
330
2A
100
AcDbVisualStyle
  2
ColorChange
 70
    16
 71
     2
 72
     2
 73
     3
 90
        0
 40
-0.6
 41
-30.0
 62
     5
 63
     8
421
  8421504
 74
     1
 91
        4
 64
     7
 65
   257
 75
     1
175
     1
 42
1.0
 92
        8
 66
     8
424
  8421504
 43
1.0
 76
     1
 77
     6
 78
     2
 67
     7
 79
     5
170
     0
171
     0
290
     0
174
     0
 93
        1
 44
0.0
173
     0
291
     1
 45
0.0
  0
VISUALSTYLE
  5
34
102
{ACAD_REACTORS
330
2A
102
}
330
2A
100
AcDbVisualStyle
  2
Conceptual
 70
     9
 71
     3
 72
     2
 73
     0
 90
        0
 40
-0.6
 41
-30.0
 62
     5
 63
     7
421
 16777215
 74
     2
 91
        2
 64
     7
 65
   257
 75
     1
175
     1
 42
40.0
 92
        8
 66
     7
 43
1.0
 76
     1
 77
     6
 78
     2
 67
     7
 79
     3
170
     0
171
     0
290
     0
174
     0
 93
        1
 44
0.0
173
     0
291
     0
 45
0.0
  0
VISUALSTYLE
  5
35
102
{ACAD_REACTORS
330
2A
102
}
330
2A
100
AcDbVisualStyle
  2
Dim
 70
    11
 71
     2
 72
     2
 73
     0
 90
        0
 40
-0.6
 41
-30.0
 62
     5
 63
     7
421
 16777215
 74
     1
 91
        4
 64
     7
 65
   257
 75
     1
175
     1
 42
1.0
 92
        8
 66
     7
 43
1.0
 76
     1
 77
     6
 78
     2
 67
     7
 79
     5
170
     0
171
     0
290
     0
174
     0
 93
        1
 44
-50.0
173
     0
291
     1
 45
0.0
  0
VISUALSTYLE
  5
39
102
{ACAD_REACTORS
330
2A
102
}
330
2A
100
AcDbVisualStyle
  2
Facepattern
 70
    15
 71
     2
 72
     2
 73
     0
 90
        0
 40
-0.6
 41
-30.0
 62
     5
 63
     7
421
 16777215
 74
     1
 91
        4
 64
     7
 65
   257
 75
     1
175
     1
 42
1.0
 92
        8
 66
     7
 43
1.0
 76
     1
 77
     6
 78
     2
 67
     7
 79
     5
170
     0
171
     0
290
     0
174
     0
 93
        1
 44
0.0
173
     0
291
     1
 45
0.0
  0
VISUALSTYLE
  5
2B
102
{ACAD_REACTORS
330
2A
102
}
330
2A
100
AcDbVisualStyle
  2
Flat
 70
     0
 71
     2
 72
     1
 73
     1
 90
        2
 40
-0.6
 41
30.0
 62
     5
 63
     7
421
 16777215
 74
     0
 91
        4
 64
     7
 65
   257
 75
     1
175
     1
 42
1.0
 92
        8
 66
     7
 43
1.0
 76
     1
 77
     6
 78
     2
 67
     7
 79
     5
170
     0
171
     0
290
     0
174
     0
 93
       13
 44
0.0
173
     0
291
     1
 45
0.0
  0
VISUALSTYLE
  5
2C
102
{ACAD_REACTORS
330
2A
102
}
330
2A
100
AcDbVisualStyle
  2
FlatWithEdges
 70
     1
 71
     2
 72
     1
 73
     1
 90
        2
 40
-0.6
 41
30.0
 62
     5
 63
     7
421
 16777215
 74
     1
 91
        4
 64
     7
 65
   257
 75
     1
175
     1
 42
1.0
 92
        0
 66
   257
 43
1.0
 76
     1
 77
     6
 78
     2
 67
     7
 79
     5
170
     0
171
     0
290
     0
174
     0
 93
       13
 44
0.0
173
     0
291
     1
 45
0.0
  0
VISUALSTYLE
  5
2D
102
{ACAD_REACTORS
330
2A
102
}
330
2A
100
AcDbVisualStyle
  2
Gouraud
 70
     2
 71
     2
 72
     2
 73
     1
 90
        2
 40
-0.6
 41
30.0
 62
     5
 63
     7
421
 16777215
 74
     0
 91
        4
 64
     7
 65
   257
 75
     1
175
     1
 42
1.0
 92
        0
 66
     7
 43
1.0
 76
     1
 77
     6
 78
     2
 67
     7
 79
     5
170
     0
171
     0
290
     0
174
     0
 93
       13
 44
0.0
173
     0
291
     1
 45
0.0
  0
VISUALSTYLE
  5
2E
102
{ACAD_REACTORS
330
2A
102
}
330
2A
100
AcDbVisualStyle
  2
GouraudWithEdges
 70
     3
 71
     2
 72
     2
 73
     1
 90
        2
 40
-0.6
 41
30.0
 62
     5
 63
     7
421
 16777215
 74
     1
 91
        4
 64
     7
 65
   257
 75
     1
175
     1
 42
1.0
 92
        0
 66
   257
 43
1.0
 76
     1
 77
     6
 78
     2
 67
     7
 79
     5
170
     0
171
     0
290
     0
174
     0
 93
       13
 44
0.0
173
     0
291
     1
 45
0.0
  0
VISUALSTYLE
  5
38
102
{ACAD_REACTORS
330
2A
102
}
330
2A
100
AcDbVisualStyle
  2
Linepattern
 70
    14
 71
     2
 72
     2
 73
     0
 90
        0
 40
-0.6
 41
-30.0
 62
     5
 63
     7
421
 16777215
 74
     1
 91
        4
 64
     7
 65
   257
 75
     7
175
     7
 42
1.0
 92
        8
 66
     7
 43
1.0
 76
     1
 77
     6
 78
     2
 67
     7
 79
     5
170
     0
171
     0
290
     0
174
     0
 93
        1
 44
0.0
173
     0
291
     1
 45
0.0
  0
VISUALSTYLE
  5
33
102
{ACAD_REACTORS
330
2A
102
}
330
2A
100
AcDbVisualStyle
  2
Realistic
 70
     8
 71
     2
 72
     2
 73
     0
 90
        0
 40
-0.6
 41
-30.0
 62
     5
 63
     7
421
 16777215
 74
     1
 91
        0
 64
     7
 65
   257
 75
     1
175
     1
 42
1.0
 92
        8
 66
     8
424
  7895160
 43
1.0
 76
     1
 77
     6
 78
     2
 67
     7
 79
     5
170
     0
171
     0
290
     0
174
     0
 93
       13
 44
0.0
173
     0
291
     0
 45
0.0
  0
VISUALSTYLE
  5
37
102
{ACAD_REACTORS
330
2A
102
}
330
2A
100
AcDbVisualStyle
  2
Thicken
 70
    13
 71
     2
 72
     2
 73
     0
 90
        0
 40
-0.6
 41
-30.0
 62
     5
 63
     7
421
 16777215
 74
     1
 91
        4
 64
     7
 65
   257
 75
     1
175
     1
 42
1.0
 92
       12
 66
     7
 43
1.0
 76
     1
 77
     6
 78
     2
 67
     7
 79
     5
170
     0
171
     0
290
     0
174
     0
 93
        1
 44
0.0
173
     0
291
     1
 45
0.0
  0
DICTIONARYVAR
  5
535
102
{ACAD_REACTORS
330
534
102
}
330
534
100
DictionaryVariables
280
     0
  1
1:1
  0
DICTIONARY
  5
536
330
68
100
AcDbDictionary
280
     1
281
     1
  3
ACAD_ROUNDTRIP_2008_TABLESTYLE_CELLSTYLEMAP
360
537
  0
CELLSTYLEMAP
  5
537
102
{ACAD_REACTORS
330
536
102
}
330
536
100
AcDbCellStyleMap
 90
        3
300
CELLSTYLE
  1
TABLEFORMAT_BEGIN
 90
        5
170
     1
 91
        0
 92
        0
 62
   257
 93
        1
300
CONTENTFORMAT
  1
CONTENTFORMAT_BEGIN
 90
        0
 91
        0
 92
        4
 93
        0
300

 40
0.0
140
1.0
 94
        5
 62
     0
340
11
144
3.0
309
CONTENTFORMAT_END
171
     0
 94
        6
 95
        1
302
GRIDFORMAT
  1
GRIDFORMAT_BEGIN
 90
        0
 91
        1
 62
     0
 92
       -2
340
0
 93
        0
 40
0.045
309
GRIDFORMAT_END
 95
        2
302
GRIDFORMAT
  1
GRIDFORMAT_BEGIN
 90
        0
 91
        1
 62
     0
 92
       -2
340
0
 93
        0
 40
0.045
309
GRIDFORMAT_END
 95
        4
302
GRIDFORMAT
  1
GRIDFORMAT_BEGIN
 90
        0
 91
        1
 62
     0
 92
       -2
340
0
 93
        0
 40
0.045
309
GRIDFORMAT_END
 95
        8
302
GRIDFORMAT
  1
GRIDFORMAT_BEGIN
 90
        0
 91
        1
 62
     0
 92
       -2
340
0
 93
        0
 40
0.045
309
GRIDFORMAT_END
 95
       16
302
GRIDFORMAT
  1
GRIDFORMAT_BEGIN
 90
        0
 91
        1
 62
     0
 92
       -2
340
0
 93
        0
 40
0.045
309
GRIDFORMAT_END
 95
       32
302
GRIDFORMAT
  1
GRIDFORMAT_BEGIN
 90
        0
 91
        1
 62
     0
 92
       -2
340
0
 93
        0
 40
0.045
309
GRIDFORMAT_END
309
TABLEFORMAT_END
  1
CELLSTYLE_BEGIN
 90
        1
 91
        1
300
_TITLE
309
CELLSTYLE_END
300
CELLSTYLE
  1
TABLEFORMAT_BEGIN
 90
        5
170
     1
 91
        0
 92
        0
 62
   257
 93
        1
300
CONTENTFORMAT
  1
CONTENTFORMAT_BEGIN
 90
        0
 91
        0
 92
        4
 93
        0
300

 40
0.0
140
1.0
 94
        5
 62
     0
340
11
144
3.0
309
CONTENTFORMAT_END
171
     0
 94
        6
 95
        1
302
GRIDFORMAT
  1
GRIDFORMAT_BEGIN
 90
        0
 91
        1
 62
     0
 92
       -2
340
0
 93
        0
 40
0.045
309
GRIDFORMAT_END
 95
        2
302
GRIDFORMAT
  1
GRIDFORMAT_BEGIN
 90
        0
 91
        1
 62
     0
 92
       -2
340
0
 93
        0
 40
0.045
309
GRIDFORMAT_END
 95
        4
302
GRIDFORMAT
  1
GRIDFORMAT_BEGIN
 90
        0
 91
        1
 62
     0
 92
       -2
340
0
 93
        0
 40
0.045
309
GRIDFORMAT_END
 95
        8
302
GRIDFORMAT
  1
GRIDFORMAT_BEGIN
 90
        0
 91
        1
 62
     0
 92
       -2
340
0
 93
        0
 40
0.045
309
GRIDFORMAT_END
 95
       16
302
GRIDFORMAT
  1
GRIDFORMAT_BEGIN
 90
        0
 91
        1
 62
     0
 92
       -2
340
0
 93
        0
 40
0.045
309
GRIDFORMAT_END
 95
       32
302
GRIDFORMAT
  1
GRIDFORMAT_BEGIN
 90
        0
 91
        1
 62
     0
 92
       -2
340
0
 93
        0
 40
0.045
309
GRIDFORMAT_END
309
TABLEFORMAT_END
  1
CELLSTYLE_BEGIN
 90
        2
 91
        1
300
_HEADER
309
CELLSTYLE_END
300
CELLSTYLE
  1
TABLEFORMAT_BEGIN
 90
        5
170
     1
 91
        0
 92
        0
 62
   257
 93
        1
300
CONTENTFORMAT
  1
CONTENTFORMAT_BEGIN
 90
        0
 91
        0
 92
        4
 93
        0
300

 40
0.0
140
1.0
 94
        5
 62
     0
340
11
144
3.0
309
CONTENTFORMAT_END
171
     0
 94
        6
 95
        1
302
GRIDFORMAT
  1
GRIDFORMAT_BEGIN
 90
        0
 91
        1
 62
     0
 92
       -2
340
0
 93
        0
 40
0.045
309
GRIDFORMAT_END
 95
        2
302
GRIDFORMAT
  1
GRIDFORMAT_BEGIN
 90
        0
 91
        1
 62
     0
 92
       -2
340
0
 93
        0
 40
0.045
309
GRIDFORMAT_END
 95
        4
302
GRIDFORMAT
  1
GRIDFORMAT_BEGIN
 90
        0
 91
        1
 62
     0
 92
       -2
340
0
 93
        0
 40
0.045
309
GRIDFORMAT_END
 95
        8
302
GRIDFORMAT
  1
GRIDFORMAT_BEGIN
 90
        0
 91
        1
 62
     0
 92
       -2
340
0
 93
        0
 40
0.045
309
GRIDFORMAT_END
 95
       16
302
GRIDFORMAT
  1
GRIDFORMAT_BEGIN
 90
        0
 91
        1
 62
     0
 92
       -2
340
0
 93
        0
 40
0.045
309
GRIDFORMAT_END
 95
       32
302
GRIDFORMAT
  1
GRIDFORMAT_BEGIN
 90
        0
 91
        1
 62
     0
 92
       -2
340
0
 93
        0
 40
0.045
309
GRIDFORMAT_END
309
TABLEFORMAT_END
  1
CELLSTYLE_BEGIN
 90
        3
 91
        2
300
_DATA
309
CELLSTYLE_END
  0
ENDSEC
  0
EOF
