  0
SECTION
  2
HEADER
  9
$ACADVER
  1
AC1018
  9
$ACADMAINTVER
 70
     0
  9
$DWGCODEPAGE
  3
ANSI_1252
  9
$INSBASE
 10
0.0
 20
0.0
 30
0.0
  9
$EXTMIN
 10
6.625320434570308
 20
5.962783813476558
 30
0.0
  9
$EXTMAX
 10
273.32532043457
 20
209.162783813477
 30
0.0
  9
$LIMMIN
 10
0.0
 20
0.0
  9
$LIMMAX
 10
420.0
 20
297.0
  9
$ORTHOMODE
 70
     0
  9
$REGENMODE
 70
     1
  9
$FILLMODE
 70
     1
  9
$QTEXTMODE
 70
     0
  9
$MIRRTEXT
 70
     1
  9
$LTSCALE
 40
1.0
  9
$ATTMODE
 70
     1
  9
$TEXTSIZE
 40
2.5
  9
$TRACEWID
 40
1.0
  9
$TEXTSTYLE
  7
Standard
  9
$CLAYER
  8
VisibleEdgeEntityLayer
  9
$CELTYPE
  6
ByLayer
  9
$CECOLOR
 62
   256
  9
$CELTSCALE
 40
1.0
  9
$DISPSILH
 70
     0
  9
$DIMSCALE
 40
1.0
  9
$DIMASZ
 40
2.286
  9
$DIMEXO
 40
0.625
  9
$DIMDLI
 40
3.75
  9
$DIMRND
 40
0.0
  9
$DIMDLE
 40
0.0
  9
$DIMEXE
 40
1.25
  9
$DIMTP
 40
0.0
  9
$DIMTM
 40
0.0
  9
$DIMTXT
 40
2.275416666666667
  9
$DIMCEN
 40
2.5
  9
$DIMTSZ
 40
0.0
  9
$DIMTOL
 70
     0
  9
$DIMLIM
 70
     0
  9
$DIMTIH
 70
     1
  9
$DIMTOH
 70
     1
  9
$DIMSE1
 70
     0
  9
$DIMSE2
 70
     0
  9
$DIMTAD
 70
     1
  9
$DIMZIN
 70
     8
  9
$DIMBLK
  1

  9
$DIMASO
 70
     1
  9
$DIMSHO
 70
     1
  9
$DIMPOST
  1

  9
$DIMAPOST
  1

  9
$DIMALT
 70
     1
  9
$DIMALTD
 70
     3
  9
$DIMALTF
 40
0.03937007874016
  9
$DIMLFAC
 40
1.0
  9
$DIMTOFL
 70
     1
  9
$DIMTVP
 40
0.0
  9
$DIMTIX
 70
     0
  9
$DIMSOXD
 70
     0
  9
$DIMSAH
 70
     0
  9
$DIMBLK1
  1

  9
$DIMBLK2
  1

  9
$DIMSTYLE
  2
ISO-25
  9
$DIMCLRD
 70
     0
  9
$DIMCLRE
 70
     0
  9
$DIMCLRT
 70
     0
  9
$DIMTFAC
 40
1.0
  9
$DIMGAP
 40
0.625
  9
$DIMJUST
 70
     0
  9
$DIMSD1
 70
     0
  9
$DIMSD2
 70
     0
  9
$DIMTOLJ
 70
     0
  9
$DIMTZIN
 70
     8
  9
$DIMALTZ
 70
     4
  9
$DIMALTTZ
 70
     0
  9
$DIMUPT
 70
     0
  9
$DIMDEC
 70
     2
  9
$DIMTDEC
 70
     2
  9
$DIMALTU
 70
     2
  9
$DIMALTTD
 70
     3
  9
$DIMTXSTY
  7
Standard
  9
$DIMAUNIT
 70
     0
  9
$DIMADEC
 70
     0
  9
$DIMALTRND
 40
0.0
  9
$DIMAZIN
 70
     0
  9
$DIMDSEP
 70
    46
  9
$DIMATFIT
 70
     3
  9
$DIMFRAC
 70
     0
  9
$DIMLDRBLK
  1

  9
$DIMLUNIT
 70
     2
  9
$DIMLWD
 70
    -2
  9
$DIMLWE
 70
    -2
  9
$DIMTMOVE
 70
     0
  9
$LUNITS
 70
     2
  9
$LUPREC
 70
     4
  9
$SKETCHINC
 40
1.0
  9
$FILLETRAD
 40
20.0
  9
$AUNITS
 70
     0
  9
$AUPREC
 70
     0
  9
$MENU
  1
.
  9
$ELEVATION
 40
0.0
  9
$PELEVATION
 40
0.0
  9
$THICKNESS
 40
0.0
  9
$LIMCHECK
 70
     0
  9
$CHAMFERA
 40
10.0
  9
$CHAMFERB
 40
10.0
  9
$CHAMFERC
 40
20.0
  9
$CHAMFERD
 40
0.0
  9
$SKPOLY
 70
     0
  9
$TDCREATE
 40
2455448.551625915
  9
$TDUCREATE
 40
2455448.843292581
  9
$TDUPDATE
 40
2457122.686445313
  9
$TDUUPDATE
 40
2457122.978111979
  9
$TDINDWG
 40
2.7616026620
  9
$TDUSRTIMER
 40
2.7616014005
  9
$USRTIMER
 70
     1
  9
$ANGBASE
 50
0.0
  9
$ANGDIR
 70
     0
  9
$PDMODE
 70
     0
  9
$PDSIZE
 40
0.0
  9
$PLINEWID
 40
0.0
  9
$SPLFRAME
 70
     0
  9
$SPLINETYPE
 70
     6
  9
$SPLINESEGS
 70
     8
  9
$HANDSEED
  5
A03
  9
$SURFTAB1
 70
     6
  9
$SURFTAB2
 70
     6
  9
$SURFTYPE
 70
     6
  9
$SURFU
 70
     6
  9
$SURFV
 70
     6
  9
$UCSBASE
  2

  9
$UCSNAME
  2

  9
$UCSORG
 10
0.0
 20
0.0
 30
0.0
  9
$UCSXDIR
 10
1.0
 20
0.0
 30
0.0
  9
$UCSYDIR
 10
0.0
 20
1.0
 30
0.0
  9
$UCSORTHOREF
  2

  9
$UCSORTHOVIEW
 70
     0
  9
$UCSORGTOP
 10
0.0
 20
0.0
 30
0.0
  9
$UCSORGBOTTOM
 10
0.0
 20
0.0
 30
0.0
  9
$UCSORGLEFT
 10
0.0
 20
0.0
 30
0.0
  9
$UCSORGRIGHT
 10
0.0
 20
0.0
 30
0.0
  9
$UCSORGFRONT
 10
0.0
 20
0.0
 30
0.0
  9
$UCSORGBACK
 10
0.0
 20
0.0
 30
0.0
  9
$PUCSBASE
  2

  9
$PUCSNAME
  2

  9
$PUCSORG
 10
0.0
 20
0.0
 30
0.0
  9
$PUCSXDIR
 10
1.0
 20
0.0
 30
0.0
  9
$PUCSYDIR
 10
0.0
 20
1.0
 30
0.0
  9
$PUCSORTHOREF
  2

  9
$PUCSORTHOVIEW
 70
     0
  9
$PUCSORGTOP
 10
0.0
 20
0.0
 30
0.0
  9
$PUCSORGBOTTOM
 10
0.0
 20
0.0
 30
0.0
  9
$PUCSORGLEFT
 10
0.0
 20
0.0
 30
0.0
  9
$PUCSORGRIGHT
 10
0.0
 20
0.0
 30
0.0
  9
$PUCSORGFRONT
 10
0.0
 20
0.0
 30
0.0
  9
$PUCSORGBACK
 10
0.0
 20
0.0
 30
0.0
  9
$USERI1
 70
     0
  9
$USERI2
 70
     0
  9
$USERI3
 70
     0
  9
$USERI4
 70
     0
  9
$USERI5
 70
     0
  9
$USERR1
 40
0.0
  9
$USERR2
 40
0.0
  9
$USERR3
 40
0.0
  9
$USERR4
 40
0.0
  9
$USERR5
 40
0.0
  9
$WORLDVIEW
 70
     1
  9
$SHADEDGE
 70
     3
  9
$SHADEDIF
 70
    70
  9
$TILEMODE
 70
     0
  9
$MAXACTVP
 70
    64
  9
$PINSBASE
 10
0.0
 20
0.0
 30
0.0
  9
$PLIMCHECK
 70
     0
  9
$PEXTMIN
 10
-0.1387115880400529
 20
0.0916661044881409
 30
0.0
  9
$PEXTMAX
 10
266.5832788800701
 20
203.3156639946684
 30
0.0
  9
$PLIMMIN
 10
-6.350006103515625
 20
-6.349999904632567
  9
$PLIMMAX
 10
273.0499877929688
 20
209.5499939918518
  9
$UNITMODE
 70
     0
  9
$VISRETAIN
 70
     1
  9
$PLINEGEN
 70
     0
  9
$PSLTSCALE
 70
     1
  9
$TREEDEPTH
 70
  3020
  9
$CMLSTYLE
  2
Standard
  9
$CMLJUST
 70
     0
  9
$CMLSCALE
 40
20.0
  9
$PROXYGRAPHICS
 70
     1
  9
$MEASUREMENT
 70
     1
  9
$CELWEIGHT
370
    -1
  9
$ENDCAPS
280
     0
  9
$JOINSTYLE
280
     0
  9
$LWDISPLAY
290
     0
  9
$INSUNITS
 70
     4
  9
$HYPERLINKBASE
  1

  9
$STYLESHEET
  1

  9
$XEDIT
290
     1
  9
$CEPSNTYPE
380
     0
  9
$PSTYLEMODE
290
     1
  9
$FINGERPRINTGUID
  2
{09840D9C-88F5-44EB-AAC8-76CD4FDB556A}
  9
$VERSIONGUID
  2
{A257B17A-E5DC-4BCB-BB3F-6732BF1447E6}
  9
$EXTNAMES
290
     1
  9
$PSVPSCALE
 40
0.0
  9
$OLESTARTUP
290
     0
  9
$SORTENTS
280
   127
  9
$INDEXCTL
280
     0
  9
$HIDETEXT
280
     0
  9
$XCLIPFRAME
290
     0
  9
$HALOGAP
280
     0
  9
$OBSCOLOR
 70
   257
  9
$OBSLTYPE
280
     0
  9
$INTERSECTIONDISPLAY
280
     0
  9
$INTERSECTIONCOLOR
 70
   257
  9
$DIMASSOC
280
     1
  9
$PROJECTNAME
  1

  0
ENDSEC
  0
SECTION
  2
CLASSES
  0
CLASS
  1
ACDBDICTIONARYWDFLT
  2
AcDbDictionaryWithDefault
  3
ObjectDBX Classes
 90
        0
 91
        1
280
     0
281
     0
  0
ENDSEC
  0
SECTION
  2
TABLES
  0
TABLE
  2
VPORT
  5
8
330
0
100
AcDbSymbolTable
 70
     3
  0
VPORT
  5
A02
330
8
100
AcDbSymbolTableRecord
100
AcDbViewportTableRecord
  2
*Active
 70
     0
 10
0.0
 20
0.0
 11
1.0
 21
1.0
 12
188.0931113934374
 22
99.82238207485346
 13
0.0
 23
0.0
 14
10.0
 24
10.0
 15
10.0
 25
10.0
 16
0.0
 26
0.0
 36
1.0
 17
0.0
 27
0.0
 37
0.0
 40
220.0634255816476
 41
2.370253164556962
 42
50.0
 43
0.0
 44
0.0
 50
0.0
 51
0.0
 71
     0
 72
   100
 73
     1
 74
     3
 75
     0
 76
     0
 77
     0
 78
     0
281
     0
 65
     1
110
0.0
120
0.0
130
0.0
111
1.0
121
0.0
131
0.0
112
0.0
122
1.0
132
0.0
 79
     0
146
0.0
  0
ENDTAB
  0
TABLE
  2
LTYPE
  5
5
330
0
100
AcDbSymbolTable
 70
     2
  0
LTYPE
  5
14
330
5
100
AcDbSymbolTableRecord
100
AcDbLinetypeTableRecord
  2
ByBlock
 70
     0
  3

 72
    65
 73
     0
 40
0.0
  0
LTYPE
  5
15
330
5
100
AcDbSymbolTableRecord
100
AcDbLinetypeTableRecord
  2
ByLayer
 70
     0
  3

 72
    65
 73
     0
 40
0.0
  0
LTYPE
  5
16
330
5
100
AcDbSymbolTableRecord
100
AcDbLinetypeTableRecord
  2
Continuous
 70
     0
  3
Solid line
 72
    65
 73
     0
 40
0.0
  0
LTYPE
  5
43
330
5
100
AcDbSymbolTableRecord
100
AcDbLinetypeTableRecord
  2
HIDDEN2
 70
     0
  3
Hidden (.5x) _ _ _ _ _ _ _ _ _ _ _ _ _ _ _ _ _ 
 72
    65
 73
     2
 40
0.1875
 49
0.125
 74
     0
 49
-0.0625
 74
     0
  0
ENDTAB
  0
TABLE
  2
LAYER
  5
2
330
0
100
AcDbSymbolTable
 70
     5
  0
LAYER
  5
10
330
2
100
AcDbSymbolTableRecord
100
AcDbLayerTableRecord
  2
0
 70
     0
 62
     7
  6
Continuous
370
    -3
390
F
  0
LAYER
  5
2A
330
2
100
AcDbSymbolTableRecord
100
AcDbLayerTableRecord
  2
VisibleEdgeEntityLayer
 70
     0
 62
   178
  6
Continuous
370
     0
390
F
  0
LAYER
  5
44
330
2
100
AcDbSymbolTableRecord
100
AcDbLayerTableRecord
  2
HIDDEN
 70
     0
 62
     5
  6
HIDDEN2
370
     0
390
F
  0
LAYER
  5
53
330
2
100
AcDbSymbolTableRecord
100
AcDbLayerTableRecord
  2
CENTER
 70
     0
 62
   172
  6
Continuous
370
     0
390
F
  0
LAYER
  5
241
330
2
100
AcDbSymbolTableRecord
100
AcDbLayerTableRecord
  2
Defpoints
 70
     0
 62
     7
  6
Continuous
290
     0
370
    -3
390
F
  0
ENDTAB
  0
TABLE
  2
STYLE
  5
3
330
0
100
AcDbSymbolTable
 70
     1
  0
STYLE
  5
11
330
3
100
AcDbSymbolTableRecord
100
AcDbTextStyleTableRecord
  2
Standard
 70
     0
 40
2.5
 41
1.0
 50
0.0
 71
     0
 42
2.5
  3
ARIAL.TTF
  4

1001
ACAD
1000
Arial
1071
       34
  0
ENDTAB
  0
TABLE
  2
VIEW
  5
6
330
0
100
AcDbSymbolTable
 70
     0
  0
ENDTAB
  0
TABLE
  2
UCS
  5
7
330
0
100
AcDbSymbolTable
 70
     0
  0
ENDTAB
  0
TABLE
  2
APPID
  5
9
330
0
100
AcDbSymbolTable
 70
     1
  0
APPID
  5
12
330
9
100
AcDbSymbolTableRecord
100
AcDbRegAppTableRecord
  2
ACAD
 70
     0
  0
ENDTAB
  0
TABLE
  2
DIMSTYLE
  5
A
330
0
100
AcDbSymbolTable
 70
     1
100
AcDbDimStyleTable
 71
     1
340
27
  0
DIMSTYLE
105
27
102
{ACAD_REACTORS
330
7F
330
98
330
B2
330
4D7
330
57A
330
5DF
330
5EC
330
5F9
330
65E
330
773
330
7C8
330
7D6
330
812
330
823
330
8AA
330
8F9
330
907
102
}
330
A
100
AcDbSymbolTableRecord
100
AcDbDimStyleTableRecord
  2
ISO-25
 70
     0
 41
2.5
 42
0.625
 43
3.75
 44
1.25
 77
     1
 78
     8
140
2.5
141
2.5
143
0.03937007874016
147
0.625
170
     1
171
     3
172
     1
271
     2
272
     2
274
     3
283
     0
284
     8
285
     4
340
11
  0
ENDTAB
  0
TABLE
  2
BLOCK_RECORD
  5
1
330
0
100
AcDbSymbolTable
 70
    52
  0
BLOCK_RECORD
  5
1F
330
1
100
AcDbSymbolTableRecord
100
AcDbBlockTableRecord
  2
*Model_Space
340
22
  0
BLOCK_RECORD
  5
1B
330
1
100
AcDbSymbolTableRecord
100
AcDbBlockTableRecord
  2
*Paper_Space
340
1E
  0
BLOCK_RECORD
  5
23
330
1
100
AcDbSymbolTableRecord
100
AcDbBlockTableRecord
  2
*Paper_Space0
340
26
  0
BLOCK_RECORD
  5
5B
330
1
100
AcDbSymbolTableRecord
100
AcDbBlockTableRecord
  2
D1
340
0
  0
BLOCK_RECORD
  5
67
330
1
100
AcDbSymbolTableRecord
100
AcDbBlockTableRecord
  2
D2
340
0
  0
BLOCK_RECORD
  5
73
330
1
100
AcDbSymbolTableRecord
100
AcDbBlockTableRecord
  2
D3
340
0
  0
BLOCK_RECORD
  5
80
330
1
100
AcDbSymbolTableRecord
100
AcDbBlockTableRecord
  2
D4
340
0
  0
BLOCK_RECORD
  5
8C
330
1
100
AcDbSymbolTableRecord
100
AcDbBlockTableRecord
  2
D5
340
0
  0
BLOCK_RECORD
  5
99
330
1
100
AcDbSymbolTableRecord
100
AcDbBlockTableRecord
  2
D6
340
0
  0
BLOCK_RECORD
  5
A6
330
1
100
AcDbSymbolTableRecord
100
AcDbBlockTableRecord
  2
D7
340
0
  0
BLOCK_RECORD
  5
B3
330
1
100
AcDbSymbolTableRecord
100
AcDbBlockTableRecord
  2
D8
340
0
  0
BLOCK_RECORD
  5
103
330
1
100
AcDbSymbolTableRecord
100
AcDbBlockTableRecord
  2
D9
340
0
  0
BLOCK_RECORD
  5
111
330
1
100
AcDbSymbolTableRecord
100
AcDbBlockTableRecord
  2
D10
340
0
  0
BLOCK_RECORD
  5
11E
330
1
100
AcDbSymbolTableRecord
100
AcDbBlockTableRecord
  2
D11
340
0
  0
BLOCK_RECORD
  5
17D
330
1
100
AcDbSymbolTableRecord
100
AcDbBlockTableRecord
  2
BLOCK5
340
0
  0
BLOCK_RECORD
  5
25B
330
1
100
AcDbSymbolTableRecord
100
AcDbBlockTableRecord
  2
*D13
340
0
  0
BLOCK_RECORD
  5
26B
330
1
100
AcDbSymbolTableRecord
100
AcDbBlockTableRecord
  2
*D14
340
0
  0
BLOCK_RECORD
  5
374
330
1
100
AcDbSymbolTableRecord
100
AcDbBlockTableRecord
  2
*D15
340
0
  0
BLOCK_RECORD
  5
383
330
1
100
AcDbSymbolTableRecord
100
AcDbBlockTableRecord
  2
*D16
340
0
  0
BLOCK_RECORD
  5
394
330
1
100
AcDbSymbolTableRecord
100
AcDbBlockTableRecord
  2
*D17
340
0
  0
BLOCK_RECORD
  5
3A4
330
1
100
AcDbSymbolTableRecord
100
AcDbBlockTableRecord
  2
*D18
340
0
  0
BLOCK_RECORD
  5
45B
330
1
100
AcDbSymbolTableRecord
100
AcDbBlockTableRecord
  2
*D19
340
0
  0
BLOCK_RECORD
  5
471
330
1
100
AcDbSymbolTableRecord
100
AcDbBlockTableRecord
  2
*D20
340
0
  0
BLOCK_RECORD
  5
482
330
1
100
AcDbSymbolTableRecord
100
AcDbBlockTableRecord
  2
*D21
340
0
  0
BLOCK_RECORD
  5
4D8
330
1
100
AcDbSymbolTableRecord
100
AcDbBlockTableRecord
  2
*D22
340
0
  0
BLOCK_RECORD
  5
4F7
330
1
100
AcDbSymbolTableRecord
100
AcDbBlockTableRecord
  2
*D23
340
0
  0
BLOCK_RECORD
  5
57B
330
1
100
AcDbSymbolTableRecord
100
AcDbBlockTableRecord
  2
*D24
340
0
  0
BLOCK_RECORD
  5
5A1
330
1
100
AcDbSymbolTableRecord
100
AcDbBlockTableRecord
  2
*D25
340
0
  0
BLOCK_RECORD
  5
5CA
330
1
100
AcDbSymbolTableRecord
100
AcDbBlockTableRecord
  2
*D26
340
0
  0
BLOCK_RECORD
  5
5E0
330
1
100
AcDbSymbolTableRecord
100
AcDbBlockTableRecord
  2
*D27
340
0
  0
BLOCK_RECORD
  5
5ED
330
1
100
AcDbSymbolTableRecord
100
AcDbBlockTableRecord
  2
*D28
340
0
  0
BLOCK_RECORD
  5
5FA
330
1
100
AcDbSymbolTableRecord
100
AcDbBlockTableRecord
  2
*D29
340
0
  0
BLOCK_RECORD
  5
611
330
1
100
AcDbSymbolTableRecord
100
AcDbBlockTableRecord
  2
*D30
340
0
  0
BLOCK_RECORD
  5
626
330
1
100
AcDbSymbolTableRecord
100
AcDbBlockTableRecord
  2
*D31
340
0
  0
BLOCK_RECORD
  5
65F
330
1
100
AcDbSymbolTableRecord
100
AcDbBlockTableRecord
  2
*D32
340
0
  0
BLOCK_RECORD
  5
669
330
1
100
AcDbSymbolTableRecord
100
AcDbBlockTableRecord
  2
*D33
340
0
  0
BLOCK_RECORD
  5
6BF
330
1
100
AcDbSymbolTableRecord
100
AcDbBlockTableRecord
  2
*D34
340
0
  0
BLOCK_RECORD
  5
6CC
330
1
100
AcDbSymbolTableRecord
100
AcDbBlockTableRecord
  2
*D35
340
0
  0
BLOCK_RECORD
  5
6D8
330
1
100
AcDbSymbolTableRecord
100
AcDbBlockTableRecord
  2
*D36
340
0
  0
BLOCK_RECORD
  5
714
330
1
100
AcDbSymbolTableRecord
100
AcDbBlockTableRecord
  2
*D37
340
0
  0
BLOCK_RECORD
  5
73B
330
1
100
AcDbSymbolTableRecord
100
AcDbBlockTableRecord
  2
*D38
340
0
  0
BLOCK_RECORD
  5
757
330
1
100
AcDbSymbolTableRecord
100
AcDbBlockTableRecord
  2
*D39
340
0
  0
BLOCK_RECORD
  5
766
330
1
100
AcDbSymbolTableRecord
100
AcDbBlockTableRecord
  2
*D40
340
0
  0
BLOCK_RECORD
  5
774
330
1
100
AcDbSymbolTableRecord
100
AcDbBlockTableRecord
  2
*D41
340
0
  0
BLOCK_RECORD
  5
787
330
1
100
AcDbSymbolTableRecord
100
AcDbBlockTableRecord
  2
*D42
340
0
  0
BLOCK_RECORD
  5
7A5
330
1
100
AcDbSymbolTableRecord
100
AcDbBlockTableRecord
  2
*D43
340
0
  0
BLOCK_RECORD
  5
7C9
330
1
100
AcDbSymbolTableRecord
100
AcDbBlockTableRecord
  2
*D44
340
0
  0
BLOCK_RECORD
  5
7D7
330
1
100
AcDbSymbolTableRecord
100
AcDbBlockTableRecord
  2
*D45
340
0
  0
BLOCK_RECORD
  5
813
330
1
100
AcDbSymbolTableRecord
100
AcDbBlockTableRecord
  2
*D46
340
0
  0
BLOCK_RECORD
  5
824
330
1
100
AcDbSymbolTableRecord
100
AcDbBlockTableRecord
  2
*D47
340
0
  0
BLOCK_RECORD
  5
87B
330
1
100
AcDbSymbolTableRecord
100
AcDbBlockTableRecord
  2
*D48
340
0
  0
BLOCK_RECORD
  5
8AB
330
1
100
AcDbSymbolTableRecord
100
AcDbBlockTableRecord
  2
*D49
340
0
  0
BLOCK_RECORD
  5
8FA
330
1
100
AcDbSymbolTableRecord
100
AcDbBlockTableRecord
  2
*D50
340
0
  0
BLOCK_RECORD
  5
908
330
1
100
AcDbSymbolTableRecord
100
AcDbBlockTableRecord
  2
*D51
340
0
  0
ENDTAB
  0
ENDSEC
  0
SECTION
  2
BLOCKS
  0
BLOCK
  5
20
330
1F
100
AcDbEntity
  8
0
100
AcDbBlockBegin
  2
*Model_Space
 70
     0
 10
0.0
 20
0.0
 30
0.0
  3
*Model_Space
  1

  0
ENDBLK
  5
21
330
1F
100
AcDbEntity
  8
0
100
AcDbBlockEnd
  0
BLOCK
  5
1C
330
1B
100
AcDbEntity
 67
     1
  8
0
100
AcDbBlockBegin
  2
*Paper_Space
 70
     0
 10
0.0
 20
0.0
 30
0.0
  3
*Paper_Space
  1

  0
ENDBLK
  5
1D
330
1B
100
AcDbEntity
 67
     1
  8
0
100
AcDbBlockEnd
  0
BLOCK
  5
24
330
23
100
AcDbEntity
  8
0
100
AcDbBlockBegin
  2
*Paper_Space0
 70
     0
 10
0.0
 20
0.0
 30
0.0
  3
*Paper_Space0
  1

  0
ENDBLK
  5
25
330
23
100
AcDbEntity
  8
0
100
AcDbBlockEnd
  0
BLOCK
  5
5C
330
5B
100
AcDbEntity
  8
0
100
AcDbBlockBegin
  2
D1
 70
     0
 10
0.0
 20
0.0
 30
0.0
  3
D1
  1

  0
LINE
  5
4EE
330
5B
100
AcDbEntity
  8
0
 62
     0
370
    -2
100
AcDbLine
 10
138.8673563055416
 20
90.46306405984315
 30
0.0
 11
136.3795091889027
 21
90.21685942091114
 31
0.0
  0
LINE
  5
4EF
330
5B
100
AcDbEntity
  8
0
 62
     0
370
    -2
100
AcDbLine
 10
121.4524264890695
 20
88.739631587319
 30
0.0
 11
118.9645793724306
 21
88.493426948387
 31
0.0
  0
MTEXT
  5
4F0
330
5B
100
AcDbEntity
  8
0
 62
     0
100
AcDbMText
 10
150.2776564419672
 20
90.46306405984315
 30
0.0
 40
2.5
 41
0.0
 71
     5
 72
     1
  1
\U+220510.0 [\U+2205.394]
 73
     1
 44
1.0
  0
LINE
  5
4F1
330
5B
100
AcDbEntity
  8
0
 62
     0
370
    -2
100
AcDbLine
 10
123.9402736057083
 20
88.98583622625102
 30
0.0
 11
133.8916620722638
 21
89.9706547819791
 31
0.0
  0
SOLID
  5
4F2
330
5B
100
AcDbEntity
  8
0
 62
     0
100
AcDbTrace
 10
121.4113923825808
 20
89.1542727734255
 30
0.0
 11
121.4934605955582
 21
88.32499040121252
 31
0.0
 12
123.9402736057083
 22
88.98583622625102
 32
0.0
 13
123.9402736057083
 23
88.98583622625102
 33
0.0
  0
SOLID
  5
4F3
330
5B
100
AcDbEntity
  8
0
 62
     0
100
AcDbTrace
 10
136.338475082414
 20
90.63150060701763
 30
0.0
 11
136.4205432953914
 21
89.80221823480466
 31
0.0
 12
133.8916620722638
 22
89.9706547819791
 32
0.0
 13
133.8916620722638
 23
89.9706547819791
 33
0.0
  0
POINT
  5
4F4
330
5B
100
AcDbEntity
  8
Defpoints
 62
     0
100
AcDbPoint
 10
133.8916620722638
 20
89.9706547819791
 30
0.0
  0
POINT
  5
4F5
330
5B
100
AcDbEntity
  8
Defpoints
 62
     0
100
AcDbPoint
 10
123.9402736057083
 20
88.98583622625102
 30
0.0
  0
ENDBLK
  5
5D
330
5B
100
AcDbEntity
  8
0
100
AcDbBlockEnd
  0
BLOCK
  5
68
330
67
100
AcDbEntity
  8
0
100
AcDbBlockBegin
  2
D2
 70
     0
 10
0.0
 20
0.0
 30
0.0
  3
D2
  1

  0
LINE
  5
5D6
330
67
100
AcDbEntity
  8
0
 62
     0
370
    -2
100
AcDbLine
 10
150.9591842700013
 20
80.24053770480515
 30
0.0
 11
148.4591842700013
 21
80.24053770480515
 31
0.0
  0
LINE
  5
5D7
330
67
100
AcDbEntity
  8
0
 62
     0
370
    -2
100
AcDbLine
 10
148.4591842700013
 20
80.24053770480515
 30
0.0
 11
133.8884541339146
 21
87.12784552820712
 31
0.0
  0
LINE
  5
5D8
330
67
100
AcDbEntity
  8
0
 62
     0
370
    -2
100
AcDbLine
 10
123.9434815440576
 20
91.82864548002314
 30
0.0
 11
121.6832605009083
 21
92.89700910543587
 31
0.0
  0
MTEXT
  5
5D9
330
67
100
AcDbEntity
  8
0
 62
     0
100
AcDbMText
 10
161.3983043245715
 20
80.24053770480515
 30
0.0
 40
2.5
 41
0.0
 71
     5
 72
     1
  1
\U+22056.0 [\U+2205.236]
 73
     1
 44
1.0
  0
LINE
  5
5DA
330
67
100
AcDbEntity
  8
0
 62
     0
370
    -2
100
AcDbLine
 10
126.2037025872069
 20
90.76028185461041
 30
0.0
 11
131.6282330907653
 21
88.19620915361985
 31
0.0
  0
SOLID
  5
5DB
330
67
100
AcDbEntity
  8
0
 62
     0
100
AcDbTrace
 10
124.1215421482931
 20
92.20534898721467
 30
0.0
 11
123.7654209398222
 21
91.45194197283158
 31
0.0
 12
126.2037025872069
 22
90.76028185461041
 32
0.0
 13
126.2037025872069
 23
90.76028185461041
 33
0.0
  0
SOLID
  5
5DC
330
67
100
AcDbEntity
  8
0
 62
     0
100
AcDbTrace
 10
134.0665147381501
 20
87.50454903539866
 30
0.0
 11
133.7103935296792
 21
86.75114202101559
 31
0.0
 12
131.6282330907653
 22
88.19620915361985
 32
0.0
 13
131.6282330907653
 23
88.19620915361985
 33
0.0
  0
POINT
  5
5DD
330
67
100
AcDbEntity
  8
Defpoints
 62
     0
100
AcDbPoint
 10
131.6282330907653
 20
88.19620915361985
 30
0.0
  0
POINT
  5
5DE
330
67
100
AcDbEntity
  8
Defpoints
 62
     0
100
AcDbPoint
 10
126.2037025872069
 20
90.76028185461041
 30
0.0
  0
ENDBLK
  5
69
330
67
100
AcDbEntity
  8
0
100
AcDbBlockEnd
  0
BLOCK
  5
74
330
73
100
AcDbEntity
  8
0
100
AcDbBlockBegin
  2
D3
 70
     0
 10
0.0
 20
0.0
 30
0.0
  3
D3
  1

  0
LINE
  5
2F7
330
73
100
AcDbEntity
  8
0
 62
     0
370
    -2
100
AcDbLine
 10
107.1556375980377
 20
92.41310454151443
 30
0.0
 11
107.1556375980377
 21
103.4523620605469
 31
0.0
  0
LINE
  5
2F8
330
73
100
AcDbEntity
  8
0
 62
     0
370
    -2
100
AcDbLine
 10
123.6556375980377
 20
93.10324550411516
 30
0.0
 11
123.6556375980377
 21
103.4523620605469
 31
0.0
  0
LINE
  5
2F9
330
73
100
AcDbEntity
  8
0
 62
     0
370
    -2
100
AcDbLine
 10
109.6556375980377
 20
102.2023620605469
 30
0.0
 11
121.1556375980377
 21
102.2023620605469
 31
0.0
  0
LINE
  5
2FA
330
73
100
AcDbEntity
  8
0
 62
     0
370
    -2
100
AcDbLine
 10
123.6556375980377
 20
102.2023620605469
 30
0.0
 11
126.1556375980377
 21
102.2023620605469
 31
0.0
  0
SOLID
  5
2FB
330
73
100
AcDbEntity
  8
0
 62
     0
100
AcDbTrace
 10
109.6556375980377
 20
102.6190287272136
 30
0.0
 11
109.6556375980377
 21
101.7856953938802
 31
0.0
 12
107.1556375980377
 22
102.2023620605469
 32
0.0
 13
107.1556375980377
 23
102.2023620605469
 33
0.0
  0
SOLID
  5
2FC
330
73
100
AcDbEntity
  8
0
 62
     0
100
AcDbTrace
 10
121.1556375980377
 20
102.6190287272136
 30
0.0
 11
121.1556375980377
 21
101.7856953938802
 31
0.0
 12
123.6556375980377
 22
102.2023620605469
 32
0.0
 13
123.6556375980377
 23
102.2023620605469
 33
0.0
  0
MTEXT
  5
2FD
330
73
100
AcDbEntity
  8
0
 62
     0
100
AcDbMText
 10
134.7299895762096
 20
102.2023620605469
 30
0.0
 40
2.5
 41
0.0
 71
     5
 72
     1
  1
16.5 [.650]
 73
     1
 44
1.0
  0
POINT
  5
2FE
330
73
100
AcDbEntity
  8
Defpoints
 62
     0
100
AcDbPoint
 10
107.1556375980377
 20
91.78810454151443
 30
0.0
  0
POINT
  5
2FF
330
73
100
AcDbEntity
  8
Defpoints
 62
     0
100
AcDbPoint
 10
123.6556375980377
 20
92.47824550411516
 30
0.0
  0
POINT
  5
300
330
73
100
AcDbEntity
  8
Defpoints
 62
     0
100
AcDbPoint
 10
123.6556375980377
 20
102.2023620605469
 30
0.0
  0
ENDBLK
  5
75
330
73
100
AcDbEntity
  8
0
100
AcDbBlockEnd
  0
BLOCK
  5
81
330
80
100
AcDbEntity
  8
0
100
AcDbBlockBegin
  2
D4
 70
     0
 10
0.0
 20
0.0
 30
0.0
  3
D4
  1

  0
LINE
  5
97C
330
80
100
AcDbEntity
  8
0
 62
     0
370
    -2
100
AcDbLine
 10
139.3039605335134
 20
75.09181353613648
 30
0.0
 11
136.8039605335134
 21
75.09181353613648
 31
0.0
  0
LINE
  5
97D
330
80
100
AcDbEntity
  8
0
 62
     0
370
    -2
100
AcDbLine
 10
136.8039605335134
 20
75.09181353613648
 30
0.0
 11
131.3198167138742
 21
85.09401118251471
 31
0.0
  0
LINE
  5
97E
330
80
100
AcDbEntity
  8
0
 62
     0
370
    -2
100
AcDbLine
 10
126.512118964098
 20
93.86247982571557
 30
0.0
 11
125.3101945266539
 21
96.05459698651579
 31
0.0
  0
MTEXT
  5
97F
330
80
100
AcDbEntity
  8
0
 62
     0
100
AcDbMText
 10
158.4120778595707
 20
75.09181353613648
 30
0.0
 40
2.5
 41
0.0
 71
     5
 72
     1
  1
\U+22055.0 [\U+2205.197]tap M6x1.0\P
 73
     1
 44
1.0
  0
LINE
  5
980
330
80
100
AcDbEntity
  8
0
 62
     0
370
    -2
100
AcDbLine
 10
127.7140434015421
 20
91.67036266491535
 30
0.0
 11
130.1178922764302
 21
87.28612834331491
 31
0.0
  0
SOLID
  5
981
330
80
100
AcDbEntity
  8
0
 62
     0
100
AcDbTrace
 10
126.8774718242314
 20
94.06280056528956
 30
0.0
 11
126.1467661039646
 21
93.66215908614156
 31
0.0
 12
127.7140434015421
 22
91.67036266491535
 32
0.0
 13
127.7140434015421
 23
91.67036266491535
 33
0.0
  0
SOLID
  5
982
330
80
100
AcDbEntity
  8
0
 62
     0
100
AcDbTrace
 10
131.6851695740076
 20
85.2943319220887
 30
0.0
 11
130.9544638537409
 21
84.8936904429407
 31
0.0
 12
130.1178922764302
 22
87.28612834331491
 32
0.0
 13
130.1178922764302
 23
87.28612834331491
 33
0.0
  0
POINT
  5
983
330
80
100
AcDbEntity
  8
Defpoints
 62
     0
100
AcDbPoint
 10
130.1178922764302
 20
87.28612834331491
 30
0.0
  0
POINT
  5
984
330
80
100
AcDbEntity
  8
Defpoints
 62
     0
100
AcDbPoint
 10
127.7140434015421
 20
91.67036266491535
 30
0.0
  0
ENDBLK
  5
82
330
80
100
AcDbEntity
  8
0
100
AcDbBlockEnd
  0
BLOCK
  5
8D
330
8C
100
AcDbEntity
  8
0
100
AcDbBlockBegin
  2
D5
 70
     0
 10
0.0
 20
0.0
 30
0.0
  3
D5
  1

  0
LINE
  5
515
330
8C
100
AcDbEntity
  8
0
 62
     0
370
    -2
100
AcDbLine
 10
107.115967838986
 20
92.41310454151436
 30
0.0
 11
107.115967838986
 21
109.0056076049804
 31
0.0
  0
LINE
  5
516
330
8C
100
AcDbEntity
  8
0
 62
     0
370
    -2
100
AcDbLine
 10
127.015967838986
 20
96.10324550411508
 30
0.0
 11
127.015967838986
 21
109.0056076049804
 31
0.0
  0
LINE
  5
517
330
8C
100
AcDbEntity
  8
0
 62
     0
370
    -2
100
AcDbLine
 10
104.615967838986
 20
107.7556076049804
 30
0.0
 11
102.115967838986
 21
107.7556076049804
 31
0.0
  0
LINE
  5
518
330
8C
100
AcDbEntity
  8
0
 62
     0
370
    -2
100
AcDbLine
 10
129.515967838986
 20
107.7556076049804
 30
0.0
 11
132.015967838986
 21
107.7556076049804
 31
0.0
  0
LINE
  5
519
330
8C
100
AcDbEntity
  8
0
 62
     0
370
    -2
100
AcDbLine
 10
107.115967838986
 20
107.7556076049804
 30
0.0
 11
108.4916158608141
 21
107.7556076049804
 31
0.0
  0
LINE
  5
51A
330
8C
100
AcDbEntity
  8
0
 62
     0
370
    -2
100
AcDbLine
 10
127.015967838986
 20
107.7556076049804
 30
0.0
 11
125.6403198171579
 21
107.7556076049804
 31
0.0
  0
SOLID
  5
51B
330
8C
100
AcDbEntity
  8
0
 62
     0
100
AcDbTrace
 10
104.615967838986
 20
108.1722742716471
 30
0.0
 11
104.615967838986
 21
107.3389409383137
 31
0.0
 12
107.115967838986
 22
107.7556076049804
 32
0.0
 13
107.115967838986
 23
107.7556076049804
 33
0.0
  0
SOLID
  5
51C
330
8C
100
AcDbEntity
  8
0
 62
     0
100
AcDbTrace
 10
129.515967838986
 20
108.1722742716471
 30
0.0
 11
129.515967838986
 21
107.3389409383137
 31
0.0
 12
127.015967838986
 22
107.7556076049804
 32
0.0
 13
127.015967838986
 23
107.7556076049804
 33
0.0
  0
MTEXT
  5
51D
330
8C
100
AcDbEntity
  8
0
 62
     0
100
AcDbMText
 10
117.065967838986
 20
107.7556076049804
 30
0.0
 40
2.5
 41
0.0
 71
     5
 72
     1
  1
19.9 [.783]
 73
     1
 44
1.0
  0
POINT
  5
51E
330
8C
100
AcDbEntity
  8
Defpoints
 62
     0
100
AcDbPoint
 10
107.115967838986
 20
91.78810454151436
 30
0.0
  0
POINT
  5
51F
330
8C
100
AcDbEntity
  8
Defpoints
 62
     0
100
AcDbPoint
 10
127.015967838986
 20
95.47824550411508
 30
0.0
  0
POINT
  5
520
330
8C
100
AcDbEntity
  8
Defpoints
 62
     0
100
AcDbPoint
 10
127.015967838986
 20
107.7556076049804
 30
0.0
  0
ENDBLK
  5
8E
330
8C
100
AcDbEntity
  8
0
100
AcDbBlockEnd
  0
BLOCK
  5
9A
330
99
100
AcDbEntity
  8
0
100
AcDbBlockBegin
  2
D6
 70
     0
 10
0.0
 20
0.0
 30
0.0
  3
D6
  1

  0
LINE
  5
9B0
330
99
100
AcDbEntity
  8
0
 62
     0
370
    -2
100
AcDbLine
 10
107.115967838986
 20
92.41310454151436
 30
0.0
 11
107.115967838986
 21
113.5870361328124
 31
0.0
  0
LINE
  5
9B1
330
99
100
AcDbEntity
  8
0
 62
     0
370
    -2
100
AcDbLine
 10
128.915967838986
 20
90.10324550411509
 30
0.0
 11
128.915967838986
 21
113.5870361328124
 31
0.0
  0
LINE
  5
9B2
330
99
100
AcDbEntity
  8
0
 62
     0
370
    -2
100
AcDbLine
 10
104.615967838986
 20
112.3370361328124
 30
0.0
 11
102.115967838986
 21
112.3370361328124
 31
0.0
  0
LINE
  5
9B3
330
99
100
AcDbEntity
  8
0
 62
     0
370
    -2
100
AcDbLine
 10
131.415967838986
 20
112.3370361328124
 30
0.0
 11
133.915967838986
 21
112.3370361328124
 31
0.0
  0
LINE
  5
9B4
330
99
100
AcDbEntity
  8
0
 62
     0
370
    -2
100
AcDbLine
 10
107.115967838986
 20
112.3370361328124
 30
0.0
 11
109.3026322318918
 21
112.3370361328124
 31
0.0
  0
LINE
  5
9B5
330
99
100
AcDbEntity
  8
0
 62
     0
370
    -2
100
AcDbLine
 10
128.915967838986
 20
112.3370361328124
 30
0.0
 11
126.7293034460801
 21
112.3370361328124
 31
0.0
  0
SOLID
  5
9B6
330
99
100
AcDbEntity
  8
0
 62
     0
100
AcDbTrace
 10
104.615967838986
 20
112.753702799479
 30
0.0
 11
104.615967838986
 21
111.9203694661457
 31
0.0
 12
107.115967838986
 22
112.3370361328124
 32
0.0
 13
107.115967838986
 23
112.3370361328124
 33
0.0
  0
SOLID
  5
9B7
330
99
100
AcDbEntity
  8
0
 62
     0
100
AcDbTrace
 10
131.415967838986
 20
112.753702799479
 30
0.0
 11
131.415967838986
 21
111.9203694661457
 31
0.0
 12
128.915967838986
 22
112.3370361328124
 32
0.0
 13
128.915967838986
 23
112.3370361328124
 33
0.0
  0
MTEXT
  5
9B8
330
99
100
AcDbEntity
  8
0
 62
     0
100
AcDbMText
 10
118.015967838986
 20
112.3370361328124
 30
0.0
 40
2.5
 41
0.0
 71
     5
 72
     1
  1
21.8 [.858]
 73
     1
 44
1.0
  0
POINT
  5
9B9
330
99
100
AcDbEntity
  8
Defpoints
 62
     0
100
AcDbPoint
 10
107.115967838986
 20
91.78810454151436
 30
0.0
  0
POINT
  5
9BA
330
99
100
AcDbEntity
  8
Defpoints
 62
     0
100
AcDbPoint
 10
128.915967838986
 20
89.47824550411509
 30
0.0
  0
POINT
  5
9BB
330
99
100
AcDbEntity
  8
Defpoints
 62
     0
100
AcDbPoint
 10
128.915967838986
 20
112.3370361328124
 30
0.0
  0
ENDBLK
  5
9B
330
99
100
AcDbEntity
  8
0
100
AcDbBlockEnd
  0
BLOCK
  5
A7
330
A6
100
AcDbEntity
  8
0
100
AcDbBlockBegin
  2
D7
 70
     0
 10
0.0
 20
0.0
 30
0.0
  3
D7
  1

  0
LINE
  5
368
330
A6
100
AcDbEntity
  8
0
 62
     0
370
    -2
100
AcDbLine
 10
126.4410397544341
 20
83.47824550411514
 30
0.0
 11
75.01251983642578
 21
83.47824550411514
 31
0.0
  0
LINE
  5
369
330
A6
100
AcDbEntity
  8
0
 62
     0
370
    -2
100
AcDbLine
 10
123.0306375980377
 20
95.47824550411519
 30
0.0
 11
75.01251983642578
 21
95.47824550411519
 31
0.0
  0
LINE
  5
36A
330
A6
100
AcDbEntity
  8
0
 62
     0
370
    -2
100
AcDbLine
 10
76.26251983642578
 20
85.97824550411514
 30
0.0
 11
76.26251983642578
 21
92.97824550411519
 31
0.0
  0
LINE
  5
36B
330
A6
100
AcDbEntity
  8
0
 62
     0
370
    -2
100
AcDbLine
 10
76.26251983642578
 20
95.47824550411519
 30
0.0
 11
76.26251983642579
 21
98.79419694153238
 31
0.0
  0
LINE
  5
36C
330
A6
100
AcDbEntity
  8
0
 62
     0
370
    -2
100
AcDbLine
 10
76.26251983642579
 20
98.79419694153238
 30
0.0
 11
78.76251983642579
 21
98.79419694153238
 31
0.0
  0
SOLID
  5
36D
330
A6
100
AcDbEntity
  8
0
 62
     0
100
AcDbTrace
 10
75.8458531697591
 20
85.97824550411514
 30
0.0
 11
76.67918650309245
 21
85.97824550411514
 31
0.0
 12
76.26251983642578
 22
83.47824550411514
 32
0.0
 13
76.26251983642578
 23
83.47824550411514
 33
0.0
  0
SOLID
  5
36E
330
A6
100
AcDbEntity
  8
0
 62
     0
100
AcDbTrace
 10
75.8458531697591
 20
92.97824550411519
 30
0.0
 11
76.67918650309245
 21
92.97824550411519
 31
0.0
 12
76.26251983642578
 22
95.47824550411519
 32
0.0
 13
76.26251983642578
 23
95.47824550411519
 33
0.0
  0
MTEXT
  5
36F
330
A6
100
AcDbEntity
  8
0
 62
     0
100
AcDbMText
 10
80.98966854038211
 20
98.79419694153241
 30
0.0
 40
2.5
 41
0.0
 71
     5
 72
     1
  1
12.0 [.472]
 11
-0.0000000000000002
 21
-1.0
 31
0.0
 73
     1
 44
1.0
  0
POINT
  5
370
330
A6
100
AcDbEntity
  8
Defpoints
 62
     0
100
AcDbPoint
 10
127.0660397544341
 20
83.47824550411514
 30
0.0
  0
POINT
  5
371
330
A6
100
AcDbEntity
  8
Defpoints
 62
     0
100
AcDbPoint
 10
123.6556375980377
 20
95.47824550411519
 30
0.0
  0
POINT
  5
372
330
A6
100
AcDbEntity
  8
Defpoints
 62
     0
100
AcDbPoint
 10
76.26251983642578
 20
95.47824550411519
 30
0.0
  0
ENDBLK
  5
A8
330
A6
100
AcDbEntity
  8
0
100
AcDbBlockEnd
  0
BLOCK
  5
B4
330
B3
100
AcDbEntity
  8
0
100
AcDbBlockBegin
  2
D8
 70
     0
 10
0.0
 20
0.0
 30
0.0
  3
D8
  1

  0
LINE
  5
997
330
B3
100
AcDbEntity
  8
0
 62
     0
370
    -2
100
AcDbLine
 10
142.2208083606869
 20
96.86609991068623
 30
0.0
 11
139.7208083606868
 21
96.86609991068621
 31
0.0
  0
LINE
  5
998
330
B3
100
AcDbEntity
  8
0
 62
     0
370
    -2
100
AcDbLine
 10
139.7208083606868
 20
96.86609991068621
 30
0.0
 11
135.9325716144807
 21
94.27587736345071
 31
0.0
  0
LINE
  5
999
330
B3
100
AcDbEntity
  8
0
 62
     0
370
    -2
100
AcDbLine
 10
121.8993640634913
 20
84.68061364477941
 30
0.0
 11
119.8356570706987
 21
83.26954545085717
 31
0.0
  0
MTEXT
  5
99A
330
B3
100
AcDbEntity
  8
0
 62
     0
100
AcDbMText
 10
153.6311084971126
 20
96.86609991068621
 30
0.0
 40
2.5
 41
0.0
 71
     5
 72
     1
  1
\U+220512.0 [\U+2205.472]
 73
     1
 44
1.0
  0
LINE
  5
99B
330
B3
100
AcDbEntity
  8
0
 62
     0
370
    -2
100
AcDbLine
 10
123.9630710562839
 20
86.09168183870167
 30
0.0
 11
133.8688646216882
 21
92.86480916952845
 31
0.0
  0
SOLID
  5
99C
330
B3
100
AcDbEntity
  8
0
 62
     0
100
AcDbTrace
 10
121.6641860311709
 20
85.02456481024484
 30
0.0
 11
122.1345420958117
 21
84.33666247931398
 31
0.0
 12
123.9630710562839
 22
86.09168183870167
 32
0.0
 13
123.9630710562839
 23
86.09168183870167
 33
0.0
  0
SOLID
  5
99D
330
B3
100
AcDbEntity
  8
0
 62
     0
100
AcDbTrace
 10
135.6973935821604
 20
94.61982852891614
 30
0.0
 11
136.1677496468011
 21
93.93192619798528
 31
0.0
 12
133.8688646216882
 22
92.86480916952845
 32
0.0
 13
133.8688646216882
 23
92.86480916952845
 33
0.0
  0
POINT
  5
99E
330
B3
100
AcDbEntity
  8
Defpoints
 62
     0
100
AcDbPoint
 10
133.8688646216882
 20
92.86480916952845
 30
0.0
  0
POINT
  5
99F
330
B3
100
AcDbEntity
  8
Defpoints
 62
     0
100
AcDbPoint
 10
123.9630710562839
 20
86.09168183870167
 30
0.0
  0
ENDBLK
  5
B5
330
B3
100
AcDbEntity
  8
0
100
AcDbBlockEnd
  0
BLOCK
  5
104
330
103
100
AcDbEntity
  8
0
100
AcDbBlockBegin
  2
D9
 70
     0
 10
0.0
 20
0.0
 30
0.0
  3
D9
  1

  0
LINE
  5
286
330
103
100
AcDbEntity
  8
0
 62
     0
370
    -2
100
AcDbLine
 10
124.5806375980377
 20
128.1475291252136
 30
0.0
 11
139.5689681529999
 21
128.1475291252136
 31
0.0
  0
LINE
  5
287
330
103
100
AcDbEntity
  8
0
 62
     0
370
    -2
100
AcDbLine
 10
124.5806375980377
 20
132.1475291252136
 30
0.0
 11
139.5689681529999
 21
132.1475291252136
 31
0.0
  0
LINE
  5
288
330
103
100
AcDbEntity
  8
0
 62
     0
370
    -2
100
AcDbLine
 10
138.3189681529999
 20
125.6475291252135
 30
0.0
 11
138.3189681529999
 21
123.1475291252136
 31
0.0
  0
LINE
  5
289
330
103
100
AcDbEntity
  8
0
 62
     0
370
    -2
100
AcDbLine
 10
138.3189681529999
 20
134.6475291252136
 30
0.0
 11
138.3189681529999
 21
137.1475291252136
 31
0.0
  0
LINE
  5
28A
330
103
100
AcDbEntity
  8
0
 62
     0
370
    -2
100
AcDbLine
 10
138.3189681529999
 20
128.1475291252136
 30
0.0
 11
138.3189681529999
 21
132.1475291252136
 31
0.0
  0
SOLID
  5
28B
330
103
100
AcDbEntity
  8
0
 62
     0
100
AcDbTrace
 10
137.9023014863332
 20
125.6475291252135
 30
0.0
 11
138.7356348196665
 21
125.6475291252135
 31
0.0
 12
138.3189681529999
 22
128.1475291252136
 32
0.0
 13
138.3189681529999
 23
128.1475291252136
 33
0.0
  0
SOLID
  5
28C
330
103
100
AcDbEntity
  8
0
 62
     0
100
AcDbTrace
 10
137.9023014863332
 20
134.6475291252136
 30
0.0
 11
138.7356348196665
 21
134.6475291252136
 31
0.0
 12
138.3189681529999
 22
132.1475291252136
 32
0.0
 13
138.3189681529999
 23
132.1475291252136
 33
0.0
  0
MTEXT
  5
28D
330
103
100
AcDbEntity
  8
0
 62
     0
100
AcDbMText
 10
141.2657621502714
 20
137.1475291252136
 30
0.0
 40
2.5
 41
0.0
 71
     5
 72
     1
  1
4,0
 11
-0.0000000000000002
 21
-1.0
 31
0.0
 73
     1
 44
1.0
  0
POINT
  5
28E
330
103
100
AcDbEntity
  8
Defpoints
 62
     0
100
AcDbPoint
 10
123.9556375980377
 20
128.1475291252136
 30
0.0
  0
POINT
  5
28F
330
103
100
AcDbEntity
  8
Defpoints
 62
     0
100
AcDbPoint
 10
123.9556375980377
 20
132.1475291252136
 30
0.0
  0
POINT
  5
290
330
103
100
AcDbEntity
  8
Defpoints
 62
     0
100
AcDbPoint
 10
138.3189681529999
 20
132.1475291252136
 30
0.0
  0
ENDBLK
  5
105
330
103
100
AcDbEntity
  8
0
100
AcDbBlockEnd
  0
BLOCK
  5
112
330
111
100
AcDbEntity
  8
0
100
AcDbBlockBegin
  2
D10
 70
     0
 10
0.0
 20
0.0
 30
0.0
  3
D10
  1

  0
LINE
  5
334
330
111
100
AcDbEntity
  8
0
 62
     0
370
    -2
100
AcDbLine
 10
121.9071148395538
 20
154.1475291252136
 30
0.0
 11
159.5285339355469
 21
154.1475291252136
 31
0.0
  0
LINE
  5
335
330
111
100
AcDbEntity
  8
0
 62
     0
370
    -2
100
AcDbLine
 10
121.9071148395538
 20
128.1475291252136
 30
0.0
 11
159.5285339355469
 21
128.1475291252136
 31
0.0
  0
LINE
  5
336
330
111
100
AcDbEntity
  8
0
 62
     0
370
    -2
100
AcDbLine
 10
158.2785339355469
 20
151.6475291252136
 30
0.0
 11
158.2785339355469
 21
150.832044814163
 31
0.0
  0
LINE
  5
337
330
111
100
AcDbEntity
  8
0
 62
     0
370
    -2
100
AcDbLine
 10
158.2785339355469
 20
130.6475291252136
 30
0.0
 11
158.2785339355469
 21
131.463013436264
 31
0.0
  0
SOLID
  5
338
330
111
100
AcDbEntity
  8
0
 62
     0
100
AcDbTrace
 10
157.8618672688802
 20
151.6475291252136
 30
0.0
 11
158.6952006022135
 21
151.6475291252136
 31
0.0
 12
158.2785339355469
 22
154.1475291252136
 32
0.0
 13
158.2785339355469
 23
154.1475291252136
 33
0.0
  0
SOLID
  5
339
330
111
100
AcDbEntity
  8
0
 62
     0
100
AcDbTrace
 10
157.8618672688802
 20
130.6475291252136
 30
0.0
 11
158.6952006022135
 21
130.6475291252136
 31
0.0
 12
158.2785339355469
 22
128.1475291252136
 32
0.0
 13
158.2785339355469
 23
128.1475291252136
 33
0.0
  0
MTEXT
  5
33A
330
111
100
AcDbEntity
  8
0
 62
     0
100
AcDbMText
 10
158.2785339355468
 20
141.1475291252136
 30
0.0
 40
2.5
 41
0.0
 71
     5
 72
     1
  1
26.0 [1.024]
 11
-0.0000000000000002
 21
-1.0
 31
0.0
 73
     1
 44
1.0
  0
POINT
  5
33B
330
111
100
AcDbEntity
  8
Defpoints
 62
     0
100
AcDbPoint
 10
121.2821148395538
 20
154.1475291252136
 30
0.0
  0
POINT
  5
33C
330
111
100
AcDbEntity
  8
Defpoints
 62
     0
100
AcDbPoint
 10
121.2821148395538
 20
128.1475291252136
 30
0.0
  0
POINT
  5
33D
330
111
100
AcDbEntity
  8
Defpoints
 62
     0
100
AcDbPoint
 10
158.2785339355469
 20
128.1475291252136
 30
0.0
  0
ENDBLK
  5
113
330
111
100
AcDbEntity
  8
0
100
AcDbBlockEnd
  0
BLOCK
  5
11F
330
11E
100
AcDbEntity
  8
0
100
AcDbBlockBegin
  2
D11
 70
     0
 10
0.0
 20
0.0
 30
0.0
  3
D11
  1

  0
LINE
  5
24C
330
11E
100
AcDbEntity
  8
0
 62
     0
370
    -2
100
AcDbLine
 10
135.3306375980377
 20
143.6475291252136
 30
0.0
 11
149.6692352294922
 21
143.6475291252136
 31
0.0
  0
LINE
  5
24D
330
11E
100
AcDbEntity
  8
0
 62
     0
370
    -2
100
AcDbLine
 10
135.3306375980377
 20
138.6475291252136
 30
0.0
 11
149.6692352294922
 21
138.6475291252136
 31
0.0
  0
LINE
  5
24E
330
11E
100
AcDbEntity
  8
0
 62
     0
370
    -2
100
AcDbLine
 10
148.4192352294922
 20
146.1475291252136
 30
0.0
 11
148.4192352294922
 21
148.6475291252136
 31
0.0
  0
LINE
  5
24F
330
11E
100
AcDbEntity
  8
0
 62
     0
370
    -2
100
AcDbLine
 10
148.4192352294922
 20
136.1475291252136
 30
0.0
 11
148.4192352294922
 21
133.6475291252136
 31
0.0
  0
LINE
  5
250
330
11E
100
AcDbEntity
  8
0
 62
     0
370
    -2
100
AcDbLine
 10
148.4192352294922
 20
143.6475291252136
 30
0.0
 11
148.4192352294922
 21
141.8861034771917
 31
0.0
  0
LINE
  5
251
330
11E
100
AcDbEntity
  8
0
 62
     0
370
    -2
100
AcDbLine
 10
148.4192352294922
 20
138.6475291252136
 30
0.0
 11
148.4192352294922
 21
140.4089547732354
 31
0.0
  0
SOLID
  5
252
330
11E
100
AcDbEntity
  8
0
 62
     0
100
AcDbTrace
 10
148.0025685628255
 20
146.1475291252136
 30
0.0
 11
148.8359018961588
 21
146.1475291252136
 31
0.0
 12
148.4192352294922
 22
143.6475291252136
 32
0.0
 13
148.4192352294922
 23
143.6475291252136
 33
0.0
  0
SOLID
  5
253
330
11E
100
AcDbEntity
  8
0
 62
     0
100
AcDbTrace
 10
148.0025685628255
 20
136.1475291252136
 30
0.0
 11
148.8359018961588
 21
136.1475291252136
 31
0.0
 12
148.4192352294922
 22
138.6475291252136
 32
0.0
 13
148.4192352294922
 23
138.6475291252136
 33
0.0
  0
MTEXT
  5
254
330
11E
100
AcDbEntity
  8
0
 62
     0
100
AcDbMText
 10
148.4192352294921
 20
141.1475291252136
 30
0.0
 40
0.125
 41
0.0
 71
     5
 72
     1
  1
5,0
 11
-0.0000000000000002
 21
-1.0
 31
0.0
 73
     1
 44
1.0
  0
POINT
  5
255
330
11E
100
AcDbEntity
  8
Defpoints
 62
     0
100
AcDbPoint
 10
134.7056375980377
 20
143.6475291252136
 30
0.0
  0
POINT
  5
256
330
11E
100
AcDbEntity
  8
Defpoints
 62
     0
100
AcDbPoint
 10
134.7056375980377
 20
138.6475291252136
 30
0.0
  0
POINT
  5
257
330
11E
100
AcDbEntity
  8
Defpoints
 62
     0
100
AcDbPoint
 10
148.4192352294922
 20
138.6475291252136
 30
0.0
  0
ENDBLK
  5
120
330
11E
100
AcDbEntity
  8
0
100
AcDbBlockEnd
  0
BLOCK
  5
17E
330
17D
100
AcDbEntity
  8
0
100
AcDbBlockBegin
  2
BLOCK5
 70
     0
 10
0.0
 20
0.0
 30
0.0
  3
BLOCK5
  1

  0
LINE
  5
180
330
17D
100
AcDbEntity
  8
VisibleEdgeEntityLayer
100
AcDbLine
 10
6.625320434570308
 20
5.962783813476558
 30
0.0
 11
273.32532043457
 21
5.962783813476558
 31
0.0
  0
LINE
  5
181
330
17D
100
AcDbEntity
  8
VisibleEdgeEntityLayer
100
AcDbLine
 10
273.32532043457
 20
209.162783813477
 30
0.0
 11
6.625320434570308
 21
209.162783813477
 31
0.0
  0
LINE
  5
182
330
17D
100
AcDbEntity
  8
VisibleEdgeEntityLayer
100
AcDbLine
 10
12.9753204345703
 20
15.6147838134766
 30
0.0
 11
266.97532043457
 21
15.6147838134766
 31
0.0
  0
LINE
  5
183
330
17D
100
AcDbEntity
  8
VisibleEdgeEntityLayer
100
AcDbLine
 10
266.97532043457
 20
199.510783813477
 30
0.0
 11
12.9753204345703
 21
199.510783813477
 31
0.0
  0
LWPOLYLINE
  5
184
330
17D
100
AcDbEntity
  8
VisibleEdgeEntityLayer
100
AcDbPolyline
 90
        5
 70
     0
 43
0.0
 10
136.16532043457
 20
11.8047838134766
 10
143.78532043457
 20
11.8047838134766
 10
139.97532043457
 20
15.6147838134766
 10
139.97532043457
 20
15.6147838134766
 10
136.16532043457
 20
11.8047838134766
  0
LWPOLYLINE
  5
185
330
17D
100
AcDbEntity
  8
VisibleEdgeEntityLayer
100
AcDbPolyline
 90
        5
 70
     0
 43
0.0
 10
136.181602830604
 20
203.333525060194
 10
143.801602830604
 20
203.333525060194
 10
139.991602830604
 20
199.523525060194
 10
139.991602830604
 20
199.523525060194
 10
136.181602830604
 20
203.333525060194
  0
LINE
  5
186
330
17D
100
AcDbEntity
  8
VisibleEdgeEntityLayer
100
AcDbLine
 10
108.22532043457
 20
23.6157838134766
 30
0.0
 11
159.02532043457
 21
23.6157838134766
 31
0.0
  0
LINE
  5
187
330
17D
100
AcDbEntity
  8
VisibleEdgeEntityLayer
100
AcDbLine
 10
127.27532043457
 20
193.1607838134769
 30
0.0
 11
266.97532043457
 21
193.1607838134769
 31
0.0
  0
LINE
  5
188
330
17D
100
AcDbEntity
  8
VisibleEdgeEntityLayer
100
AcDbLine
 10
127.27532043457
 20
186.8107838134769
 30
0.0
 11
266.97532043457
 21
186.8107838134769
 31
0.0
  0
LINE
  5
189
330
17D
100
AcDbEntity
  8
VisibleEdgeEntityLayer
100
AcDbLine
 10
6.625320434570308
 20
209.162783813477
 30
0.0
 11
6.625320434570308
 21
5.962783813476558
 31
0.0
  0
LINE
  5
18A
330
17D
100
AcDbEntity
  8
VisibleEdgeEntityLayer
100
AcDbLine
 10
12.9753204345703
 20
199.510783813477
 30
0.0
 11
12.9753204345703
 21
15.6147838134766
 31
0.0
  0
LWPOLYLINE
  5
18B
330
17D
100
AcDbEntity
  8
VisibleEdgeEntityLayer
100
AcDbPolyline
 90
        5
 70
     0
 43
0.0
 10
9.165320434570167
 20
103.752783813477
 10
9.165320434570167
 20
111.372783813477
 10
12.9753204345703
 20
107.562783813477
 10
12.9753204345703
 20
107.562783813477
 10
9.165320434570167
 20
103.752783813477
  0
LINE
  5
18C
330
17D
100
AcDbEntity
  8
VisibleEdgeEntityLayer
100
AcDbLine
 10
108.22532043457
 20
15.6147838134766
 30
0.0
 11
108.22532043457
 21
60.0647838134766
 31
0.0
  0
LINE
  5
18D
330
17D
100
AcDbEntity
  8
VisibleEdgeEntityLayer
100
AcDbLine
 10
127.27532043457
 20
199.510783813477
 30
0.0
 11
127.27532043457
 21
172.9093638134769
 31
0.0
  0
LINE
  5
18E
330
17D
100
AcDbEntity
  8
VisibleEdgeEntityLayer
100
AcDbLine
 10
139.97532043457
 20
186.8107838134769
 30
0.0
 11
139.97532043457
 21
193.1607838134769
 31
0.0
  0
LINE
  5
18F
330
17D
100
AcDbEntity
  8
VisibleEdgeEntityLayer
100
AcDbLine
 10
273.32532043457
 20
5.962783813476558
 30
0.0
 11
273.32532043457
 21
209.162783813477
 31
0.0
  0
LINE
  5
190
330
17D
100
AcDbEntity
  8
VisibleEdgeEntityLayer
100
AcDbLine
 10
266.97532043457
 20
15.6147838134766
 30
0.0
 11
266.97532043457
 21
199.510783813477
 31
0.0
  0
LWPOLYLINE
  5
191
330
17D
100
AcDbEntity
  8
VisibleEdgeEntityLayer
100
AcDbPolyline
 90
        5
 70
     0
 43
0.0
 10
270.78532043457
 20
103.752783813477
 10
270.78532043457
 20
111.372783813477
 10
266.97532043457
 20
107.562783813477
 10
266.97532043457
 20
107.562783813477
 10
270.78532043457
 20
103.752783813477
  0
LINE
  5
192
330
17D
100
AcDbEntity
  8
VisibleEdgeEntityLayer
100
AcDbLine
 10
159.02532043457
 20
21.9647838134766
 30
0.0
 11
266.97532043457
 21
21.9647838134766
 31
0.0
  0
LINE
  5
193
330
17D
100
AcDbEntity
  8
VisibleEdgeEntityLayer
100
AcDbLine
 10
159.02532043457
 20
47.3647838134766
 30
0.0
 11
266.97532043457
 21
47.3647838134766
 31
0.0
  0
LINE
  5
194
330
17D
100
AcDbEntity
  8
VisibleEdgeEntityLayer
100
AcDbLine
 10
159.02532043457
 20
15.6147838134766
 30
0.0
 11
159.02532043457
 21
60.0647838134766
 31
0.0
  0
LINE
  5
195
330
17D
100
AcDbEntity
  8
VisibleEdgeEntityLayer
100
AcDbLine
 10
184.42532043457
 20
15.6147838134766
 30
0.0
 11
184.42532043457
 21
21.9647838134766
 31
0.0
  0
LINE
  5
196
330
17D
100
AcDbEntity
  8
VisibleEdgeEntityLayer
100
AcDbLine
 10
168.67732043457
 20
21.9647838134766
 30
0.0
 11
168.67732043457
 21
31.6167838134766
 31
0.0
  0
LINE
  5
197
330
17D
100
AcDbEntity
  8
VisibleEdgeEntityLayer
100
AcDbLine
 10
197.12532043457
 20
21.9647838134766
 30
0.0
 11
197.12532043457
 21
31.6167838134766
 31
0.0
  0
LINE
  5
198
330
17D
100
AcDbEntity
  8
VisibleEdgeEntityLayer
100
AcDbLine
 10
222.52532043457
 20
15.6147838134766
 30
0.0
 11
222.52532043457
 21
21.9647838134766
 31
0.0
  0
LINE
  5
199
330
17D
100
AcDbEntity
  8
VisibleEdgeEntityLayer
100
AcDbLine
 10
257.32332043457
 20
21.9647838134766
 30
0.0
 11
257.32332043457
 21
31.6167838134766
 31
0.0
  0
LINE
  5
19A
330
17D
100
AcDbEntity
  8
VisibleEdgeEntityLayer
100
AcDbLine
 10
149.62732043457
 20
186.8107838134769
 30
0.0
 11
149.62732043457
 21
193.1607838134769
 31
0.0
  0
LINE
  5
19B
330
17D
100
AcDbEntity
  8
VisibleEdgeEntityLayer
100
AcDbLine
 10
219.22332043457
 20
186.8107838134769
 30
0.0
 11
219.22332043457
 21
193.1607838134769
 31
0.0
  0
LINE
  5
19C
330
17D
100
AcDbEntity
  8
VisibleEdgeEntityLayer
100
AcDbLine
 10
241.57532043457
 20
186.8107838134769
 30
0.0
 11
241.57532043457
 21
193.1607838134769
 31
0.0
  0
LINE
  5
19D
330
17D
100
AcDbEntity
  8
VisibleEdgeEntityLayer
100
AcDbLine
 10
6.625320434570308
 20
107.562783813477
 30
0.0
 11
9.165320434570167
 21
107.562783813477
 31
0.0
  0
LINE
  5
19E
330
17D
100
AcDbEntity
  8
VisibleEdgeEntityLayer
100
AcDbLine
 10
139.97532043457
 20
9.26478381347656
 30
0.0
 11
139.97532043457
 21
11.8047838134766
 31
0.0
  0
LINE
  5
19F
330
17D
100
AcDbEntity
  8
VisibleEdgeEntityLayer
100
AcDbLine
 10
139.991602830604
 20
205.873525060194
 30
0.0
 11
139.991602830604
 21
203.333525060194
 31
0.0
  0
LINE
  5
1A0
330
17D
100
AcDbEntity
  8
VisibleEdgeEntityLayer
100
AcDbLine
 10
273.32532043457
 20
107.562783813477
 30
0.0
 11
270.78532043457
 21
107.562783813477
 31
0.0
  0
LINE
  5
1A1
330
17D
100
AcDbEntity
  8
VisibleEdgeEntityLayer
100
AcDbLine
 10
108.22532043457
 20
40.07331466674809
 30
0.0
 11
159.025314331054
 21
40.07331466674809
 31
0.0
  0
LINE
  5
1A2
330
17D
100
AcDbEntity
  8
VisibleEdgeEntityLayer
100
AcDbLine
 10
108.22532043457
 20
23.5509624481202
 30
0.0
 11
57.5383071899414
 21
23.5509624481202
 31
0.0
  0
LINE
  5
1A3
330
17D
100
AcDbEntity
  8
VisibleEdgeEntityLayer
100
AcDbLine
 10
57.5383071899414
 20
60.0647838134766
 30
0.0
 11
57.5383071899414
 21
15.6147838134766
 31
0.0
  0
LINE
  5
1A4
330
17D
100
AcDbEntity
  8
VisibleEdgeEntityLayer
100
AcDbLine
 10
57.5383071899414
 20
60.0647838134766
 30
0.0
 11
266.97532043457
 21
60.0647838134766
 31
0.0
  0
LINE
  5
1A5
330
17D
100
AcDbEntity
  8
VisibleEdgeEntityLayer
100
AcDbLine
 10
108.22532043457
 20
31.5947399139405
 30
0.0
 11
57.5383071899414
 21
31.5947399139405
 31
0.0
  0
LINE
  5
1A6
330
17D
100
AcDbEntity
  8
VisibleEdgeEntityLayer
100
AcDbLine
 10
108.22532043457
 20
49.4214859008789
 30
0.0
 11
159.025314331054
 21
49.4214859008789
 31
0.0
  0
LINE
  5
1A7
330
17D
100
AcDbEntity
  8
VisibleEdgeEntityLayer
100
AcDbLine
 10
108.22532043457
 20
31.5947399139405
 30
0.0
 11
159.025314331054
 21
31.5947399139405
 31
0.0
  0
LINE
  5
1A8
330
17D
100
AcDbEntity
  8
VisibleEdgeEntityLayer
100
AcDbLine
 10
159.02532043457
 20
31.6167838134766
 30
0.0
 11
266.97532043457
 21
31.6167838134766
 31
0.0
  0
LINE
  5
1A9
330
17D
100
AcDbEntity
  8
VisibleEdgeEntityLayer
100
AcDbLine
 10
134.062828063965
 20
60.0647838134766
 30
0.0
 11
134.062828063965
 21
15.6147838134766
 31
0.0
  0
MTEXT
  5
1AA
330
17D
100
AcDbEntity
  8
0
100
AcDbMText
 10
141.83650543457
 20
189.9034878134769
 30
0.0
 40
1.769768518518518
 41
0.0
 71
     4
 72
     1
  1
{\fArial|b0|i0|c0|p0;REV}{\fArial|b0|i0|c0|p0;}
 73
     1
 44
1.0
  0
MTEXT
  5
1AB
330
17D
100
AcDbEntity
  8
0
100
AcDbMText
 10
129.8629454345699
 20
189.9034878134769
 30
0.0
 40
1.769768518518518
 41
0.0
 71
     4
 72
     1
  1
{\fArial|b0|i0|c0|p0;ZONE}{\fArial|b0|i0|c0|p0;}
 73
     1
 44
1.0
  0
MTEXT
  5
1AC
330
17D
100
AcDbEntity
  8
0
100
AcDbMText
 10
195.94104543457
 20
196.055367813477
 30
0.0
 40
1.769768518518518
 41
0.0
 71
     4
 72
     1
  1
{\fArial|b0|i0|c0|p0;REVISIONS}{\fArial|b0|i0|c0|p0;}
 73
     1
 44
1.0
  0
MTEXT
  5
1AD
330
17D
100
AcDbEntity
  8
0
100
AcDbMText
 10
174.90476543457
 20
189.9034878134769
 30
0.0
 40
1.769768518518518
 41
0.0
 71
     4
 72
     1
  1
{\fArial|b0|i0|c0|p0;DESCRIPTION}{\fArial|b0|i0|c0|p0;}
 73
     1
 44
1.0
  0
MTEXT
  5
1AE
330
17D
100
AcDbEntity
  8
0
100
AcDbMText
 10
227.37354543457
 20
189.9034878134769
 30
0.0
 40
1.769768518518518
 41
0.0
 71
     4
 72
     1
  1
{\fArial|b0|i0|c0|p0;DATE}{\fArial|b0|i0|c0|p0;}
 73
     1
 44
1.0
  0
MTEXT
  5
1AF
330
17D
100
AcDbEntity
  8
0
100
AcDbMText
 10
247.53352543457
 20
189.9034878134769
 30
0.0
 40
1.769768518518518
 41
0.0
 71
     4
 72
     1
  1
{\fArial|b0|i0|c0|p0;APPROVED}{\fArial|b0|i0|c0|p0;}
 73
     1
 44
1.0
  0
MTEXT
  5
1B0
330
17D
100
AcDbEntity
  8
0
100
AcDbMText
 10
110.366317749023
 20
57.0304641723633
 30
0.0
 40
1.769768518518518
 41
0.0
 71
     4
 72
     1
  1
{\fArial|b0|i0|c0|p0;DRAWN}{\fArial|b0|i0|c0|p0;}
 73
     1
 44
1.0
  0
MTEXT
  5
1B1
330
17D
100
AcDbEntity
  8
0
100
AcDbMText
 10
110.366317749023
 20
46.3778953552246
 30
0.0
 40
1.769768518518518
 41
0.0
 71
     4
 72
     1
  1
{\fArial|b0|i0|c0|p0;CHECKED}{\fArial|b0|i0|c0|p0;}
 73
     1
 44
1.0
  0
MTEXT
  5
1B2
330
17D
100
AcDbEntity
  8
0
100
AcDbMText
 10
110.366317749023
 20
37.4645137786866
 30
0.0
 40
1.769768518518518
 41
0.0
 71
     4
 72
     1
  1
{\fArial|b0|i0|c0|p0;QA}{\fArial|b0|i0|c0|p0;}
 73
     1
 44
1.0
  0
MTEXT
  5
1B3
330
17D
100
AcDbEntity
  8
0
100
AcDbMText
 10
110.583709716797
 20
28.9859371185303
 30
0.0
 40
1.769768518518518
 41
0.0
 71
     4
 72
     1
  1
{\fArial|b0|i0|c0|p0;MFG}{\fArial|b0|i0|c0|p0;}
 73
     1
 44
1.0
  0
MTEXT
  5
1B4
330
17D
100
AcDbEntity
  8
0
100
AcDbMText
 10
110.366317749023
 20
21.1595668792725
 30
0.0
 40
1.769768518518518
 41
0.0
 71
     4
 72
     1
  1
{\fArial|b0|i0|c0|p0;APPROVED}{\fArial|b0|i0|c0|p0;}
 73
     1
 44
1.0
  0
MTEXT
  5
1B5
330
17D
100
AcDbEntity
  8
0
100
AcDbMText
 10
136.098480224609
 20
56.72852706909178
 30
0.0
 40
1.769768518518518
 41
0.0
 71
     4
 72
     1
  1
{\fArial|b0|i0|c0|p0;DATE}{\fArial|b0|i0|c0|p0;}
 73
     1
 44
1.0
  0
MTEXT
  5
1B6
330
17D
100
AcDbEntity
  8
0
100
AcDbMText
 10
160.53694171875
 20
29.5177278134766
 30
0.0
 40
1.769768518518518
 41
0.0
 71
     4
 72
     1
  1
{\fArial|b0|i0|c0|p0;SIZE}{\fArial|b0|i0|c0|p0;}
 73
     1
 44
1.0
  0
MTEXT
  5
1B7
330
17D
100
AcDbEntity
  8
0
100
AcDbMText
 10
170.25402543457
 20
29.5177278134766
 30
0.0
 40
1.769768518518518
 41
0.0
 71
     4
 72
     1
  1
{\fArial|b0|i0|c0|p0;FSCM NO.}{\fArial|b0|i0|c0|p0;}
 73
     1
 44
1.0
  0
MTEXT
  5
1B8
330
17D
100
AcDbEntity
  8
0
100
AcDbMText
 10
198.75536543457
 20
29.5177278134766
 30
0.0
 40
1.769768518518518
 41
0.0
 71
     4
 72
     1
  1
{\fArial|b0|i0|c0|p0;DWG NO.}{\fArial|b0|i0|c0|p0;}
 73
     1
 44
1.0
  0
MTEXT
  5
1B9
330
17D
100
AcDbEntity
  8
0
100
AcDbMText
 10
259.19466543457
 20
29.5177278134766
 30
0.0
 40
1.769768518518518
 41
0.0
 71
     4
 72
     1
  1
{\fArial|b0|i0|c0|p0;REV}{\fArial|b0|i0|c0|p0;}
 73
     1
 44
1.0
  0
MTEXT
  5
1BA
330
17D
100
AcDbEntity
  8
0
100
AcDbMText
 10
160.18038543457
 20
18.7633678134766
 30
0.0
 40
1.769768518518518
 41
0.0
 71
     4
 72
     1
  1
{\fArial|b0|i0|c0|p0;SCALE}{\fArial|b0|i0|c0|p0;}
 73
     1
 44
1.0
  0
MTEXT
  5
1BB
330
17D
100
AcDbEntity
  8
0
100
AcDbMText
 10
161.778762817382
 20
25.5466480255126
 30
0.0
 40
4.298009259259258
 41
0.0
 71
     4
 72
     1
  1
{\fArial|b0|i0|c0|p0;A}{\fArial|b0|i0|c0|p0;}
 73
     1
 44
1.0
  0
MTEXT
  5
1BC
330
17D
100
AcDbEntity
  8
0
100
AcDbMText
 10
223.69308543457
 20
18.7633678134766
 30
0.0
 40
1.769768518518518
 41
0.0
 71
     4
 72
     1
  1
{\fArial|b0|i0|c0|p0;SHEET}{\fArial|b0|i0|c0|p0;}
 73
     1
 44
1.0
  0
MTEXT
  5
1BD
330
17D
100
AcDbEntity
  8
0
100
AcDbMText
 10
210.627548217774
 20
25.6828956604004
 30
0.0
 40
2.275416666666667
 41
0.0
 71
     4
 72
     1
  1
{\fArial|b0|i0|c0|p0;}
 73
     1
 44
1.0
  0
MTEXT
  5
1BE
330
17D
100
AcDbEntity
  8
0
100
AcDbMText
 10
110.366310119629
 20
52.6824760437012
 30
0.0
 40
2.275416666666667
 41
0.0
 71
     4
 72
     1
  1
{\fArial|b0|i0|c0|p0;R. English}{\fArial|b0|i0|c0|p0;}
 73
     1
 44
1.0
  0
MTEXT
  5
1BF
330
17D
100
AcDbEntity
  8
0
100
AcDbMText
 10
135.867660522461
 20
52.79362487792971
 30
0.0
 40
2.275416666666667
 41
0.0
 71
     4
 72
     1
  1
{\fArial|b0|i0|c0|p0;09/08/10}{\fArial|b0|i0|c0|p0;}
 73
     1
 44
1.0
  0
ENDBLK
  5
17F
330
17D
100
AcDbEntity
  8
0
100
AcDbBlockEnd
  0
BLOCK
  5
268
330
25B
100
AcDbEntity
  8
0
100
AcDbBlockBegin
  2
*D13
 70
     1
 10
0.0
 20
0.0
 30
0.0
  3
*D13
  1

  0
LINE
  5
25C
330
25B
100
AcDbEntity
  8
0
 62
     0
370
    -2
100
AcDbLine
 10
135.3306375980377
 20
143.6475291252136
 30
0.0
 11
146.1826813149558
 21
143.6475291252136
 31
0.0
  0
LINE
  5
25D
330
25B
100
AcDbEntity
  8
0
 62
     0
370
    -2
100
AcDbLine
 10
135.3306375980377
 20
138.6475291252136
 30
0.0
 11
146.1826813149558
 21
138.6475291252136
 31
0.0
  0
LINE
  5
25E
330
25B
100
AcDbEntity
  8
0
 62
     0
370
    -2
100
AcDbLine
 10
144.9326813149558
 20
145.9335291252136
 30
0.0
 11
144.9326813149558
 21
148.2195291252136
 31
0.0
  0
LINE
  5
25F
330
25B
100
AcDbEntity
  8
0
 62
     0
370
    -2
100
AcDbLine
 10
144.9326813149558
 20
136.3615291252136
 30
0.0
 11
144.9326813149558
 21
124.5513135726897
 31
0.0
  0
LINE
  5
260
330
25B
100
AcDbEntity
  8
0
 62
     0
370
    -2
100
AcDbLine
 10
144.9326813149558
 20
143.6475291252136
 30
0.0
 11
144.9326813149558
 21
138.6475291252136
 31
0.0
  0
SOLID
  5
261
330
25B
100
AcDbEntity
  8
0
 62
     0
100
AcDbTrace
 10
144.5516813149558
 20
145.9335291252136
 30
0.0
 11
145.3136813149558
 21
145.9335291252136
 31
0.0
 12
144.9326813149558
 22
143.6475291252136
 32
0.0
 13
144.9326813149558
 23
143.6475291252136
 33
0.0
  0
SOLID
  5
262
330
25B
100
AcDbEntity
  8
0
 62
     0
100
AcDbTrace
 10
144.5516813149558
 20
136.3615291252136
 30
0.0
 11
145.3136813149558
 21
136.3615291252136
 31
0.0
 12
144.9326813149558
 22
138.6475291252136
 32
0.0
 13
144.9326813149558
 23
138.6475291252136
 33
0.0
  0
MTEXT
  5
263
330
25B
100
AcDbEntity
  8
0
 62
     0
100
AcDbMText
 10
138.9128995959927
 20
129.3134213489517
 30
0.0
 40
2.5
 41
0.0
 71
     5
 72
     1
  1
5
 11
0.0000000000000001
 21
1.0
 31
0.0
 73
     1
 44
1.0
  0
MTEXT
  5
264
330
25B
100
AcDbEntity
  8
0
 62
     0
100
AcDbMText
 10
143.0363648074524
 20
129.3134213489517
 30
0.0
 40
2.5
 41
0.0
 71
     5
 72
     1
  1
[,197]
 11
0.0000000000000001
 21
1.0
 31
0.0
 73
     1
 44
1.0
  0
POINT
  5
265
330
25B
100
AcDbEntity
  8
Defpoints
 62
     0
100
AcDbPoint
 10
134.7056375980377
 20
143.6475291252136
 30
0.0
  0
POINT
  5
266
330
25B
100
AcDbEntity
  8
Defpoints
 62
     0
100
AcDbPoint
 10
134.7056375980377
 20
138.6475291252136
 30
0.0
  0
POINT
  5
267
330
25B
100
AcDbEntity
  8
Defpoints
 62
     0
100
AcDbPoint
 10
144.9326813149558
 20
138.6475291252136
 30
0.0
  0
ENDBLK
  5
269
330
25B
100
AcDbEntity
  8
0
100
AcDbBlockEnd
  0
BLOCK
  5
278
330
26B
100
AcDbEntity
  8
0
100
AcDbBlockBegin
  2
*D14
 70
     1
 10
0.0
 20
0.0
 30
0.0
  3
*D14
  1

  0
LINE
  5
27A
330
26B
100
AcDbEntity
  8
0
 62
     0
370
    -2
100
AcDbLine
 10
135.3306375980377
 20
143.6475291252136
 30
0.0
 11
144.6071453664781
 21
143.6475291252136
 31
0.0
  0
LINE
  5
27B
330
26B
100
AcDbEntity
  8
0
 62
     0
370
    -2
100
AcDbLine
 10
135.3306375980377
 20
138.6475291252136
 30
0.0
 11
144.6071453664781
 21
138.6475291252136
 31
0.0
  0
LINE
  5
27C
330
26B
100
AcDbEntity
  8
0
 62
     0
370
    -2
100
AcDbLine
 10
143.3571453664781
 20
145.9335291252136
 30
0.0
 11
143.3571453664781
 21
148.2195291252136
 31
0.0
  0
LINE
  5
27D
330
26B
100
AcDbEntity
  8
0
 62
     0
370
    -2
100
AcDbLine
 10
143.3571453664781
 20
136.3615291252136
 30
0.0
 11
143.3571453664781
 21
124.5513135726897
 31
0.0
  0
LINE
  5
27E
330
26B
100
AcDbEntity
  8
0
 62
     0
370
    -2
100
AcDbLine
 10
143.3571453664781
 20
143.6475291252136
 30
0.0
 11
143.3571453664781
 21
138.6475291252136
 31
0.0
  0
SOLID
  5
27F
330
26B
100
AcDbEntity
  8
0
 62
     0
100
AcDbTrace
 10
142.9761453664781
 20
145.9335291252136
 30
0.0
 11
143.7381453664781
 21
145.9335291252136
 31
0.0
 12
143.3571453664781
 22
143.6475291252136
 32
0.0
 13
143.3571453664781
 23
143.6475291252136
 33
0.0
  0
SOLID
  5
280
330
26B
100
AcDbEntity
  8
0
 62
     0
100
AcDbTrace
 10
142.9761453664781
 20
136.3615291252136
 30
0.0
 11
143.7381453664781
 21
136.3615291252136
 31
0.0
 12
143.3571453664781
 22
138.6475291252136
 32
0.0
 13
143.3571453664781
 23
138.6475291252136
 33
0.0
  0
MTEXT
  5
281
330
26B
100
AcDbEntity
  8
0
 62
     0
100
AcDbMText
 10
137.3373636475149
 20
129.3134213489517
 30
0.0
 40
2.5
 41
0.0
 71
     5
 72
     1
  1
5
 11
0.0000000000000001
 21
1.0
 31
0.0
 73
     1
 44
1.0
  0
MTEXT
  5
282
330
26B
100
AcDbEntity
  8
0
 62
     0
100
AcDbMText
 10
141.4608288589747
 20
129.3134213489517
 30
0.0
 40
2.5
 41
0.0
 71
     5
 72
     1
  1
[.197]
 11
0.0000000000000001
 21
1.0
 31
0.0
 73
     1
 44
1.0
  0
POINT
  5
283
330
26B
100
AcDbEntity
  8
Defpoints
 62
     0
100
AcDbPoint
 10
134.7056375980377
 20
143.6475291252136
 30
0.0
  0
POINT
  5
284
330
26B
100
AcDbEntity
  8
Defpoints
 62
     0
100
AcDbPoint
 10
134.7056375980377
 20
138.6475291252136
 30
0.0
  0
POINT
  5
285
330
26B
100
AcDbEntity
  8
Defpoints
 62
     0
100
AcDbPoint
 10
143.3571453664781
 20
138.6475291252136
 30
0.0
  0
ENDBLK
  5
279
330
26B
100
AcDbEntity
  8
0
100
AcDbBlockEnd
  0
BLOCK
  5
380
330
374
100
AcDbEntity
  8
0
100
AcDbBlockBegin
  2
*D15
 70
     1
 10
0.0
 20
0.0
 30
0.0
  3
*D15
  1

  0
LINE
  5
64A
330
374
100
AcDbEntity
  8
0
 62
     0
370
    -2
100
AcDbLine
 10
135.3306375980377
 20
155.1475291252136
 30
0.0
 11
153.9445154039227
 21
155.1475291252136
 31
0.0
  0
LINE
  5
64B
330
374
100
AcDbEntity
  8
0
 62
     0
370
    -2
100
AcDbLine
 10
135.3306375980377
 20
127.1475291252136
 30
0.0
 11
153.9445154039227
 21
127.1475291252136
 31
0.0
  0
LINE
  5
64C
330
374
100
AcDbEntity
  8
0
 62
     0
370
    -2
100
AcDbLine
 10
152.6945154039227
 20
152.8615291252136
 30
0.0
 11
152.6945154039227
 21
146.4631271243041
 31
0.0
  0
LINE
  5
64D
330
374
100
AcDbEntity
  8
0
 62
     0
370
    -2
100
AcDbLine
 10
152.6945154039227
 20
129.4335291252136
 30
0.0
 11
152.6945154039227
 21
137.8319311261231
 31
0.0
  0
SOLID
  5
64E
330
374
100
AcDbEntity
  8
0
 62
     0
100
AcDbTrace
 10
152.3135154039227
 20
152.8615291252136
 30
0.0
 11
153.0755154039226
 21
152.8615291252136
 31
0.0
 12
152.6945154039227
 22
155.1475291252136
 32
0.0
 13
152.6945154039227
 23
155.1475291252136
 33
0.0
  0
SOLID
  5
64F
330
374
100
AcDbEntity
  8
0
 62
     0
100
AcDbTrace
 10
152.3135154039227
 20
129.4335291252136
 30
0.0
 11
153.0755154039226
 21
129.4335291252136
 31
0.0
 12
152.6945154039227
 22
127.1475291252136
 32
0.0
 13
152.6945154039227
 23
127.1475291252136
 33
0.0
  0
MTEXT
  5
650
330
374
100
AcDbEntity
  8
0
 62
     0
100
AcDbMText
 10
152.6945154039226
 20
142.1475291252136
 30
0.0
 40
2.5
 41
0.0
 71
     5
 72
     1
  1
28\P [1.102]
 73
     1
 44
1.0
  0
POINT
  5
651
330
374
100
AcDbEntity
  8
Defpoints
 62
     0
100
AcDbPoint
 10
134.7056375980377
 20
155.1475291252136
 30
0.0
  0
POINT
  5
652
330
374
100
AcDbEntity
  8
Defpoints
 62
     0
100
AcDbPoint
 10
134.7056375980377
 20
127.1475291252136
 30
0.0
  0
POINT
  5
653
330
374
100
AcDbEntity
  8
Defpoints
 62
     0
100
AcDbPoint
 10
152.6945154039227
 20
127.1475291252136
 30
0.0
  0
ENDBLK
  5
381
330
374
100
AcDbEntity
  8
0
100
AcDbBlockEnd
  0
BLOCK
  5
391
330
383
100
AcDbEntity
  8
0
100
AcDbBlockBegin
  2
*D16
 70
     1
 10
0.0
 20
0.0
 30
0.0
  3
*D16
  1

  0
LINE
  5
7E3
330
383
100
AcDbEntity
  8
0
 62
     0
370
    -2
100
AcDbLine
 10
106.490967838986
 20
95.47824550411512
 30
0.0
 11
73.51363148173212
 21
95.47824550411514
 31
0.0
  0
LINE
  5
7E4
330
383
100
AcDbEntity
  8
0
 62
     0
370
    -2
100
AcDbLine
 10
106.4316594305667
 20
83.47824550411505
 30
0.0
 11
73.51363148173212
 21
83.47824550411507
 31
0.0
  0
LINE
  5
7E5
330
383
100
AcDbEntity
  8
0
 62
     0
370
    -2
100
AcDbLine
 10
74.76363148173212
 20
97.76424550411514
 30
0.0
 11
74.76363148173212
 21
100.050245504115
 31
0.0
  0
LINE
  5
7E6
330
383
100
AcDbEntity
  8
0
 62
     0
370
    -2
100
AcDbLine
 10
74.76363148173212
 20
81.19224550411507
 30
0.0
 11
74.76363148173212
 21
78.90624550411506
 31
0.0
  0
LINE
  5
7E7
330
383
100
AcDbEntity
  8
0
 62
     0
370
    -2
100
AcDbLine
 10
74.76363148173212
 20
95.47824550411514
 30
0.0
 11
74.76363148173212
 21
93.58551016987226
 31
0.0
  0
LINE
  5
7E8
330
383
100
AcDbEntity
  8
0
 62
     0
370
    -2
100
AcDbLine
 10
74.76363148173212
 20
83.47824550411507
 30
0.0
 11
74.76363148173212
 21
85.37098083835793
 31
0.0
  0
SOLID
  5
7E9
330
383
100
AcDbEntity
  8
0
 62
     0
100
AcDbTrace
 10
74.38263148173212
 20
97.76424550411514
 30
0.0
 11
75.14463148173212
 21
97.76424550411514
 31
0.0
 12
74.76363148173212
 22
95.47824550411514
 32
0.0
 13
74.76363148173212
 23
95.47824550411514
 33
0.0
  0
SOLID
  5
7EA
330
383
100
AcDbEntity
  8
0
 62
     0
100
AcDbTrace
 10
74.38263148173212
 20
81.19224550411507
 30
0.0
 11
75.14463148173212
 21
81.19224550411507
 31
0.0
 12
74.76363148173212
 22
83.47824550411507
 32
0.0
 13
74.76363148173212
 23
83.47824550411507
 33
0.0
  0
MTEXT
  5
7EB
330
383
100
AcDbEntity
  8
0
 62
     0
100
AcDbMText
 10
74.76363148173209
 20
91.35836146591593
 30
0.0
 40
2.5
 41
0.0
 71
     5
 72
     1
  1
12
 73
     1
 44
1.0
  0
MTEXT
  5
7EC
330
383
100
AcDbEntity
  8
0
 62
     0
100
AcDbMText
 10
74.76363148173209
 20
87.25109680015876
 30
0.0
 40
2.5
 41
0.0
 71
     5
 72
     1
  1
[.472]
 73
     1
 44
1.0
  0
POINT
  5
7ED
330
383
100
AcDbEntity
  8
Defpoints
 62
     0
100
AcDbPoint
 10
107.115967838986
 20
95.47824550411512
 30
0.0
  0
POINT
  5
7EE
330
383
100
AcDbEntity
  8
Defpoints
 62
     0
100
AcDbPoint
 10
107.0566594305667
 20
83.47824550411505
 30
0.0
  0
POINT
  5
7EF
330
383
100
AcDbEntity
  8
Defpoints
 62
     0
100
AcDbPoint
 10
74.76363148173212
 20
83.47824550411507
 30
0.0
  0
ENDBLK
  5
392
330
383
100
AcDbEntity
  8
0
100
AcDbBlockEnd
  0
BLOCK
  5
3A1
330
394
100
AcDbEntity
  8
0
100
AcDbBlockBegin
  2
*D17
 70
     1
 10
0.0
 20
0.0
 30
0.0
  3
*D17
  1

  0
LINE
  5
3ED
330
394
100
AcDbEntity
  8
0
 62
     0
370
    -2
100
AcDbLine
 10
132.5806375980377
 20
138.6475291252136
 30
0.0
 11
139.1092113410688
 21
138.6475291252136
 31
0.0
  0
LINE
  5
3EE
330
394
100
AcDbEntity
  8
0
 62
     0
370
    -2
100
AcDbLine
 10
132.5806375980377
 20
132.1475291252136
 30
0.0
 11
139.1092113410688
 21
132.1475291252136
 31
0.0
  0
LINE
  5
3EF
330
394
100
AcDbEntity
  8
0
 62
     0
370
    -2
100
AcDbLine
 10
137.8592113410688
 20
136.3615291252136
 30
0.0
 11
137.8592113410688
 21
134.4335291252136
 31
0.0
  0
LINE
  5
3F0
330
394
100
AcDbEntity
  8
0
 62
     0
370
    -2
100
AcDbLine
 10
137.8592113410688
 20
132.1475291252136
 30
0.0
 11
137.8592113410688
 21
123.1189837773847
 31
0.0
  0
LINE
  5
3F1
330
394
100
AcDbEntity
  8
0
 62
     0
370
    -2
100
AcDbLine
 10
137.8592113410688
 20
123.1189837773847
 30
0.0
 11
127.0193409454344
 21
123.1189837773847
 31
0.0
  0
SOLID
  5
3F2
330
394
100
AcDbEntity
  8
0
 62
     0
100
AcDbTrace
 10
137.4782113410688
 20
136.3615291252136
 30
0.0
 11
138.2402113410688
 21
136.3615291252136
 31
0.0
 12
137.8592113410688
 22
138.6475291252136
 32
0.0
 13
137.8592113410688
 23
138.6475291252136
 33
0.0
  0
SOLID
  5
3F3
330
394
100
AcDbEntity
  8
0
 62
     0
100
AcDbTrace
 10
137.4782113410688
 20
134.4335291252136
 30
0.0
 11
138.2402113410688
 21
134.4335291252136
 31
0.0
 12
137.8592113410688
 22
132.1475291252136
 32
0.0
 13
137.8592113410688
 23
132.1475291252136
 33
0.0
  0
MTEXT
  5
3F4
330
394
100
AcDbEntity
  8
0
 62
     0
100
AcDbMText
 10
132.1267761432516
 20
127.4345817764752
 30
0.0
 40
2.5
 41
0.0
 71
     5
 72
     1
  1
6.5\P [.256]
 73
     1
 44
1.0
  0
POINT
  5
3F5
330
394
100
AcDbEntity
  8
Defpoints
 62
     0
100
AcDbPoint
 10
131.9556375980377
 20
138.6475291252136
 30
0.0
  0
POINT
  5
3F6
330
394
100
AcDbEntity
  8
Defpoints
 62
     0
100
AcDbPoint
 10
131.9556375980377
 20
132.1475291252136
 30
0.0
  0
POINT
  5
3F7
330
394
100
AcDbEntity
  8
Defpoints
 62
     0
100
AcDbPoint
 10
137.8592113410688
 20
132.1475291252136
 30
0.0
  0
ENDBLK
  5
3A2
330
394
100
AcDbEntity
  8
0
100
AcDbBlockEnd
  0
BLOCK
  5
3B2
330
3A4
100
AcDbEntity
  8
0
100
AcDbBlockBegin
  2
*D18
 70
     1
 10
0.0
 20
0.0
 30
0.0
  3
*D18
  1

  0
LINE
  5
7FC
330
3A4
100
AcDbEntity
  8
0
 62
     0
370
    -2
100
AcDbLine
 10
134.0806375980377
 20
143.6475291252136
 30
0.0
 11
131.7773247458746
 21
143.6475291252136
 31
0.0
  0
LINE
  5
7FD
330
3A4
100
AcDbEntity
  8
0
 62
     0
370
    -2
100
AcDbLine
 10
134.0806375980377
 20
138.6475291252136
 30
0.0
 11
131.7773247458746
 21
138.6475291252136
 31
0.0
  0
LINE
  5
7FE
330
3A4
100
AcDbEntity
  8
0
 62
     0
370
    -2
100
AcDbLine
 10
133.0273247458745
 20
136.3615291252136
 30
0.0
 11
133.0273247458745
 21
134.0755291252136
 31
0.0
  0
LINE
  5
7FF
330
3A4
100
AcDbEntity
  8
0
 62
     0
370
    -2
100
AcDbLine
 10
133.0273247458745
 20
145.9335291252136
 30
0.0
 11
133.0273247458745
 21
148.2195291252136
 31
0.0
  0
LINE
  5
800
330
3A4
100
AcDbEntity
  8
0
 62
     0
370
    -2
100
AcDbLine
 10
133.0273247458745
 20
148.2195291252136
 30
0.0
 11
143.867195141509
 21
148.2195291252136
 31
0.0
  0
LINE
  5
801
330
3A4
100
AcDbEntity
  8
0
 62
     0
370
    -2
100
AcDbLine
 10
133.0273247458745
 20
138.6475291252136
 30
0.0
 11
133.0273247458745
 21
143.6475291252136
 31
0.0
  0
SOLID
  5
802
330
3A4
100
AcDbEntity
  8
0
 62
     0
100
AcDbTrace
 10
132.6463247458746
 20
136.3615291252136
 30
0.0
 11
133.4083247458746
 21
136.3615291252136
 31
0.0
 12
133.0273247458745
 22
138.6475291252136
 32
0.0
 13
133.0273247458745
 23
138.6475291252136
 33
0.0
  0
SOLID
  5
803
330
3A4
100
AcDbEntity
  8
0
 62
     0
100
AcDbTrace
 10
132.6463247458746
 20
145.9335291252136
 30
0.0
 11
133.4083247458746
 21
145.9335291252136
 31
0.0
 12
133.0273247458745
 22
143.6475291252136
 32
0.0
 13
133.0273247458745
 23
143.6475291252136
 33
0.0
  0
MTEXT
  5
804
330
3A4
100
AcDbEntity
  8
0
 62
     0
100
AcDbMText
 10
138.7597599436917
 20
152.5300111625033
 30
0.0
 40
2.5
 41
0.0
 71
     5
 72
     1
  1
5\P [.197]
 73
     1
 44
1.0
  0
POINT
  5
805
330
3A4
100
AcDbEntity
  8
Defpoints
 62
     0
100
AcDbPoint
 10
134.7056375980377
 20
143.6475291252136
 30
0.0
  0
POINT
  5
806
330
3A4
100
AcDbEntity
  8
Defpoints
 62
     0
100
AcDbPoint
 10
134.7056375980377
 20
138.6475291252136
 30
0.0
  0
POINT
  5
807
330
3A4
100
AcDbEntity
  8
Defpoints
 62
     0
100
AcDbPoint
 10
133.0273247458745
 20
138.6475291252136
 30
0.0
  0
ENDBLK
  5
3B3
330
3A4
100
AcDbEntity
  8
0
100
AcDbBlockEnd
  0
BLOCK
  5
469
330
45B
100
AcDbEntity
  8
0
100
AcDbBlockBegin
  2
*D19
 70
     1
 10
0.0
 20
0.0
 30
0.0
  3
*D19
  1

  0
LINE
  5
593
330
45B
100
AcDbEntity
  8
0
 62
     0
370
    -2
100
AcDbLine
 10
134.5806375980377
 20
132.1475291252136
 30
0.0
 11
139.4864120721355
 21
132.1475291252136
 31
0.0
  0
LINE
  5
594
330
45B
100
AcDbEntity
  8
0
 62
     0
370
    -2
100
AcDbLine
 10
135.3306375980377
 20
128.1475291252136
 30
0.0
 11
139.4864120721355
 21
128.1475291252136
 31
0.0
  0
LINE
  5
595
330
45B
100
AcDbEntity
  8
0
 62
     0
370
    -2
100
AcDbLine
 10
138.2364120721355
 20
134.4335291252136
 30
0.0
 11
138.2364120721355
 21
136.7195291252136
 31
0.0
  0
LINE
  5
596
330
45B
100
AcDbEntity
  8
0
 62
     0
370
    -2
100
AcDbLine
 10
138.2364120721355
 20
125.8615291252136
 30
0.0
 11
138.2364120721355
 21
119.0277534470801
 31
0.0
  0
LINE
  5
597
330
45B
100
AcDbEntity
  8
0
 62
     0
370
    -2
100
AcDbLine
 10
138.2364120721355
 20
119.0277534470801
 30
0.0
 11
127.3965416765012
 21
119.0277534470801
 31
0.0
  0
LINE
  5
598
330
45B
100
AcDbEntity
  8
0
 62
     0
370
    -2
100
AcDbLine
 10
138.2364120721355
 20
132.1475291252136
 30
0.0
 11
138.2364120721355
 21
128.1475291252136
 31
0.0
  0
SOLID
  5
599
330
45B
100
AcDbEntity
  8
0
 62
     0
100
AcDbTrace
 10
137.8554120721355
 20
134.4335291252136
 30
0.0
 11
138.6174120721355
 21
134.4335291252136
 31
0.0
 12
138.2364120721355
 22
132.1475291252136
 32
0.0
 13
138.2364120721355
 23
132.1475291252136
 33
0.0
  0
SOLID
  5
59A
330
45B
100
AcDbEntity
  8
0
 62
     0
100
AcDbTrace
 10
137.8554120721355
 20
125.8615291252136
 30
0.0
 11
138.6174120721355
 21
125.8615291252136
 31
0.0
 12
138.2364120721355
 22
128.1475291252136
 32
0.0
 13
138.2364120721355
 23
128.1475291252136
 33
0.0
  0
MTEXT
  5
59B
330
45B
100
AcDbEntity
  8
0
 62
     0
100
AcDbMText
 10
132.5039768743183
 20
123.3382354843698
 30
0.0
 40
2.5
 41
0.0
 71
     5
 72
     1
  1
4\P [.157]
 73
     1
 44
1.0
  0
POINT
  5
59C
330
45B
100
AcDbEntity
  8
Defpoints
 62
     0
100
AcDbPoint
 10
133.9556375980377
 20
132.1475291252136
 30
0.0
  0
POINT
  5
59D
330
45B
100
AcDbEntity
  8
Defpoints
 62
     0
100
AcDbPoint
 10
134.7056375980377
 20
128.1475291252136
 30
0.0
  0
POINT
  5
59E
330
45B
100
AcDbEntity
  8
Defpoints
 62
     0
100
AcDbPoint
 10
138.2364120721355
 20
128.1475291252136
 30
0.0
  0
ENDBLK
  5
46A
330
45B
100
AcDbEntity
  8
0
100
AcDbBlockEnd
  0
BLOCK
  5
478
330
471
100
AcDbEntity
  8
0
100
AcDbBlockBegin
  2
*D20
 70
     1
 10
0.0
 20
0.0
 30
0.0
  3
*D20
  1

  0
LINE
  5
47C
330
471
100
AcDbEntity
  8
0
 62
     0
370
    -2
100
AcDbLine
 10
109.2120495443942
 20
141.1475291252138
 30
0.0
 11
92.93900998095628
 21
141.1475291252138
 31
0.0
  0
MTEXT
  5
47D
330
471
100
AcDbEntity
  8
0
 62
     0
100
AcDbMText
 10
102.2185297626752
 20
145.4631271243043
 30
0.0
 40
2.5
 41
0.0
 71
     5
 72
     1
  1
R16.5\P [R.650]
 73
     1
 44
1.0
  0
SOLID
  5
47E
330
471
100
AcDbEntity
  8
0
 62
     0
100
AcDbTrace
 10
92.93900998095628
 20
141.5285291252138
 30
0.0
 11
92.93900998095628
 21
140.7665291252138
 31
0.0
 12
90.65300998095628
 22
141.1475291252138
 32
0.0
 13
90.65300998095628
 23
141.1475291252138
 33
0.0
  0
POINT
  5
47F
330
471
100
AcDbEntity
  8
Defpoints
 62
     0
100
AcDbPoint
 10
90.65300998095628
 20
141.1475291252138
 30
0.0
  0
POINT
  5
480
330
471
100
AcDbEntity
  8
Defpoints
 62
     0
100
AcDbPoint
 10
107.1543161620724
 20
141.1475291252135
 30
0.0
  0
ENDBLK
  5
479
330
471
100
AcDbEntity
  8
0
100
AcDbBlockEnd
  0
BLOCK
  5
488
330
482
100
AcDbEntity
  8
0
100
AcDbBlockBegin
  2
*D21
 70
     1
 10
0.0
 20
0.0
 30
0.0
  3
*D21
  1

  0
LINE
  5
483
330
482
100
AcDbEntity
  8
0
 62
     0
370
    -2
100
AcDbLine
 10
119.1975448742583
 20
143.2727239753165
 30
0.0
 11
121.4487552139247
 21
143.6700248771268
 31
0.0
  0
MTEXT
  5
484
330
482
100
AcDbEntity
  8
0
 62
     0
100
AcDbMText
 10
112.2040250925393
 20
143.2727239753165
 30
0.0
 40
2.5
 41
0.0
 71
     5
 72
     1
  1
R16.8\P [R.661]
 73
     1
 44
1.0
  0
SOLID
  5
485
330
482
100
AcDbEntity
  8
0
 62
     0
100
AcDbTrace
 10
121.3825383969563
 20
144.0452266004045
 30
0.0
 11
121.514972030893
 21
143.2948231538491
 31
0.0
 12
123.699965553591
 22
144.0673257789371
 32
0.0
 13
123.699965553591
 23
144.0673257789371
 33
0.0
  0
POINT
  5
486
330
482
100
AcDbEntity
  8
Defpoints
 62
     0
100
AcDbPoint
 10
123.699965553591
 20
144.0673257789371
 30
0.0
  0
POINT
  5
487
330
482
100
AcDbEntity
  8
Defpoints
 62
     0
100
AcDbPoint
 10
107.1556375980377
 20
141.1475291252132
 30
0.0
  0
ENDBLK
  5
489
330
482
100
AcDbEntity
  8
0
100
AcDbBlockEnd
  0
BLOCK
  5
4E3
330
4D8
100
AcDbEntity
  8
0
100
AcDbBlockBegin
  2
*D22
 70
     1
 10
0.0
 20
0.0
 30
0.0
  3
*D22
  1

  0
LINE
  5
9A6
330
4D8
100
AcDbEntity
  8
0
 62
     0
370
    -2
100
AcDbLine
 10
90.31596783898612
 20
95.8532455041149
 30
0.0
 11
90.31596783898612
 21
97.83600217821437
 31
0.0
  0
LINE
  5
9A7
330
4D8
100
AcDbEntity
  8
0
 62
     0
370
    -2
100
AcDbLine
 10
107.115967838986
 20
95.85324550411501
 30
0.0
 11
107.115967838986
 21
97.83600217821437
 31
0.0
  0
LINE
  5
9A8
330
4D8
100
AcDbEntity
  8
0
 62
     0
370
    -2
100
AcDbLine
 10
92.60196783898612
 20
96.58600217821437
 30
0.0
 11
104.829967838986
 21
96.58600217821437
 31
0.0
  0
SOLID
  5
9A9
330
4D8
100
AcDbEntity
  8
0
 62
     0
100
AcDbTrace
 10
92.60196783898612
 20
96.96700217821437
 30
0.0
 11
92.60196783898612
 21
96.20500217821437
 31
0.0
 12
90.31596783898612
 22
96.58600217821437
 32
0.0
 13
90.31596783898612
 23
96.58600217821437
 33
0.0
  0
SOLID
  5
9AA
330
4D8
100
AcDbEntity
  8
0
 62
     0
100
AcDbTrace
 10
104.829967838986
 20
96.96700217821437
 30
0.0
 11
104.829967838986
 21
96.20500217821437
 31
0.0
 12
107.115967838986
 22
96.58600217821437
 32
0.0
 13
107.115967838986
 23
96.58600217821437
 33
0.0
  0
MTEXT
  5
9AB
330
4D8
100
AcDbEntity
  8
0
 62
     0
100
AcDbMText
 10
98.71596783898606
 20
102.6160158207791
 30
0.0
 40
2.5
 41
0.0
 71
     5
 72
     1
  1
16.8
 73
     1
 44
1.0
  0
MTEXT
  5
9AC
330
4D8
100
AcDbEntity
  8
0
 62
     0
100
AcDbMText
 10
98.71596783898606
 20
98.48743464751859
 30
0.0
 40
2.5
 41
0.0
 71
     5
 72
     1
  1
[.661]
 73
     1
 44
1.0
  0
POINT
  5
9AD
330
4D8
100
AcDbEntity
  8
Defpoints
 62
     0
100
AcDbPoint
 10
90.31596783898612
 20
95.2282455041149
 30
0.0
  0
POINT
  5
9AE
330
4D8
100
AcDbEntity
  8
Defpoints
 62
     0
100
AcDbPoint
 10
107.115967838986
 20
95.22824550411501
 30
0.0
  0
POINT
  5
9AF
330
4D8
100
AcDbEntity
  8
Defpoints
 62
     0
100
AcDbPoint
 10
107.115967838986
 20
96.58600217821437
 30
0.0
  0
ENDBLK
  5
4E4
330
4D8
100
AcDbEntity
  8
0
100
AcDbBlockEnd
  0
BLOCK
  5
501
330
4F7
100
AcDbEntity
  8
0
100
AcDbBlockBegin
  2
*D23
 70
     1
 10
0.0
 20
0.0
 30
0.0
  3
*D23
  1

  0
LINE
  5
570
330
4F7
100
AcDbEntity
  8
0
 62
     0
370
    -2
100
AcDbLine
 10
157.2863877086671
 20
86.9065004531861
 30
0.0
 11
145.6705964399085
 21
86.90650045318616
 31
0.0
  0
LINE
  5
571
330
4F7
100
AcDbEntity
  8
0
 62
     0
370
    -2
100
AcDbLine
 10
145.6705964399085
 20
86.90650045318616
 30
0.0
 11
136.2658876775954
 21
88.35007248280279
 31
0.0
  0
LINE
  5
572
330
4F7
100
AcDbEntity
  8
0
 62
     0
370
    -2
100
AcDbLine
 10
121.5660480003767
 20
90.60641852542735
 30
0.0
 11
119.3065110516058
 21
90.95324525037623
 31
0.0
  0
MTEXT
  5
573
330
4F7
100
AcDbEntity
  8
0
 62
     0
100
AcDbMText
 10
151.7909920742878
 20
93.11727807937984
 30
0.0
 40
2.5
 41
0.0
 71
     5
 72
     1
  1
\U+220510.3
 73
     1
 44
1.0
  0
MTEXT
  5
574
330
4F7
100
AcDbEntity
  8
0
 62
     0
100
AcDbMText
 10
151.7909920742878
 20
88.87785106710152
 30
0.0
 40
2.5
 41
0.0
 71
     5
 72
     1
  1
[\U+2205.406]
 73
     1
 44
1.0
  0
LINE
  5
575
330
4F7
100
AcDbEntity
  8
0
 62
     0
370
    -2
100
AcDbLine
 10
123.8255849491477
 20
90.25959180047847
 30
0.0
 11
134.0063507288244
 21
88.69689920775167
 31
0.0
  0
SOLID
  5
576
330
4F7
100
AcDbEntity
  8
0
 62
     0
100
AcDbTrace
 10
121.6238524545349
 20
90.98300801688921
 30
0.0
 11
121.5082435462186
 21
90.22982903396554
 31
0.0
 12
123.8255849491477
 22
90.25959180047847
 32
0.0
 13
123.8255849491477
 23
90.25959180047847
 33
0.0
  0
SOLID
  5
577
330
4F7
100
AcDbEntity
  8
0
 62
     0
100
AcDbTrace
 10
136.3236921317535
 20
88.72666197426459
 30
0.0
 11
136.2080832234372
 21
87.97348299134096
 31
0.0
 12
134.0063507288244
 22
88.69689920775167
 32
0.0
 13
134.0063507288244
 23
88.69689920775167
 33
0.0
  0
POINT
  5
578
330
4F7
100
AcDbEntity
  8
Defpoints
 62
     0
100
AcDbPoint
 10
134.0063507288244
 20
88.69689920775167
 30
0.0
  0
POINT
  5
579
330
4F7
100
AcDbEntity
  8
Defpoints
 62
     0
100
AcDbPoint
 10
123.8255849491477
 20
90.25959180047847
 30
0.0
  0
ENDBLK
  5
502
330
4F7
100
AcDbEntity
  8
0
100
AcDbBlockEnd
  0
BLOCK
  5
585
330
57B
100
AcDbEntity
  8
0
100
AcDbBlockBegin
  2
*D24
 70
     1
 10
0.0
 20
0.0
 30
0.0
  3
*D24
  1

  0
LINE
  5
98E
330
57B
100
AcDbEntity
  8
0
 62
     0
370
    -2
100
AcDbLine
 10
164.9451962599986
 20
89.37290075111754
 30
0.0
 11
142.7495959871473
 21
89.37290075111755
 31
0.0
  0
LINE
  5
98F
330
57B
100
AcDbEntity
  8
0
 62
     0
370
    -2
100
AcDbLine
 10
142.7495959871473
 20
89.37290075111755
 30
0.0
 11
136.3517522412875
 21
89.42162110574225
 31
0.0
  0
LINE
  5
990
330
57B
100
AcDbEntity
  8
0
 62
     0
370
    -2
100
AcDbLine
 10
121.4801834366846
 20
89.53486990248796
 30
0.0
 11
119.1942497164505
 21
89.55227756449447
 31
0.0
  0
MTEXT
  5
991
330
57B
100
AcDbEntity
  8
0
 62
     0
100
AcDbMText
 10
154.1598961235729
 20
91.64097714948045
 30
0.0
 40
2.5
 41
0.0
 71
     5
 72
     1
  1
\U+220510.3 [\U+2205.406]
 73
     1
 44
1.0
  0
LINE
  5
992
330
57B
100
AcDbEntity
  8
0
 62
     0
370
    -2
100
AcDbLine
 10
123.7661171569188
 20
89.51746224048147
 30
0.0
 11
134.0658185210533
 21
89.43902876774876
 31
0.0
  0
SOLID
  5
993
330
57B
100
AcDbEntity
  8
0
 62
     0
100
AcDbTrace
 10
121.4830847136857
 20
89.91585885586031
 30
0.0
 11
121.4772821596836
 21
89.15388094911561
 31
0.0
 12
123.7661171569188
 22
89.51746224048147
 32
0.0
 13
123.7661171569188
 23
89.51746224048147
 33
0.0
  0
SOLID
  5
994
330
57B
100
AcDbEntity
  8
0
 62
     0
100
AcDbTrace
 10
136.3546535182885
 20
89.8026100591146
 30
0.0
 11
136.3488509642864
 21
89.04063215236988
 31
0.0
 12
134.0658185210533
 22
89.43902876774876
 32
0.0
 13
134.0658185210533
 23
89.43902876774876
 33
0.0
  0
POINT
  5
995
330
57B
100
AcDbEntity
  8
Defpoints
 62
     0
100
AcDbPoint
 10
134.0658185210533
 20
89.43902876774876
 30
0.0
  0
POINT
  5
996
330
57B
100
AcDbEntity
  8
Defpoints
 62
     0
100
AcDbPoint
 10
123.7661171569188
 20
89.51746224048147
 30
0.0
  0
ENDBLK
  5
586
330
57B
100
AcDbEntity
  8
0
100
AcDbBlockEnd
  0
BLOCK
  5
5AD
330
5A1
100
AcDbEntity
  8
0
100
AcDbBlockBegin
  2
*D25
 70
     1
 10
0.0
 20
0.0
 30
0.0
  3
*D25
  1

  0
LINE
  5
5A2
330
5A1
100
AcDbEntity
  8
0
 62
     0
370
    -2
100
AcDbLine
 10
131.3306375980377
 20
138.6475291252136
 30
0.0
 11
116.1940939863339
 21
138.6475291252136
 31
0.0
  0
LINE
  5
5A3
330
5A1
100
AcDbEntity
  8
0
 62
     0
370
    -2
100
AcDbLine
 10
131.3306375980377
 20
132.1475291252136
 30
0.0
 11
116.1940939863339
 21
132.1475291252136
 31
0.0
  0
LINE
  5
5A4
330
5A1
100
AcDbEntity
  8
0
 62
     0
370
    -2
100
AcDbLine
 10
117.4440939863339
 20
136.3615291252136
 30
0.0
 11
117.4440939863339
 21
134.4335291252136
 31
0.0
  0
LINE
  5
5A5
330
5A1
100
AcDbEntity
  8
0
 62
     0
370
    -2
100
AcDbLine
 10
117.4440939863339
 20
132.1475291252136
 30
0.0
 11
117.4440939863339
 21
129.8615291252136
 31
0.0
  0
LINE
  5
5A6
330
5A1
100
AcDbEntity
  8
0
 62
     0
370
    -2
100
AcDbLine
 10
117.4440939863339
 20
129.8615291252136
 30
0.0
 11
102.613773386061
 21
129.8615291252136
 31
0.0
  0
SOLID
  5
5A7
330
5A1
100
AcDbEntity
  8
0
 62
     0
100
AcDbTrace
 10
117.0630939863338
 20
136.3615291252136
 30
0.0
 11
117.8250939863339
 21
136.3615291252136
 31
0.0
 12
117.4440939863339
 22
138.6475291252136
 32
0.0
 13
117.4440939863339
 23
138.6475291252136
 33
0.0
  0
SOLID
  5
5A8
330
5A1
100
AcDbEntity
  8
0
 62
     0
100
AcDbTrace
 10
117.0630939863338
 20
134.4335291252136
 30
0.0
 11
117.8250939863339
 21
134.4335291252136
 31
0.0
 12
117.4440939863339
 22
132.1475291252136
 32
0.0
 13
117.4440939863339
 23
132.1475291252136
 33
0.0
  0
MTEXT
  5
5A9
330
5A1
100
AcDbEntity
  8
0
 62
     0
100
AcDbMText
 10
109.7164336861974
 20
132.0886778291699
 30
0.0
 40
2.5
 41
0.0
 71
     5
 72
     1
  1
6.5 [.256]
 73
     1
 44
1.0
  0
POINT
  5
5AA
330
5A1
100
AcDbEntity
  8
Defpoints
 62
     0
100
AcDbPoint
 10
131.9556375980377
 20
138.6475291252136
 30
0.0
  0
POINT
  5
5AB
330
5A1
100
AcDbEntity
  8
Defpoints
 62
     0
100
AcDbPoint
 10
131.9556375980377
 20
132.1475291252136
 30
0.0
  0
POINT
  5
5AC
330
5A1
100
AcDbEntity
  8
Defpoints
 62
     0
100
AcDbPoint
 10
117.4440939863339
 20
132.1475291252136
 30
0.0
  0
ENDBLK
  5
5AE
330
5A1
100
AcDbEntity
  8
0
100
AcDbBlockEnd
  0
BLOCK
  5
5D1
330
5CA
100
AcDbEntity
  8
0
100
AcDbBlockBegin
  2
*D26
 70
     1
 10
0.0
 20
0.0
 30
0.0
  3
*D26
  1

  0
LINE
  5
658
330
5CA
100
AcDbEntity
  8
0
 62
     0
370
    -2
100
AcDbLine
 10
128.5740355723667
 20
121.7162835573952
 30
0.0
 11
126.2880355723667
 21
121.7162835573952
 31
0.0
  0
LINE
  5
659
330
5CA
100
AcDbEntity
  8
0
 62
     0
370
    -2
100
AcDbLine
 10
126.2880355723667
 20
121.7162835573952
 30
0.0
 11
125.3878397672175
 21
125.338638640741
 31
0.0
  0
MTEXT
  5
65A
330
5CA
100
AcDbEntity
  8
0
 62
     0
100
AcDbMText
 10
138.2670778643177
 20
121.7162835573952
 30
0.0
 40
2.5
 41
0.0
 71
     5
 72
     1
  1
R20 [R.787]
 73
     1
 44
1.0
  0
SOLID
  5
65B
330
5CA
100
AcDbEntity
  8
0
 62
     0
100
AcDbTrace
 10
125.7575932235468
 20
125.4305265155265
 30
0.0
 11
125.0180863108883
 21
125.2467507659555
 31
0.0
 12
124.8365125185047
 22
127.5571593787164
 32
0.0
 13
124.8365125185047
 23
127.5571593787164
 33
0.0
  0
POINT
  5
65C
330
5CA
100
AcDbEntity
  8
Defpoints
 62
     0
100
AcDbPoint
 10
124.8365125185047
 20
127.5571593787164
 30
0.0
  0
POINT
  5
65D
330
5CA
100
AcDbEntity
  8
Defpoints
 62
     0
100
AcDbPoint
 10
129.6600230059309
 20
108.1475291252135
 30
0.0
  0
ENDBLK
  5
5D2
330
5CA
100
AcDbEntity
  8
0
100
AcDbBlockEnd
  0
BLOCK
  5
5EA
330
5E0
100
AcDbEntity
  8
0
100
AcDbBlockBegin
  2
*D27
 70
     1
 10
0.0
 20
0.0
 30
0.0
  3
*D27
  1

  0
LINE
  5
985
330
5E0
100
AcDbEntity
  8
0
 62
     0
370
    -2
100
AcDbLine
 10
155.5337688491548
 20
82.92536098832206
 30
0.0
 11
138.1932163252804
 21
82.92536098832204
 31
0.0
  0
LINE
  5
986
330
5E0
100
AcDbEntity
  8
0
 62
     0
370
    -2
100
AcDbLine
 10
138.1932163252804
 20
82.92536098832204
 30
0.0
 11
133.6419264259468
 21
86.14011557340059
 31
0.0
  0
LINE
  5
987
330
5E0
100
AcDbEntity
  8
0
 62
     0
370
    -2
100
AcDbLine
 10
124.1900092520252
 20
92.81637543482954
 30
0.0
 11
122.3228227104088
 21
94.13524253154804
 31
0.0
  0
MTEXT
  5
988
330
5E0
100
AcDbEntity
  8
0
 62
     0
100
AcDbMText
 10
147.1759925872176
 20
85.19343738668496
 30
0.0
 40
2.5
 41
0.0
 71
     5
 72
     1
  1
\U+22057 [\U+2205.276]
 73
     1
 44
1.0
  0
LINE
  5
989
330
5E0
100
AcDbEntity
  8
0
 62
     0
370
    -2
100
AcDbLine
 10
126.0571957936415
 20
91.49750833811104
 30
0.0
 11
131.7747398843305
 21
87.45898267011909
 31
0.0
  0
SOLID
  5
98A
330
5E0
100
AcDbEntity
  8
0
 62
     0
100
AcDbTrace
 10
124.4098204348116
 20
93.1275731917656
 30
0.0
 11
123.9701980692387
 21
92.50517767789348
 31
0.0
 12
126.0571957936415
 22
91.49750833811104
 32
0.0
 13
126.0571957936415
 23
91.49750833811104
 33
0.0
  0
SOLID
  5
98B
330
5E0
100
AcDbEntity
  8
0
 62
     0
100
AcDbTrace
 10
133.8617376087332
 20
86.45131333033665
 30
0.0
 11
133.4221152431604
 21
85.82891781646454
 31
0.0
 12
131.7747398843305
 22
87.45898267011909
 32
0.0
 13
131.7747398843305
 23
87.45898267011909
 33
0.0
  0
POINT
  5
98C
330
5E0
100
AcDbEntity
  8
Defpoints
 62
     0
100
AcDbPoint
 10
131.7747398843305
 20
87.45898267011909
 30
0.0
  0
POINT
  5
98D
330
5E0
100
AcDbEntity
  8
Defpoints
 62
     0
100
AcDbPoint
 10
126.0571957936415
 20
91.49750833811104
 30
0.0
  0
ENDBLK
  5
5EB
330
5E0
100
AcDbEntity
  8
0
100
AcDbBlockEnd
  0
BLOCK
  5
5F7
330
5ED
100
AcDbEntity
  8
0
100
AcDbBlockBegin
  2
*D28
 70
     1
 10
0.0
 20
0.0
 30
0.0
  3
*D28
  1

  0
LINE
  5
961
330
5ED
100
AcDbEntity
  8
0
 62
     0
370
    -2
100
AcDbLine
 10
186.922065579877
 20
95.8569802630946
 30
0.0
 11
186.922065579877
 21
104.749024611639
 31
0.0
  0
LINE
  5
962
330
5ED
100
AcDbEntity
  8
0
 62
     0
370
    -2
100
AcDbLine
 10
226.8081685662411
 20
95.8569802630946
 30
0.0
 11
226.8081685662411
 21
104.749024611639
 31
0.0
  0
LINE
  5
963
330
5ED
100
AcDbEntity
  8
0
 62
     0
370
    -2
100
AcDbLine
 10
189.208065579877
 20
103.499024611639
 30
0.0
 11
224.5221685662411
 21
103.499024611639
 31
0.0
  0
SOLID
  5
964
330
5ED
100
AcDbEntity
  8
0
 62
     0
100
AcDbTrace
 10
189.208065579877
 20
103.880024611639
 30
0.0
 11
189.208065579877
 21
103.118024611639
 31
0.0
 12
186.922065579877
 22
103.499024611639
 32
0.0
 13
186.922065579877
 23
103.499024611639
 33
0.0
  0
SOLID
  5
965
330
5ED
100
AcDbEntity
  8
0
 62
     0
100
AcDbTrace
 10
224.5221685662411
 20
103.880024611639
 30
0.0
 11
224.5221685662411
 21
103.118024611639
 31
0.0
 12
226.8081685662411
 22
103.499024611639
 32
0.0
 13
226.8081685662411
 23
103.499024611639
 33
0.0
  0
MTEXT
  5
966
330
5ED
100
AcDbEntity
  8
0
 62
     0
100
AcDbMText
 10
206.8651170730591
 20
105.7261733155953
 30
0.0
 40
2.5
 41
0.0
 71
     5
 72
     1
  1
39.89 [1.570]
 73
     1
 44
1.0
  0
POINT
  5
967
330
5ED
100
AcDbEntity
  8
Defpoints
 62
     0
100
AcDbPoint
 10
186.922065579877
 20
95.2319802630946
 30
0.0
  0
POINT
  5
968
330
5ED
100
AcDbEntity
  8
Defpoints
 62
     0
100
AcDbPoint
 10
226.8081685662411
 20
95.2319802630946
 30
0.0
  0
POINT
  5
969
330
5ED
100
AcDbEntity
  8
Defpoints
 62
     0
100
AcDbPoint
 10
226.8081685662411
 20
103.499024611639
 30
0.0
  0
ENDBLK
  5
5F8
330
5ED
100
AcDbEntity
  8
0
100
AcDbBlockEnd
  0
BLOCK
  5
604
330
5FA
100
AcDbEntity
  8
0
100
AcDbBlockBegin
  2
*D29
 70
     1
 10
0.0
 20
0.0
 30
0.0
  3
*D29
  1

  0
LINE
  5
96A
330
5FA
100
AcDbEntity
  8
0
 62
     0
370
    -2
100
AcDbLine
 10
185.9547149166627
 20
83.10324550411515
 30
0.0
 11
185.9547149166627
 21
73.01942528192926
 31
0.0
  0
LINE
  5
96B
330
5FA
100
AcDbEntity
  8
0
 62
     0
370
    -2
100
AcDbLine
 10
227.7755192294555
 20
83.35324550411515
 30
0.0
 11
227.7755192294555
 21
73.01942528192926
 31
0.0
  0
LINE
  5
96C
330
5FA
100
AcDbEntity
  8
0
 62
     0
370
    -2
100
AcDbLine
 10
188.2407149166627
 20
74.26942528192926
 30
0.0
 11
225.4895192294555
 21
74.26942528192926
 31
0.0
  0
SOLID
  5
96D
330
5FA
100
AcDbEntity
  8
0
 62
     0
100
AcDbTrace
 10
188.2407149166627
 20
74.65042528192926
 30
0.0
 11
188.2407149166627
 21
73.88842528192926
 31
0.0
 12
185.9547149166627
 22
74.26942528192926
 32
0.0
 13
185.9547149166627
 23
74.26942528192926
 33
0.0
  0
SOLID
  5
96E
330
5FA
100
AcDbEntity
  8
0
 62
     0
100
AcDbTrace
 10
225.4895192294555
 20
74.65042528192926
 30
0.0
 11
225.4895192294555
 21
73.88842528192926
 31
0.0
 12
227.7755192294555
 22
74.26942528192926
 32
0.0
 13
227.7755192294555
 23
74.26942528192926
 33
0.0
  0
MTEXT
  5
96F
330
5FA
100
AcDbEntity
  8
0
 62
     0
100
AcDbMText
 10
206.8651170730591
 20
76.4965739858856
 30
0.0
 40
2.5
 41
0.0
 71
     5
 72
     1
  1
41.82 [1.646]
 73
     1
 44
1.0
  0
POINT
  5
970
330
5FA
100
AcDbEntity
  8
Defpoints
 62
     0
100
AcDbPoint
 10
185.9547149166627
 20
83.72824550411515
 30
0.0
  0
POINT
  5
971
330
5FA
100
AcDbEntity
  8
Defpoints
 62
     0
100
AcDbPoint
 10
227.7755192294555
 20
83.97824550411515
 30
0.0
  0
POINT
  5
972
330
5FA
100
AcDbEntity
  8
Defpoints
 62
     0
100
AcDbPoint
 10
227.7755192294555
 20
74.26942528192926
 30
0.0
  0
ENDBLK
  5
605
330
5FA
100
AcDbEntity
  8
0
100
AcDbBlockEnd
  0
BLOCK
  5
612
330
611
100
AcDbEntity
  8
0
100
AcDbBlockBegin
  2
*D30
 70
     1
 10
0.0
 20
0.0
 30
0.0
  3
*D30
  1

  0
LINE
  5
613
330
611
100
AcDbEntity
  8
0
 62
     0
370
    -2
100
AcDbLine
 10
135.3306375980377
 20
154.1475291252136
 30
0.0
 11
153.9445154039227
 21
154.1475291252136
 31
0.0
  0
LINE
  5
614
330
611
100
AcDbEntity
  8
0
 62
     0
370
    -2
100
AcDbLine
 10
135.3306375980377
 20
128.1475291252136
 30
0.0
 11
153.9445154039227
 21
128.1475291252136
 31
0.0
  0
LINE
  5
615
330
611
100
AcDbEntity
  8
0
 62
     0
370
    -2
100
AcDbLine
 10
152.6945154039227
 20
151.8615291252136
 30
0.0
 11
152.6945154039227
 21
145.4631271243041
 31
0.0
  0
LINE
  5
616
330
611
100
AcDbEntity
  8
0
 62
     0
370
    -2
100
AcDbLine
 10
152.6945154039227
 20
130.4335291252136
 30
0.0
 11
152.6945154039227
 21
136.8319311261231
 31
0.0
  0
SOLID
  5
617
330
611
100
AcDbEntity
  8
0
 62
     0
100
AcDbTrace
 10
152.3135154039227
 20
151.8615291252136
 30
0.0
 11
153.0755154039226
 21
151.8615291252136
 31
0.0
 12
152.6945154039227
 22
154.1475291252136
 32
0.0
 13
152.6945154039227
 23
154.1475291252136
 33
0.0
  0
SOLID
  5
618
330
611
100
AcDbEntity
  8
0
 62
     0
100
AcDbTrace
 10
152.3135154039227
 20
130.4335291252136
 30
0.0
 11
153.0755154039226
 21
130.4335291252136
 31
0.0
 12
152.6945154039227
 22
128.1475291252136
 32
0.0
 13
152.6945154039227
 23
128.1475291252136
 33
0.0
  0
MTEXT
  5
619
330
611
100
AcDbEntity
  8
0
 62
     0
100
AcDbMText
 10
152.6945154039226
 20
141.1475291252136
 30
0.0
 40
2.5
 41
0.0
 71
     5
 72
     1
  1
26\P [1.024]
 73
     1
 44
1.0
  0
POINT
  5
61A
330
611
100
AcDbEntity
  8
Defpoints
 62
     0
100
AcDbPoint
 10
134.7056375980377
 20
154.1475291252136
 30
0.0
  0
POINT
  5
61B
330
611
100
AcDbEntity
  8
Defpoints
 62
     0
100
AcDbPoint
 10
134.7056375980377
 20
128.1475291252136
 30
0.0
  0
POINT
  5
61C
330
611
100
AcDbEntity
  8
Defpoints
 62
     0
100
AcDbPoint
 10
152.6945154039227
 20
128.1475291252136
 30
0.0
  0
ENDBLK
  5
61D
330
611
100
AcDbEntity
  8
0
100
AcDbBlockEnd
  0
BLOCK
  5
631
330
626
100
AcDbEntity
  8
0
100
AcDbBlockBegin
  2
*D31
 70
     1
 10
0.0
 20
0.0
 30
0.0
  3
*D31
  1

  0
LINE
  5
633
330
626
100
AcDbEntity
  8
0
 62
     0
370
    -2
100
AcDbLine
 10
257.9483203161571
 20
152.4551041322892
 30
0.0
 11
276.5621981220421
 21
152.4551041322892
 31
0.0
  0
LINE
  5
634
330
626
100
AcDbEntity
  8
0
 62
     0
370
    -2
100
AcDbLine
 10
257.9483203161571
 20
126.4551041322892
 30
0.0
 11
276.562198122042
 21
126.4551041322892
 31
0.0
  0
LINE
  5
635
330
626
100
AcDbEntity
  8
0
 62
     0
370
    -2
100
AcDbLine
 10
275.3121981220421
 20
150.1691041322892
 30
0.0
 11
275.3121981220421
 21
143.7707021313797
 31
0.0
  0
LINE
  5
636
330
626
100
AcDbEntity
  8
0
 62
     0
370
    -2
100
AcDbLine
 10
275.3121981220421
 20
128.7411041322892
 30
0.0
 11
275.3121981220421
 21
135.1395061331987
 31
0.0
  0
SOLID
  5
637
330
626
100
AcDbEntity
  8
0
 62
     0
100
AcDbTrace
 10
274.9311981220421
 20
150.1691041322892
 30
0.0
 11
275.6931981220421
 21
150.1691041322892
 31
0.0
 12
275.3121981220421
 22
152.4551041322892
 32
0.0
 13
275.3121981220421
 23
152.4551041322892
 33
0.0
  0
SOLID
  5
638
330
626
100
AcDbEntity
  8
0
 62
     0
100
AcDbTrace
 10
274.9311981220421
 20
128.7411041322892
 30
0.0
 11
275.6931981220421
 21
128.7411041322892
 31
0.0
 12
275.3121981220421
 22
126.4551041322892
 32
0.0
 13
275.3121981220421
 23
126.4551041322892
 33
0.0
  0
MTEXT
  5
639
330
626
100
AcDbEntity
  8
0
 62
     0
100
AcDbMText
 10
275.3121981220421
 20
139.4551041322892
 30
0.0
 40
2.5
 41
0.0
 71
     5
 72
     1
  1
26\P [1.024]
 73
     1
 44
1.0
  0
POINT
  5
63A
330
626
100
AcDbEntity
  8
Defpoints
 62
     0
100
AcDbPoint
 10
257.3233203161571
 20
152.4551041322892
 30
0.0
  0
POINT
  5
63B
330
626
100
AcDbEntity
  8
Defpoints
 62
     0
100
AcDbPoint
 10
257.3233203161571
 20
126.4551041322892
 30
0.0
  0
POINT
  5
63C
330
626
100
AcDbEntity
  8
Defpoints
 62
     0
100
AcDbPoint
 10
275.3121981220421
 20
126.4551041322892
 30
0.0
  0
ENDBLK
  5
632
330
626
100
AcDbEntity
  8
0
100
AcDbBlockEnd
  0
BLOCK
  5
666
330
65F
100
AcDbEntity
  8
0
100
AcDbBlockBegin
  2
*D32
 70
     1
 10
0.0
 20
0.0
 30
0.0
  3
*D32
  1

  0
LINE
  5
9A0
330
65F
100
AcDbEntity
  8
0
 62
     0
370
    -2
100
AcDbLine
 10
128.8751374561641
 20
122.4995261869614
 30
0.0
 11
126.5891374561641
 21
122.4995261869614
 31
0.0
  0
LINE
  5
9A1
330
65F
100
AcDbEntity
  8
0
 62
     0
370
    -2
100
AcDbLine
 10
126.5891374561641
 20
122.4995261869614
 30
0.0
 11
126.362508147462
 21
124.7742646678504
 31
0.0
  0
MTEXT
  5
9A2
330
65F
100
AcDbEntity
  8
0
 62
     0
100
AcDbMText
 10
138.568179748115
 20
122.4995261869614
 30
0.0
 40
2.5
 41
0.0
 71
     5
 72
     1
  1
R20 [R.787]
 73
     1
 44
1.0
  0
SOLID
  5
9A3
330
65F
100
AcDbEntity
  8
0
 62
     0
100
AcDbTrace
 10
126.7416312276102
 20
124.8120362193008
 30
0.0
 11
125.9833850673139
 21
124.7364931164001
 31
0.0
 12
126.1358788387599
 22
127.0490031487394
 32
0.0
 13
126.1358788387599
 23
127.0490031487394
 33
0.0
  0
POINT
  5
9A4
330
65F
100
AcDbEntity
  8
Defpoints
 62
     0
100
AcDbPoint
 10
126.1358788387599
 20
127.0490031487394
 30
0.0
  0
POINT
  5
9A5
330
65F
100
AcDbEntity
  8
Defpoints
 62
     0
100
AcDbPoint
 10
128.1186374450776
 20
107.1475291252137
 30
0.0
  0
ENDBLK
  5
667
330
65F
100
AcDbEntity
  8
0
100
AcDbBlockEnd
  0
BLOCK
  5
673
330
669
100
AcDbEntity
  8
0
100
AcDbBlockBegin
  2
*D33
 70
     1
 10
0.0
 20
0.0
 30
0.0
  3
*D33
  1

  0
LINE
  5
66A
330
669
100
AcDbEntity
  8
0
 62
     0
370
    -2
100
AcDbLine
 10
190.215117073059
 20
95.85324550411494
 30
0.0
 11
190.215117073059
 21
98.29767562590376
 31
0.0
  0
LINE
  5
66B
330
669
100
AcDbEntity
  8
0
 62
     0
370
    -2
100
AcDbLine
 10
223.515117073059
 20
95.85324550411494
 30
0.0
 11
223.515117073059
 21
98.29767562590376
 31
0.0
  0
LINE
  5
66C
330
669
100
AcDbEntity
  8
0
 62
     0
370
    -2
100
AcDbLine
 10
192.501117073059
 20
97.04767562590376
 30
0.0
 11
221.229117073059
 21
97.04767562590376
 31
0.0
  0
SOLID
  5
66D
330
669
100
AcDbEntity
  8
0
 62
     0
100
AcDbTrace
 10
192.501117073059
 20
97.42867562590376
 30
0.0
 11
192.501117073059
 21
96.66667562590376
 31
0.0
 12
190.215117073059
 22
97.04767562590376
 32
0.0
 13
190.215117073059
 23
97.04767562590376
 33
0.0
  0
SOLID
  5
66E
330
669
100
AcDbEntity
  8
0
 62
     0
100
AcDbTrace
 10
221.229117073059
 20
97.42867562590376
 30
0.0
 11
221.229117073059
 21
96.66667562590376
 31
0.0
 12
223.515117073059
 22
97.04767562590376
 32
0.0
 13
223.515117073059
 23
97.04767562590376
 33
0.0
  0
MTEXT
  5
66F
330
669
100
AcDbEntity
  8
0
 62
     0
100
AcDbMText
 10
206.865117073059
 20
99.2748243298601
 30
0.0
 40
2.5
 41
0.0
 71
     5
 72
     1
  1
33.3 [1.311]
 73
     1
 44
1.0
  0
POINT
  5
670
330
669
100
AcDbEntity
  8
Defpoints
 62
     0
100
AcDbPoint
 10
190.215117073059
 20
95.22824550411494
 30
0.0
  0
POINT
  5
671
330
669
100
AcDbEntity
  8
Defpoints
 62
     0
100
AcDbPoint
 10
223.515117073059
 20
95.22824550411494
 30
0.0
  0
POINT
  5
672
330
669
100
AcDbEntity
  8
Defpoints
 62
     0
100
AcDbPoint
 10
223.515117073059
 20
97.04767562590376
 30
0.0
  0
ENDBLK
  5
674
330
669
100
AcDbEntity
  8
0
100
AcDbBlockEnd
  0
BLOCK
  5
6C9
330
6BF
100
AcDbEntity
  8
0
100
AcDbBlockBegin
  2
*D34
 70
     1
 10
0.0
 20
0.0
 30
0.0
  3
*D34
  1

  0
LINE
  5
6C0
330
6BF
100
AcDbEntity
  8
0
 62
     0
370
    -2
100
AcDbLine
 10
69.29644704425832
 20
164.8662105091245
 30
0.0
 11
95.37676764453115
 21
164.8662105091245
 31
0.0
  0
LINE
  5
6C1
330
6BF
100
AcDbEntity
  8
0
 62
     0
370
    -2
100
AcDbLine
 10
95.37676764453115
 20
164.8662105091245
 30
0.0
 11
96.39353706577537
 21
162.8187789610568
 31
0.0
  0
LINE
  5
6C2
330
6BF
100
AcDbEntity
  8
0
 62
     0
370
    -2
100
AcDbLine
 10
117.9177381303
 20
119.4762792893703
 30
0.0
 11
118.9345075515443
 21
117.4288477413026
 31
0.0
  0
MTEXT
  5
6C3
330
6BF
100
AcDbEntity
  8
0
 62
     0
100
AcDbMText
 10
82.02410734439478
 20
167.1342869074874
 30
0.0
 40
2.5
 41
0.0
 71
     5
 72
     1
  1
\U+220543.82 [\U+22051.725]
 73
     1
 44
1.0
  0
LINE
  5
6C4
330
6BF
100
AcDbEntity
  8
0
 62
     0
370
    -2
100
AcDbLine
 10
116.9009687090558
 20
121.5237108374379
 30
0.0
 11
97.4103064870196
 21
160.7713474129892
 31
0.0
  0
SOLID
  5
6C5
330
6BF
100
AcDbEntity
  8
0
 62
     0
100
AcDbTrace
 10
118.2589767216447
 20
119.6457408595776
 30
0.0
 11
117.5764995389555
 21
119.3068177191629
 31
0.0
 12
116.9009687090558
 22
121.5237108374379
 32
0.0
 13
116.9009687090558
 23
121.5237108374379
 33
0.0
  0
SOLID
  5
6C6
330
6BF
100
AcDbEntity
  8
0
 62
     0
100
AcDbTrace
 10
96.73477565712
 20
162.9882405312642
 30
0.0
 11
96.05229847443078
 21
162.6493173908495
 31
0.0
 12
97.4103064870196
 22
160.7713474129892
 32
0.0
 13
97.4103064870196
 23
160.7713474129892
 33
0.0
  0
POINT
  5
6C7
330
6BF
100
AcDbEntity
  8
Defpoints
 62
     0
100
AcDbPoint
 10
97.4103064870196
 20
160.7713474129892
 30
0.0
  0
POINT
  5
6C8
330
6BF
100
AcDbEntity
  8
Defpoints
 62
     0
100
AcDbPoint
 10
116.9009687090558
 20
121.5237108374379
 30
0.0
  0
ENDBLK
  5
6CA
330
6BF
100
AcDbEntity
  8
0
100
AcDbBlockEnd
  0
BLOCK
  5
6D4
330
6CC
100
AcDbEntity
  8
0
100
AcDbBlockBegin
  2
*D35
 70
     1
 10
0.0
 20
0.0
 30
0.0
  3
*D35
  1

  0
LINE
  5
6CD
330
6CC
100
AcDbEntity
  8
0
 62
     0
370
    -2
100
AcDbLine
 10
63.17634303849811
 20
158.0785435101755
 30
0.0
 11
86.79247537137667
 21
158.0785435101756
 31
0.0
  0
LINE
  5
6CE
330
6CC
100
AcDbEntity
  8
0
 62
     0
370
    -2
100
AcDbLine
 10
86.79247537137667
 20
158.0785435101756
 30
0.0
 11
88.55025355838696
 21
156.6170333852461
 31
0.0
  0
MTEXT
  5
6CF
330
6CC
100
AcDbEntity
  8
0
 62
     0
100
AcDbMText
 10
74.67190920493741
 20
160.3056922141319
 30
0.0
 40
2.5
 41
0.0
 71
     5
 72
     1
  1
R21.91 [R.863]
 73
     1
 44
1.0
  0
LINE
  5
6D0
330
6CC
100
AcDbEntity
  8
0
 62
     0
370
    -2
100
AcDbLine
 10
107.1556375980377
 20
141.1475291252136
 30
0.0
 11
90.3080317453972
 21
155.1555232603169
 31
0.0
  0
SOLID
  5
6D1
330
6CC
100
AcDbEntity
  8
0
 62
     0
100
AcDbTrace
 10
88.79383857920851
 20
156.9099964164145
 30
0.0
 11
88.3066685375654
 21
156.3240703540778
 31
0.0
 12
90.3080317453972
 22
155.1555232603169
 32
0.0
 13
90.3080317453972
 23
155.1555232603169
 33
0.0
  0
POINT
  5
6D2
330
6CC
100
AcDbEntity
  8
Defpoints
 62
     0
100
AcDbPoint
 10
90.3080317453972
 20
155.1555232603169
 30
0.0
  0
POINT
  5
6D3
330
6CC
100
AcDbEntity
  8
Defpoints
 62
     0
100
AcDbPoint
 10
107.1556375980377
 20
141.1475291252136
 30
0.0
  0
ENDBLK
  5
6D5
330
6CC
100
AcDbEntity
  8
0
100
AcDbBlockEnd
  0
BLOCK
  5
6E2
330
6D8
100
AcDbEntity
  8
0
100
AcDbBlockBegin
  2
*D36
 70
     1
 10
0.0
 20
0.0
 30
0.0
  3
*D36
  1

  0
LINE
  5
6D9
330
6D8
100
AcDbEntity
  8
0
 62
     0
370
    -2
100
AcDbLine
 10
107.115967838986
 20
91.78810454151436
 30
0.0
 11
107.115967838986
 21
77.99607498197423
 31
0.0
  0
LINE
  5
6DA
330
6D8
100
AcDbEntity
  8
0
 62
     0
370
    -2
100
AcDbLine
 10
85.20556568258971
 20
83.35324550411506
 30
0.0
 11
85.20556568258971
 21
77.99607498197423
 31
0.0
  0
LINE
  5
6DB
330
6D8
100
AcDbEntity
  8
0
 62
     0
370
    -2
100
AcDbLine
 10
104.829967838986
 20
79.24607498197423
 30
0.0
 11
87.49156568258971
 21
79.24607498197423
 31
0.0
  0
SOLID
  5
6DC
330
6D8
100
AcDbEntity
  8
0
 62
     0
100
AcDbTrace
 10
104.829967838986
 20
79.62707498197423
 30
0.0
 11
104.829967838986
 21
78.86507498197423
 31
0.0
 12
107.115967838986
 22
79.24607498197423
 32
0.0
 13
107.115967838986
 23
79.24607498197423
 33
0.0
  0
SOLID
  5
6DD
330
6D8
100
AcDbEntity
  8
0
 62
     0
100
AcDbTrace
 10
87.49156568258971
 20
79.62707498197423
 30
0.0
 11
87.49156568258971
 21
78.86507498197423
 31
0.0
 12
85.20556568258971
 22
79.24607498197423
 32
0.0
 13
85.20556568258971
 23
79.24607498197423
 33
0.0
  0
MTEXT
  5
6DE
330
6D8
100
AcDbEntity
  8
0
 62
     0
100
AcDbMText
 10
96.16076676078787
 20
81.47322368593057
 30
0.0
 40
2.5
 41
0.0
 71
     5
 72
     1
  1
21.91 [.863]
 73
     1
 44
1.0
  0
POINT
  5
6DF
330
6D8
100
AcDbEntity
  8
Defpoints
 62
     0
100
AcDbPoint
 10
107.115967838986
 20
92.41310454151436
 30
0.0
  0
POINT
  5
6E0
330
6D8
100
AcDbEntity
  8
Defpoints
 62
     0
100
AcDbPoint
 10
85.20556568258971
 20
83.97824550411506
 30
0.0
  0
POINT
  5
6E1
330
6D8
100
AcDbEntity
  8
Defpoints
 62
     0
100
AcDbPoint
 10
85.20556568258971
 20
79.24607498197423
 30
0.0
  0
ENDBLK
  5
6E3
330
6D8
100
AcDbEntity
  8
0
100
AcDbBlockEnd
  0
BLOCK
  5
71C
330
714
100
AcDbEntity
  8
0
100
AcDbBlockBegin
  2
*D37
 70
     1
 10
0.0
 20
0.0
 30
0.0
  3
*D37
  1

  0
LINE
  5
715
330
714
100
AcDbEntity
  8
VisibleEdgeEntityLayer
 62
     0
370
    -2
100
AcDbLine
 10
59.49421389497047
 20
161.8811265840275
 30
0.0
 11
83.11034622784907
 21
161.8811265840275
 31
0.0
  0
LINE
  5
716
330
714
100
AcDbEntity
  8
VisibleEdgeEntityLayer
 62
     0
370
    -2
100
AcDbLine
 10
83.11034622784907
 20
161.8811265840275
 30
0.0
 11
88.98235442481007
 21
156.8178544299795
 31
0.0
  0
MTEXT
  5
717
330
714
100
AcDbEntity
  8
VisibleEdgeEntityLayer
 62
     0
100
AcDbMText
 10
70.9897800614098
 20
164.1082752879839
 30
0.0
 40
2.5
 41
0.0
 71
     5
 72
     1
  1
R21.71 [R.855]
 73
     1
 44
1.0
  0
LINE
  5
718
330
714
100
AcDbEntity
  8
VisibleEdgeEntityLayer
 62
     0
370
    -2
100
AcDbLine
 10
107.1556375980375
 20
141.1475291252136
 30
0.0
 11
90.71361918121963
 21
155.3250321554892
 31
0.0
  0
SOLID
  5
719
330
714
100
AcDbEntity
  8
VisibleEdgeEntityLayer
 62
     0
100
AcDbTrace
 10
89.23115813722516
 20
157.1063985560478
 30
0.0
 11
88.73355071239506
 21
156.5293103039113
 31
0.0
 12
90.71361918121963
 22
155.3250321554892
 32
0.0
 13
90.71361918121963
 23
155.3250321554892
 33
0.0
  0
POINT
  5
71A
330
714
100
AcDbEntity
  8
Defpoints
 62
     0
100
AcDbPoint
 10
90.71361918121963
 20
155.3250321554892
 30
0.0
  0
POINT
  5
71B
330
714
100
AcDbEntity
  8
Defpoints
 62
     0
100
AcDbPoint
 10
107.1556375980375
 20
141.1475291252136
 30
0.0
  0
ENDBLK
  5
71D
330
714
100
AcDbEntity
  8
0
100
AcDbBlockEnd
  0
BLOCK
  5
748
330
73B
100
AcDbEntity
  8
0
100
AcDbBlockBegin
  2
*D38
 70
     1
 10
0.0
 20
0.0
 30
0.0
  3
*D38
  1

  0
LINE
  5
74A
330
73B
100
AcDbEntity
  8
VisibleEdgeEntityLayer
 62
     0
370
    -2
100
AcDbLine
 10
128.0585337701793
 20
125.9061774228292
 30
0.0
 11
130.6430439447397
 21
125.9061774228292
 31
0.0
  0
LINE
  5
74B
330
73B
100
AcDbEntity
  8
VisibleEdgeEntityLayer
 62
     0
370
    -2
100
AcDbLine
 10
128.255449793587
 20
120.9832768376364
 30
0.0
 11
130.6430439447397
 21
120.9832768376364
 31
0.0
  0
LINE
  5
74C
330
73B
100
AcDbEntity
  8
VisibleEdgeEntityLayer
 62
     0
370
    -2
100
AcDbLine
 10
129.3930439447397
 20
128.1921774228292
 30
0.0
 11
129.3930439447397
 21
130.4781774228292
 31
0.0
  0
LINE
  5
74D
330
73B
100
AcDbEntity
  8
VisibleEdgeEntityLayer
 62
     0
370
    -2
100
AcDbLine
 10
129.3930439447397
 20
118.6972768376364
 30
0.0
 11
129.3930439447397
 21
116.4112768376364
 31
0.0
  0
LINE
  5
74E
330
73B
100
AcDbEntity
  8
VisibleEdgeEntityLayer
 62
     0
370
    -2
100
AcDbLine
 10
129.3930439447397
 20
125.9061774228292
 30
0.0
 11
129.3930439447397
 21
125.6718758341891
 31
0.0
  0
LINE
  5
74F
330
73B
100
AcDbEntity
  8
VisibleEdgeEntityLayer
 62
     0
370
    -2
100
AcDbLine
 10
129.3930439447397
 20
120.9832768376364
 30
0.0
 11
129.3930439447397
 21
121.2175784262764
 31
0.0
  0
SOLID
  5
750
330
73B
100
AcDbEntity
  8
VisibleEdgeEntityLayer
 62
     0
100
AcDbTrace
 10
129.0120439447397
 20
128.1921774228292
 30
0.0
 11
129.7740439447397
 21
128.1921774228292
 31
0.0
 12
129.3930439447397
 22
125.9061774228292
 32
0.0
 13
129.3930439447397
 23
125.9061774228292
 33
0.0
  0
SOLID
  5
751
330
73B
100
AcDbEntity
  8
VisibleEdgeEntityLayer
 62
     0
100
AcDbTrace
 10
129.0120439447397
 20
118.6972768376364
 30
0.0
 11
129.7740439447397
 21
118.6972768376364
 31
0.0
 12
129.3930439447397
 22
120.9832768376364
 32
0.0
 13
129.3930439447397
 23
120.9832768376364
 33
0.0
  0
MTEXT
  5
752
330
73B
100
AcDbEntity
  8
VisibleEdgeEntityLayer
 62
     0
100
AcDbMText
 10
129.3930439447396
 20
123.4447271302328
 30
0.0
 40
2.5
 41
0.0
 71
     5
 72
     1
  1
4.92 [.194]
 73
     1
 44
1.0
  0
POINT
  5
753
330
73B
100
AcDbEntity
  8
Defpoints
 62
     0
100
AcDbPoint
 10
127.4335337701793
 20
125.9061774228292
 30
0.0
  0
POINT
  5
754
330
73B
100
AcDbEntity
  8
Defpoints
 62
     0
100
AcDbPoint
 10
127.630449793587
 20
120.9832768376364
 30
0.0
  0
POINT
  5
755
330
73B
100
AcDbEntity
  8
Defpoints
 62
     0
100
AcDbPoint
 10
129.3930439447397
 20
120.9832768376364
 30
0.0
  0
ENDBLK
  5
749
330
73B
100
AcDbEntity
  8
0
100
AcDbBlockEnd
  0
BLOCK
  5
762
330
757
100
AcDbEntity
  8
0
100
AcDbBlockBegin
  2
*D39
 70
     1
 10
0.0
 20
0.0
 30
0.0
  3
*D39
  1

  0
LINE
  5
758
330
757
100
AcDbEntity
  8
VisibleEdgeEntityLayer
 62
     0
370
    -2
100
AcDbLine
 10
128.5216585422108
 20
132.3059481835798
 30
0.0
 11
134.8074500911964
 21
132.3059481835798
 31
0.0
  0
LINE
  5
759
330
757
100
AcDbEntity
  8
VisibleEdgeEntityLayer
 62
     0
370
    -2
100
AcDbLine
 10
128.255449793587
 20
120.9832768376364
 30
0.0
 11
134.8074500911964
 21
120.9832768376364
 31
0.0
  0
LINE
  5
75A
330
757
100
AcDbEntity
  8
VisibleEdgeEntityLayer
 62
     0
370
    -2
100
AcDbLine
 10
133.5574500911964
 20
130.0199481835798
 30
0.0
 11
133.5574500911964
 21
128.8717612145645
 31
0.0
  0
LINE
  5
75B
330
757
100
AcDbEntity
  8
VisibleEdgeEntityLayer
 62
     0
370
    -2
100
AcDbLine
 10
133.5574500911964
 20
123.2692768376364
 30
0.0
 11
133.5574500911964
 21
124.4174638066518
 31
0.0
  0
SOLID
  5
75C
330
757
100
AcDbEntity
  8
VisibleEdgeEntityLayer
 62
     0
100
AcDbTrace
 10
133.1764500911964
 20
130.0199481835798
 30
0.0
 11
133.9384500911964
 21
130.0199481835798
 31
0.0
 12
133.5574500911964
 22
132.3059481835798
 32
0.0
 13
133.5574500911964
 23
132.3059481835798
 33
0.0
  0
SOLID
  5
75D
330
757
100
AcDbEntity
  8
VisibleEdgeEntityLayer
 62
     0
100
AcDbTrace
 10
133.1764500911964
 20
123.2692768376364
 30
0.0
 11
133.9384500911964
 21
123.2692768376364
 31
0.0
 12
133.5574500911964
 22
120.9832768376364
 32
0.0
 13
133.5574500911964
 23
120.9832768376364
 33
0.0
  0
MTEXT
  5
75E
330
757
100
AcDbEntity
  8
VisibleEdgeEntityLayer
 62
     0
100
AcDbMText
 10
133.5574500911964
 20
126.6446125106081
 30
0.0
 40
2.5
 41
0.0
 71
     5
 72
     1
  1
11.32 [.446]
 73
     1
 44
1.0
  0
POINT
  5
75F
330
757
100
AcDbEntity
  8
Defpoints
 62
     0
100
AcDbPoint
 10
127.8966585422108
 20
132.3059481835798
 30
0.0
  0
POINT
  5
760
330
757
100
AcDbEntity
  8
Defpoints
 62
     0
100
AcDbPoint
 10
127.630449793587
 20
120.9832768376364
 30
0.0
  0
POINT
  5
761
330
757
100
AcDbEntity
  8
Defpoints
 62
     0
100
AcDbPoint
 10
133.5574500911964
 20
120.9832768376364
 30
0.0
  0
ENDBLK
  5
763
330
757
100
AcDbEntity
  8
0
100
AcDbBlockEnd
  0
BLOCK
  5
771
330
766
100
AcDbEntity
  8
0
100
AcDbBlockBegin
  2
*D40
 70
     1
 10
0.0
 20
0.0
 30
0.0
  3
*D40
  1

  0
LINE
  5
767
330
766
100
AcDbEntity
  8
VisibleEdgeEntityLayer
 62
     0
370
    -2
100
AcDbLine
 10
128.6492818404024
 20
148.5515201147161
 30
0.0
 11
131.6573885108645
 21
148.5515201147161
 31
0.0
  0
LINE
  5
768
330
766
100
AcDbEntity
  8
VisibleEdgeEntityLayer
 62
     0
370
    -2
100
AcDbLine
 10
128.6492818404024
 20
137.2288487687727
 30
0.0
 11
131.6573885108645
 21
137.2288487687727
 31
0.0
  0
LINE
  5
769
330
766
100
AcDbEntity
  8
VisibleEdgeEntityLayer
 62
     0
370
    -2
100
AcDbLine
 10
130.4073885108645
 20
146.265520114716
 30
0.0
 11
130.4073885108645
 21
145.1173331457006
 31
0.0
  0
LINE
  5
76A
330
766
100
AcDbEntity
  8
VisibleEdgeEntityLayer
 62
     0
370
    -2
100
AcDbLine
 10
130.4073885108645
 20
139.5148487687727
 30
0.0
 11
130.4073885108645
 21
140.6630357377881
 31
0.0
  0
SOLID
  5
76B
330
766
100
AcDbEntity
  8
VisibleEdgeEntityLayer
 62
     0
100
AcDbTrace
 10
130.0263885108645
 20
146.265520114716
 30
0.0
 11
130.7883885108645
 21
146.265520114716
 31
0.0
 12
130.4073885108645
 22
148.5515201147161
 32
0.0
 13
130.4073885108645
 23
148.5515201147161
 33
0.0
  0
SOLID
  5
76C
330
766
100
AcDbEntity
  8
VisibleEdgeEntityLayer
 62
     0
100
AcDbTrace
 10
130.0263885108645
 20
139.5148487687727
 30
0.0
 11
130.7883885108645
 21
139.5148487687727
 31
0.0
 12
130.4073885108645
 22
137.2288487687727
 32
0.0
 13
130.4073885108645
 23
137.2288487687727
 33
0.0
  0
MTEXT
  5
76D
330
766
100
AcDbEntity
  8
VisibleEdgeEntityLayer
 62
     0
100
AcDbMText
 10
130.4073885108645
 20
142.8901844417444
 30
0.0
 40
2.5
 41
0.0
 71
     5
 72
     1
  1
11.32 [.446]
 73
     1
 44
1.0
  0
POINT
  5
76E
330
766
100
AcDbEntity
  8
Defpoints
 62
     0
100
AcDbPoint
 10
128.0242818404024
 20
148.5515201147161
 30
0.0
  0
POINT
  5
76F
330
766
100
AcDbEntity
  8
Defpoints
 62
     0
100
AcDbPoint
 10
128.0242818404024
 20
137.2288487687727
 30
0.0
  0
POINT
  5
770
330
766
100
AcDbEntity
  8
Defpoints
 62
     0
100
AcDbPoint
 10
130.4073885108645
 20
137.2288487687727
 30
0.0
  0
ENDBLK
  5
772
330
766
100
AcDbEntity
  8
0
100
AcDbBlockEnd
  0
BLOCK
  5
781
330
774
100
AcDbEntity
  8
0
100
AcDbBlockBegin
  2
*D41
 70
     1
 10
0.0
 20
0.0
 30
0.0
  3
*D41
  1

  0
LINE
  5
9F5
330
774
100
AcDbEntity
  8
0
 62
     0
370
    -2
100
AcDbLine
 10
134.7306375980377
 20
132.1475291252136
 30
0.0
 11
142.2886981176191
 21
132.1475291252136
 31
0.0
  0
LINE
  5
9F6
330
774
100
AcDbEntity
  8
0
 62
     0
370
    -2
100
AcDbLine
 10
134.9306375980377
 20
127.1475291252136
 30
0.0
 11
142.2886981176191
 21
127.1475291252136
 31
0.0
  0
LINE
  5
9F7
330
774
100
AcDbEntity
  8
0
 62
     0
370
    -2
100
AcDbLine
 10
141.0386981176191
 20
134.4335291252136
 30
0.0
 11
141.0386981176191
 21
136.7195291252136
 31
0.0
  0
LINE
  5
9F8
330
774
100
AcDbEntity
  8
0
 62
     0
370
    -2
100
AcDbLine
 10
141.0386981176191
 20
124.8615291252135
 30
0.0
 11
141.0386981176191
 21
122.5755291252136
 31
0.0
  0
LINE
  5
9F9
330
774
100
AcDbEntity
  8
0
 62
     0
370
    -2
100
AcDbLine
 10
141.0386981176191
 20
132.1475291252136
 30
0.0
 11
141.0386981176191
 21
131.8746778291699
 31
0.0
  0
LINE
  5
9FA
330
774
100
AcDbEntity
  8
0
 62
     0
370
    -2
100
AcDbLine
 10
141.0386981176191
 20
127.1475291252136
 30
0.0
 11
141.0386981176191
 21
127.4203804212572
 31
0.0
  0
SOLID
  5
9FB
330
774
100
AcDbEntity
  8
0
 62
     0
100
AcDbTrace
 10
140.6576981176191
 20
134.4335291252136
 30
0.0
 11
141.4196981176191
 21
134.4335291252136
 31
0.0
 12
141.0386981176191
 22
132.1475291252136
 32
0.0
 13
141.0386981176191
 23
132.1475291252136
 33
0.0
  0
SOLID
  5
9FC
330
774
100
AcDbEntity
  8
0
 62
     0
100
AcDbTrace
 10
140.6576981176191
 20
124.8615291252135
 30
0.0
 11
141.4196981176191
 21
124.8615291252135
 31
0.0
 12
141.0386981176191
 22
127.1475291252136
 32
0.0
 13
141.0386981176191
 23
127.1475291252136
 33
0.0
  0
MTEXT
  5
9FD
330
774
100
AcDbEntity
  8
0
 62
     0
100
AcDbMText
 10
141.0386981176191
 20
129.6475291252136
 30
0.0
 40
2.5
 41
0.0
 71
     5
 72
     1
  1
5 [.197]
 73
     1
 44
1.0
  0
POINT
  5
9FE
330
774
100
AcDbEntity
  8
Defpoints
 62
     0
100
AcDbPoint
 10
134.1056375980377
 20
132.1475291252136
 30
0.0
  0
POINT
  5
9FF
330
774
100
AcDbEntity
  8
Defpoints
 62
     0
100
AcDbPoint
 10
134.3056375980377
 20
127.1475291252136
 30
0.0
  0
POINT
  5
A00
330
774
100
AcDbEntity
  8
Defpoints
 62
     0
100
AcDbPoint
 10
141.0386981176191
 20
127.1475291252136
 30
0.0
  0
ENDBLK
  5
782
330
774
100
AcDbEntity
  8
0
100
AcDbBlockEnd
  0
BLOCK
  5
794
330
787
100
AcDbEntity
  8
0
100
AcDbBlockBegin
  2
*D42
 70
     1
 10
0.0
 20
0.0
 30
0.0
  3
*D42
  1

  0
LINE
  5
788
330
787
100
AcDbEntity
  8
VisibleEdgeEntityLayer
 62
     0
370
    -2
100
AcDbLine
 10
228.4005192294555
 20
83.97824550411515
 30
0.0
 11
247.5102853518643
 21
83.97824550411515
 31
0.0
  0
LINE
  5
789
330
787
100
AcDbEntity
  8
VisibleEdgeEntityLayer
 62
     0
370
    -2
100
AcDbLine
 10
228.4005192294555
 20
83.72824550411515
 30
0.0
 11
247.5102853518643
 21
83.72824550411515
 31
0.0
  0
LINE
  5
78A
330
787
100
AcDbEntity
  8
VisibleEdgeEntityLayer
 62
     0
370
    -2
100
AcDbLine
 10
246.2602853518642
 20
86.26424550411519
 30
0.0
 11
246.2602853518642
 21
88.55024550411519
 31
0.0
  0
LINE
  5
78B
330
787
100
AcDbEntity
  8
VisibleEdgeEntityLayer
 62
     0
370
    -2
100
AcDbLine
 10
246.2602853518642
 20
81.44224550411514
 30
0.0
 11
246.2602853518642
 21
79.15624550411514
 31
0.0
  0
LINE
  5
78C
330
787
100
AcDbEntity
  8
VisibleEdgeEntityLayer
 62
     0
370
    -2
100
AcDbLine
 10
246.2602853518642
 20
79.15624550411514
 30
0.0
 11
229.5012471526828
 21
79.15624550411514
 31
0.0
  0
LINE
  5
78D
330
787
100
AcDbEntity
  8
VisibleEdgeEntityLayer
 62
     0
370
    -2
100
AcDbLine
 10
246.2602853518642
 20
83.97824550411515
 30
0.0
 11
246.2602853518642
 21
83.72824550411515
 31
0.0
  0
SOLID
  5
78E
330
787
100
AcDbEntity
  8
VisibleEdgeEntityLayer
 62
     0
100
AcDbTrace
 10
245.8792853518642
 20
86.26424550411519
 30
0.0
 11
246.6412853518642
 21
86.26424550411519
 31
0.0
 12
246.2602853518642
 22
83.97824550411515
 32
0.0
 13
246.2602853518642
 23
83.97824550411515
 33
0.0
  0
SOLID
  5
78F
330
787
100
AcDbEntity
  8
VisibleEdgeEntityLayer
 62
     0
100
AcDbTrace
 10
245.8792853518642
 20
81.44224550411514
 30
0.0
 11
246.6412853518642
 21
81.44224550411514
 31
0.0
 12
246.2602853518642
 22
83.72824550411515
 32
0.0
 13
246.2602853518642
 23
83.72824550411515
 33
0.0
  0
MTEXT
  5
790
330
787
100
AcDbEntity
  8
VisibleEdgeEntityLayer
 62
     0
100
AcDbMText
 10
237.5682662522735
 20
81.38339420807154
 30
0.0
 40
2.5
 41
0.0
 71
     5
 72
     1
  1
0.25 [.010]
 73
     1
 44
1.0
  0
POINT
  5
791
330
787
100
AcDbEntity
  8
Defpoints
 62
     0
100
AcDbPoint
 10
227.7755192294555
 20
83.97824550411515
 30
0.0
  0
POINT
  5
792
330
787
100
AcDbEntity
  8
Defpoints
 62
     0
100
AcDbPoint
 10
227.7755192294555
 20
83.72824550411515
 30
0.0
  0
POINT
  5
793
330
787
100
AcDbEntity
  8
Defpoints
 62
     0
100
AcDbPoint
 10
246.2602853518642
 20
83.72824550411515
 30
0.0
  0
ENDBLK
  5
795
330
787
100
AcDbEntity
  8
0
100
AcDbBlockEnd
  0
BLOCK
  5
7B0
330
7A5
100
AcDbEntity
  8
0
100
AcDbBlockBegin
  2
*D43
 70
     1
 10
0.0
 20
0.0
 30
0.0
  3
*D43
  1

  0
LINE
  5
7B2
330
7A5
100
AcDbEntity
  8
0
 62
     0
370
    -2
100
AcDbLine
 10
135.3306375980377
 20
154.1475291252136
 30
0.0
 11
153.9445154039226
 21
154.1475291252136
 31
0.0
  0
LINE
  5
7B3
330
7A5
100
AcDbEntity
  8
0
 62
     0
370
    -2
100
AcDbLine
 10
135.3306375980377
 20
126.1475291252136
 30
0.0
 11
153.9445154039226
 21
126.1475291252136
 31
0.0
  0
LINE
  5
7B4
330
7A5
100
AcDbEntity
  8
0
 62
     0
370
    -2
100
AcDbLine
 10
152.6945154039226
 20
151.8615291252136
 30
0.0
 11
152.6945154039226
 21
145.463127124304
 31
0.0
  0
LINE
  5
7B5
330
7A5
100
AcDbEntity
  8
0
 62
     0
370
    -2
100
AcDbLine
 10
152.6945154039226
 20
128.4335291252135
 30
0.0
 11
152.6945154039226
 21
136.831931126123
 31
0.0
  0
SOLID
  5
7B6
330
7A5
100
AcDbEntity
  8
0
 62
     0
100
AcDbTrace
 10
152.3135154039226
 20
151.8615291252136
 30
0.0
 11
153.0755154039226
 21
151.8615291252136
 31
0.0
 12
152.6945154039226
 22
154.1475291252136
 32
0.0
 13
152.6945154039226
 23
154.1475291252136
 33
0.0
  0
SOLID
  5
7B7
330
7A5
100
AcDbEntity
  8
0
 62
     0
100
AcDbTrace
 10
152.3135154039226
 20
128.4335291252135
 30
0.0
 11
153.0755154039226
 21
128.4335291252135
 31
0.0
 12
152.6945154039226
 22
126.1475291252136
 32
0.0
 13
152.6945154039226
 23
126.1475291252136
 33
0.0
  0
MTEXT
  5
7B8
330
7A5
100
AcDbEntity
  8
0
 62
     0
100
AcDbMText
 10
152.6945154039226
 20
141.1475291252136
 30
0.0
 40
2.5
 41
0.0
 71
     5
 72
     1
  1
28\P [1.102]
 73
     1
 44
1.0
  0
POINT
  5
7B9
330
7A5
100
AcDbEntity
  8
Defpoints
 62
     0
100
AcDbPoint
 10
134.7056375980377
 20
154.1475291252136
 30
0.0
  0
POINT
  5
7BA
330
7A5
100
AcDbEntity
  8
Defpoints
 62
     0
100
AcDbPoint
 10
134.7056375980377
 20
126.1475291252136
 30
0.0
  0
POINT
  5
7BB
330
7A5
100
AcDbEntity
  8
Defpoints
 62
     0
100
AcDbPoint
 10
152.6945154039226
 20
126.1475291252136
 30
0.0
  0
ENDBLK
  5
7B1
330
7A5
100
AcDbEntity
  8
0
100
AcDbBlockEnd
  0
BLOCK
  5
7D4
330
7C9
100
AcDbEntity
  8
0
100
AcDbBlockBegin
  2
*D44
 70
     1
 10
0.0
 20
0.0
 30
0.0
  3
*D44
  1

  0
LINE
  5
9EB
330
7C9
100
AcDbEntity
  8
0
 62
     0
370
    -2
100
AcDbLine
 10
135.3306375980377
 20
155.1475291252136
 30
0.0
 11
162.1911383732511
 21
155.1475291252136
 31
0.0
  0
LINE
  5
9EC
330
7C9
100
AcDbEntity
  8
0
 62
     0
370
    -2
100
AcDbLine
 10
135.3306375980377
 20
127.1475291252136
 30
0.0
 11
162.1911383732511
 21
127.1475291252135
 31
0.0
  0
LINE
  5
9ED
330
7C9
100
AcDbEntity
  8
0
 62
     0
370
    -2
100
AcDbLine
 10
160.9411383732511
 20
152.8615291252136
 30
0.0
 11
160.9411383732511
 21
143.3746778291699
 31
0.0
  0
LINE
  5
9EE
330
7C9
100
AcDbEntity
  8
0
 62
     0
370
    -2
100
AcDbLine
 10
160.9411383732511
 20
129.4335291252135
 30
0.0
 11
160.9411383732511
 21
138.9203804212572
 31
0.0
  0
SOLID
  5
9EF
330
7C9
100
AcDbEntity
  8
0
 62
     0
100
AcDbTrace
 10
160.5601383732511
 20
152.8615291252136
 30
0.0
 11
161.3221383732511
 21
152.8615291252136
 31
0.0
 12
160.9411383732511
 22
155.1475291252136
 32
0.0
 13
160.9411383732511
 23
155.1475291252136
 33
0.0
  0
SOLID
  5
9F0
330
7C9
100
AcDbEntity
  8
0
 62
     0
100
AcDbTrace
 10
160.5601383732511
 20
129.4335291252135
 30
0.0
 11
161.3221383732511
 21
129.4335291252135
 31
0.0
 12
160.9411383732511
 22
127.1475291252135
 32
0.0
 13
160.9411383732511
 23
127.1475291252135
 33
0.0
  0
MTEXT
  5
9F1
330
7C9
100
AcDbEntity
  8
0
 62
     0
100
AcDbMText
 10
160.9411383732511
 20
141.1475291252136
 30
0.0
 40
2.5
 41
0.0
 71
     5
 72
     1
  1
28 [1.102]
 73
     1
 44
1.0
  0
POINT
  5
9F2
330
7C9
100
AcDbEntity
  8
Defpoints
 62
     0
100
AcDbPoint
 10
134.7056375980377
 20
155.1475291252136
 30
0.0
  0
POINT
  5
9F3
330
7C9
100
AcDbEntity
  8
Defpoints
 62
     0
100
AcDbPoint
 10
134.7056375980377
 20
127.1475291252136
 30
0.0
  0
POINT
  5
9F4
330
7C9
100
AcDbEntity
  8
Defpoints
 62
     0
100
AcDbPoint
 10
160.9411383732511
 20
127.1475291252135
 30
0.0
  0
ENDBLK
  5
7D5
330
7C9
100
AcDbEntity
  8
0
100
AcDbBlockEnd
  0
BLOCK
  5
7E1
330
7D7
100
AcDbEntity
  8
0
100
AcDbBlockBegin
  2
*D45
 70
     1
 10
0.0
 20
0.0
 30
0.0
  3
*D45
  1

  0
LINE
  5
9CA
330
7D7
100
AcDbEntity
  8
0
 62
     0
370
    -2
100
AcDbLine
 10
54.81923406265895
 20
126.6293125147622
 30
0.0
 11
78.95719449922111
 21
126.6293125147622
 31
0.0
  0
LINE
  5
9CB
330
7D7
100
AcDbEntity
  8
0
 62
     0
370
    -2
100
AcDbLine
 10
78.95719449922111
 20
126.6293125147622
 30
0.0
 11
90.18664751978988
 21
132.4108952354176
 31
0.0
  0
LINE
  5
9CC
330
7D7
100
AcDbEntity
  8
0
 62
     0
370
    -2
100
AcDbLine
 10
124.1246276762854
 20
149.8841630150093
 30
0.0
 11
126.1570656579932
 21
150.9305815978488
 31
0.0
  0
MTEXT
  5
9CD
330
7D7
100
AcDbEntity
  8
0
 62
     0
100
AcDbMText
 10
66.57571428093999
 20
128.8973889131251
 30
0.0
 40
2.5
 41
0.0
 71
     5
 72
     1
  1
\U+220533.6 [\U+22051.323]
 73
     1
 44
1.0
  0
LINE
  5
9CE
330
7D7
100
AcDbEntity
  8
0
 62
     0
370
    -2
100
AcDbLine
 10
122.0921896945777
 20
148.8377444321699
 30
0.0
 11
92.21908550149763
 21
133.4573138182571
 31
0.0
  0
SOLID
  5
9CF
330
7D7
100
AcDbEntity
  8
0
 62
     0
100
AcDbTrace
 10
123.9502245791455
 20
150.2229026786273
 30
0.0
 11
124.2990307734253
 21
149.5454233513914
 31
0.0
 12
122.0921896945777
 22
148.8377444321699
 32
0.0
 13
122.0921896945777
 23
148.8377444321699
 33
0.0
  0
SOLID
  5
9D0
330
7D7
100
AcDbEntity
  8
0
 62
     0
100
AcDbTrace
 10
90.01224442264998
 20
132.7496348990356
 30
0.0
 11
90.36105061692978
 21
132.0721555717997
 31
0.0
 12
92.21908550149763
 22
133.4573138182571
 32
0.0
 13
92.21908550149763
 23
133.4573138182571
 33
0.0
  0
POINT
  5
9D1
330
7D7
100
AcDbEntity
  8
Defpoints
 62
     0
100
AcDbPoint
 10
92.21908550149763
 20
133.4573138182571
 30
0.0
  0
POINT
  5
9D2
330
7D7
100
AcDbEntity
  8
Defpoints
 62
     0
100
AcDbPoint
 10
122.0921896945777
 20
148.8377444321699
 30
0.0
  0
ENDBLK
  5
7E2
330
7D7
100
AcDbEntity
  8
0
100
AcDbBlockEnd
  0
BLOCK
  5
820
330
813
100
AcDbEntity
  8
0
100
AcDbBlockBegin
  2
*D46
 70
     1
 10
0.0
 20
0.0
 30
0.0
  3
*D46
  1

  0
LINE
  5
9DF
330
813
100
AcDbEntity
  8
0
 62
     0
370
    -2
100
AcDbLine
 10
135.3306375980377
 20
143.6475291252136
 30
0.0
 11
139.427764941405
 21
143.6475291252136
 31
0.0
  0
LINE
  5
9E0
330
813
100
AcDbEntity
  8
0
 62
     0
370
    -2
100
AcDbLine
 10
135.3306375980377
 20
138.6475291252136
 30
0.0
 11
139.427764941405
 21
138.6475291252136
 31
0.0
  0
LINE
  5
9E1
330
813
100
AcDbEntity
  8
0
 62
     0
370
    -2
100
AcDbLine
 10
138.177764941405
 20
145.9335291252136
 30
0.0
 11
138.177764941405
 21
148.2195291252136
 31
0.0
  0
LINE
  5
9E2
330
813
100
AcDbEntity
  8
0
 62
     0
370
    -2
100
AcDbLine
 10
138.177764941405
 20
136.3615291252136
 30
0.0
 11
138.177764941405
 21
134.0755291252136
 31
0.0
  0
LINE
  5
9E3
330
813
100
AcDbEntity
  8
0
 62
     0
370
    -2
100
AcDbLine
 10
138.177764941405
 20
143.6475291252136
 30
0.0
 11
138.177764941405
 21
143.3746778291699
 31
0.0
  0
LINE
  5
9E4
330
813
100
AcDbEntity
  8
0
 62
     0
370
    -2
100
AcDbLine
 10
138.177764941405
 20
138.6475291252136
 30
0.0
 11
138.177764941405
 21
138.9203804212572
 31
0.0
  0
SOLID
  5
9E5
330
813
100
AcDbEntity
  8
0
 62
     0
100
AcDbTrace
 10
137.796764941405
 20
145.9335291252136
 30
0.0
 11
138.558764941405
 21
145.9335291252136
 31
0.0
 12
138.177764941405
 22
143.6475291252136
 32
0.0
 13
138.177764941405
 23
143.6475291252136
 33
0.0
  0
SOLID
  5
9E6
330
813
100
AcDbEntity
  8
0
 62
     0
100
AcDbTrace
 10
137.796764941405
 20
136.3615291252136
 30
0.0
 11
138.558764941405
 21
136.3615291252136
 31
0.0
 12
138.177764941405
 22
138.6475291252136
 32
0.0
 13
138.177764941405
 23
138.6475291252136
 33
0.0
  0
MTEXT
  5
9E7
330
813
100
AcDbEntity
  8
0
 62
     0
100
AcDbMText
 10
138.1777649414049
 20
141.1475291252136
 30
0.0
 40
2.5
 41
0.0
 71
     5
 72
     1
  1
5 [.197]
 73
     1
 44
1.0
  0
POINT
  5
9E8
330
813
100
AcDbEntity
  8
Defpoints
 62
     0
100
AcDbPoint
 10
134.7056375980377
 20
143.6475291252136
 30
0.0
  0
POINT
  5
9E9
330
813
100
AcDbEntity
  8
Defpoints
 62
     0
100
AcDbPoint
 10
134.7056375980377
 20
138.6475291252136
 30
0.0
  0
POINT
  5
9EA
330
813
100
AcDbEntity
  8
Defpoints
 62
     0
100
AcDbPoint
 10
138.177764941405
 20
138.6475291252136
 30
0.0
  0
ENDBLK
  5
821
330
813
100
AcDbEntity
  8
0
100
AcDbBlockEnd
  0
BLOCK
  5
831
330
824
100
AcDbEntity
  8
0
100
AcDbBlockBegin
  2
*D47
 70
     1
 10
0.0
 20
0.0
 30
0.0
  3
*D47
  1

  0
LINE
  5
9D3
330
824
100
AcDbEntity
  8
0
 62
     0
370
    -2
100
AcDbLine
 10
135.3306375980377
 20
154.1475291252136
 30
0.0
 11
148.7362776751072
 21
154.1475291252136
 31
0.0
  0
LINE
  5
9D4
330
824
100
AcDbEntity
  8
0
 62
     0
370
    -2
100
AcDbLine
 10
135.3306375980377
 20
155.1475291252136
 30
0.0
 11
148.7362776751072
 21
155.1475291252136
 31
0.0
  0
LINE
  5
9D5
330
824
100
AcDbEntity
  8
0
 62
     0
370
    -2
100
AcDbLine
 10
147.4862776751072
 20
157.4335291252136
 30
0.0
 11
147.4862776751072
 21
159.7195291252136
 31
0.0
  0
LINE
  5
9D6
330
824
100
AcDbEntity
  8
0
 62
     0
370
    -2
100
AcDbLine
 10
147.4862776751072
 20
151.8615291252136
 30
0.0
 11
147.4862776751072
 21
149.3755291252135
 31
0.0
  0
LINE
  5
9D7
330
824
100
AcDbEntity
  8
0
 62
     0
370
    -2
100
AcDbLine
 10
147.4862776751072
 20
149.3755291252135
 30
0.0
 11
135.8176214677402
 21
149.3755291252135
 31
0.0
  0
LINE
  5
9D8
330
824
100
AcDbEntity
  8
0
 62
     0
370
    -2
100
AcDbLine
 10
147.4862776751072
 20
155.1475291252136
 30
0.0
 11
147.4862776751072
 21
154.1475291252136
 31
0.0
  0
SOLID
  5
9D9
330
824
100
AcDbEntity
  8
0
 62
     0
100
AcDbTrace
 10
147.1052776751072
 20
157.4335291252136
 30
0.0
 11
147.8672776751072
 21
157.4335291252136
 31
0.0
 12
147.4862776751072
 22
155.1475291252136
 32
0.0
 13
147.4862776751072
 23
155.1475291252136
 33
0.0
  0
SOLID
  5
9DA
330
824
100
AcDbEntity
  8
0
 62
     0
100
AcDbTrace
 10
147.1052776751072
 20
151.8615291252136
 30
0.0
 11
147.8672776751072
 21
151.8615291252136
 31
0.0
 12
147.4862776751072
 22
154.1475291252136
 32
0.0
 13
147.4862776751072
 23
154.1475291252136
 33
0.0
  0
MTEXT
  5
9DB
330
824
100
AcDbEntity
  8
0
 62
     0
100
AcDbMText
 10
141.3394495714237
 20
151.6026778291698
 30
0.0
 40
2.5
 41
0.0
 71
     5
 72
     1
  1
1 [.039]
 73
     1
 44
1.0
  0
POINT
  5
9DC
330
824
100
AcDbEntity
  8
Defpoints
 62
     0
100
AcDbPoint
 10
134.7056375980377
 20
154.1475291252136
 30
0.0
  0
POINT
  5
9DD
330
824
100
AcDbEntity
  8
Defpoints
 62
     0
100
AcDbPoint
 10
134.7056375980377
 20
155.1475291252136
 30
0.0
  0
POINT
  5
9DE
330
824
100
AcDbEntity
  8
Defpoints
 62
     0
100
AcDbPoint
 10
147.4862776751072
 20
155.1475291252136
 30
0.0
  0
ENDBLK
  5
832
330
824
100
AcDbEntity
  8
0
100
AcDbBlockEnd
  0
BLOCK
  5
887
330
87B
100
AcDbEntity
  8
0
100
AcDbBlockBegin
  2
*D48
 70
     1
 10
0.0
 20
0.0
 30
0.0
  3
*D48
  1

  0
ARC
  5
8E7
330
87B
100
AcDbEntity
  8
VisibleEdgeEntityLayer
 62
     0
370
    -2
100
AcDbCircle
 10
187.144181703129
 20
83.97824550411515
 30
0.0
 40
4.684297281749578
100
AcDbArc
 50
28.24628276719158
 51
41.00033708757762
  0
SOLID
  5
8E8
330
87B
100
AcDbEntity
  8
VisibleEdgeEntityLayer
 62
     0
100
AcDbTrace
 10
191.6401633497761
 20
86.28811437952256
 30
0.0
 11
190.9011959110008
 21
86.10218126135919
 31
0.0
 12
191.8284789848786
 22
83.97824550411517
 32
0.0
 13
191.8284789848786
 23
83.97824550411517
 33
0.0
  0
SOLID
  5
8E9
330
87B
100
AcDbEntity
  8
VisibleEdgeEntityLayer
 62
     0
100
AcDbTrace
 10
190.4615881444792
 20
86.73887466463972
 30
0.0
 11
190.8973071711983
 21
87.3640089940082
 31
0.0
 12
188.8040446697333
 22
88.35859890948119
 32
0.0
 13
188.8040446697333
 23
88.35859890948119
 33
0.0
  0
MTEXT
  5
8EA
330
87B
100
AcDbEntity
  8
VisibleEdgeEntityLayer
 62
     0
100
AcDbMText
 10
189.1501274663051
 20
81.64661494305915
 30
0.0
 40
2.5
 41
0.0
 71
     5
 72
     1
  1
69°
 73
     1
 44
1.0
  0
POINT
  5
8EB
330
87B
100
AcDbEntity
  8
Defpoints
 62
     0
100
AcDbPoint
 10
190.3884853880051
 20
87.3571705734391
 30
0.0
  0
POINT
  5
8EC
330
87B
100
AcDbEntity
  8
Defpoints
 62
     0
100
AcDbPoint
 10
190.065117073059
 20
91.6865500159642
 30
0.0
  0
POINT
  5
8ED
330
87B
100
AcDbEntity
  8
Defpoints
 62
     0
100
AcDbPoint
 10
192.8651170730591
 20
83.97824550411517
 30
0.0
  0
POINT
  5
8EE
330
87B
100
AcDbEntity
  8
Defpoints
 62
     0
100
AcDbPoint
 10
185.9547149166627
 20
83.97824550411517
 30
0.0
  0
POINT
  5
8EF
330
87B
100
AcDbEntity
  8
Defpoints
 62
     0
100
AcDbPoint
 10
187.0433014680046
 20
83.71202408080971
 30
0.0
  0
ENDBLK
  5
888
330
87B
100
AcDbEntity
  8
0
100
AcDbBlockEnd
  0
BLOCK
  5
8B5
330
8AB
100
AcDbEntity
  8
0
100
AcDbBlockBegin
  2
*D49
 70
     1
 10
0.0
 20
0.0
 30
0.0
  3
*D49
  1

  0
LINE
  5
973
330
8AB
100
AcDbEntity
  8
0
 62
     0
370
    -2
100
AcDbLine
 10
87.20515332145073
 20
82.85324550411507
 30
0.0
 11
87.20515332145073
 21
76.20728477310446
 31
0.0
  0
LINE
  5
974
330
8AB
100
AcDbEntity
  8
0
 62
     0
370
    -2
100
AcDbLine
 10
107.0422760977504
 20
91.06155001596382
 30
0.0
 11
107.0422760977504
 21
76.20728477310446
 31
0.0
  0
LINE
  5
975
330
8AB
100
AcDbEntity
  8
0
 62
     0
370
    -2
100
AcDbLine
 10
89.49115332145073
 20
77.45728477310446
 30
0.0
 11
104.7562760977504
 21
77.45728477310446
 31
0.0
  0
SOLID
  5
976
330
8AB
100
AcDbEntity
  8
0
 62
     0
100
AcDbTrace
 10
89.49115332145073
 20
77.83828477310446
 30
0.0
 11
89.49115332145073
 21
77.07628477310446
 31
0.0
 12
87.20515332145073
 22
77.45728477310446
 32
0.0
 13
87.20515332145073
 23
77.45728477310446
 33
0.0
  0
SOLID
  5
977
330
8AB
100
AcDbEntity
  8
0
 62
     0
100
AcDbTrace
 10
104.7562760977504
 20
77.83828477310446
 30
0.0
 11
104.7562760977504
 21
77.07628477310446
 31
0.0
 12
107.0422760977504
 22
77.45728477310446
 32
0.0
 13
107.0422760977504
 23
77.45728477310446
 33
0.0
  0
MTEXT
  5
978
330
8AB
100
AcDbEntity
  8
0
 62
     0
100
AcDbMText
 10
97.12371470960057
 20
79.68443347706081
 30
0.0
 40
2.5
 41
0.0
 71
     5
 72
     1
  1
19.84 [.781]
 73
     1
 44
1.0
  0
POINT
  5
979
330
8AB
100
AcDbEntity
  8
Defpoints
 62
     0
100
AcDbPoint
 10
87.20515332145073
 20
83.47824550411507
 30
0.0
  0
POINT
  5
97A
330
8AB
100
AcDbEntity
  8
Defpoints
 62
     0
100
AcDbPoint
 10
107.0422760977504
 20
91.68655001596382
 30
0.0
  0
POINT
  5
97B
330
8AB
100
AcDbEntity
  8
Defpoints
 62
     0
100
AcDbPoint
 10
107.0422760977504
 20
77.45728477310446
 30
0.0
  0
ENDBLK
  5
8B6
330
8AB
100
AcDbEntity
  8
0
100
AcDbBlockEnd
  0
BLOCK
  5
905
330
8FA
100
AcDbEntity
  8
0
100
AcDbBlockBegin
  2
*D50
 70
     1
 10
0.0
 20
0.0
 30
0.0
  3
*D50
  1

  0
LINE
  5
957
330
8FA
100
AcDbEntity
  8
0
 62
     0
370
    -2
100
AcDbLine
 10
227.190117073059
 20
95.47824550411528
 30
0.0
 11
237.9533445618729
 21
95.47824550411528
 31
0.0
  0
LINE
  5
958
330
8FA
100
AcDbEntity
  8
0
 62
     0
370
    -2
100
AcDbLine
 10
228.2005192294554
 20
83.47824550411514
 30
0.0
 11
237.9533445618729
 21
83.47824550411514
 31
0.0
  0
LINE
  5
959
330
8FA
100
AcDbEntity
  8
0
 62
     0
370
    -2
100
AcDbLine
 10
236.7033445618729
 20
93.19224550411528
 30
0.0
 11
236.7033445618729
 21
91.70539420807156
 31
0.0
  0
LINE
  5
95A
330
8FA
100
AcDbEntity
  8
0
 62
     0
370
    -2
100
AcDbLine
 10
236.7033445618729
 20
85.76424550411514
 30
0.0
 11
236.7033445618729
 21
87.25109680015886
 31
0.0
  0
SOLID
  5
95B
330
8FA
100
AcDbEntity
  8
0
 62
     0
100
AcDbTrace
 10
236.3223445618729
 20
93.19224550411528
 30
0.0
 11
237.0843445618729
 21
93.19224550411528
 31
0.0
 12
236.7033445618729
 22
95.47824550411528
 32
0.0
 13
236.7033445618729
 23
95.47824550411528
 33
0.0
  0
SOLID
  5
95C
330
8FA
100
AcDbEntity
  8
0
 62
     0
100
AcDbTrace
 10
236.3223445618729
 20
85.76424550411514
 30
0.0
 11
237.0843445618729
 21
85.76424550411514
 31
0.0
 12
236.7033445618729
 22
83.47824550411514
 32
0.0
 13
236.7033445618729
 23
83.47824550411514
 33
0.0
  0
MTEXT
  5
95D
330
8FA
100
AcDbEntity
  8
0
 62
     0
100
AcDbMText
 10
236.7033445618729
 20
89.47824550411525
 30
0.0
 40
2.5
 41
0.0
 71
     5
 72
     1
  1
12 [.472]
 73
     1
 44
1.0
  0
POINT
  5
95E
330
8FA
100
AcDbEntity
  8
Defpoints
 62
     0
100
AcDbPoint
 10
226.565117073059
 20
95.47824550411528
 30
0.0
  0
POINT
  5
95F
330
8FA
100
AcDbEntity
  8
Defpoints
 62
     0
100
AcDbPoint
 10
227.5755192294554
 20
83.47824550411514
 30
0.0
  0
POINT
  5
960
330
8FA
100
AcDbEntity
  8
Defpoints
 62
     0
100
AcDbPoint
 10
236.7033445618729
 20
83.47824550411514
 30
0.0
  0
ENDBLK
  5
906
330
8FA
100
AcDbEntity
  8
0
100
AcDbBlockEnd
  0
BLOCK
  5
917
330
908
100
AcDbEntity
  8
0
100
AcDbBlockBegin
  2
*D51
 70
     1
 10
0.0
 20
0.0
 30
0.0
  3
*D51
  1

  0
LINE
  5
9BC
330
908
100
AcDbEntity
  8
0
 62
     0
370
    -2
100
AcDbLine
 10
90.31596783898605
 20
91.06155001596381
 30
0.0
 11
90.31596783898603
 21
83.94063827864917
 31
0.0
  0
ARC
  5
9BD
330
908
100
AcDbEntity
  8
0
 62
     0
370
    -2
100
AcDbCircle
 10
90.31596783898605
 20
91.68655001596381
 30
0.0
 40
6.495911737314639
100
AcDbArc
 50
208.0352886194086
 51
249.2441029367103
  0
LINE
  5
9BE
330
908
100
AcDbEntity
  8
0
 62
     0
370
    -2
100
AcDbLine
 10
84.58229757962172
 20
88.63337221965663
 30
0.0
 11
76.0991625182302
 21
88.63337221965663
 31
0.0
  0
ARC
  5
9BF
330
908
100
AcDbEntity
  8
0
 62
     0
370
    -2
100
AcDbCircle
 10
90.31596783898605
 20
91.68655001596381
 30
0.0
 40
6.495911737314639
100
AcDbArc
 50
208.7067262675859
 51
228.9754146021481
  0
ARC
  5
9C0
330
908
100
AcDbEntity
  8
0
 62
     0
370
    -2
100
AcDbCircle
 10
90.31596783898605
 20
91.68655001596381
 30
0.0
 40
6.495911737314639
100
AcDbArc
 50
290.268688334562
 51
310.5373766691242
  0
ARC
  5
9C1
330
908
100
AcDbEntity
  8
0
 62
     0
370
    -2
100
AcDbCircle
 10
90.31596783898605
 20
91.68655001596381
 30
0.0
 40
6.495911737314639
100
AcDbArc
 50
249.2441029367103
 51
269.9999999999998
  0
SOLID
  5
9C2
330
908
100
AcDbEntity
  8
0
 62
     0
100
AcDbTrace
 10
86.24776656111103
 20
87.11280837603172
 30
0.0
 11
85.85655949741422
 21
86.45889627695899
 31
0.0
 12
88.01389932648085
 22
85.61223113540492
 32
0.0
 13
88.01389932648085
 23
85.61223113540492
 33
0.0
  0
SOLID
  5
9C3
330
908
100
AcDbEntity
  8
0
 62
     0
100
AcDbTrace
 10
92.63334095414345
 20
85.21781998473223
 30
0.0
 11
92.49926185405394
 21
85.96793117310312
 31
0.0
 12
90.31596783898605
 22
85.19063827864917
 32
0.0
 13
90.31596783898605
 23
85.19063827864917
 33
0.0
  0
MTEXT
  5
9C4
330
908
100
AcDbEntity
  8
0
 62
     0
100
AcDbMText
 10
79.19773004892596
 20
90.51348818145745
 30
0.0
 40
2.5
 41
0.0
 71
     5
 72
     1
  1
21°
 73
     1
 44
1.0
  0
POINT
  5
9C5
330
908
100
AcDbEntity
  8
Defpoints
 62
     0
100
AcDbPoint
 10
89.53347243445483
 20
85.2379400695591
 30
0.0
  0
POINT
  5
9C6
330
908
100
AcDbEntity
  8
Defpoints
 62
     0
100
AcDbPoint
 10
90.31596783898605
 20
91.68655001596381
 30
0.0
  0
POINT
  5
9C7
330
908
100
AcDbEntity
  8
Defpoints
 62
     0
100
AcDbPoint
 10
90.31596783898605
 20
91.68655001596381
 30
0.0
  0
POINT
  5
9C8
330
908
100
AcDbEntity
  8
Defpoints
 62
     0
100
AcDbPoint
 10
90.31596783898606
 20
95.22824550411501
 30
0.0
  0
POINT
  5
9C9
330
908
100
AcDbEntity
  8
Defpoints
 62
     0
100
AcDbPoint
 10
87.29357413689703
 20
83.71155577519614
 30
0.0
  0
ENDBLK
  5
918
330
908
100
AcDbEntity
  8
0
100
AcDbBlockEnd
  0
ENDSEC
  0
SECTION
  2
ENTITIES
  0
CIRCLE
  5
2B
330
1F
100
AcDbEntity
  8
VisibleEdgeEntityLayer
100
AcDbCircle
 10
128.915967838986
 20
89.47824550411509
 30
0.0
 40
2.5
  0
CIRCLE
  5
2C
330
1F
100
AcDbEntity
  8
VisibleEdgeEntityLayer
100
AcDbCircle
 10
128.915967838986
 20
89.47824550411509
 30
0.0
 40
5.15
  0
CIRCLE
  5
2D
330
1F
100
AcDbEntity
  8
VisibleEdgeEntityLayer
100
AcDbCircle
 10
128.915967838986
 20
89.47824550411509
 30
0.0
 40
3.5
  0
LINE
  5
2E
330
1F
100
AcDbEntity
  8
VisibleEdgeEntityLayer
100
AcDbLine
 10
86.20556568258971
 20
83.72824550411506
 30
0.0
 11
121.2530232240274
 21
83.72824550411506
 31
0.0
  0
LINE
  5
2F
330
1F
100
AcDbEntity
  8
VisibleEdgeEntityLayer
100
AcDbLine
 10
124.6516902875326
 20
83.47824550411505
 30
0.0
 11
86.4055656825897
 21
83.47824550411505
 31
0.0
  0
LINE
  5
30
330
1F
100
AcDbEntity
  8
VisibleEdgeEntityLayer
100
AcDbLine
 10
119.7422025627859
 20
95.23198026309453
 30
0.0
 11
119.5909469708581
 21
95.47824550411508
 31
0.0
  0
LINE
  5
31
330
1F
100
AcDbEntity
  8
VisibleEdgeEntityLayer
100
AcDbLine
 10
121.2530232240274
 20
83.97824550411506
 30
0.0
 11
86.20556568258971
 21
83.97824550411506
 31
0.0
  0
LINE
  5
32
330
1F
100
AcDbEntity
  8
VisibleEdgeEntityLayer
100
AcDbLine
 10
119.7422025627857
 20
95.23198026309453
 30
0.0
 11
87.17291634580407
 21
95.23198026309453
 31
0.0
  0
LINE
  5
33
330
1F
100
AcDbEntity
  8
VisibleEdgeEntityLayer
100
AcDbLine
 10
121.1516902875326
 20
83.47824550411505
 30
0.0
 11
121.2530232240274
 21
83.72824550411506
 31
0.0
  0
LINE
  5
34
330
1F
100
AcDbEntity
  8
VisibleEdgeEntityLayer
100
AcDbLine
 10
128.915967838986
 20
95.47824550411508
 30
0.0
 11
122.090946970858
 21
95.47824550411508
 31
0.0
  0
LINE
  5
35
330
1F
100
AcDbEntity
  8
VisibleEdgeEntityLayer
100
AcDbLine
 10
122.2404957649527
 20
95.22824550411508
 30
0.0
 11
128.915967838986
 21
95.22824550411508
 31
0.0
  0
CIRCLE
  5
36
330
1F
100
AcDbEntity
  8
VisibleEdgeEntityLayer
100
AcDbCircle
 10
128.915967838986
 20
89.47824550411509
 30
0.0
 40
5.349999999999996
  0
LINE
  5
37
330
1F
100
AcDbEntity
  8
VisibleEdgeEntityLayer
100
AcDbLine
 10
124.6516902875326
 20
83.47824550411505
 30
0.0
 11
128.915967838986
 21
83.47824550411505
 31
0.0
  0
LINE
  5
38
330
1F
100
AcDbEntity
  8
VisibleEdgeEntityLayer
100
AcDbLine
 10
87.41596783898605
 20
95.47824550411531
 30
0.0
 11
122.090946970858
 21
95.47824550411508
 31
0.0
  0
LINE
  5
39
330
1F
100
AcDbEntity
  8
VisibleEdgeEntityLayer
100
AcDbLine
 10
128.915967838986
 20
83.72824550411506
 30
0.0
 11
121.2530232240274
 21
83.72824550411506
 31
0.0
  0
ARC
  5
3A
330
1F
100
AcDbEntity
  8
VisibleEdgeEntityLayer
100
AcDbCircle
 10
128.915967838986
 20
89.47824550411509
 30
0.0
 40
6.0
100
AcDbArc
 50
270.0
 51
90.0
  0
ELLIPSE
  5
3B
330
1F
100
AcDbEntity
  8
VisibleEdgeEntityLayer
100
AcDbEllipse
 10
104.6159678389859
 20
106.5722717208729
 30
0.0
 11
-0.0000000000002132
 21
22.45071149681723
 31
0.0
210
0.0
220
0.0
230
1.0
 40
0.7806656224892316
 41
4.182675832750033
 42
4.182868594695793
  0
ARC
  5
3C
330
1F
100
AcDbEntity
  8
VisibleEdgeEntityLayer
100
AcDbCircle
 10
128.915967838986
 20
89.47824550411509
 30
0.0
 40
5.75
100
AcDbArc
 50
270.0
 51
90.00000000000028
  0
LINE
  5
3E
330
1F
100
AcDbEntity
  8
VisibleEdgeEntityLayer
100
AcDbLine
 10
121.2530232240274
 20
83.72824550411506
 30
0.0
 11
121.2530232240274
 21
83.97824550411506
 31
0.0
  0
LINE
  5
3F
330
1F
100
AcDbEntity
  8
VisibleEdgeEntityLayer
100
AcDbLine
 10
86.4055656825897
 20
83.47824550411505
 30
0.0
 11
86.20556568258971
 21
83.72824550411506
 31
0.0
  0
LINE
  5
40
330
1F
100
AcDbEntity
  8
VisibleEdgeEntityLayer
100
AcDbLine
 10
87.41596783898611
 20
95.47824550411535
 30
0.0
 11
87.17291634580393
 21
95.23198026309456
 31
0.0
  0
LINE
  5
41
330
1F
100
AcDbEntity
  8
VisibleEdgeEntityLayer
100
AcDbLine
 10
86.20556568258971
 20
83.72824550411506
 30
0.0
 11
86.20556568258971
 21
83.97824550411506
 31
0.0
  0
LINE
  5
42
330
1F
100
AcDbEntity
  8
VisibleEdgeEntityLayer
100
AcDbLine
 10
87.17291634580407
 20
95.23198026309453
 30
0.0
 11
86.20556568258971
 21
83.97824550411506
 31
0.0
  0
LINE
  5
45
330
1F
100
AcDbEntity
  8
HIDDEN
100
AcDbLine
 10
90.61596783898606
 20
95.2282455041149
 30
0.0
 11
123.7685843565148
 21
95.22824550411508
 31
0.0
  0
LINE
  5
46
330
1F
100
AcDbEntity
  8
HIDDEN
100
AcDbLine
 10
123.7685843565148
 20
95.22824550411508
 30
0.0
 11
123.7685843565148
 21
91.68655001596382
 31
0.0
  0
SPLINE
  5
47
330
1F
100
AcDbEntity
  8
HIDDEN
100
AcDbSpline
210
0.0
220
0.0
230
1.0
 70
    12
 71
     2
 72
     6
 73
     3
 74
     0
 42
0.0000000001
 43
0.0000000001
 40
0.0
 40
0.0
 40
0.0
 40
0.9411726379780628
 40
0.9411726379780628
 40
0.9411726379780628
 10
123.7685843565148
 20
91.68655001596382
 30
0.0
 41
1.0
 10
124.9603901672599
 20
88.52325104513264
 30
0.0
 41
1.004526267818744
 10
126.8191666272016
 20
83.71202408080964
 30
0.0
 41
1.000228454244545
  0
LINE
  5
48
330
1F
100
AcDbEntity
  8
HIDDEN
100
AcDbLine
 10
123.7685843565148
 20
91.68655001596382
 30
0.0
 11
90.31596783898605
 21
91.68655001596382
 31
0.0
  0
LINE
  5
49
330
1F
100
AcDbEntity
  8
HIDDEN
100
AcDbLine
 10
123.7685843565148
 20
95.22824550411508
 30
0.0
 11
123.9240036381773
 21
95.47824550411508
 31
0.0
  0
LINE
  5
4A
330
1F
100
AcDbEntity
  8
HIDDEN
100
AcDbLine
 10
126.8191666272016
 20
83.71202408080963
 30
0.0
 11
87.29415223393173
 21
83.71202408080963
 31
0.0
  0
ELLIPSE
  5
4B
330
1F
100
AcDbEntity
  8
HIDDEN
100
AcDbEllipse
 10
107.4078197299486
 20
75.04826760305424
 30
0.0
 11
0.0000000000000142
 21
28.88100475273921
 31
0.0
210
0.0
220
0.0
230
1.0
 40
0.7045632315869616
 41
-1.266123452528262
 42
-1.265534617689354
  0
LINE
  5
4C
330
1F
100
AcDbEntity
  8
HIDDEN
100
AcDbLine
 10
127.0747532705897
 20
83.47824550411505
 30
0.0
 11
126.8191666272016
 21
83.71202408080963
 31
0.0
  0
LINE
  5
4D
330
1F
100
AcDbEntity
  8
HIDDEN
100
AcDbLine
 10
90.31596783898605
 20
91.68655001596382
 30
0.0
 11
90.31596783898605
 21
95.22824550411501
 31
0.0
  0
LINE
  5
4E
330
1F
100
AcDbEntity
  8
HIDDEN
100
AcDbLine
 10
87.29415223393173
 20
83.71202408080963
 30
0.0
 11
87.00556568258972
 21
83.47824550411505
 31
0.0
  0
LINE
  5
4F
330
1F
100
AcDbEntity
  8
HIDDEN
100
AcDbLine
 10
90.31596783898605
 20
91.68655001596382
 30
0.0
 11
87.29357413689703
 21
83.71155577519614
 31
0.0
  0
LINE
  5
50
330
1F
100
AcDbEntity
  8
HIDDEN
100
AcDbLine
 10
90.31596783898612
 20
95.2282455041149
 30
0.0
 11
90.115967838986
 21
95.47824550411535
 31
0.0
  0
LINE
  5
51
330
1F
100
AcDbEntity
  8
VisibleEdgeEntityLayer
100
AcDbLine
 10
128.915967838986
 20
83.72824550411506
 30
0.0
 11
128.915967838986
 21
83.47824550411505
 31
0.0
  0
LINE
  5
52
330
1F
100
AcDbEntity
  8
VisibleEdgeEntityLayer
100
AcDbLine
 10
128.915967838986
 20
95.22824550411508
 30
0.0
 11
128.915967838986
 21
95.47824550411508
 31
0.0
  0
LINE
  5
54
330
1F
100
AcDbEntity
  8
CENTER
100
AcDbLine
 10
129.296967838986
 20
89.47824550411509
 30
0.0
 11
128.534967838986
 21
89.47824550411509
 31
0.0
  0
LINE
  5
55
330
1F
100
AcDbEntity
  8
CENTER
100
AcDbLine
 10
128.915967838986
 20
89.85924550411509
 30
0.0
 11
128.915967838986
 21
89.09724550411509
 31
0.0
  0
LINE
  5
56
330
1F
100
AcDbEntity
  8
CENTER
100
AcDbLine
 10
130.058967838986
 20
89.47824550411509
 30
0.0
 11
134.8779678389861
 21
89.47824550411509
 31
0.0
  0
LINE
  5
57
330
1F
100
AcDbEntity
  8
CENTER
100
AcDbLine
 10
127.772967838986
 20
89.47824550411509
 30
0.0
 11
122.953967838986
 21
89.47824550411509
 31
0.0
  0
LINE
  5
58
330
1F
100
AcDbEntity
  8
CENTER
100
AcDbLine
 10
128.915967838986
 20
90.62124550411509
 30
0.0
 11
128.915967838986
 21
95.44024550411508
 31
0.0
  0
LINE
  5
59
330
1F
100
AcDbEntity
  8
CENTER
100
AcDbLine
 10
128.915967838986
 20
88.33524550411508
 30
0.0
 11
128.915967838986
 21
83.51624550411505
 31
0.0
  0
DIMENSION
  5
7F
330
1F
100
AcDbEntity
  8
0
100
AcDbDimension
  2
D4
 10
127.7140434015421
 20
91.67036266491535
 30
0.0
 11
158.4120778595707
 21
75.09181353613648
 31
0.0
 70
   163
  1
<>tap M6x1.0\P
 71
     5
 42
5.000000000000021
  3
ISO-25
100
AcDbDiametricDimension
 15
130.1178922764302
 25
87.28612834331491
 35
0.0
 40
0.0
1001
ACAD
1000
DSTYLE
1002
{
1070
    76
1070
     0
1070
    75
1070
     0
1070
   282
1070
     0
1070
   281
1070
     0
1070
    77
1070
     0
1070
    79
1070
     0
1070
    78
1070
     0
1070
   272
1070
     1
1070
   271
1070
     1
1070
   179
1070
     1
1070
   140
1040
2.275416666666667
1070
    71
1070
     0
1070
    72
1070
     0
1070
    48
1040
0.002
1070
    47
1040
0.005
1002
}
  0
DIMENSION
  5
98
330
1F
100
AcDbEntity
  8
0
100
AcDbDimension
  2
D6
 10
128.915967838986
 20
112.3370361328124
 30
0.0
 11
118.015967838986
 21
112.3370361328124
 31
0.0
 70
    32
  1
<>
 71
     5
 42
21.80000000000001
  3
ISO-25
100
AcDbAlignedDimension
 13
107.115967838986
 23
91.78810454151436
 33
0.0
 14
128.915967838986
 24
89.47824550411509
 34
0.0
100
AcDbRotatedDimension
1001
ACAD
1000
DSTYLE
1002
{
1070
    76
1070
     0
1070
    75
1070
     0
1070
   282
1070
     0
1070
   281
1070
     0
1070
    77
1070
     0
1070
    79
1070
     0
1070
    78
1070
     0
1070
   272
1070
     1
1070
   271
1070
     1
1070
   179
1070
     1
1070
   140
1040
2.275416666666667
1070
    71
1070
     0
1070
    72
1070
     0
1070
    48
1040
0.002
1070
    47
1040
0.005
1002
}
  0
DIMENSION
  5
B2
330
1F
100
AcDbEntity
  8
0
100
AcDbDimension
  2
D8
 10
123.9630710562839
 20
86.09168183870167
 30
0.0
 11
153.6311084971126
 21
96.86609991068621
 31
0.0
 70
   163
  1
<>
 71
     5
 42
11.99999999999991
  3
ISO-25
100
AcDbDiametricDimension
 15
133.8688646216882
 25
92.86480916952845
 35
0.0
 40
0.0
1001
ACAD
1000
DSTYLE
1002
{
1070
    76
1070
     0
1070
    75
1070
     0
1070
   282
1070
     0
1070
   281
1070
     0
1070
    77
1070
     0
1070
    79
1070
     0
1070
    78
1070
     0
1070
   272
1070
     1
1070
   271
1070
     1
1070
   179
1070
     1
1070
   140
1040
2.275416666666667
1070
    71
1070
     0
1070
    72
1070
     0
1070
    48
1040
0.002
1070
    47
1040
0.005
1002
}
  0
LINE
  5
C1
330
1F
100
AcDbEntity
  8
VisibleEdgeEntityLayer
100
AcDbLine
 10
128.9556375980377
 20
143.8475291252136
 30
0.0
 11
123.939369185777
 21
143.8475291252136
 31
0.0
  0
LINE
  5
C4
330
1F
100
AcDbEntity
  8
VisibleEdgeEntityLayer
100
AcDbLine
 10
123.7685843565149
 20
143.6475291252136
 30
0.0
 11
123.939369185777
 21
143.8475291252136
 31
0.0
  0
ARC
  5
C6
330
1F
100
AcDbEntity
  8
VisibleEdgeEntityLayer
100
AcDbCircle
 10
107.1556375980377
 20
141.1475291252136
 30
0.0
 40
19.70000000000004
100
AcDbArc
 50
55.70998350317113
 51
304.2900164968286
  0
LINE
  5
C7
330
1F
100
AcDbEntity
  8
VisibleEdgeEntityLayer
100
AcDbLine
 10
123.7685843565149
 20
143.6475291252136
 30
0.0
 11
128.9556375980377
 21
143.6475291252136
 31
0.0
  0
LINE
  5
C8
330
1F
100
AcDbEntity
  8
VisibleEdgeEntityLayer
100
AcDbLine
 10
128.9556375980377
 20
138.6475291252136
 30
0.0
 11
134.7056375980377
 21
138.6475291252136
 31
0.0
  0
LINE
  5
CA
330
1F
100
AcDbEntity
  8
VisibleEdgeEntityLayer
100
AcDbLine
 10
129.8674095515458
 20
155.1475291252136
 30
0.0
 11
134.7056375980377
 21
155.1475291252136
 31
0.0
  0
LINE
  5
CC
330
1F
100
AcDbEntity
  8
HIDDEN
100
AcDbLine
 10
129.8462546015483
 20
127.3475291252136
 30
0.0
 11
134.9556375980377
 21
127.3475291252136
 31
0.0
  0
LINE
  5
CD
330
1F
100
AcDbEntity
  8
VisibleEdgeEntityLayer
100
AcDbLine
 10
134.7056375980377
 20
127.1475291252136
 30
0.0
 11
129.8674095515456
 21
127.1475291252136
 31
0.0
  0
LINE
  5
CE
330
1F
100
AcDbEntity
  8
VisibleEdgeEntityLayer
100
AcDbLine
 10
134.9556375980377
 20
138.4475291252135
 30
0.0
 11
128.9556375980377
 21
138.4475291252135
 31
0.0
  0
ARC
  5
CF
330
1F
100
AcDbEntity
  8
VisibleEdgeEntityLayer
100
AcDbCircle
 10
107.1159678389861
 20
141.1475291252137
 30
0.0
 40
17.03868636002216
100
AcDbArc
 50
9.117689877703773
 51
350.8823101222954
  0
LINE
  5
D0
330
1F
100
AcDbEntity
  8
VisibleEdgeEntityLayer
100
AcDbLine
 10
134.7056375980377
 20
143.6475291252136
 30
0.0
 11
128.9556375980377
 21
143.6475291252136
 31
0.0
  0
LINE
  5
D2
330
1F
100
AcDbEntity
  8
VisibleEdgeEntityLayer
100
AcDbLine
 10
128.9556375980377
 20
138.6475291252136
 30
0.0
 11
123.7685843565148
 21
138.6475291252136
 31
0.0
  0
LINE
  5
D3
330
1F
100
AcDbEntity
  8
HIDDEN
100
AcDbLine
 10
134.9556375980377
 20
154.9475291252136
 30
0.0
 11
129.8462546015483
 21
154.9475291252135
 31
0.0
  0
LINE
  5
D4
330
1F
100
AcDbEntity
  8
VisibleEdgeEntityLayer
100
AcDbLine
 10
123.9393691857769
 20
138.4475291252135
 30
0.0
 11
128.9556375980377
 21
138.4475291252135
 31
0.0
  0
ARC
  5
D5
330
1F
100
AcDbEntity
  8
VisibleEdgeEntityLayer
100
AcDbCircle
 10
107.1556375980377
 20
141.1475291252136
 30
0.0
 40
19.94305149318201
100
AcDbArc
 50
55.70792556525269
 51
304.2920744347472
  0
LINE
  5
D6
330
1F
100
AcDbEntity
  8
VisibleEdgeEntityLayer
100
AcDbLine
 10
128.9556375980377
 20
143.8475291252136
 30
0.0
 11
134.9556375980377
 21
143.8475291252136
 31
0.0
  0
LINE
  5
D8
330
1F
100
AcDbEntity
  8
VisibleEdgeEntityLayer
100
AcDbLine
 10
129.6600230059308
 20
154.1475291252135
 30
0.0
 11
129.6600230059308
 21
154.1475291252135
 31
0.0
  0
LINE
  5
D9
330
1F
100
AcDbEntity
  8
VisibleEdgeEntityLayer
100
AcDbLine
 10
134.9556375980377
 20
154.9475291252136
 30
0.0
 11
134.9556375980377
 21
143.8475291252136
 31
0.0
  0
LINE
  5
DA
330
1F
100
AcDbEntity
  8
VisibleEdgeEntityLayer
100
AcDbLine
 10
134.7056375980377
 20
127.1475291252136
 30
0.0
 11
134.9556375980377
 21
127.3475291252136
 31
0.0
  0
LINE
  5
DB
330
1F
100
AcDbEntity
  8
VisibleEdgeEntityLayer
100
AcDbLine
 10
134.7056375980377
 20
155.1475291252136
 30
0.0
 11
134.9556375980377
 21
154.9475291252136
 31
0.0
  0
LINE
  5
DC
330
1F
100
AcDbEntity
  8
VisibleEdgeEntityLayer
100
AcDbLine
 10
134.7056375980377
 20
143.6475291252136
 30
0.0
 11
134.9556375980377
 21
143.8475291252136
 31
0.0
  0
LINE
  5
DD
330
1F
100
AcDbEntity
  8
VisibleEdgeEntityLayer
100
AcDbLine
 10
134.9556375980377
 20
138.4475291252135
 30
0.0
 11
134.9556375980377
 21
127.3475291252136
 31
0.0
  0
LINE
  5
DE
330
1F
100
AcDbEntity
  8
VisibleEdgeEntityLayer
100
AcDbLine
 10
134.7056375980377
 20
138.6475291252136
 30
0.0
 11
134.9556375980377
 21
138.4475291252135
 31
0.0
  0
LINE
  5
E0
330
1F
100
AcDbEntity
  8
HIDDEN
100
AcDbLine
 10
127.0839660500678
 20
143.8475291252136
 30
0.0
 11
126.8191666272017
 21
143.6475291252136
 31
0.0
  0
ARC
  5
E4
330
1F
100
AcDbEntity
  8
HIDDEN
100
AcDbCircle
 10
107.1547250319858
 20
141.1475291252135
 30
0.0
 40
19.82272088416871
100
AcDbArc
 50
7.245317872720603
 51
352.7546821272793
  0
ARC
  5
E6
330
1F
100
AcDbEntity
  8
HIDDEN
100
AcDbCircle
 10
107.1556375980377
 20
141.1475291252135
 30
0.0
 40
20.11040215639637
100
AcDbArc
 50
7.715766503840431
 51
352.2842334961596
  0
LINE
  5
E8
330
1F
100
AcDbEntity
  8
HIDDEN
100
AcDbLine
 10
123.8056375980377
 20
132.1475291252136
 30
0.0
 11
134.1056375980377
 21
132.1475291252136
 31
0.0
  0
LINE
  5
EA
330
1F
100
AcDbEntity
  8
HIDDEN
100
AcDbLine
 10
123.8056375980377
 20
126.4134921540484
 30
0.0
 11
123.6538537746605
 21
126.1578348725586
 31
0.0
  0
LINE
  5
EB
330
1F
100
AcDbEntity
  8
HIDDEN
100
AcDbLine
 10
123.8056375980377
 20
126.4134921540484
 30
0.0
 11
123.8056375980377
 21
132.1475291252136
 31
0.0
  0
LINE
  5
EC
330
1F
100
AcDbEntity
  8
HIDDEN
100
AcDbLine
 10
134.1056375980377
 20
127.3975291252136
 30
0.0
 11
134.3056375980377
 21
127.1475291252136
 31
0.0
  0
LINE
  5
ED
330
1F
100
AcDbEntity
  8
HIDDEN
100
AcDbLine
 10
125.4556375980377
 20
132.1475291252136
 30
0.0
 11
125.4556375980377
 21
138.6475291252136
 31
0.0
  0
LINE
  5
EE
330
1F
100
AcDbEntity
  8
HIDDEN
100
AcDbLine
 10
126.4556375980377
 20
155.2167882581824
 30
0.0
 11
126.4556375980377
 21
143.6475291252136
 31
0.0
  0
LINE
  5
EF
330
1F
100
AcDbEntity
  8
HIDDEN
100
AcDbLine
 10
134.1056375980377
 20
127.3975291252136
 30
0.0
 11
134.1056375980377
 21
132.1475291252136
 31
0.0
  0
LINE
  5
F0
330
1F
100
AcDbEntity
  8
HIDDEN
100
AcDbLine
 10
131.4556375980377
 20
155.1475291252136
 30
0.0
 11
131.4556375980377
 21
143.6475291252136
 31
0.0
  0
LINE
  5
F1
330
1F
100
AcDbEntity
  8
HIDDEN
100
AcDbLine
 10
132.4556375980377
 20
132.1475291252136
 30
0.0
 11
132.4556375980377
 21
138.6475291252136
 31
0.0
  0
LINE
  5
F2
330
1F
100
AcDbEntity
  8
VisibleEdgeEntityLayer
100
AcDbLine
 10
128.9556375980377
 20
138.4475291252135
 30
0.0
 11
128.9556375980377
 21
138.6475291252136
 31
0.0
  0
LINE
  5
F3
330
1F
100
AcDbEntity
  8
VisibleEdgeEntityLayer
100
AcDbLine
 10
128.9556375980377
 20
143.6475291252136
 30
0.0
 11
128.9556375980377
 21
143.8475291252136
 31
0.0
  0
LINE
  5
F4
330
1F
100
AcDbEntity
  8
VisibleEdgeEntityLayer
100
AcDbLine
 10
128.9556375980377
 20
128.1475291252136
 30
0.0
 11
128.9556375980377
 21
128.3475291252136
 31
0.0
  0
LINE
  5
F5
330
1F
100
AcDbEntity
  8
VisibleEdgeEntityLayer
100
AcDbLine
 10
128.9556375980377
 20
153.9475291252136
 30
0.0
 11
128.9556375980377
 21
145.3475291252136
 31
0.0
  0
LINE
  5
F6
330
1F
100
AcDbEntity
  8
VisibleEdgeEntityLayer
100
AcDbLine
 10
128.9556375980377
 20
153.9475291252136
 30
0.0
 11
128.9556375980377
 21
154.1475291252136
 31
0.0
  0
LINE
  5
F7
330
1F
100
AcDbEntity
  8
VisibleEdgeEntityLayer
100
AcDbLine
 10
128.9556375980377
 20
134.9475291252135
 30
0.0
 11
128.9556375980377
 21
126.3475291252136
 31
0.0
  0
LINE
  5
F8
330
1F
100
AcDbEntity
  8
CENTER
100
AcDbLine
 10
128.9556375980377
 20
143.2125286778532
 30
0.0
 11
128.9556375980377
 21
148.5045291252136
 31
0.0
  0
LINE
  5
F9
330
1F
100
AcDbEntity
  8
CENTER
100
AcDbLine
 10
128.9556375980377
 20
149.2665291252136
 30
0.0
 11
128.9556375980377
 21
150.0285291252136
 31
0.0
  0
LINE
  5
FA
330
1F
100
AcDbEntity
  8
CENTER
100
AcDbLine
 10
128.9556375980377
 20
150.7905291252136
 30
0.0
 11
128.9556375980377
 21
154.9095291252136
 31
0.0
  0
LINE
  5
FB
330
1F
100
AcDbEntity
  8
CENTER
100
AcDbLine
 10
128.9556375980377
 20
127.3855291252136
 30
0.0
 11
128.9556375980377
 21
129.1595291252136
 31
0.0
  0
LINE
  5
FC
330
1F
100
AcDbEntity
  8
CENTER
100
AcDbLine
 10
128.9556375980377
 20
131.3855291252136
 30
0.0
 11
128.9556375980377
 21
132.5045291252136
 31
0.0
  0
LINE
  5
FD
330
1F
100
AcDbEntity
  8
CENTER
100
AcDbLine
 10
128.9556375980377
 20
133.2665291252136
 30
0.0
 11
128.9556375980377
 21
134.0285291252136
 31
0.0
  0
LINE
  5
FE
330
1F
100
AcDbEntity
  8
CENTER
100
AcDbLine
 10
128.9556375980377
 20
138.2905291252136
 30
0.0
 11
128.9556375980377
 21
139.4095291252136
 31
0.0
  0
LINE
  5
FF
330
1F
100
AcDbEntity
  8
CENTER
100
AcDbLine
 10
128.9556375980377
 20
127.6355291252136
 30
0.0
 11
128.9556375980377
 21
130.1295291252136
 31
0.0
  0
LINE
  5
100
330
1F
100
AcDbEntity
  8
CENTER
100
AcDbLine
 10
128.9556375980377
 20
130.8915291252136
 30
0.0
 11
128.9556375980377
 21
131.6535291252136
 31
0.0
  0
LINE
  5
101
330
1F
100
AcDbEntity
  8
CENTER
100
AcDbLine
 10
128.9556375980377
 20
132.4155291252136
 30
0.0
 11
128.9556375980377
 21
138.2905291252136
 31
0.0
  0
LINE
  5
12A
330
1F
100
AcDbEntity
  8
VisibleEdgeEntityLayer
100
AcDbLine
 10
211.0651170730591
 20
95.47824550411535
 30
0.0
 11
202.6651170730591
 21
95.47824550411535
 31
0.0
  0
LINE
  5
12B
330
1F
100
AcDbEntity
  8
VisibleEdgeEntityLayer
100
AcDbLine
 10
219.6651170730591
 20
95.47824550411517
 30
0.0
 11
211.0651170730591
 21
95.47824550411517
 31
0.0
  0
LINE
  5
12C
330
1F
100
AcDbEntity
  8
VisibleEdgeEntityLayer
100
AcDbLine
 10
202.6651170730591
 20
95.47824550411517
 30
0.0
 11
194.065117073059
 21
95.47824550411517
 31
0.0
  0
LINE
  5
12D
330
1F
100
AcDbEntity
  8
VisibleEdgeEntityLayer
100
AcDbLine
 10
192.8651170730591
 20
83.72824550411515
 30
0.0
 11
193.8651170730589
 21
95.22824550411501
 31
0.0
  0
LINE
  5
12E
330
1F
100
AcDbEntity
  8
VisibleEdgeEntityLayer
100
AcDbLine
 10
204.1651170730591
 20
83.47824550411514
 30
0.0
 11
204.1651170730591
 21
95.47824550411517
 31
0.0
  0
LINE
  5
12F
330
1F
100
AcDbEntity
  8
VisibleEdgeEntityLayer
100
AcDbLine
 10
227.7755192294555
 20
83.97824550411515
 30
0.0
 11
220.8651170730591
 21
83.97824550411515
 31
0.0
  0
LINE
  5
130
330
1F
100
AcDbEntity
  8
VisibleEdgeEntityLayer
100
AcDbLine
 10
192.8651170730591
 20
83.97824550411515
 30
0.0
 11
185.9547149166627
 21
83.97824550411515
 31
0.0
  0
LINE
  5
131
330
1F
100
AcDbEntity
  8
VisibleEdgeEntityLayer
100
AcDbLine
 10
219.6651170730591
 20
95.47824550411517
 30
0.0
 11
219.8651170730591
 21
95.22824550411517
 31
0.0
  0
LINE
  5
132
330
1F
100
AcDbEntity
  8
VisibleEdgeEntityLayer
100
AcDbLine
 10
204.1651170730591
 20
83.47824550411514
 30
0.0
 11
204.3651170730591
 21
83.72824550411515
 31
0.0
  0
LINE
  5
133
330
1F
100
AcDbEntity
  8
VisibleEdgeEntityLayer
100
AcDbLine
 10
193.8651170730591
 20
95.22824550411517
 30
0.0
 11
194.065117073059
 21
95.47824550411517
 31
0.0
  0
LINE
  5
134
330
1F
100
AcDbEntity
  8
VisibleEdgeEntityLayer
100
AcDbLine
 10
209.3651170730591
 20
83.72824550411515
 30
0.0
 11
209.5651170730591
 21
83.47824550411514
 31
0.0
  0
LINE
  5
135
330
1F
100
AcDbEntity
  8
VisibleEdgeEntityLayer
100
AcDbLine
 10
219.6651170730591
 20
83.47824550411514
 30
0.0
 11
211.0651170730591
 21
83.47824550411514
 31
0.0
  0
LINE
  5
136
330
1F
100
AcDbEntity
  8
VisibleEdgeEntityLayer
100
AcDbLine
 10
204.3651170730591
 20
95.22824550411517
 30
0.0
 11
204.3651170730591
 21
83.72824550411515
 31
0.0
  0
LINE
  5
137
330
1F
100
AcDbEntity
  8
VisibleEdgeEntityLayer
100
AcDbLine
 10
187.165117073059
 20
95.47824550411528
 30
0.0
 11
194.065117073059
 21
95.47824550411519
 31
0.0
  0
LINE
  5
138
330
1F
100
AcDbEntity
  8
VisibleEdgeEntityLayer
100
AcDbLine
 10
219.6651170730591
 20
95.47824550411519
 30
0.0
 11
226.5651170730591
 21
95.47824550411528
 31
0.0
  0
LINE
  5
139
330
1F
100
AcDbEntity
  8
VisibleEdgeEntityLayer
100
AcDbLine
 10
209.3651170730591
 20
83.72824550411515
 30
0.0
 11
209.3651170730591
 21
95.22824550411517
 31
0.0
  0
LINE
  5
13A
330
1F
100
AcDbEntity
  8
VisibleEdgeEntityLayer
100
AcDbLine
 10
204.3651170730591
 20
95.22824550411517
 30
0.0
 11
209.365117073059
 21
95.22824550411501
 31
0.0
  0
LINE
  5
13B
330
1F
100
AcDbEntity
  8
VisibleEdgeEntityLayer
100
AcDbLine
 10
185.9547149166627
 20
83.72824550411515
 30
0.0
 11
192.8651170730591
 21
83.72824550411515
 31
0.0
  0
LINE
  5
13C
330
1F
100
AcDbEntity
  8
VisibleEdgeEntityLayer
100
AcDbLine
 10
220.8651170730591
 20
83.72824550411515
 30
0.0
 11
227.7755192294555
 21
83.72824550411515
 31
0.0
  0
LINE
  5
13D
330
1F
100
AcDbEntity
  8
VisibleEdgeEntityLayer
100
AcDbLine
 10
204.1651170730591
 20
95.47824550411517
 30
0.0
 11
204.3651170730591
 21
95.22824550411517
 31
0.0
  0
LINE
  5
13E
330
1F
100
AcDbEntity
  8
VisibleEdgeEntityLayer
100
AcDbLine
 10
227.5755192294554
 20
83.47824550411514
 30
0.0
 11
218.6651170730591
 21
83.47824550411514
 31
0.0
  0
LINE
  5
13F
330
1F
100
AcDbEntity
  8
VisibleEdgeEntityLayer
100
AcDbLine
 10
195.065117073059
 20
83.47824550411514
 30
0.0
 11
186.1547149166624
 21
83.47824550411514
 31
0.0
  0
LINE
  5
140
330
1F
100
AcDbEntity
  8
VisibleEdgeEntityLayer
100
AcDbLine
 10
209.3651170730591
 20
95.22824550411517
 30
0.0
 11
209.5651170730591
 21
95.47824550411517
 31
0.0
  0
LINE
  5
141
330
1F
100
AcDbEntity
  8
VisibleEdgeEntityLayer
100
AcDbLine
 10
192.8651170730591
 20
83.72824550411515
 30
0.0
 11
193.065117073059
 21
83.47824550411514
 31
0.0
  0
LINE
  5
142
330
1F
100
AcDbEntity
  8
VisibleEdgeEntityLayer
100
AcDbLine
 10
220.6651170730591
 20
83.47824550411514
 30
0.0
 11
220.8651170730591
 21
83.72824550411515
 31
0.0
  0
LINE
  5
143
330
1F
100
AcDbEntity
  8
VisibleEdgeEntityLayer
100
AcDbLine
 10
202.6651170730591
 20
83.47824550411514
 30
0.0
 11
211.0651170730591
 21
83.47824550411514
 31
0.0
  0
LINE
  5
144
330
1F
100
AcDbEntity
  8
VisibleEdgeEntityLayer
100
AcDbLine
 10
210.8780942117035
 20
83.71202408080971
 30
0.0
 11
202.8521399344147
 21
83.71202408080971
 31
0.0
  0
LINE
  5
145
330
1F
100
AcDbEntity
  8
VisibleEdgeEntityLayer
100
AcDbLine
 10
194.065117073059
 20
95.47824550411519
 30
0.0
 11
193.065117073059
 21
83.47824550411514
 31
0.0
  0
LINE
  5
146
330
1F
100
AcDbEntity
  8
VisibleEdgeEntityLayer
100
AcDbLine
 10
209.5651170730591
 20
95.47824550411517
 30
0.0
 11
209.5651170730591
 21
83.47824550411514
 31
0.0
  0
LINE
  5
147
330
1F
100
AcDbEntity
  8
VisibleEdgeEntityLayer
100
AcDbLine
 10
226.8081685662411
 20
95.2319802630946
 30
0.0
 11
219.8621292658756
 21
95.2319802630946
 31
0.0
  0
LINE
  5
148
330
1F
100
AcDbEntity
  8
VisibleEdgeEntityLayer
100
AcDbLine
 10
193.8681048802426
 20
95.2319802630946
 30
0.0
 11
186.9220655798771
 21
95.2319802630946
 31
0.0
  0
LINE
  5
149
330
1F
100
AcDbEntity
  8
VisibleEdgeEntityLayer
100
AcDbLine
 10
202.6651170730591
 20
83.47824550411514
 30
0.0
 11
194.065117073059
 21
83.47824550411514
 31
0.0
  0
LINE
  5
14A
330
1F
100
AcDbEntity
  8
VisibleEdgeEntityLayer
100
AcDbLine
 10
219.8621292658755
 20
95.2319802630946
 30
0.0
 11
220.8651170730591
 21
83.72824550411515
 31
0.0
  0
LINE
  5
14B
330
1F
100
AcDbEntity
  8
VisibleEdgeEntityLayer
100
AcDbLine
 10
220.6651170730591
 20
83.47824550411514
 30
0.0
 11
219.6651170730591
 21
95.47824550411517
 31
0.0
  0
LINE
  5
14C
330
1F
100
AcDbEntity
  8
VisibleEdgeEntityLayer
100
AcDbLine
 10
209.3651170730591
 20
91.68655001596397
 30
0.0
 11
204.3651170730591
 21
91.68655001596397
 31
0.0
  0
LINE
  5
14D
330
1F
100
AcDbEntity
  8
VisibleEdgeEntityLayer
100
AcDbLine
 10
226.565117073059
 20
95.47824550411528
 30
0.0
 11
226.8081685662411
 21
95.23198026309453
 31
0.0
  0
LINE
  5
14E
330
1F
100
AcDbEntity
  8
VisibleEdgeEntityLayer
100
AcDbLine
 10
227.7755192294555
 20
83.72824550411515
 30
0.0
 11
227.7755192294555
 21
83.97824550411515
 31
0.0
  0
LINE
  5
14F
330
1F
100
AcDbEntity
  8
VisibleEdgeEntityLayer
100
AcDbLine
 10
185.9547149166627
 20
83.72824550411515
 30
0.0
 11
185.9547149166627
 21
83.97824550411515
 31
0.0
  0
LINE
  5
150
330
1F
100
AcDbEntity
  8
VisibleEdgeEntityLayer
100
AcDbLine
 10
186.922065579877
 20
95.2319802630946
 30
0.0
 11
185.9547149166627
 21
83.97824550411515
 31
0.0
  0
LINE
  5
151
330
1F
100
AcDbEntity
  8
VisibleEdgeEntityLayer
100
AcDbLine
 10
227.5755192294554
 20
83.47824550411514
 30
0.0
 11
227.7755192294555
 21
83.72824550411515
 31
0.0
  0
LINE
  5
152
330
1F
100
AcDbEntity
  8
VisibleEdgeEntityLayer
100
AcDbLine
 10
187.1651170730591
 20
95.47824550411538
 30
0.0
 11
186.922065579877
 21
95.2319802630946
 31
0.0
  0
LINE
  5
153
330
1F
100
AcDbEntity
  8
VisibleEdgeEntityLayer
100
AcDbLine
 10
226.8081685662411
 20
95.23198026309453
 30
0.0
 11
227.7755192294555
 21
83.97824550411515
 31
0.0
  0
LINE
  5
154
330
1F
100
AcDbEntity
  8
VisibleEdgeEntityLayer
100
AcDbLine
 10
186.1547149166624
 20
83.47824550411514
 30
0.0
 11
185.9547149166627
 21
83.72824550411515
 31
0.0
  0
LINE
  5
157
330
1F
100
AcDbEntity
  8
HIDDEN
100
AcDbLine
 10
220.8651170730591
 20
83.97824550411515
 30
0.0
 11
192.8651170730591
 21
83.97824550411515
 31
0.0
  0
LINE
  5
158
330
1F
100
AcDbEntity
  8
HIDDEN
100
AcDbLine
 10
197.8651170730591
 20
94.62824550411516
 30
0.0
 11
197.8651170730591
 21
89.47824550411516
 31
0.0
  0
LINE
  5
159
330
1F
100
AcDbEntity
  8
HIDDEN
100
AcDbLine
 10
197.8651170730591
 20
89.47824550411516
 30
0.0
 11
197.8651170730591
 21
84.32824550411515
 31
0.0
  0
LINE
  5
15A
330
1F
100
AcDbEntity
  8
HIDDEN
100
AcDbLine
 10
190.065117073059
 20
95.22824550411494
 30
0.0
 11
204.3651170730591
 21
95.22824550411517
 31
0.0
  0
LINE
  5
15B
330
1F
100
AcDbEntity
  8
HIDDEN
100
AcDbLine
 10
209.365117073059
 20
95.22824550411501
 30
0.0
 11
223.665117073059
 21
95.22824550411494
 31
0.0
  0
LINE
  5
15C
330
1F
100
AcDbEntity
  8
HIDDEN
100
AcDbLine
 10
192.8651170730591
 20
83.72824550411515
 30
0.0
 11
220.8651170730591
 21
83.72824550411515
 31
0.0
  0
LINE
  5
15D
330
1F
100
AcDbEntity
  8
HIDDEN
100
AcDbLine
 10
226.6869326781134
 20
83.71202408080971
 30
0.0
 11
210.8780942117035
 21
83.71202408080971
 31
0.0
  0
LINE
  5
15E
330
1F
100
AcDbEntity
  8
HIDDEN
100
AcDbLine
 10
202.8521399344147
 20
83.71202408080971
 30
0.0
 11
187.0433014680046
 21
83.71202408080971
 31
0.0
  0
LINE
  5
15F
330
1F
100
AcDbEntity
  8
HIDDEN
100
AcDbLine
 10
219.8621292658755
 20
95.2319802630946
 30
0.0
 11
193.8681048802426
 21
95.2319802630946
 31
0.0
  0
LINE
  5
160
330
1F
100
AcDbEntity
  8
HIDDEN
100
AcDbLine
 10
223.6651170730591
 20
91.68655001596397
 30
0.0
 11
209.3651170730591
 21
91.68655001596397
 31
0.0
  0
LINE
  5
161
330
1F
100
AcDbEntity
  8
HIDDEN
100
AcDbLine
 10
199.8651170730591
 20
91.68655001596397
 30
0.0
 11
190.065117073059
 21
91.68655001596397
 31
0.0
  0
LINE
  5
162
330
1F
100
AcDbEntity
  8
HIDDEN
100
AcDbLine
 10
187.0433014680046
 20
83.71202408080966
 30
0.0
 11
186.7547149166628
 21
83.47824550411511
 31
0.0
  0
LINE
  5
163
330
1F
100
AcDbEntity
  8
HIDDEN
100
AcDbLine
 10
220.1458159432407
 20
91.97824550411516
 30
0.0
 11
209.3651170730591
 21
91.97824550411516
 31
0.0
  0
LINE
  5
164
330
1F
100
AcDbEntity
  8
HIDDEN
100
AcDbLine
 10
193.1151170730591
 20
84.32824550411515
 30
0.0
 11
197.8651170730591
 21
84.32824550411515
 31
0.0
  0
LINE
  5
165
330
1F
100
AcDbEntity
  8
HIDDEN
100
AcDbLine
 10
190.065117073059
 20
91.6865500159642
 30
0.0
 11
187.0433014680046
 21
83.71202408080971
 31
0.0
  0
LINE
  5
166
330
1F
100
AcDbEntity
  8
HIDDEN
100
AcDbLine
 10
190.065117073059
 20
91.6865500159642
 30
0.0
 11
190.065117073059
 21
95.22824550411501
 31
0.0
  0
LINE
  5
167
330
1F
100
AcDbEntity
  8
HIDDEN
100
AcDbLine
 10
194.1151170730591
 20
94.62824550411516
 30
0.0
 11
197.8651170730591
 21
94.62824550411516
 31
0.0
  0
LINE
  5
168
330
1F
100
AcDbEntity
  8
HIDDEN
100
AcDbLine
 10
197.8651170730591
 20
85.97824550411518
 30
0.0
 11
204.3651170730591
 21
85.97824550411518
 31
0.0
  0
LINE
  5
169
330
1F
100
AcDbEntity
  8
HIDDEN
100
AcDbLine
 10
190.065117073059
 20
95.22824550411494
 30
0.0
 11
189.8651170730591
 21
95.47824550411531
 31
0.0
  0
LINE
  5
16A
330
1F
100
AcDbEntity
  8
HIDDEN
100
AcDbLine
 10
226.6869326781135
 20
83.71202408080977
 30
0.0
 11
226.9755192294555
 21
83.4782455041152
 31
0.0
  0
LINE
  5
16B
330
1F
100
AcDbEntity
  8
HIDDEN
100
AcDbLine
 10
223.6651170730591
 20
91.68655001596397
 30
0.0
 11
226.6869326781134
 21
83.71202408080971
 31
0.0
  0
LINE
  5
16C
330
1F
100
AcDbEntity
  8
HIDDEN
100
AcDbLine
 10
220.5817560219185
 20
86.97824550411516
 30
0.0
 11
209.3651170730591
 21
86.97824550411516
 31
0.0
  0
LINE
  5
16D
330
1F
100
AcDbEntity
  8
HIDDEN
100
AcDbLine
 10
197.8651170730591
 20
91.68655001596397
 30
0.0
 11
204.3651170730591
 21
91.68655001596397
 31
0.0
  0
LINE
  5
16E
330
1F
100
AcDbEntity
  8
HIDDEN
100
AcDbLine
 10
194.1151170730591
 20
94.62824550411516
 30
0.0
 11
193.8296148241833
 21
94.81996964204624
 31
0.0
  0
LINE
  5
16F
330
1F
100
AcDbEntity
  8
HIDDEN
100
AcDbLine
 10
223.6651170730591
 20
91.68655001596397
 30
0.0
 11
223.6651170730591
 21
95.22824550411501
 31
0.0
  0
LINE
  5
170
330
1F
100
AcDbEntity
  8
HIDDEN
100
AcDbLine
 10
223.665117073059
 20
95.22824550411494
 30
0.0
 11
223.8651170730591
 21
95.47824550411531
 31
0.0
  0
LINE
  5
171
330
1F
100
AcDbEntity
  8
HIDDEN
100
AcDbLine
 10
193.1151170730591
 20
84.32824550411515
 30
0.0
 11
192.8998996817546
 21
84.12824550411514
 31
0.0
  0
LINE
  5
172
330
1F
100
AcDbEntity
  8
CENTER
100
AcDbLine
 10
208.5506638989893
 20
89.47824550411516
 30
0.0
 11
214.2221170730591
 21
89.47824550411516
 31
0.0
  0
LINE
  5
173
330
1F
100
AcDbEntity
  8
CENTER
100
AcDbLine
 10
214.9841170730591
 20
89.47824550411516
 30
0.0
 11
215.7461170730591
 21
89.47824550411516
 31
0.0
  0
LINE
  5
174
330
1F
100
AcDbEntity
  8
CENTER
100
AcDbLine
 10
216.5081170730591
 20
89.47824550411516
 30
0.0
 11
220.6271170730591
 21
89.47824550411516
 31
0.0
  0
LINE
  5
175
330
1F
100
AcDbEntity
  8
CENTER
100
AcDbLine
 10
193.1031170730591
 20
89.47824550411516
 30
0.0
 11
194.8771170730591
 21
89.47824550411516
 31
0.0
  0
LINE
  5
176
330
1F
100
AcDbEntity
  8
CENTER
100
AcDbLine
 10
199.103117073059
 20
89.47824550411516
 30
0.0
 11
200.2221170730591
 21
89.47824550411516
 31
0.0
  0
LINE
  5
177
330
1F
100
AcDbEntity
  8
CENTER
100
AcDbLine
 10
200.9841170730591
 20
89.47824550411516
 30
0.0
 11
204.0081170730591
 21
89.47824550411516
 31
0.0
  0
LINE
  5
178
330
1F
100
AcDbEntity
  8
CENTER
100
AcDbLine
 10
204.0081170730591
 20
89.47824550411516
 30
0.0
 11
205.1271170730591
 21
89.47824550411516
 31
0.0
  0
LINE
  5
179
330
1F
100
AcDbEntity
  8
CENTER
100
AcDbLine
 10
192.3531170730591
 20
89.47824550411516
 30
0.0
 11
194.8471170730591
 21
89.47824550411516
 31
0.0
  0
LINE
  5
17A
330
1F
100
AcDbEntity
  8
CENTER
100
AcDbLine
 10
195.8771170730591
 20
89.47824550411516
 30
0.0
 11
198.3711170730591
 21
89.47824550411516
 31
0.0
  0
LINE
  5
17B
330
1F
100
AcDbEntity
  8
CENTER
100
AcDbLine
 10
198.1331170730591
 20
89.47824550411516
 30
0.0
 11
200.6271170730591
 21
89.47824550411516
 31
0.0
  0
MTEXT
  5
1C0
330
1F
100
AcDbEntity
  8
VisibleEdgeEntityLayer
100
AcDbMText
 10
60.32078552246088
 20
57.74744644165036
 30
0.0
 40
2.52824074074074
 41
0.0
 71
     1
 72
     1
  1
{\fArial|b0|i0|c0|p0;BIKE FRIDAY}{\fArial|b0|i0|c0|p0;\P3364 W 11th Ave}{\fArial|b0|i0|c0|p0;\PEUGENE}{\fArial|b0|i0|c0|p0;\POR 97402}{\fArial|b0|i0|c0|p0;\P}{\fArial|b0|i0|c0|p0;\P541-687-0487}{\fArial|b0|i0|c0|p0;\P}{\fArial|b0|i0|c0|p0;}
 73
     1
 44
1.0
  0
MTEXT
  5
1C1
330
1F
100
AcDbEntity
  8
VisibleEdgeEntityLayer
100
AcDbMText
 10
60.06616973876944
 20
28.97574462890626
 30
0.0
 40
2.52824074074074
 41
0.0
 71
     1
 72
     1
  1
{\fArial|b0|i0|c0|p0;All dimensions in mm}{\fArial|b0|i0|c0|p0;\P}{\fArial|b0|i0|c0|p0;}
 73
     1
 44
1.0
  0
MTEXT
  5
1C2
330
1F
100
AcDbEntity
  8
VisibleEdgeEntityLayer
100
AcDbMText
 10
60.32078552246088
 20
20.82800140380857
 30
0.0
 40
2.52824074074074
 41
0.0
 71
     1
 72
     1
  1
{\fArial|b0|i0|c0|p0;Third angle projection}{\fArial|b0|i0|c0|p0;\H0.9x;\P}{\fArial|b0|i0|c0|p0;\H0.9x;\P}{\fArial|b0|i0|c0|p0;\H0.9x;}
 73
     1
 44
1.0
  0
MTEXT
  5
1C3
330
1F
100
AcDbEntity
  8
VisibleEdgeEntityLayer
100
AcDbMText
 10
161.7542078883528
 20
40.71975420248413
 30
0.0
 40
2.781064814814813
 41
0.0
 71
     1
 72
     1
  1
MATERIAL:  aluminium alloy\PFINISH: black anodised, break all edges
 73
     1
 44
1.0
  0
MTEXT
  5
1C4
330
1F
100
AcDbEntity
  8
VisibleEdgeEntityLayer
100
AcDbMText
 10
161.9429743678454
 20
55.71871633995218
 30
0.0
 40
2.781064814814813
 41
0.0
 71
     1
 72
     1
  1
PART: 1.25" aheadset adjust locking cone\P\PGeneral tolerance +/- 0.2mm[.008"] except where specified
 73
     1
 44
1.0
  0
LINE
  5
33E
330
1F
100
AcDbEntity
  8
HIDDEN
100
AcDbLine
 10
127.0839660500678
 20
138.4475291252135
 30
0.0
 11
126.8191666272017
 21
138.6475291252135
 31
0.0
  0
LINE
  5
33F
330
1F
100
AcDbEntity
  8
VisibleEdgeEntityLayer
100
AcDbLine
 10
123.7685843565149
 20
138.6475291252134
 30
0.0
 11
123.939369185777
 21
138.4475291252135
 31
0.0
  0
LINE
  5
409
330
1F
100
AcDbEntity
  8
VisibleEdgeEntityLayer
100
AcDbLine
 10
6.625320434570308
 20
5.962783813476558
 30
0.0
 11
273.32532043457
 21
5.962783813476558
 31
0.0
  0
LINE
  5
40A
330
1F
100
AcDbEntity
  8
VisibleEdgeEntityLayer
100
AcDbLine
 10
273.32532043457
 20
209.162783813477
 30
0.0
 11
6.625320434570308
 21
209.162783813477
 31
0.0
  0
LINE
  5
40B
330
1F
100
AcDbEntity
  8
VisibleEdgeEntityLayer
100
AcDbLine
 10
12.9753204345703
 20
15.6147838134766
 30
0.0
 11
266.97532043457
 21
15.6147838134766
 31
0.0
  0
LINE
  5
40C
330
1F
100
AcDbEntity
  8
VisibleEdgeEntityLayer
100
AcDbLine
 10
266.97532043457
 20
199.510783813477
 30
0.0
 11
12.9753204345703
 21
199.510783813477
 31
0.0
  0
LWPOLYLINE
  5
40D
330
1F
100
AcDbEntity
  8
VisibleEdgeEntityLayer
100
AcDbPolyline
 90
        5
 70
     0
 43
0.0
 10
136.16532043457
 20
11.8047838134766
 10
143.78532043457
 20
11.8047838134766
 10
139.97532043457
 20
15.6147838134766
 10
139.97532043457
 20
15.6147838134766
 10
136.16532043457
 20
11.8047838134766
  0
LWPOLYLINE
  5
40E
330
1F
100
AcDbEntity
  8
VisibleEdgeEntityLayer
100
AcDbPolyline
 90
        5
 70
     0
 43
0.0
 10
136.181602830604
 20
203.333525060194
 10
143.801602830604
 20
203.333525060194
 10
139.991602830604
 20
199.523525060194
 10
139.991602830604
 20
199.523525060194
 10
136.181602830604
 20
203.333525060194
  0
LINE
  5
40F
330
1F
100
AcDbEntity
  8
VisibleEdgeEntityLayer
100
AcDbLine
 10
108.22532043457
 20
23.6157838134766
 30
0.0
 11
159.02532043457
 21
23.6157838134766
 31
0.0
  0
LINE
  5
410
330
1F
100
AcDbEntity
  8
VisibleEdgeEntityLayer
100
AcDbLine
 10
127.27532043457
 20
193.1607838134769
 30
0.0
 11
266.97532043457
 21
193.1607838134769
 31
0.0
  0
LINE
  5
411
330
1F
100
AcDbEntity
  8
VisibleEdgeEntityLayer
100
AcDbLine
 10
127.27532043457
 20
186.8107838134769
 30
0.0
 11
266.97532043457
 21
186.8107838134769
 31
0.0
  0
LINE
  5
412
330
1F
100
AcDbEntity
  8
VisibleEdgeEntityLayer
100
AcDbLine
 10
6.625320434570308
 20
209.162783813477
 30
0.0
 11
6.625320434570308
 21
5.962783813476558
 31
0.0
  0
LINE
  5
413
330
1F
100
AcDbEntity
  8
VisibleEdgeEntityLayer
100
AcDbLine
 10
12.9753204345703
 20
199.510783813477
 30
0.0
 11
12.9753204345703
 21
15.6147838134766
 31
0.0
  0
LWPOLYLINE
  5
414
330
1F
100
AcDbEntity
  8
VisibleEdgeEntityLayer
100
AcDbPolyline
 90
        5
 70
     0
 43
0.0
 10
9.165320434570167
 20
103.752783813477
 10
9.165320434570167
 20
111.372783813477
 10
12.9753204345703
 20
107.562783813477
 10
12.9753204345703
 20
107.562783813477
 10
9.165320434570167
 20
103.752783813477
  0
LINE
  5
415
330
1F
100
AcDbEntity
  8
VisibleEdgeEntityLayer
100
AcDbLine
 10
108.22532043457
 20
15.6147838134766
 30
0.0
 11
108.22532043457
 21
60.0647838134766
 31
0.0
  0
LINE
  5
416
330
1F
100
AcDbEntity
  8
VisibleEdgeEntityLayer
100
AcDbLine
 10
127.27532043457
 20
199.510783813477
 30
0.0
 11
127.27532043457
 21
172.9093638134769
 31
0.0
  0
LINE
  5
417
330
1F
100
AcDbEntity
  8
VisibleEdgeEntityLayer
100
AcDbLine
 10
139.97532043457
 20
186.8107838134769
 30
0.0
 11
139.97532043457
 21
193.1607838134769
 31
0.0
  0
LINE
  5
418
330
1F
100
AcDbEntity
  8
VisibleEdgeEntityLayer
100
AcDbLine
 10
273.32532043457
 20
5.962783813476558
 30
0.0
 11
273.32532043457
 21
209.162783813477
 31
0.0
  0
LINE
  5
419
330
1F
100
AcDbEntity
  8
VisibleEdgeEntityLayer
100
AcDbLine
 10
266.97532043457
 20
15.6147838134766
 30
0.0
 11
266.97532043457
 21
199.510783813477
 31
0.0
  0
LWPOLYLINE
  5
41A
330
1F
100
AcDbEntity
  8
VisibleEdgeEntityLayer
100
AcDbPolyline
 90
        5
 70
     0
 43
0.0
 10
270.78532043457
 20
103.752783813477
 10
270.78532043457
 20
111.372783813477
 10
266.97532043457
 20
107.562783813477
 10
266.97532043457
 20
107.562783813477
 10
270.78532043457
 20
103.752783813477
  0
LINE
  5
41B
330
1F
100
AcDbEntity
  8
VisibleEdgeEntityLayer
100
AcDbLine
 10
159.02532043457
 20
21.9647838134766
 30
0.0
 11
266.97532043457
 21
21.9647838134766
 31
0.0
  0
LINE
  5
41C
330
1F
100
AcDbEntity
  8
VisibleEdgeEntityLayer
100
AcDbLine
 10
159.02532043457
 20
47.3647838134766
 30
0.0
 11
266.97532043457
 21
47.3647838134766
 31
0.0
  0
LINE
  5
41D
330
1F
100
AcDbEntity
  8
VisibleEdgeEntityLayer
100
AcDbLine
 10
159.02532043457
 20
15.6147838134766
 30
0.0
 11
159.02532043457
 21
60.0647838134766
 31
0.0
  0
LINE
  5
41E
330
1F
100
AcDbEntity
  8
VisibleEdgeEntityLayer
100
AcDbLine
 10
184.42532043457
 20
15.6147838134766
 30
0.0
 11
184.42532043457
 21
21.9647838134766
 31
0.0
  0
LINE
  5
41F
330
1F
100
AcDbEntity
  8
VisibleEdgeEntityLayer
100
AcDbLine
 10
168.67732043457
 20
21.9647838134766
 30
0.0
 11
168.67732043457
 21
31.6167838134766
 31
0.0
  0
LINE
  5
420
330
1F
100
AcDbEntity
  8
VisibleEdgeEntityLayer
100
AcDbLine
 10
197.12532043457
 20
21.9647838134766
 30
0.0
 11
197.12532043457
 21
31.6167838134766
 31
0.0
  0
LINE
  5
421
330
1F
100
AcDbEntity
  8
VisibleEdgeEntityLayer
100
AcDbLine
 10
222.52532043457
 20
15.6147838134766
 30
0.0
 11
222.52532043457
 21
21.9647838134766
 31
0.0
  0
LINE
  5
422
330
1F
100
AcDbEntity
  8
VisibleEdgeEntityLayer
100
AcDbLine
 10
257.32332043457
 20
21.9647838134766
 30
0.0
 11
257.32332043457
 21
31.6167838134766
 31
0.0
  0
LINE
  5
423
330
1F
100
AcDbEntity
  8
VisibleEdgeEntityLayer
100
AcDbLine
 10
149.62732043457
 20
186.8107838134769
 30
0.0
 11
149.62732043457
 21
193.1607838134769
 31
0.0
  0
LINE
  5
424
330
1F
100
AcDbEntity
  8
VisibleEdgeEntityLayer
100
AcDbLine
 10
219.22332043457
 20
186.8107838134769
 30
0.0
 11
219.22332043457
 21
193.1607838134769
 31
0.0
  0
LINE
  5
425
330
1F
100
AcDbEntity
  8
VisibleEdgeEntityLayer
100
AcDbLine
 10
241.57532043457
 20
186.8107838134769
 30
0.0
 11
241.57532043457
 21
193.1607838134769
 31
0.0
  0
LINE
  5
426
330
1F
100
AcDbEntity
  8
VisibleEdgeEntityLayer
100
AcDbLine
 10
6.625320434570308
 20
107.562783813477
 30
0.0
 11
9.165320434570167
 21
107.562783813477
 31
0.0
  0
LINE
  5
427
330
1F
100
AcDbEntity
  8
VisibleEdgeEntityLayer
100
AcDbLine
 10
139.97532043457
 20
9.26478381347656
 30
0.0
 11
139.97532043457
 21
11.8047838134766
 31
0.0
  0
LINE
  5
428
330
1F
100
AcDbEntity
  8
VisibleEdgeEntityLayer
100
AcDbLine
 10
139.991602830604
 20
205.873525060194
 30
0.0
 11
139.991602830604
 21
203.333525060194
 31
0.0
  0
LINE
  5
429
330
1F
100
AcDbEntity
  8
VisibleEdgeEntityLayer
100
AcDbLine
 10
273.32532043457
 20
107.562783813477
 30
0.0
 11
270.78532043457
 21
107.562783813477
 31
0.0
  0
LINE
  5
42A
330
1F
100
AcDbEntity
  8
VisibleEdgeEntityLayer
100
AcDbLine
 10
108.22532043457
 20
40.07331466674809
 30
0.0
 11
159.025314331054
 21
40.07331466674809
 31
0.0
  0
LINE
  5
42B
330
1F
100
AcDbEntity
  8
VisibleEdgeEntityLayer
100
AcDbLine
 10
108.22532043457
 20
23.5509624481202
 30
0.0
 11
57.5383071899414
 21
23.5509624481202
 31
0.0
  0
LINE
  5
42C
330
1F
100
AcDbEntity
  8
VisibleEdgeEntityLayer
100
AcDbLine
 10
57.5383071899414
 20
60.0647838134766
 30
0.0
 11
57.5383071899414
 21
15.6147838134766
 31
0.0
  0
LINE
  5
42D
330
1F
100
AcDbEntity
  8
VisibleEdgeEntityLayer
100
AcDbLine
 10
57.5383071899414
 20
60.0647838134766
 30
0.0
 11
266.97532043457
 21
60.0647838134766
 31
0.0
  0
LINE
  5
42E
330
1F
100
AcDbEntity
  8
VisibleEdgeEntityLayer
100
AcDbLine
 10
108.22532043457
 20
31.5947399139405
 30
0.0
 11
57.5383071899414
 21
31.5947399139405
 31
0.0
  0
LINE
  5
42F
330
1F
100
AcDbEntity
  8
VisibleEdgeEntityLayer
100
AcDbLine
 10
108.22532043457
 20
49.4214859008789
 30
0.0
 11
159.025314331054
 21
49.4214859008789
 31
0.0
  0
LINE
  5
430
330
1F
100
AcDbEntity
  8
VisibleEdgeEntityLayer
100
AcDbLine
 10
108.22532043457
 20
31.5947399139405
 30
0.0
 11
159.025314331054
 21
31.5947399139405
 31
0.0
  0
LINE
  5
431
330
1F
100
AcDbEntity
  8
VisibleEdgeEntityLayer
100
AcDbLine
 10
159.02532043457
 20
31.6167838134766
 30
0.0
 11
266.97532043457
 21
31.6167838134766
 31
0.0
  0
LINE
  5
432
330
1F
100
AcDbEntity
  8
VisibleEdgeEntityLayer
100
AcDbLine
 10
134.062828063965
 20
60.0647838134766
 30
0.0
 11
134.062828063965
 21
15.6147838134766
 31
0.0
  0
MTEXT
  5
433
330
1F
100
AcDbEntity
  8
0
100
AcDbMText
 10
141.83650543457
 20
189.9034878134769
 30
0.0
 40
1.769768518518518
 41
0.0
 71
     4
 72
     1
  1
{\fArial|b0|i0|c0|p0;REV}{\fArial|b0|i0|c0|p0;}
 73
     1
 44
1.0
  0
MTEXT
  5
434
330
1F
100
AcDbEntity
  8
0
100
AcDbMText
 10
129.8629454345699
 20
189.9034878134769
 30
0.0
 40
1.769768518518518
 41
0.0
 71
     4
 72
     1
  1
{\fArial|b0|i0|c0|p0;ZONE}{\fArial|b0|i0|c0|p0;}
 73
     1
 44
1.0
  0
MTEXT
  5
435
330
1F
100
AcDbEntity
  8
0
100
AcDbMText
 10
195.94104543457
 20
196.055367813477
 30
0.0
 40
1.769768518518518
 41
0.0
 71
     4
 72
     1
  1
{\fArial|b0|i0|c0|p0;REVISIONS}{\fArial|b0|i0|c0|p0;}
 73
     1
 44
1.0
  0
MTEXT
  5
436
330
1F
100
AcDbEntity
  8
0
100
AcDbMText
 10
174.90476543457
 20
189.9034878134769
 30
0.0
 40
1.769768518518518
 41
0.0
 71
     4
 72
     1
  1
{\fArial|b0|i0|c0|p0;DESCRIPTION}{\fArial|b0|i0|c0|p0;}
 73
     1
 44
1.0
  0
MTEXT
  5
437
330
1F
100
AcDbEntity
  8
0
100
AcDbMText
 10
227.37354543457
 20
189.9034878134769
 30
0.0
 40
1.769768518518518
 41
0.0
 71
     4
 72
     1
  1
{\fArial|b0|i0|c0|p0;DATE}{\fArial|b0|i0|c0|p0;}
 73
     1
 44
1.0
  0
MTEXT
  5
438
330
1F
100
AcDbEntity
  8
0
100
AcDbMText
 10
247.53352543457
 20
189.9034878134769
 30
0.0
 40
1.769768518518518
 41
0.0
 71
     4
 72
     1
  1
{\fArial|b0|i0|c0|p0;APPROVED}{\fArial|b0|i0|c0|p0;}
 73
     1
 44
1.0
  0
MTEXT
  5
439
330
1F
100
AcDbEntity
  8
0
100
AcDbMText
 10
110.366317749023
 20
57.0304641723633
 30
0.0
 40
1.769768518518518
 41
0.0
 71
     4
 72
     1
  1
{\fArial|b0|i0|c0|p0;DRAWN}{\fArial|b0|i0|c0|p0;}
 73
     1
 44
1.0
  0
MTEXT
  5
43A
330
1F
100
AcDbEntity
  8
0
100
AcDbMText
 10
110.366317749023
 20
46.3778953552246
 30
0.0
 40
1.769768518518518
 41
0.0
 71
     4
 72
     1
  1
{\fArial|b0|i0|c0|p0;CHECKED}{\fArial|b0|i0|c0|p0;}
 73
     1
 44
1.0
  0
MTEXT
  5
43B
330
1F
100
AcDbEntity
  8
0
100
AcDbMText
 10
110.366317749023
 20
37.4645137786866
 30
0.0
 40
1.769768518518518
 41
0.0
 71
     4
 72
     1
  1
{\fArial|b0|i0|c0|p0;QA}{\fArial|b0|i0|c0|p0;}
 73
     1
 44
1.0
  0
MTEXT
  5
43C
330
1F
100
AcDbEntity
  8
0
100
AcDbMText
 10
110.583709716797
 20
28.9859371185303
 30
0.0
 40
1.769768518518518
 41
0.0
 71
     4
 72
     1
  1
{\fArial|b0|i0|c0|p0;MFG}{\fArial|b0|i0|c0|p0;}
 73
     1
 44
1.0
  0
MTEXT
  5
43D
330
1F
100
AcDbEntity
  8
0
100
AcDbMText
 10
110.366317749023
 20
21.1595668792725
 30
0.0
 40
1.769768518518518
 41
0.0
 71
     4
 72
     1
  1
{\fArial|b0|i0|c0|p0;APPROVED}{\fArial|b0|i0|c0|p0;}
 73
     1
 44
1.0
  0
MTEXT
  5
43E
330
1F
100
AcDbEntity
  8
0
100
AcDbMText
 10
136.098480224609
 20
56.72852706909178
 30
0.0
 40
1.769768518518518
 41
0.0
 71
     4
 72
     1
  1
{\fArial|b0|i0|c0|p0;DATE}{\fArial|b0|i0|c0|p0;}
 73
     1
 44
1.0
  0
MTEXT
  5
43F
330
1F
100
AcDbEntity
  8
0
100
AcDbMText
 10
160.53694171875
 20
29.5177278134766
 30
0.0
 40
1.769768518518518
 41
0.0
 71
     4
 72
     1
  1
{\fArial|b0|i0|c0|p0;SIZE}{\fArial|b0|i0|c0|p0;}
 73
     1
 44
1.0
  0
MTEXT
  5
440
330
1F
100
AcDbEntity
  8
0
100
AcDbMText
 10
170.25402543457
 20
29.5177278134766
 30
0.0
 40
1.769768518518518
 41
0.0
 71
     4
 72
     1
  1
{\fArial|b0|i0|c0|p0;FSCM NO.}{\fArial|b0|i0|c0|p0;}
 73
     1
 44
1.0
  0
MTEXT
  5
441
330
1F
100
AcDbEntity
  8
0
100
AcDbMText
 10
198.75536543457
 20
29.5177278134766
 30
0.0
 40
1.769768518518518
 41
0.0
 71
     4
 72
     1
  1
{\fArial|b0|i0|c0|p0;DWG NO.}{\fArial|b0|i0|c0|p0;}
 73
     1
 44
1.0
  0
MTEXT
  5
442
330
1F
100
AcDbEntity
  8
0
100
AcDbMText
 10
259.19466543457
 20
29.5177278134766
 30
0.0
 40
1.769768518518518
 41
0.0
 71
     4
 72
     1
  1
{\fArial|b0|i0|c0|p0;REV}{\fArial|b0|i0|c0|p0;}
 73
     1
 44
1.0
  0
MTEXT
  5
443
330
1F
100
AcDbEntity
  8
0
100
AcDbMText
 10
160.18038543457
 20
18.7633678134766
 30
0.0
 40
1.769768518518518
 41
0.0
 71
     4
 72
     1
  1
{\fArial|b0|i0|c0|p0;SCALE}{\fArial|b0|i0|c0|p0;}
 73
     1
 44
1.0
  0
MTEXT
  5
444
330
1F
100
AcDbEntity
  8
0
100
AcDbMText
 10
161.778762817382
 20
25.5466480255126
 30
0.0
 40
4.298009259259258
 41
0.0
 71
     4
 72
     1
  1
{\fArial|b0|i0|c0|p0;A}{\fArial|b0|i0|c0|p0;}
 73
     1
 44
1.0
  0
MTEXT
  5
445
330
1F
100
AcDbEntity
  8
0
100
AcDbMText
 10
223.69308543457
 20
18.7633678134766
 30
0.0
 40
1.769768518518518
 41
0.0
 71
     4
 72
     1
  1
{\fArial|b0|i0|c0|p0;SHEET}{\fArial|b0|i0|c0|p0;}
 73
     1
 44
1.0
  0
MTEXT
  5
446
330
1F
100
AcDbEntity
  8
0
100
AcDbMText
 10
210.627548217774
 20
25.6828956604004
 30
0.0
 40
2.275416666666667
 41
0.0
 71
     4
 72
     1
  1
{\fArial|b0|i0|c0|p0;}
 73
     1
 44
1.0
  0
MTEXT
  5
447
330
1F
100
AcDbEntity
  8
0
100
AcDbMText
 10
110.366310119629
 20
52.6824760437012
 30
0.0
 40
2.275416666666667
 41
0.0
 71
     4
 72
     1
  1
{\fArial|b0|i0|c0|p0;R. English}{\fArial|b0|i0|c0|p0;}
 73
     1
 44
1.0
  0
MTEXT
  5
448
330
1F
100
AcDbEntity
  8
0
100
AcDbMText
 10
135.867660522461
 20
52.79362487792971
 30
0.0
 40
2.275416666666667
 41
0.0
 71
     4
 72
     1
  1
{\fArial|b0|i0|c0|p0;09/08/10}{\fArial|b0|i0|c0|p0;}
 73
     1
 44
1.0
  0
MTEXT
  5
44F
330
1F
100
AcDbEntity
  8
0
100
AcDbMText
 10
214.7182019176724
 20
25.52838018221152
 30
0.0
 40
2.275416666666667
 41
0.0
 71
     4
 72
     1
  1
16990
 73
     1
 44
1.0
  0
MTEXT
  5
459
330
1F
100
AcDbEntity
  8
VisibleEdgeEntityLayer
100
AcDbMText
 10
139.9064772620149
 20
184.533761253078
 30
0.0
 40
2.781064814814813
 41
0.0
 71
     1
 72
     1
  3
A^IIncreased Inside diameter from 16.5mm radius to 16.8mm\P^I^IIncreased through hole of unthreaded side of clamp to 7.0mm\P^I^IIncreased bolt head hole to 10.3mm^I          09/04/12^IRJE\PB^IDecreased gap from 8mm to 5mm\P^I^IDecreased bolt head recess from 7
  1
mm to 5mm\P^I^IAdded large radius to binder/clamp transition   04/06/15^IWTH
 73
     1
 44
1.0
  0
ARC
  5
47A
330
1F
100
AcDbEntity
  8
0
100
AcDbCircle
 10
107.1556375980377
 20
141.1475291252135
 30
0.0
 40
16.8
100
AcDbArc
 50
8.557943030162832
 51
351.4420569698375
  0
DIMENSION
  5
4D7
330
1F
100
AcDbEntity
  8
0
100
AcDbDimension
  2
*D22
 10
107.115967838986
 20
96.58600217821437
 30
0.0
 11
98.71596783898606
 21
100.7145833514749
 31
0.0
 70
    32
 71
     5
 42
16.79999999999987
  3
ISO-25
100
AcDbAlignedDimension
 13
90.31596783898612
 23
95.2282455041149
 33
0.0
 14
107.115967838986
 24
95.22824550411501
 34
0.0
100
AcDbRotatedDimension
1001
ACAD
1000
DSTYLE
1002
{
1070
     3
1000
\X
1070
    41
1040
2.286
1070
   140
1040
2.275416666666667
1002
}
  0
DIMENSION
  5
57A
330
1F
100
AcDbEntity
  8
0
100
AcDbDimension
  2
*D24
 10
123.7661171569188
 20
89.51746224048147
 30
0.0
 11
142.7495959871473
 21
89.37290075111755
 31
0.0
 70
   163
 71
     5
 42
10.29999999999998
  3
ISO-25
100
AcDbDiametricDimension
 15
134.0658185210533
 25
89.43902876774876
 35
0.0
 40
0.0
1001
ACAD
1000
DSTYLE
1002
{
1070
    41
1040
2.286
1070
   140
1040
2.275416666666667
1070
   288
1070
     1
1002
}
  0
LINE
  5
5D5
330
1F
100
AcDbEntity
  8
HIDDEN
100
AcDbLine
 10
197.8651170730591
 20
92.97824550411517
 30
0.0
 11
204.3651170730591
 21
92.97824550411517
 31
0.0
  0
DIMENSION
  5
5DF
330
1F
100
AcDbEntity
  8
0
100
AcDbDimension
  2
*D27
 10
126.0571957936415
 20
91.49750833811104
 30
0.0
 11
147.1759925872176
 21
85.19343738668496
 31
0.0
 70
    35
 71
     5
 42
7.000000000000113
  3
ISO-25
100
AcDbDiametricDimension
 15
131.7747398843305
 25
87.45898267011909
 35
0.0
 40
0.0
1001
ACAD
1000
DSTYLE
1002
{
1070
    41
1040
2.286
1070
   140
1040
2.275416666666667
1070
   288
1070
     1
1002
}
  0
DIMENSION
  5
5EC
330
1F
100
AcDbEntity
  8
0
100
AcDbDimension
  2
*D28
 10
226.8081685662411
 20
103.499024611639
 30
0.0
 11
206.8651170730591
 21
105.7261733155953
 31
0.0
 70
    32
 71
     5
 42
39.88610298636408
  3
ISO-25
100
AcDbAlignedDimension
 13
186.922065579877
 23
95.2319802630946
 33
0.0
 14
226.8081685662411
 24
95.2319802630946
 34
0.0
100
AcDbRotatedDimension
1001
ACAD
1000
DSTYLE
1002
{
1070
    41
1040
2.286
1070
   140
1040
2.275416666666667
1002
}
  0
DIMENSION
  5
5F9
330
1F
100
AcDbEntity
  8
0
100
AcDbDimension
  2
*D29
 10
227.7755192294555
 20
74.26942528192926
 30
0.0
 11
206.8651170730591
 21
76.4965739858856
 31
0.0
 70
    32
 71
     5
 42
41.8208043127928
  3
ISO-25
100
AcDbAlignedDimension
 13
185.9547149166627
 23
83.72824550411515
 33
0.0
 14
227.7755192294555
 24
83.97824550411515
 34
0.0
100
AcDbRotatedDimension
1001
ACAD
1000
DSTYLE
1002
{
1070
    41
1040
2.286
1070
   140
1040
2.275416666666667
1002
}
  0
MTEXT
  5
625
330
1F
100
AcDbEntity
  8
0
100
AcDbMText
 10
261.0433339481118
 20
25.47569902064111
 30
0.0
 40
2.781099999999999
 41
0.0
 71
     4
 72
     1
  1
B
 73
     1
 44
1.0
  0
DIMENSION
  5
65E
330
1F
100
AcDbEntity
  8
0
100
AcDbDimension
  2
*D32
 10
128.1186374450776
 20
107.1475291252137
 30
0.0
 11
138.568179748115
 21
122.4995261869614
 31
0.0
 70
   164
 71
     5
 42
19.9999999999999
  3
ISO-25
100
AcDbRadialDimension
 15
126.1358788387599
 25
127.0490031487394
 35
0.0
 40
0.0
1001
ACAD
1000
DSTYLE
1002
{
1070
    41
1040
2.286
1070
   140
1040
2.275416666666667
1070
   288
1070
     1
1002
}
  0
LINE
  5
6D6
330
1F
100
AcDbEntity
  8
0
100
AcDbLine
 10
108.0566594305667
 20
83.71202408080963
 30
0.0
 11
86.20556568258971
 21
83.72824550411506
 31
0.0
  0
LINE
  5
711
330
1F
100
AcDbEntity
  8
VisibleEdgeEntityLayer
100
AcDbLine
 10
119.7422025627859
 20
95.23198026309453
 30
0.0
 11
121.2530232240274
 21
83.97824550411506
 31
0.0
  0
ARC
  5
712
330
1F
100
AcDbEntity
  8
VisibleEdgeEntityLayer
100
AcDbCircle
 10
107.1159678389861
 20
141.1475291252137
 30
0.0
 40
20.91
100
AcDbArc
 50
56.21114293015001
 51
303.7888570698495
  0
ARC
  5
71E
330
1F
100
AcDbEntity
  8
HIDDEN
100
AcDbCircle
 10
107.1556375980377
 20
141.1475291252135
 30
0.0
 40
20.71
100
AcDbArc
 50
56.12574695112935
 51
303.8742530488709
  0
DIMENSION
  5
773
330
1F
100
AcDbEntity
  8
0
100
AcDbDimension
  2
*D41
 10
141.0386981176191
 20
127.1475291252136
 30
0.0
 11
141.0386981176191
 21
129.6475291252136
 31
0.0
 70
    32
 71
     5
 42
5.000000000000014
  3
ISO-25
100
AcDbAlignedDimension
 13
134.1056375980377
 23
132.1475291252136
 33
0.0
 14
134.3056375980377
 24
127.1475291252136
 34
0.0
 50
90.0
100
AcDbRotatedDimension
1001
ACAD
1000
DSTYLE
1002
{
1070
    41
1040
2.286
1070
   140
1040
2.275416666666667
1002
}
  0
LINE
  5
7A2
330
1F
100
AcDbEntity
  8
VisibleEdgeEntityLayer
100
AcDbLine
 10
134.7056375980377
 20
154.1475291252136
 30
0.0
 11
134.9556375980377
 21
153.9475291252136
 31
0.0
  0
LINE
  5
7A3
330
1F
100
AcDbEntity
  8
VisibleEdgeEntityLayer
100
AcDbLine
 10
134.9556375980377
 20
153.9475291252136
 30
0.0
 11
129.5219068443831
 21
153.9475291252135
 31
0.0
  0
LINE
  5
7A4
330
1F
100
AcDbEntity
  8
VisibleEdgeEntityLayer
100
AcDbLine
 10
129.6600230059308
 20
154.1475291252136
 30
0.0
 11
134.7056375980377
 21
154.1475291252136
 31
0.0
  0
LINE
  5
7BC
330
1F
100
AcDbEntity
  8
VisibleEdgeEntityLayer
100
AcDbLine
 10
134.7056375980377
 20
128.1475291252135
 30
0.0
 11
134.9556375980377
 21
128.3475291252136
 31
0.0
  0
LINE
  5
7BD
330
1F
100
AcDbEntity
  8
VisibleEdgeEntityLayer
100
AcDbLine
 10
129.5219068443828
 20
128.3475291252136
 30
0.0
 11
134.9556375980377
 21
128.3475291252136
 31
0.0
  0
LINE
  5
7BE
330
1F
100
AcDbEntity
  8
VisibleEdgeEntityLayer
100
AcDbLine
 10
134.7056375980377
 20
128.1475291252135
 30
0.0
 11
129.6600230059307
 21
128.1475291252135
 31
0.0
  0
ARC
  5
7BF
330
1F
100
AcDbEntity
  8
VisibleEdgeEntityLayer
100
AcDbCircle
 10
129.5219068443828
 20
108.3475291252136
 30
0.0
 40
20.0
100
AcDbArc
 50
90.0
 51
124.2900164968286
  0
ARC
  5
7C0
330
1F
100
AcDbEntity
  8
VisibleEdgeEntityLayer
100
AcDbCircle
 10
129.6600230059307
 20
108.1475291252135
 30
0.0
 40
20.0
100
AcDbArc
 50
90.0
 51
124.2920744347472
  0
ARC
  5
7C1
330
1F
100
AcDbEntity
  8
VisibleEdgeEntityLayer
100
AcDbCircle
 10
129.8674095515456
 20
107.1475291252136
 30
0.0
 40
20.0
100
AcDbArc
 50
90.0
 51
123.7888570698496
  0
ARC
  5
7C2
330
1F
100
AcDbEntity
  8
HIDDEN
100
AcDbCircle
 10
129.8462546015483
 20
107.3475291252136
 30
0.0
 40
20.0
100
AcDbArc
 50
90.0
 51
123.8742530488709
  0
ARC
  5
7C3
330
1F
100
AcDbEntity
  8
VisibleEdgeEntityLayer
100
AcDbCircle
 10
129.5219068443829
 20
173.9475291252135
 30
0.0
 40
20.0
100
AcDbArc
 50
235.7099835031712
 51
270.0000000000005
  0
ARC
  5
7C4
330
1F
100
AcDbEntity
  8
VisibleEdgeEntityLayer
100
AcDbCircle
 10
129.6600230059308
 20
174.1475291252136
 30
0.0
 40
20.0
100
AcDbArc
 50
235.7079255652526
 51
270.0
  0
ARC
  5
7C5
330
1F
100
AcDbEntity
  8
HIDDEN
100
AcDbCircle
 10
129.8462546015482
 20
174.9475291252135
 30
0.0
 40
20.0
100
AcDbArc
 50
236.1257469511294
 51
270.0000000000005
  0
ARC
  5
7C6
330
1F
100
AcDbEntity
  8
VisibleEdgeEntityLayer
100
AcDbCircle
 10
129.8674095515458
 20
175.1475291252136
 30
0.0
 40
20.0
100
AcDbArc
 50
236.21114293015
 51
270.0
  0
DIMENSION
  5
7C8
330
1F
100
AcDbEntity
  8
0
100
AcDbDimension
  2
*D44
 10
160.9411383732511
 20
127.1475291252135
 30
0.0
 11
160.9411383732511
 21
141.1475291252136
 31
0.0
 70
   160
 71
     5
 42
28.00000000000002
  3
ISO-25
100
AcDbAlignedDimension
 13
134.7056375980377
 23
155.1475291252136
 33
0.0
 14
134.7056375980377
 24
127.1475291252136
 34
0.0
 50
90.0
100
AcDbRotatedDimension
1001
ACAD
1000
DSTYLE
1002
{
1070
    41
1040
2.286
1070
   140
1040
2.275416666666667
1002
}
  0
DIMENSION
  5
7D6
330
1F
100
AcDbEntity
  8
0
100
AcDbDimension
  2
*D45
 10
122.0921896945777
 20
148.8377444321699
 30
0.0
 11
66.57571428093999
 21
126.6293125147622
 31
0.0
 70
   163
 71
     5
 42
33.60000000000008
  3
ISO-25
100
AcDbDiametricDimension
 15
92.21908550149763
 25
133.4573138182571
 35
0.0
 40
0.0
1001
ACAD
1000
DSTYLE
1002
{
1070
    41
1040
2.286
1070
   140
1040
2.275416666666667
1070
   288
1070
     1
1002
}
  0
DIMENSION
  5
812
330
1F
100
AcDbEntity
  8
0
100
AcDbDimension
  2
*D46
 10
138.177764941405
 20
138.6475291252136
 30
0.0
 11
138.1777649414049
 21
141.1475291252136
 31
0.0
 70
    32
 71
     5
 42
5.0
  3
ISO-25
100
AcDbAlignedDimension
 13
134.7056375980377
 23
143.6475291252136
 33
0.0
 14
134.7056375980377
 24
138.6475291252136
 34
0.0
 50
90.0
100
AcDbRotatedDimension
1001
ACAD
1000
DSTYLE
1002
{
1070
    41
1040
2.286
1070
   140
1040
2.275416666666667
1002
}
  0
DIMENSION
  5
823
330
1F
100
AcDbEntity
  8
0
100
AcDbDimension
  2
*D47
 10
147.4862776751072
 20
155.1475291252136
 30
0.0
 11
141.3394495714237
 21
149.3755291252135
 31
0.0
 70
   160
 71
     5
  3
ISO-25
100
AcDbAlignedDimension
 13
134.7056375980377
 23
154.1475291252136
 33
0.0
 14
134.7056375980377
 24
155.1475291252136
 34
0.0
 50
90.0
100
AcDbRotatedDimension
1001
ACAD
1000
DSTYLE
1002
{
1070
    41
1040
2.286
1070
   140
1040
2.275416666666667
1002
}
  0
LINE
  5
86C
330
1F
100
AcDbEntity
  8
VisibleEdgeEntityLayer
100
AcDbLine
 10
128.9556375980377
 20
143.6475291252136
 30
0.0
 11
128.9556375980377
 21
138.6475291252136
 31
0.0
  0
DIMENSION
  5
8AA
330
1F
100
AcDbEntity
  8
0
100
AcDbDimension
  2
*D49
 10
107.0422760977504
 20
77.45728477310446
 30
0.0
 11
97.12371470960057
 21
79.68443347706081
 31
0.0
 70
    32
 71
     5
 42
19.83712277629968
  3
ISO-25
100
AcDbAlignedDimension
 13
87.20515332145073
 23
83.47824550411507
 33
0.0
 14
107.0422760977504
 24
91.68655001596382
 34
0.0
100
AcDbRotatedDimension
1001
ACAD
1000
DSTYLE
1002
{
1070
    41
1040
2.286
1070
   140
1040
2.275416666666667
1002
}
  0
DIMENSION
  5
8F9
330
1F
100
AcDbEntity
  8
0
100
AcDbDimension
  2
*D50
 10
236.7033445618729
 20
83.47824550411514
 30
0.0
 11
236.7033445618729
 21
89.47824550411525
 31
0.0
 70
    32
 71
     5
 42
12.00000000000014
  3
ISO-25
100
AcDbAlignedDimension
 13
226.565117073059
 23
95.47824550411528
 33
0.0
 14
227.5755192294554
 24
83.47824550411514
 34
0.0
 50
90.0
100
AcDbRotatedDimension
1001
ACAD
1000
DSTYLE
1002
{
1070
    41
1040
2.286
1070
   140
1040
2.275416666666667
1002
}
  0
DIMENSION
  5
907
330
1F
100
AcDbEntity
  8
0
100
AcDbDimension
  2
*D51
 10
87.29357413689703
 20
83.71155577519614
 30
0.0
 11
79.19773004892596
 21
90.51348818145743
 31
0.0
 70
    34
 71
     5
 42
0.3622587429594235
  3
ISO-25
100
AcDb2LineAngularDimension
 13
90.31596783898605
 23
91.68655001596382
 33
0.0
 14
90.31596783898605
 24
95.22824550411501
 34
0.0
 15
90.31596783898605
 25
91.68655001596382
 35
0.0
 16
89.53347243445483
 26
85.2379400695591
 36
0.0
1001
ACAD
1000
DSTYLE
1002
{
1070
    41
1040
2.286
1070
   140
1040
2.275416666666667
1002
}
  0
VIEWPORT
  5
406
330
1B
100
AcDbEntity
 67
     1
  8
0
100
AcDbViewport
 10
165.8288070688126
 20
108.045140383729
 30
0.0
 40
588.6107755283508
 41
248.332450022642
 68
     1
 69
     1
 12
165.8288070688126
 22
108.045140383729
 13
0.0
 23
0.0
 14
0.5
 24
0.5
 15
0.5
 25
0.5
 16
0.0
 26
0.0
 36
1.0
 17
0.0
 27
0.0
 37
0.0
 42
50.0
 43
0.0
 44
0.0
 45
248.332450022642
 50
0.0
 51
0.0
 72
   100
 90
    32800
  1

281
     0
 71
     1
 74
     0
110
0.0
120
0.0
130
0.0
111
1.0
121
0.0
131
0.0
112
0.0
122
1.0
132
0.0
 79
     0
146
0.0
170
     0
  0
VIEWPORT
  5
408
330
1B
100
AcDbEntity
 67
     1
  8
0
100
AcDbViewport
 10
133.222283646015
 20
101.7036650495783
 30
0.0
 40
266.7219904681101
 41
203.2239978901803
 68
     2
 69
     2
 12
139.9850472830994
 22
107.5659720183652
 13
0.0
 23
0.0
 14
10.0
 24
10.0
 15
10.0
 25
10.0
 16
0.0
 26
0.0
 36
1.0
 17
0.0
 27
0.0
 37
0.0
 42
50.0
 43
0.0
 44
0.0
 45
206.406766065357
 50
0.0
 51
0.0
 72
   100
 90
    32864
  1

281
     0
 71
     1
 74
     0
110
0.0
120
0.0
130
0.0
111
1.0
121
0.0
131
0.0
112
0.0
122
1.0
132
0.0
 79
     0
146
0.0
170
     0
  0
ENDSEC
  0
SECTION
  2
OBJECTS
  0
DICTIONARY
  5
C
330
0
100
AcDbDictionary
281
     1
  3
ACAD_COLOR
350
1C8
  3
ACAD_GROUP
350
D
  3
ACAD_LAYOUT
350
1A
  3
ACAD_MATERIAL
350
1C7
  3
ACAD_MLINESTYLE
350
17
  3
ACAD_PLOTSETTINGS
350
19
  3
ACAD_PLOTSTYLENAME
350
E
  0
DICTIONARY
  5
1C8
102
{ACAD_REACTORS
330
C
102
}
330
C
100
AcDbDictionary
281
     1
  0
DICTIONARY
  5
D
102
{ACAD_REACTORS
330
C
102
}
330
C
100
AcDbDictionary
281
     1
  0
DICTIONARY
  5
1A
102
{ACAD_REACTORS
330
C
102
}
330
C
100
AcDbDictionary
281
     1
  3
Layout1
350
1E
  3
Layout2
350
26
  3
Model
350
22
  0
DICTIONARY
  5
1C7
102
{ACAD_REACTORS
330
C
102
}
330
C
100
AcDbDictionary
281
     1
  0
DICTIONARY
  5
17
102
{ACAD_REACTORS
330
C
102
}
330
C
100
AcDbDictionary
281
     1
  3
Standard
350
18
  0
DICTIONARY
  5
19
102
{ACAD_REACTORS
330
C
102
}
330
C
100
AcDbDictionary
281
     1
  0
ACDBDICTIONARYWDFLT
  5
E
102
{ACAD_REACTORS
330
C
102
}
330
C
100
AcDbDictionary
281
     1
  3
Normal
350
F
100
AcDbDictionaryWithDefault
340
F
  0
LAYOUT
  5
1E
102
{ACAD_REACTORS
330
1A
102
}
330
1A
100
AcDbPlotSettings
  1

  2
none_device
  4
Letter_(8.50_x_11.00_Inches)
  6

 40
6.349999904632567
 41
6.349999904632567
 42
6.350006103515625
 43
6.350006103515625
 44
215.8999938964844
 45
279.3999938964844
 46
0.0
 47
0.0
 48
0.0
 49
0.0
140
0.0
141
0.0
142
1.0
143
1.0
 70
   688
 72
     1
 73
     1
 74
     5
  7

 75
    16
147
1.0
 76
     1
 77
     2
 78
   300
148
0.0
149
0.0
100
AcDbLayout
  1
Layout1
 70
     1
 71
     1
 10
-6.350006103515625
 20
-6.349999904632567
 11
273.0499877929688
 21
209.5499939918518
 12
0.0
 22
0.0
 32
0.0
 14
-0.1387115880400529
 24
0.0916661044881409
 34
0.0
 15
266.5832788800701
 25
203.3156639946684
 35
0.0
146
0.0
 13
0.0
 23
0.0
 33
0.0
 16
1.0
 26
0.0
 36
0.0
 17
0.0
 27
1.0
 37
0.0
 76
     0
330
1B
331
406
  0
LAYOUT
  5
26
102
{ACAD_REACTORS
330
1A
102
}
330
1A
100
AcDbPlotSettings
  1

  2

  4

  6

 40
0.0
 41
0.0
 42
0.0
 43
0.0
 44
0.0
 45
0.0
 46
0.0
 47
0.0
 48
0.0
 49
0.0
140
0.0
141
0.0
142
1.0
143
1.0
 70
   688
 72
     0
 73
     0
 74
     5
  7

 75
    16
147
1.0
 76
     0
 77
     2
 78
   300
148
0.0
149
0.0
100
AcDbLayout
  1
Layout2
 70
     1
 71
     2
 10
0.0
 20
0.0
 11
0.0
 21
0.0
 12
0.0
 22
0.0
 32
0.0
 14
0.0
 24
0.0
 34
0.0
 15
0.0
 25
0.0
 35
0.0
146
0.0
 13
0.0
 23
0.0
 33
0.0
 16
1.0
 26
0.0
 36
0.0
 17
0.0
 27
1.0
 37
0.0
 76
     0
330
23
  0
LAYOUT
  5
22
102
{ACAD_REACTORS
330
1A
102
}
330
1A
100
AcDbPlotSettings
  1

  2
none_device
  4
Letter_(8.50_x_11.00_Inches)
  6

 40
6.349999904632568
 41
6.349999904632568
 42
6.350006103515625
 43
6.350006103515625
 44
215.8999938964844
 45
279.3999938964844
 46
0.0
 47
0.0
 48
0.0
 49
0.0
140
0.0
141
0.0
142
1.0
143
1.0
 70
 11952
 72
     1
 73
     1
 74
     0
  7

 75
     0
147
1.0
 76
     0
 77
     2
 78
   300
148
42.2342436106434
149
1.330341093701633
100
AcDbLayout
  1
Model
 70
     1
 71
     0
 10
0.0
 20
0.0
 11
0.0
 21
0.0
 12
0.0
 22
0.0
 32
0.0
 14
0.0
 24
0.0
 34
0.0
 15
0.0
 25
0.0
 35
0.0
146
0.0
 13
0.0
 23
0.0
 33
0.0
 16
1.0
 26
0.0
 36
0.0
 17
0.0
 27
1.0
 37
0.0
 76
     0
330
1F
  0
MLINESTYLE
  5
18
102
{ACAD_REACTORS
330
17
102
}
330
17
100
AcDbMlineStyle
  2
STANDARD
 70
     0
  3

 62
   256
 51
90.0
 52
90.0
 71
     2
 49
0.5
 62
   256
  6
BYLAYER
 49
-0.5
 62
   256
  6
BYLAYER
  0
ACDBPLACEHOLDER
  5
F
102
{ACAD_REACTORS
330
E
102
}
330
E
  0
ENDSEC
  0
EOF
