999
dxfrw 0.5.11
0
SECTION
2
HEADER
9
$ACADVER
1
AC1021
9
$HANDSEED
5
20000
9
$DWGCODEPAGE
3
ANSI_1252
9
$INSBASE
10
0
20
0
30
0
9
$EXTMIN
10
0
20
-5.29536678515e-014
30
0
9
$EXTMAX
10
800
20
701
30
0
9
$LIMMIN
10
0
20
0
9
$LIMMAX
10
420
20
297
9
$ORTHOMODE
70
0
9
$LTSCALE
40
1
9
$TEXTSTYLE
7
STANDARD
9
$CLAYER
8
Cotes
9
$DIMASZ
40
15
9
$DIMLFAC
40
1
9
$DIMSCALE
40
1
9
$DIMEXO
40
0.625
9
$DIMEXE
40
1.25
9
$DIMTXT
40
15
9
$DIMTSZ
40
0
9
$DIMAUNIT
70
0
9
$DIMADEC
70
1
9
$DIMLUNIT
70
2
9
$DIMSTYLE
2
Standard
9
$DIMGAP
40
5
9
$DIMTIH
70
0
9
$LUNITS
70
2
9
$LUPREC
70
0
9
$AUNITS
70
0
9
$AUPREC
70
1
9
$SPLINESEGS
70
8
9
$GRIDMODE
70
0
9
$SNAPSTYLE
70
0
9
$GRIDUNIT
10
0
20
0
9
$PINSBASE
10
5
20
0.83
30
0
9
$PLIMMIN
10
0
20
0
9
$PLIMMAX
10
42
20
29.7
9
$INSUNITS
70
5
9
$PSVPSCALE
40
0.04
0
ENDSEC
0
SECTION
2
CLASSES
0
ENDSEC
0
SECTION
2
TABLES
0
TABLE
2
VPORT
5
8
330
0
100
AcDbSymbolTable
70
1
0
VPORT
5
31
330
2
100
AcDbSymbolTableRecord
100
AcDbViewportTableRecord
2
*ACTIVE
70
0
10
0
20
0
11
1
21
1
12
580.178571429
22
369.642857143
13
0
23
0
14
10
24
10
15
10
25
10
16
0
26
0
36
1
17
0
27
0
37
0
40
774.642857143
41
1.96058091286
42
50
43
0
44
0
50
0
51
0
71
0
72
100
73
1
74
3
75
0
76
0
77
0
78
0
281
0
65
1
110
0
120
0
130
0
111
1
121
0
131
0
112
0
122
1
132
0
79
0
146
0
348
10020
60
7
61
5
292
1
282
1
141
0
142
0
63
250
421
3358443
0
ENDTAB
0
TABLE
2
LTYPE
5
5
330
0
100
AcDbSymbolTable
70
4
0
LTYPE
5
14
330
5
100
AcDbSymbolTableRecord
100
AcDbLinetypeTableRecord
2
ByBlock
70
0
3

72
65
73
0
40
0
0
LTYPE
5
15
330
5
100
AcDbSymbolTableRecord
100
AcDbLinetypeTableRecord
2
ByLayer
70
0
3

72
65
73
0
40
0
0
LTYPE
5
16
330
5
100
AcDbSymbolTableRecord
100
AcDbLinetypeTableRecord
2
Continuous
70
0
3
Solid line
72
65
73
0
40
0
0
LTYPE
5
32
330
5
100
AcDbSymbolTableRecord
100
AcDbLinetypeTableRecord
2
DOT
70
0
3
Dot . . . . . . . . . . . . . . . . . . . . . .
72
65
73
2
40
6.35
49
0
74
0
49
-6.35
74
0
0
LTYPE
5
33
330
5
100
AcDbSymbolTableRecord
100
AcDbLinetypeTableRecord
2
DOT2
70
0
3
Dot (.5x) .....................................
72
65
73
2
40
3.175
49
0
74
0
49
-3.175
74
0
0
LTYPE
5
34
330
5
100
AcDbSymbolTableRecord
100
AcDbLinetypeTableRecord
2
DOTX2
70
0
3
Dot (2x) .  .  .  .  .  .  .  .  .  .  .  .  .
72
65
73
2
40
12.7
49
0
74
0
49
-12.7
74
0
0
LTYPE
5
35
330
5
100
AcDbSymbolTableRecord
100
AcDbLinetypeTableRecord
2
DASHED
70
0
3
Dot . . . . . . . . . . . . . . . . . . . . . .
72
65
73
2
40
19.05
49
12.7
74
0
49
-6.35
74
0
0
LTYPE
5
36
330
5
100
AcDbSymbolTableRecord
100
AcDbLinetypeTableRecord
2
DASHED2
70
0
3
Dashed (.5x) _ _ _ _ _ _ _ _ _ _ _ _ _ _ _ _ _
72
65
73
2
40
9.525
49
6.35
74
0
49
-3.175
74
0
0
LTYPE
5
37
330
5
100
AcDbSymbolTableRecord
100
AcDbLinetypeTableRecord
2
DASHEDX2
70
0
3
Dashed (2x) ____  ____  ____  ____  ____  ___
72
65
73
2
40
38.1
49
25.4
74
0
49
-12.7
74
0
0
LTYPE
5
38
330
5
100
AcDbSymbolTableRecord
100
AcDbLinetypeTableRecord
2
DASHDOT
70
0
3
Dash dot __ . __ . __ . __ . __ . __ . __ . __
72
65
73
4
40
25.4
49
12.7
74
0
49
-6.35
74
0
49
0
74
0
49
-6.35
74
0
0
LTYPE
5
39
330
5
100
AcDbSymbolTableRecord
100
AcDbLinetypeTableRecord
2
DASHDOT2
70
0
3
Dash dot (.5x) _._._._._._._._._._._._._._._.
72
65
73
4
40
12.7
49
6.35
74
0
49
-3.175
74
0
49
0
74
0
49
-3.175
74
0
0
LTYPE
5
3A
330
5
100
AcDbSymbolTableRecord
100
AcDbLinetypeTableRecord
2
DASHDOTX2
70
0
3
Dash dot (2x) ____  .  ____  .  ____  .  ___
72
65
73
4
40
50.8
49
25.4
74
0
49
-12.7
74
0
49
0
74
0
49
-12.7
74
0
0
LTYPE
5
3B
330
5
100
AcDbSymbolTableRecord
100
AcDbLinetypeTableRecord
2
DIVIDE
70
0
3
Divide ____ . . ____ . . ____ . . ____ . . ____
72
65
73
6
40
31.75
49
12.7
74
0
49
-6.35
74
0
49
0
74
0
49
-6.35
74
0
49
0
74
0
49
-6.35
74
0
0
LTYPE
5
3C
330
5
100
AcDbSymbolTableRecord
100
AcDbLinetypeTableRecord
2
DIVIDE2
70
0
3
Divide (.5x) __..__..__..__..__..__..__..__.._
72
65
73
6
40
15.875
49
6.35
74
0
49
-3.175
74
0
49
0
74
0
49
-3.175
74
0
49
0
74
0
49
-3.175
74
0
0
LTYPE
5
3D
330
5
100
AcDbSymbolTableRecord
100
AcDbLinetypeTableRecord
2
DIVIDEX2
70
0
3
Divide (2x) ________  .  .  ________  .  .  _
72
65
73
6
40
63.5
49
25.4
74
0
49
-12.7
74
0
49
0
74
0
49
-12.7
74
0
49
0
74
0
49
-12.7
74
0
0
LTYPE
5
3E
330
5
100
AcDbSymbolTableRecord
100
AcDbLinetypeTableRecord
2
BORDER
70
0
3
Border __ __ . __ __ . __ __ . __ __ . __ __ .
72
65
73
6
40
44.45
49
12.7
74
0
49
-6.35
74
0
49
12.7
74
0
49
-6.35
74
0
49
0
74
0
49
-6.35
74
0
0
LTYPE
5
3F
330
5
100
AcDbSymbolTableRecord
100
AcDbLinetypeTableRecord
2
BORDER2
70
0
3
Border (.5x) __.__.__.__.__.__.__.__.__.__.__.
72
65
73
6
40
22.225
49
6.35
74
0
49
-3.175
74
0
49
6.35
74
0
49
-3.175
74
0
49
0
74
0
49
-3.175
74
0
0
LTYPE
5
40
330
5
100
AcDbSymbolTableRecord
100
AcDbLinetypeTableRecord
2
BORDERX2
70
0
3
Border (2x) ____  ____  .  ____  ____  .  ___
72
65
73
6
40
88.9
49
25.4
74
0
49
-12.7
74
0
49
25.4
74
0
49
-12.7
74
0
49
0
74
0
49
-12.7
74
0
0
LTYPE
5
41
330
5
100
AcDbSymbolTableRecord
100
AcDbLinetypeTableRecord
2
CENTER
70
0
3
Center ____ _ ____ _ ____ _ ____ _ ____ _ ____
72
65
73
4
40
50.8
49
31.75
74
0
49
-6.35
74
0
49
6.35
74
0
49
-6.35
74
0
0
LTYPE
5
42
330
5
100
AcDbSymbolTableRecord
100
AcDbLinetypeTableRecord
2
CENTER2
70
0
3
Center (.5x) ___ _ ___ _ ___ _ ___ _ ___ _ ___
72
65
73
4
40
28.575
49
19.05
74
0
49
-3.175
74
0
49
3.175
74
0
49
-3.175
74
0
0
LTYPE
5
43
330
5
100
AcDbSymbolTableRecord
100
AcDbLinetypeTableRecord
2
CENTERX2
70
0
3
Center (2x) ________  __  ________  __  _____
72
65
73
4
40
101.6
49
63.5
74
0
49
-12.7
74
0
49
12.7
74
0
49
-12.7
74
0
0
ENDTAB
0
TABLE
2
LAYER
5
2
330
0
100
AcDbSymbolTable
70
1
0
LAYER
5
10
330
2
100
AcDbSymbolTableRecord
100
AcDbLayerTableRecord
2
0
70
0
62
7
6
CONTINUOUS
370
0
390
F
0
LAYER
5
44
330
2
100
AcDbSymbolTableRecord
100
AcDbLayerTableRecord
2
Cotes
70
1
62
5
6
CONTINUOUS
370
-3
390
F
0
LAYER
5
45
330
2
100
AcDbSymbolTableRecord
100
AcDbLayerTableRecord
2
Cotes_SDB
70
1
62
7
6
CONTINUOUS
370
0
390
F
0
LAYER
5
46
330
2
100
AcDbSymbolTableRecord
100
AcDbLayerTableRecord
2
Electricité R1
70
0
62
1
6
CONTINUOUS
370
0
390
F
0
LAYER
5
47
330
2
100
AcDbSymbolTableRecord
100
AcDbLayerTableRecord
2
Niveau_1
70
1
62
2
6
DASHED
370
13
390
F
0
LAYER
5
48
330
2
100
AcDbSymbolTableRecord
100
AcDbLayerTableRecord
2
Niveau_2
70
1
62
2
6
DASHDOT2
370
13
390
F
0
LAYER
5
49
330
2
100
AcDbSymbolTableRecord
100
AcDbLayerTableRecord
2
Refonte_niveau_1
70
0
62
7
6
CONTINUOUS
370
0
390
F
0
LAYER
5
4A
330
2
100
AcDbSymbolTableRecord
100
AcDbLayerTableRecord
2
SDB_1
70
1
62
7
6
CONTINUOUS
370
-3
390
F
0
LAYER
5
4B
330
2
100
AcDbSymbolTableRecord
100
AcDbLayerTableRecord
2
SDB_3
70
1
62
7
6
CONTINUOUS
370
0
390
F
0
LAYER
5
4C
330
2
100
AcDbSymbolTableRecord
100
AcDbLayerTableRecord
2
SDB_3bis
70
0
62
7
6
CONTINUOUS
370
0
390
F
0
LAYER
5
4D
330
2
100
AcDbSymbolTableRecord
100
AcDbLayerTableRecord
2
murs
70
0
62
7
6
CONTINUOUS
370
0
390
F
0
LAYER
5
4E
330
2
100
AcDbSymbolTableRecord
100
AcDbLayerTableRecord
2
traits
70
1
62
7
6
DASHDOT
370
13
390
F
0
ENDTAB
0
TABLE
2
STYLE
5
3
330
0
100
AcDbSymbolTable
70
3
0
STYLE
5
4F
330
2
100
AcDbSymbolTableRecord
100
AcDbTextStyleTableRecord
2
standard
70
0
40
0
41
1
50
0
71
0
42
1
3
standard
4

0
ENDTAB
0
TABLE
2
VIEW
5
6
330
0
100
AcDbSymbolTable
70
0
0
ENDTAB
0
TABLE
2
UCS
5
7
330
0
100
AcDbSymbolTable
70
0
0
ENDTAB
0
TABLE
2
APPID
5
9
330
0
100
AcDbSymbolTable
70
1
0
APPID
5
12
330
9
100
AcDbSymbolTableRecord
100
AcDbRegAppTableRecord
2
ACAD
70
0
0
ENDTAB
0
TABLE
2
DIMSTYLE
5
A
330
0
100
AcDbSymbolTable
70
1
100
AcDbDimStyleTable
71
1
0
DIMSTYLE
105
50
330
A
100
AcDbSymbolTableRecord
100
AcDbDimStyleTableRecord
2
Standard
70
0
40
1
41
15
42
0.625
43
0.38
44
1.25
45
0
46
0
47
0
48
0
140
15
141
0.09
142
0
143
25.4
144
1
145
0
146
1
147
5
148
0
71
0
72
0
73
0
74
1
75
0
76
0
77
0
78
0
79
0
170
0
171
2
172
0
173
0
174
0
175
0
176
0
177
0
178
0
179
0
271
4
272
4
273
2
274
2
275
0
276
0
277
2
278
46
279
0
280
0
281
0
282
0
283
1
284
0
285
0
286
0
288
0
289
3
340
Standard
341

371
-2
372
-2
0
ENDTAB
0
TABLE
2
BLOCK_RECORD
5
1
330
0
100
AcDbSymbolTable
70
2
0
BLOCK_RECORD
5
1F
330
1
100
AcDbSymbolTableRecord
100
AcDbBlockTableRecord
2
*Model_Space
70
0
280
1
281
0
0
BLOCK_RECORD
5
1E
330
1
100
AcDbSymbolTableRecord
100
AcDbBlockTableRecord
2
*Paper_Space
70
0
280
1
281
0
0
BLOCK_RECORD
5
51
330
1
100
AcDbSymbolTableRecord
100
AcDbBlockTableRecord
2
*D5
70
0
280
1
281
0
0
BLOCK_RECORD
5
54
330
1
100
AcDbSymbolTableRecord
100
AcDbBlockTableRecord
2
*D1
70
0
280
1
281
0
0
BLOCK_RECORD
5
57
330
1
100
AcDbSymbolTableRecord
100
AcDbBlockTableRecord
2
*D13
70
0
280
1
281
0
0
BLOCK_RECORD
5
5A
330
1
100
AcDbSymbolTableRecord
100
AcDbBlockTableRecord
2
*D10
70
0
280
1
281
0
0
BLOCK_RECORD
5
5D
330
1
100
AcDbSymbolTableRecord
100
AcDbBlockTableRecord
2
*D7
70
0
280
1
281
0
0
BLOCK_RECORD
5
60
330
1
100
AcDbSymbolTableRecord
100
AcDbBlockTableRecord
2
*D6
70
0
280
1
281
0
0
BLOCK_RECORD
5
63
330
1
100
AcDbSymbolTableRecord
100
AcDbBlockTableRecord
2
*D3
70
0
280
1
281
0
0
BLOCK_RECORD
5
66
330
1
100
AcDbSymbolTableRecord
100
AcDbBlockTableRecord
2
*D4
70
0
280
1
281
0
0
BLOCK_RECORD
5
69
330
1
100
AcDbSymbolTableRecord
100
AcDbBlockTableRecord
2
*D11
70
0
280
1
281
0
0
BLOCK_RECORD
5
6C
330
1
100
AcDbSymbolTableRecord
100
AcDbBlockTableRecord
2
*D12
70
0
280
1
281
0
0
BLOCK_RECORD
5
6F
330
1
100
AcDbSymbolTableRecord
100
AcDbBlockTableRecord
2
*D9
70
0
280
1
281
0
0
BLOCK_RECORD
5
72
330
1
100
AcDbSymbolTableRecord
100
AcDbBlockTableRecord
2
*D14
70
0
280
1
281
0
0
BLOCK_RECORD
5
75
330
1
100
AcDbSymbolTableRecord
100
AcDbBlockTableRecord
2
*D8
70
0
280
1
281
0
0
BLOCK_RECORD
5
78
330
1
100
AcDbSymbolTableRecord
100
AcDbBlockTableRecord
2
*D2
70
0
280
1
281
0
0
BLOCK_RECORD
5
7B
330
1
100
AcDbSymbolTableRecord
100
AcDbBlockTableRecord
2
Chiottes
70
0
280
1
281
0
0
BLOCK_RECORD
5
7E
330
1
100
AcDbSymbolTableRecord
100
AcDbBlockTableRecord
2
Sèche-serviettes
70
0
280
1
281
0
0
ENDTAB
0
ENDSEC
0
SECTION
2
BLOCKS
0
BLOCK
5
20
330
1F
100
AcDbEntity
8
0
100
AcDbBlockBegin
2
*Model_Space
70
0
10
0
20
0
30
0
3
*Model_Space
1

0
ENDBLK
5
21
330
1F
100
AcDbEntity
8
0
100
AcDbBlockEnd
0
BLOCK
5
1C
330
1B
100
AcDbEntity
8
0
100
AcDbBlockBegin
2
*Paper_Space
70
0
10
0
20
0
30
0
3
*Paper_Space
1

0
ENDBLK
5
1D
330
1F
100
AcDbEntity
8
0
100
AcDbBlockEnd
0
BLOCK
5
52
330
51
100
AcDbEntity
8
0
100
AcDbBlockBegin
2
*D5
70
1
10
0
20
0
3
*D5
1

0
LINE
5
81
100
AcDbEntity
8
Cotes
6
CONTINUOUS
62
7
370
0
100
AcDbLine
10
708.89004329
20
671
11
708.89004329
21
394
0
SOLID
5
82
100
AcDbEntity
8
Cotes
6
CONTINUOUS
62
7
370
0
100
AcDbTrace
10
708.89004329
20
671
30
0
11
711.387751237
21
656
31
0
12
706.392335343
22
656
32
0
13
706.392335343
23
656
33
0
0
SOLID
5
83
100
AcDbEntity
8
Cotes
6
CONTINUOUS
62
7
370
0
100
AcDbTrace
10
708.89004329
20
394
30
0
11
706.392335343
21
409
31
0
12
711.387751237
22
409
32
0
13
711.387751237
23
409
33
0
0
MTEXT
5
84
100
AcDbEntity
8
Cotes
6
CONTINUOUS
62
7
370
0
100
AcDbMText
10
696.39004329
20
532.5
30
0
40
15
41
30
71
5
72
1
1
277
7
standard
210
0
220
0
230
1
50
90
73
2
44
1
0
LINE
5
85
100
AcDbEntity
8
Cotes
6
CONTINUOUS
62
7
370
0
100
AcDbLine
10
769.375
20
671
11
707.64004329
21
671
0
LINE
5
86
100
AcDbEntity
8
Cotes
6
CONTINUOUS
62
7
370
0
100
AcDbLine
10
769.375
20
394
11
707.64004329
21
394
0
ENDBLK
5
53
330
51
100
AcDbEntity
8
0
100
AcDbBlockEnd
0
BLOCK
5
55
330
54
100
AcDbEntity
8
0
100
AcDbBlockBegin
2
*D1
70
1
10
0
20
0
3
*D1
1

0
LINE
5
87
100
AcDbEntity
8
Cotes
6
CONTINUOUS
62
7
370
0
100
AcDbLine
10
495
20
415.623203463
11
770
21
415.623203463
0
SOLID
5
88
100
AcDbEntity
8
Cotes
6
CONTINUOUS
62
7
370
0
100
AcDbTrace
10
495
20
415.623203463
30
0
11
510
21
418.12091141
31
0
12
510
22
413.125495516
32
0
13
510
23
413.125495516
33
0
0
SOLID
5
89
100
AcDbEntity
8
Cotes
6
CONTINUOUS
62
7
370
0
100
AcDbTrace
10
770
20
415.623203463
30
0
11
755
21
413.125495516
31
0
12
755
22
418.12091141
32
0
13
755
23
418.12091141
33
0
0
MTEXT
5
8A
100
AcDbEntity
8
Cotes
6
CONTINUOUS
62
7
370
0
100
AcDbMText
10
632.5
20
428.123203463
30
0
40
15
41
30
71
5
72
1
1
275
7
standard
210
0
220
0
230
1
50
0
73
2
44
1
0
LINE
5
8B
100
AcDbEntity
8
Cotes
6
CONTINUOUS
62
7
370
0
100
AcDbLine
10
495
20
384.625
11
495
21
416.873203463
0
LINE
5
8C
100
AcDbEntity
8
Cotes
6
CONTINUOUS
62
7
370
0
100
AcDbLine
10
770
20
384.625
11
770
21
416.873203463
0
ENDBLK
5
56
330
54
100
AcDbEntity
8
0
100
AcDbBlockEnd
0
BLOCK
5
58
330
57
100
AcDbEntity
8
0
100
AcDbBlockBegin
2
*D13
70
1
10
0
20
0
3
*D13
1

0
LINE
5
8D
100
AcDbEntity
8
Cotes_SDB
6
CONTINUOUS
62
7
370
0
100
AcDbLine
10
30
20
230.187842815
11
104.10915431
21
230.187842815
0
SOLID
5
8E
100
AcDbEntity
8
Cotes_SDB
6
CONTINUOUS
62
7
370
0
100
AcDbTrace
10
30
20
230.187842815
30
0
11
45
21
232.685550762
31
0
12
45
22
227.690134868
32
0
13
45
23
227.690134868
33
0
0
SOLID
5
8F
100
AcDbEntity
8
Cotes_SDB
6
CONTINUOUS
62
7
370
0
100
AcDbTrace
10
104.10915431
20
230.187842815
30
0
11
89.10915431
21
227.690134868
31
0
12
89.10915431
22
232.685550762
32
0
13
89.10915431
23
232.685550762
33
0
0
MTEXT
5
90
100
AcDbEntity
8
Cotes_SDB
6
CONTINUOUS
62
7
370
0
100
AcDbMText
10
67.054577155
20
242.687842815
30
0
40
15
41
20
71
5
72
1
1
74
7
standard
210
0
220
0
230
1
50
0
73
2
44
1
0
LINE
5
91
100
AcDbEntity
8
Cotes_SDB
6
CONTINUOUS
62
7
370
0
100
AcDbLine
10
30
20
213.625
11
30
21
231.437842815
0
LINE
5
92
100
AcDbEntity
8
Cotes_SDB
6
CONTINUOUS
62
7
370
0
100
AcDbLine
10
104.10915431
20
213.625
11
104.10915431
21
231.437842815
0
ENDBLK
5
59
330
57
100
AcDbEntity
8
0
100
AcDbBlockEnd
0
BLOCK
5
5B
330
5A
100
AcDbEntity
8
0
100
AcDbBlockBegin
2
*D10
70
1
10
0
20
0
3
*D10
1

0
LINE
5
93
100
AcDbEntity
8
Cotes_SDB
6
CONTINUOUS
62
7
370
0
100
AcDbLine
10
30
20
-30.312802346
11
110
21
-30.312802346
0
SOLID
5
94
100
AcDbEntity
8
Cotes_SDB
6
CONTINUOUS
62
7
370
0
100
AcDbTrace
10
30
20
-30.312802346
30
0
11
45
21
-27.8150943994
31
0
12
45
22
-32.8105102926
32
0
13
45
23
-32.8105102926
33
0
0
SOLID
5
95
100
AcDbEntity
8
Cotes_SDB
6
CONTINUOUS
62
7
370
0
100
AcDbTrace
10
110
20
-30.312802346
30
0
11
95
21
-32.8105102926
31
0
12
95
22
-27.8150943994
32
0
13
95
23
-27.8150943994
33
0
0
MTEXT
5
96
100
AcDbEntity
8
Cotes_SDB
6
CONTINUOUS
62
7
370
0
100
AcDbMText
10
70
20
-17.812802346
30
0
40
15
41
18.3333333333
71
5
72
1
1
80
7
standard
210
0
220
0
230
1
50
0
73
2
44
1
0
LINE
5
97
100
AcDbEntity
8
Cotes_SDB
6
CONTINUOUS
62
7
370
0
100
AcDbLine
10
30
20
29.375
11
30
21
-31.562802346
0
LINE
5
98
100
AcDbEntity
8
Cotes_SDB
6
CONTINUOUS
62
7
370
0
100
AcDbLine
10
110
20
29.375
11
110
21
-31.562802346
0
ENDBLK
5
5C
330
5A
100
AcDbEntity
8
0
100
AcDbBlockEnd
0
BLOCK
5
5E
330
5D
100
AcDbEntity
8
0
100
AcDbBlockBegin
2
*D7
70
1
10
0
20
0
3
*D7
1

0
LINE
5
99
100
AcDbEntity
8
Cotes
6
CONTINUOUS
62
7
370
0
100
AcDbLine
10
320
20
239.186956011
11
30
21
239.186956011
0
SOLID
5
9A
100
AcDbEntity
8
Cotes
6
CONTINUOUS
62
7
370
0
100
AcDbTrace
10
320
20
239.186956011
30
0
11
305
21
236.689248064
31
0
12
305
22
241.684663958
32
0
13
305
23
241.684663958
33
0
0
SOLID
5
9B
100
AcDbEntity
8
Cotes
6
CONTINUOUS
62
7
370
0
100
AcDbTrace
10
30
20
239.186956011
30
0
11
45
21
241.684663958
31
0
12
45
22
236.689248064
32
0
13
45
23
236.689248064
33
0
0
MTEXT
5
9C
100
AcDbEntity
8
Cotes
6
CONTINUOUS
62
7
370
0
100
AcDbMText
10
175
20
251.686956011
30
0
40
15
41
30
71
5
72
1
1
290
7
standard
210
0
220
0
230
1
50
360
73
2
44
1
0
LINE
5
9D
100
AcDbEntity
8
Cotes
6
CONTINUOUS
62
7
370
0
100
AcDbLine
10
320
20
203.444428571
11
320
21
240.436956011
0
LINE
5
9E
100
AcDbEntity
8
Cotes
6
CONTINUOUS
62
7
370
0
100
AcDbLine
10
30
20
203.625
11
30
21
240.436956011
0
ENDBLK
5
5F
330
5D
100
AcDbEntity
8
0
100
AcDbBlockEnd
0
BLOCK
5
61
330
60
100
AcDbEntity
8
0
100
AcDbBlockBegin
2
*D6
70
1
10
0
20
0
3
*D6
1

0
LINE
5
9F
100
AcDbEntity
8
Cotes
6
CONTINUOUS
62
7
370
0
100
AcDbLine
10
377.325851398
20
203
11
377.325851398
21
30
0
SOLID
5
A0
100
AcDbEntity
8
Cotes
6
CONTINUOUS
62
7
370
0
100
AcDbTrace
10
377.325851398
20
203
30
0
11
379.823559345
21
188
31
0
12
374.828143451
22
188
32
0
13
374.828143451
23
188
33
0
0
SOLID
5
A1
100
AcDbEntity
8
Cotes
6
CONTINUOUS
62
7
370
0
100
AcDbTrace
10
377.325851398
20
30
30
0
11
374.828143451
21
45
31
0
12
379.823559345
22
45
32
0
13
379.823559345
23
45
33
0
0
MTEXT
5
A2
100
AcDbEntity
8
Cotes
6
CONTINUOUS
62
7
370
0
100
AcDbMText
10
364.825851398
20
116.5
30
0
40
15
41
26.6666666667
71
5
72
1
1
173
7
standard
210
0
220
0
230
1
50
90
73
2
44
1
0
LINE
5
A3
100
AcDbEntity
8
Cotes
6
CONTINUOUS
62
7
370
0
100
AcDbLine
10
340.625
20
203
11
378.575851398
21
203
0
LINE
5
A4
100
AcDbEntity
8
Cotes
6
CONTINUOUS
62
7
370
0
100
AcDbLine
10
340.625
20
30
11
378.575851398
21
30
0
ENDBLK
5
62
330
60
100
AcDbEntity
8
0
100
AcDbBlockEnd
0
BLOCK
5
64
330
63
100
AcDbEntity
8
0
100
AcDbBlockBegin
2
*D3
70
1
10
0
20
0
3
*D3
1

0
LINE
5
A5
100
AcDbEntity
8
Cotes
6
CONTINUOUS
62
7
370
0
100
AcDbLine
10
390
20
554.487965368
11
770
21
554.487965368
0
SOLID
5
A6
100
AcDbEntity
8
Cotes
6
CONTINUOUS
62
7
370
0
100
AcDbTrace
10
390
20
554.487965368
30
0
11
405
21
556.985673315
31
0
12
405
22
551.990257421
32
0
13
405
23
551.990257421
33
0
0
SOLID
5
A7
100
AcDbEntity
8
Cotes
6
CONTINUOUS
62
7
370
0
100
AcDbTrace
10
770
20
554.487965368
30
0
11
755
21
551.990257421
31
0
12
755
22
556.985673315
32
0
13
755
23
556.985673315
33
0
0
MTEXT
5
A8
100
AcDbEntity
8
Cotes
6
CONTINUOUS
62
7
370
0
100
AcDbMText
10
580
20
566.987965368
30
0
40
15
41
30
71
5
72
1
1
380
7
standard
210
0
220
0
230
1
50
0
73
2
44
1
0
LINE
5
A9
100
AcDbEntity
8
Cotes
6
CONTINUOUS
62
7
370
0
100
AcDbLine
10
390
20
394.625
11
390
21
555.737965368
0
LINE
5
AA
100
AcDbEntity
8
Cotes
6
CONTINUOUS
62
7
370
0
100
AcDbLine
10
770
20
394.625
11
770
21
555.737965368
0
ENDBLK
5
65
330
63
100
AcDbEntity
8
0
100
AcDbBlockEnd
0
BLOCK
5
67
330
66
100
AcDbEntity
8
0
100
AcDbBlockBegin
2
*D4
70
1
10
0
20
0
3
*D4
1

0
LINE
5
AB
100
AcDbEntity
8
Cotes
6
CONTINUOUS
62
7
370
0
100
AcDbLine
10
30
20
522.442251082
11
377
21
522.442251082
0
SOLID
5
AC
100
AcDbEntity
8
Cotes
6
CONTINUOUS
62
7
370
0
100
AcDbTrace
10
30
20
522.442251082
30
0
11
45
21
524.939959029
31
0
12
45
22
519.944543135
32
0
13
45
23
519.944543135
33
0
0
SOLID
5
AD
100
AcDbEntity
8
Cotes
6
CONTINUOUS
62
7
370
0
100
AcDbTrace
10
377
20
522.442251082
30
0
11
362
21
519.944543135
31
0
12
362
22
524.939959029
32
0
13
362
23
524.939959029
33
0
0
MTEXT
5
AE
100
AcDbEntity
8
Cotes
6
CONTINUOUS
62
7
370
0
100
AcDbMText
10
203.5
20
534.942251082
30
0
40
15
41
31.6666666667
71
5
72
1
1
347
7
standard
210
0
220
0
230
1
50
0
73
2
44
1
0
LINE
5
AF
100
AcDbEntity
8
Cotes
6
CONTINUOUS
62
7
370
0
100
AcDbLine
10
30
20
394.625
11
30
21
523.692251082
0
LINE
5
B0
100
AcDbEntity
8
Cotes
6
CONTINUOUS
62
7
370
0
100
AcDbLine
10
377
20
394.625
11
377
21
523.692251082
0
ENDBLK
5
68
330
66
100
AcDbEntity
8
0
100
AcDbBlockEnd
0
BLOCK
5
6A
330
69
100
AcDbEntity
8
0
100
AcDbBlockBegin
2
*D11
70
1
10
0
20
0
3
*D11
1

0
LINE
5
B1
100
AcDbEntity
8
Cotes_SDB
6
CONTINUOUS
62
7
370
0
100
AcDbLine
10
110
20
-61.0992422286
11
220
21
-61.0992422286
0
SOLID
5
B2
100
AcDbEntity
8
Cotes_SDB
6
CONTINUOUS
62
7
370
0
100
AcDbTrace
10
110
20
-61.0992422286
30
0
11
125
21
-58.601534282
31
0
12
125
22
-63.5969501752
32
0
13
125
23
-63.5969501752
33
0
0
SOLID
5
B3
100
AcDbEntity
8
Cotes_SDB
6
CONTINUOUS
62
7
370
0
100
AcDbTrace
10
220
20
-61.0992422286
30
0
11
205
21
-63.5969501752
31
0
12
205
22
-58.601534282
32
0
13
205
23
-58.601534282
33
0
0
MTEXT
5
B4
100
AcDbEntity
8
Cotes_SDB
6
CONTINUOUS
62
7
370
0
100
AcDbMText
10
165
20
-48.5992422286
30
0
40
15
41
23.3333333333
71
5
72
1
1
110
7
standard
210
0
220
0
230
1
50
0
73
2
44
1
0
LINE
5
B5
100
AcDbEntity
8
Cotes_SDB
6
CONTINUOUS
62
7
370
0
100
AcDbLine
10
110
20
29.375
11
110
21
-62.3492422286
0
LINE
5
B6
100
AcDbEntity
8
Cotes_SDB
6
CONTINUOUS
62
7
370
0
100
AcDbLine
10
220
20
29.375
11
220
21
-62.3492422286
0
ENDBLK
5
6B
330
69
100
AcDbEntity
8
0
100
AcDbBlockEnd
0
BLOCK
5
6D
330
6C
100
AcDbEntity
8
0
100
AcDbBlockBegin
2
*D12
70
1
10
0
20
0
3
*D12
1

0
LINE
5
B7
100
AcDbEntity
8
Cotes_SDB
6
CONTINUOUS
62
7
370
0
100
AcDbLine
10
220
20
-34.5755401759
11
320
21
-34.5755401759
0
SOLID
5
B8
100
AcDbEntity
8
Cotes_SDB
6
CONTINUOUS
62
7
370
0
100
AcDbTrace
10
220
20
-34.5755401759
30
0
11
235
21
-32.0778322293
31
0
12
235
22
-37.0732481225
32
0
13
235
23
-37.0732481225
33
0
0
SOLID
5
B9
100
AcDbEntity
8
Cotes_SDB
6
CONTINUOUS
62
7
370
0
100
AcDbTrace
10
320
20
-34.5755401759
30
0
11
305
21
-37.0732481225
31
0
12
305
22
-32.0778322293
32
0
13
305
23
-32.0778322293
33
0
0
MTEXT
5
BA
100
AcDbEntity
8
Cotes_SDB
6
CONTINUOUS
62
7
370
0
100
AcDbMText
10
270
20
-22.0755401759
30
0
40
15
41
26.6666666667
71
5
72
1
1
100
7
standard
210
0
220
0
230
1
50
0
73
2
44
1
0
LINE
5
BB
100
AcDbEntity
8
Cotes_SDB
6
CONTINUOUS
62
7
370
0
100
AcDbLine
10
220
20
29.375
11
220
21
-35.8255401759
0
LINE
5
BC
100
AcDbEntity
8
Cotes_SDB
6
CONTINUOUS
62
7
370
0
100
AcDbLine
10
320
20
29.375
11
320
21
-35.8255401759
0
ENDBLK
5
6E
330
6C
100
AcDbEntity
8
0
100
AcDbBlockEnd
0
BLOCK
5
70
330
6F
100
AcDbEntity
8
0
100
AcDbBlockBegin
2
*D9
70
1
10
0
20
0
3
*D9
1

0
LINE
5
BD
100
AcDbEntity
8
Cotes_SDB
6
CONTINUOUS
62
7
370
0
100
AcDbLine
10
30
20
258.606095014
11
320
21
258.606095014
0
SOLID
5
BE
100
AcDbEntity
8
Cotes_SDB
6
CONTINUOUS
62
7
370
0
100
AcDbTrace
10
30
20
258.606095014
30
0
11
45
21
261.103802961
31
0
12
45
22
256.108387067
32
0
13
45
23
256.108387067
33
0
0
SOLID
5
BF
100
AcDbEntity
8
Cotes_SDB
6
CONTINUOUS
62
7
370
0
100
AcDbTrace
10
320
20
258.606095014
30
0
11
305
21
256.108387067
31
0
12
305
22
261.103802961
32
0
13
305
23
261.103802961
33
0
0
MTEXT
5
C0
100
AcDbEntity
8
Cotes_SDB
6
CONTINUOUS
62
7
370
0
100
AcDbMText
10
175
20
271.106095014
30
0
40
15
41
30
71
5
72
1
1
290
7
standard
210
0
220
0
230
1
50
0
73
2
44
1
0
LINE
5
C1
100
AcDbEntity
8
Cotes_SDB
6
CONTINUOUS
62
7
370
0
100
AcDbLine
10
30
20
203.625
11
30
21
259.856095014
0
LINE
5
C2
100
AcDbEntity
8
Cotes_SDB
6
CONTINUOUS
62
7
370
0
100
AcDbLine
10
320
20
202.657951857
11
320
21
259.856095014
0
ENDBLK
5
71
330
6F
100
AcDbEntity
8
0
100
AcDbBlockEnd
0
BLOCK
5
73
330
72
100
AcDbEntity
8
0
100
AcDbBlockBegin
2
*D14
70
1
10
0
20
0
3
*D14
1

0
LINE
5
C3
100
AcDbEntity
8
Cotes_SDB
6
CONTINUOUS
62
7
370
0
100
AcDbLine
10
320
20
178.679134199
11
160
21
178.679134199
0
SOLID
5
C4
100
AcDbEntity
8
Cotes_SDB
6
CONTINUOUS
62
7
370
0
100
AcDbTrace
10
320
20
178.679134199
30
0
11
305
21
176.181426252
31
0
12
305
22
181.176842146
32
0
13
305
23
181.176842146
33
0
0
SOLID
5
C5
100
AcDbEntity
8
Cotes_SDB
6
CONTINUOUS
62
7
370
0
100
AcDbTrace
10
160
20
178.679134199
30
0
11
175
21
181.176842146
31
0
12
175
22
176.181426252
32
0
13
175
23
176.181426252
33
0
0
MTEXT
5
C6
100
AcDbEntity
8
Cotes_SDB
6
CONTINUOUS
62
7
370
0
100
AcDbMText
10
240
20
191.179134199
30
0
40
15
41
26.6666666667
71
5
72
1
1
160
7
standard
210
0
220
0
230
1
50
360
73
2
44
1
0
LINE
5
C7
100
AcDbEntity
8
Cotes_SDB
6
CONTINUOUS
62
7
370
0
100
AcDbLine
10
320
20
202.375
11
320
21
177.429134199
0
LINE
5
C8
100
AcDbEntity
8
Cotes_SDB
6
CONTINUOUS
62
7
370
0
100
AcDbLine
10
160
20
202.375
11
160
21
177.429134199
0
ENDBLK
5
74
330
72
100
AcDbEntity
8
0
100
AcDbBlockEnd
0
BLOCK
5
76
330
75
100
AcDbEntity
8
0
100
AcDbBlockBegin
2
*D8
70
1
10
0
20
0
3
*D8
1

0
LINE
5
C9
100
AcDbEntity
8
SDB_3
6
CONTINUOUS
62
7
370
0
100
AcDbLine
10
30
20
229.714205278
11
77.2476621698
21
229.714205278
0
SOLID
5
CA
100
AcDbEntity
8
SDB_3
6
CONTINUOUS
62
7
370
0
100
AcDbTrace
10
30
20
229.714205278
30
0
11
45
21
232.211913225
31
0
12
45
22
227.216497331
32
0
13
45
23
227.216497331
33
0
0
SOLID
5
CB
100
AcDbEntity
8
SDB_3
6
CONTINUOUS
62
7
370
0
100
AcDbTrace
10
77.2476621698
20
229.714205278
30
0
11
62.2476621698
21
227.216497331
31
0
12
62.2476621698
22
232.211913225
32
0
13
62.2476621698
23
232.211913225
33
0
0
MTEXT
5
CC
100
AcDbEntity
8
SDB_3
6
CONTINUOUS
62
7
370
0
100
AcDbMText
10
53.6238310849
20
242.214205278
30
0
40
15
41
20
71
5
72
1
1
47
7
standard
210
0
220
0
230
1
50
0
73
2
44
1
0
LINE
5
CD
100
AcDbEntity
8
SDB_3
6
CONTINUOUS
62
7
370
0
100
AcDbLine
10
30
20
213.625
11
30
21
230.964205278
0
LINE
5
CE
100
AcDbEntity
8
SDB_3
6
CONTINUOUS
62
7
370
0
100
AcDbLine
10
77.2476621698
20
213.625
11
77.2476621698
21
230.964205278
0
ENDBLK
5
77
330
75
100
AcDbEntity
8
0
100
AcDbBlockEnd
0
BLOCK
5
79
330
78
100
AcDbEntity
8
0
100
AcDbBlockBegin
2
*D2
70
1
10
0
20
0
3
*D2
1

0
LINE
5
CF
100
AcDbEntity
8
Cotes
6
CONTINUOUS
62
7
370
0
100
AcDbLine
10
617.608311688
20
384
11
617.608311688
21
213
0
SOLID
5
D0
100
AcDbEntity
8
Cotes
6
CONTINUOUS
62
7
370
0
100
AcDbTrace
10
617.608311688
20
384
30
0
11
620.106019635
21
369
31
0
12
615.110603741
22
369
32
0
13
615.110603741
23
369
33
0
0
SOLID
5
D1
100
AcDbEntity
8
Cotes
6
CONTINUOUS
62
7
370
0
100
AcDbTrace
10
617.608311688
20
213
30
0
11
615.110603741
21
228
31
0
12
620.106019635
22
228
32
0
13
620.106019635
23
228
33
0
0
MTEXT
5
D2
100
AcDbEntity
8
Cotes
6
CONTINUOUS
62
7
370
0
100
AcDbMText
10
605.108311688
20
298.5
30
0
40
15
41
23.3333333333
71
5
72
1
1
171
7
standard
210
0
220
0
230
1
50
90
73
2
44
1
0
LINE
5
D3
100
AcDbEntity
8
Cotes
6
CONTINUOUS
62
7
370
0
100
AcDbLine
10
485.625
20
384
11
618.858311688
21
384
0
LINE
5
D4
100
AcDbEntity
8
Cotes
6
CONTINUOUS
62
7
370
0
100
AcDbLine
10
485.625
20
213
11
618.858311688
21
213
0
ENDBLK
5
7A
330
78
100
AcDbEntity
8
0
100
AcDbBlockEnd
0
BLOCK
5
7C
330
7B
100
AcDbEntity
8
0
100
AcDbBlockBegin
2
Chiottes
70
0
10
0
20
0
3
Chiottes
1

0
LINE
5
D5
100
AcDbEntity
8
Refonte_niveau_1
6
ByLayer
62
256
370
-1
100
AcDbLine
10
0
20
0
11
-15
21
0
0
LINE
5
D6
100
AcDbEntity
8
Refonte_niveau_1
6
ByLayer
62
256
370
-1
100
AcDbLine
10
0
20
41
11
0
21
0
0
LINE
5
D7
100
AcDbEntity
8
Refonte_niveau_1
6
ByLayer
62
256
370
-1
100
AcDbLine
10
-15
20
0
11
-15
21
41
0
LINE
5
D8
100
AcDbEntity
8
Refonte_niveau_1
6
ByLayer
62
256
370
-1
100
AcDbLine
10
0
20
41
11
-15
21
41
0
ELLIPSE
5
D9
100
AcDbEntity
8
Refonte_niveau_1
6
ByLayer
62
256
370
-1
100
AcDbEllipse
10
-38.2660691999
20
19.8019170646
30
0
11
28.6820139479
21
0
31
0
40
0.507092552837
41
1.08696436552
42
5.19622094166
0
LINE
5
DA
100
AcDbEntity
8
Refonte_niveau_1
6
ByLayer
62
256
370
-1
100
AcDbLine
10
-25
20
6.90670866459
11
-25
21
32.6971254647
0
LINE
5
DB
100
AcDbEntity
8
Refonte_niveau_1
6
ByLayer
62
256
370
-1
100
AcDbLine
10
-25
20
32.6971254647
11
-15
21
32.6971254647
0
LINE
5
DC
100
AcDbEntity
8
Refonte_niveau_1
6
ByLayer
62
256
370
-1
100
AcDbLine
10
-25
20
6.90670866459
11
-15
21
6.90670866459
0
ENDBLK
5
7D
330
7B
100
AcDbEntity
8
0
100
AcDbBlockEnd
0
BLOCK
5
7F
330
7E
100
AcDbEntity
8
0
100
AcDbBlockBegin
2
Sèche-serviettes
70
0
10
0
20
0
3
Sèche-serviettes
1

0
LINE
5
DD
100
AcDbEntity
8
Refonte_niveau_1
6
ByLayer
62
256
370
-1
100
AcDbLine
10
0
20
0
11
50
21
0
0
LINE
5
DE
100
AcDbEntity
8
Refonte_niveau_1
6
ByLayer
62
256
370
-1
100
AcDbLine
10
50
20
0
11
50
21
10
0
LINE
5
DF
100
AcDbEntity
8
Refonte_niveau_1
6
ByLayer
62
256
370
-1
100
AcDbLine
10
50
20
10
11
0
21
10
0
LINE
5
E0
100
AcDbEntity
8
Refonte_niveau_1
6
ByLayer
62
256
370
-1
100
AcDbLine
10
0
20
10
11
0
21
0
0
ENDBLK
5
80
330
7E
100
AcDbEntity
8
0
100
AcDbBlockEnd
0
ENDSEC
0
SECTION
2
ENTITIES
0
HATCH
5
E1
100
AcDbEntity
8
Electricité R1
6
ByLayer
62
256
370
-1
100
AcDbHatch
10
0
20
0
30
0
210
0
220
0
230
1
2
iso03w100
70
0
71
0
91
1
92
0
93
1
72
2
10
179.851008457
20
377.656934626
40
6.53281101526
50
0
51
360
73
1
97
0
75
0
76
1
52
2.26892802759
41
0.2
77
0
78
0
98
0
0
HATCH
5
E2
100
AcDbEntity
8
Refonte_niveau_1
6
ByLayer
62
256
370
-1
100
AcDbHatch
10
0
20
0
30
0
210
0
220
0
230
1
2
iso03w100
70
0
71
0
91
1
92
0
93
16
72
1
10
245
20
671
11
245
21
701
72
1
10
245
20
701
11
0
21
701
72
1
10
0
20
701
11
0
21
-3.5527136788e-015
72
1
10
0
20
0
11
110
21
-2.64768339257e-014
72
1
10
110
20
-2.64768339257e-014
11
110
21
30
72
1
10
110
20
30
11
30
21
30
72
1
10
30
20
30
11
30
21
203
72
1
10
30
20
203
11
77.2476621698
21
203
72
1
10
77.2476621698
20
203
11
77.2476621698
21
213
72
1
10
77.2476621698
20
213
11
30
21
213
72
1
10
30
20
213
11
30
21
384
72
1
10
30
20
384
11
35
21
384
72
1
10
35
20
384
11
35
21
394
72
1
10
35
20
394
11
30
21
394
72
1
10
30
20
394
11
30
21
671
72
1
10
30
20
671
11
245
21
671
97
0
75
0
76
1
52
2.26892802759
41
0.5
77
0
78
0
98
0
0
HATCH
5
E3
100
AcDbEntity
8
Refonte_niveau_1
6
ByLayer
62
256
370
-1
100
AcDbHatch
10
0
20
0
30
0
210
0
220
0
230
1
2
iso03w100
70
0
71
0
91
1
92
0
93
13
72
1
10
800
20
0
11
800
21
701
72
1
10
800
20
701
11
515
21
701
72
1
10
515
20
701
11
515
21
671
72
1
10
515
20
671
11
570
21
671
72
1
10
570
20
671
11
770
21
671
72
1
10
770
20
671
11
770
21
393
72
1
10
770
20
393
11
472
21
393
72
1
10
472
20
393
11
472
21
384
72
1
10
472
20
384
11
770
21
384
72
1
10
770
20
384
11
770
21
30
72
1
10
770
20
30
11
687
21
30
72
1
10
687
20
30
11
687
21
-2.23148864838e-014
72
1
10
687
20
-2.72010417214e-014
11
800
21
0
97
0
75
0
76
1
52
2.26892802759
41
0.5
77
0
78
0
98
0
0
HATCH
5
E4
100
AcDbEntity
8
Refonte_niveau_1
6
ByLayer
62
256
370
-1
100
AcDbHatch
10
0
20
0
30
0
210
0
220
0
230
1
2
iso03w100
70
0
71
0
91
1
92
0
93
19
72
1
10
475
20
30
11
572.112606185
21
30
72
1
10
572.112606185
20
30
11
597
21
30
72
1
10
597
20
30
11
597
21
-4.88655882252e-014
72
1
10
597
20
-4.88655882252e-014
11
220
21
-4.88619572485e-014
72
1
10
220
20
-5.29536678515e-014
11
220
21
30
72
1
10
220
20
30
11
297
21
30
72
1
10
297
20
30
11
320
21
30
72
1
10
320
20
30
11
320
21
203
72
1
10
320
20
203
11
185
21
203
72
1
10
185
20
203
11
185
21
213
72
1
10
185
20
213
11
485
21
213
72
1
10
485
20
213
11
485
21
305
72
1
10
485
20
305
11
495
21
305
72
1
10
495
20
305
11
495
21
203
72
1
10
495
20
203
11
330
21
203
72
1
10
330
20
203
11
330
21
30
72
1
10
330
20
30
11
348.25
21
30
72
1
10
348.25
20
30
11
414.25
21
30
72
1
10
414.25
20
30
11
475
21
30
97
0
75
0
76
1
52
2.26892802759
41
0.5
77
0
78
0
98
0
0
HATCH
5
E5
100
AcDbEntity
8
Refonte_niveau_1
6
ByLayer
62
256
370
-1
100
AcDbHatch
10
0
20
0
30
0
210
0
220
0
230
1
2
iso03w100
70
0
71
0
91
1
92
0
93
4
72
1
10
185
20
203
11
185
21
213
72
1
10
185
20
213
11
157.24766217
21
213
72
1
10
157.24766217
20
213
11
157.24766217
21
203
72
1
10
157.24766217
20
203
11
185
21
203
97
0
75
0
76
1
52
2.26892802759
41
0.5
77
0
78
0
98
0
0
HATCH
5
E6
100
AcDbEntity
8
Electricité R1
6
ByLayer
62
256
370
-1
100
AcDbHatch
10
0
20
0
30
0
210
0
220
0
230
1
2
SOLID
70
1
71
0
91
1
92
0
93
1
72
2
10
386.480068796
20
377.392009716
40
6.53281101526
50
0
51
360
73
1
97
0
75
0
76
1
98
0
0
HATCH
5
E7
100
AcDbEntity
8
Electricité R1
6
ByLayer
62
256
370
-1
100
AcDbHatch
10
0
20
0
30
0
210
0
220
0
230
1
2
SOLID
70
1
71
0
91
1
92
0
93
1
72
2
10
501.456207324
20
298.151698027
40
6.53281101526
50
0
51
360
73
1
97
0
75
0
76
1
98
0
0
HATCH
5
E8
100
AcDbEntity
8
Electricité R1
6
ByLayer
62
256
370
-1
100
AcDbHatch
10
0
20
0
30
0
210
0
220
0
230
1
2
SOLID
70
1
71
0
91
1
92
0
93
1
72
2
10
495.265225785
20
400.465813979
40
6.53281101526
50
0
51
360
73
1
97
0
75
0
76
1
98
0
0
HATCH
5
E9
100
AcDbEntity
8
Electricité R1
6
ByLayer
62
256
370
-1
100
AcDbHatch
10
0
20
0
30
0
210
0
220
0
230
1
2
SOLID
70
1
71
0
91
1
92
0
93
1
72
2
10
57.3347422222
20
196.489264343
40
6.53281101526
50
0
51
360
73
1
97
0
75
0
76
1
98
0
0
HATCH
5
EA
100
AcDbEntity
8
Electricité R1
6
ByLayer
62
256
370
-1
100
AcDbHatch
10
0
20
0
30
0
210
0
220
0
230
1
2
SOLID
70
1
71
0
91
1
92
0
93
1
72
2
10
70.5313081331
20
196.489264343
40
6.53281101526
50
0
51
360
73
1
97
0
75
0
76
1
98
0
0
HATCH
5
EB
100
AcDbEntity
8
Electricité R1
6
ByLayer
62
256
370
-1
100
AcDbHatch
10
0
20
0
30
0
210
0
220
0
230
1
2
SOLID
70
1
71
0
91
1
92
0
93
1
72
2
10
126.490644715
20
377.400919434
40
6.53281101526
50
0
51
360
73
1
97
0
75
0
76
1
98
0
0
HATCH
5
EC
100
AcDbEntity
8
Electricité R1
6
ByLayer
62
256
370
-1
100
AcDbHatch
10
0
20
0
30
0
210
0
220
0
230
1
2
SOLID
70
1
71
0
91
1
92
0
93
1
72
2
10
138.920497529
20
400.70689346
40
6.53281101526
50
0
51
360
73
1
97
0
75
0
76
1
98
0
0
HATCH
5
ED
100
AcDbEntity
8
SDB_1
6
ByLayer
62
256
370
-1
100
AcDbHatch
10
0
20
0
30
0
210
0
220
0
230
1
2
iso03w100
70
0
71
0
91
1
92
0
93
4
72
1
10
105
20
203
11
105
21
213
72
1
10
105
20
213
11
77.2476621698
21
213
72
1
10
77.2476621698
20
213
11
77.2476621698
21
203
72
1
10
77.2476621698
20
203
11
105
21
203
97
0
75
0
76
1
52
2.26892802759
41
0.5
77
0
78
0
98
0
0
HATCH
5
EE
100
AcDbEntity
8
SDB_3
6
ByLayer
62
256
370
-1
100
AcDbHatch
10
0
20
0
30
0
210
0
220
0
230
1
2
iso03w100
70
0
71
0
91
1
92
0
93
4
72
1
10
185
20
203
11
185
21
213
72
1
10
185
20
213
11
157.24766217
21
213
72
1
10
157.24766217
20
213
11
157.24766217
21
203
72
1
10
157.24766217
20
203
11
185
21
203
97
0
75
0
76
1
52
2.26892802759
41
0.5
77
0
78
0
98
0
0
HATCH
5
EF
100
AcDbEntity
8
murs
6
ByLayer
62
256
370
-1
100
AcDbHatch
10
0
20
0
30
0
210
0
220
0
230
1
2
iso03w100
70
0
71
0
91
1
92
0
93
6
72
1
10
430
20
671
11
430
21
701
72
1
10
430
20
701
11
332.5
21
701
72
1
10
332.5
20
701
11
332.5
21
671
72
1
10
332.5
20
671
11
348.25
21
671
72
1
10
348.25
20
671
11
414.25
21
671
72
1
10
414.25
20
671
11
430
21
671
97
0
75
0
76
1
52
2.26892802759
41
0.5
77
0
78
0
98
0
0
HATCH
5
F0
100
AcDbEntity
8
Niveau_2
6
ByLayer
62
7
370
-1
100
AcDbHatch
10
0
20
0
30
0
210
0
220
0
230
1
2
iso03w100
70
0
71
0
91
1
92
0
93
20
72
1
10
0
20
0
11
800
21
0
72
1
10
800
20
0
11
800
21
701
72
1
10
800
20
701
11
515
21
701
72
1
10
515
20
701
11
515
21
671
72
1
10
515
20
671
11
770
21
671
72
1
10
770
20
671
11
770
21
393
72
1
10
770
20
393
11
472
21
393
72
1
10
472
20
393
11
472
21
384
72
1
10
472
20
384
11
770
21
384
72
1
10
770
20
384
11
770
21
30
72
1
10
770
20
30
11
30
21
30
72
1
10
30
20
30
11
30
21
384
72
1
10
30
20
384
11
390
21
384
72
1
10
390
20
384
11
390
21
393
72
1
10
390
20
393
11
30
21
393
72
1
10
30
20
393
11
30
21
671
72
1
10
30
20
671
11
245
21
671
72
1
10
245
20
671
11
245
21
701
72
1
10
245
20
701
11
0
21
701
72
1
10
0
20
701
11
0
21
0
97
0
75
0
76
1
52
0.785398163397
41
0.5
77
0
78
0
98
0
0
HATCH
5
F1
100
AcDbEntity
8
Niveau_1
6
CONTINUOUS
62
5
370
-1
100
AcDbHatch
10
0
20
0
30
0
210
0
220
0
230
1
2
iso03w100
70
0
71
0
91
1
92
0
93
12
72
1
10
570
20
671
11
515
21
671
72
1
10
515
20
671
11
430
21
671
72
1
10
430
20
671
11
332.5
21
671
72
1
10
332.5
20
671
11
245
21
671
72
1
10
245
20
671
11
200
21
671
72
1
10
200
20
671
11
200
21
30
72
1
10
200
20
30
11
325
21
30
72
1
10
325
20
30
11
348.25
21
30
72
1
10
348.25
20
30
11
414.25
21
30
72
1
10
414.25
20
30
11
475
21
30
72
1
10
475
20
30
11
572.112606185
21
30
72
1
10
572.112606185
20
30
11
570
21
671
97
0
75
0
76
1
52
-0.785398163397
41
0.5
77
0
78
0
98
0
0
HATCH
5
F2
100
AcDbEntity
8
Niveau_1
6
ByLayer
62
256
370
-1
100
AcDbHatch
10
0
20
0
30
0
210
0
220
0
230
1
2
iso03w100
70
0
71
0
91
1
92
0
93
4
72
1
10
30
20
671
11
30
21
393
72
1
10
30
20
393
11
200
21
393
72
1
10
200
20
393
11
200
21
671
72
1
10
200
20
671
11
30
21
671
97
0
75
0
76
1
52
-0.785398163397
41
0.5
77
0
78
0
98
0
0
HATCH
5
F3
100
AcDbEntity
8
Niveau_1
6
ByLayer
62
256
370
-1
100
AcDbHatch
10
0
20
0
30
0
210
0
220
0
230
1
2
iso03w100
70
0
71
0
91
1
92
0
93
4
72
1
10
30
20
30
11
30
21
384
72
1
10
30
20
384
11
200
21
384
72
1
10
200
20
384
11
200
21
30
72
1
10
200
20
30
11
30
21
30
97
0
75
0
76
1
52
-0.785398163397
41
0.5
77
0
78
0
98
0
0
HATCH
5
F4
100
AcDbEntity
8
Niveau_1
6
ByLayer
62
256
370
-1
100
AcDbHatch
10
0
20
0
30
0
210
0
220
0
230
1
2
iso03w100
70
0
71
0
91
1
92
0
93
4
72
1
10
770
20
671
11
770
21
393
72
1
10
770
20
393
11
570
21
393
72
1
10
570
20
393
11
570
21
671
72
1
10
570
20
671
11
770
21
671
97
0
75
0
76
1
52
-0.785398163397
41
0.5
77
0
78
0
98
0
0
HATCH
5
F5
100
AcDbEntity
8
Niveau_1
6
ByLayer
62
256
370
-1
100
AcDbHatch
10
0
20
0
30
0
210
0
220
0
230
1
2
iso03w100
70
0
71
0
91
1
92
0
93
4
72
1
10
770
20
30
11
770
21
384
72
1
10
770
20
384
11
570.052378666
21
384
72
1
10
570.052378666
20
384
11
572.112606185
21
30
72
1
10
572.112606185
20
30
11
770
21
30
97
0
75
0
76
1
52
-0.785398163397
41
0.5
77
0
78
0
98
0
0
HATCH
5
F6
100
AcDbEntity
8
Niveau_2
6
ByLayer
62
256
370
-1
100
AcDbHatch
10
0
20
0
30
0
210
0
220
0
230
1
2
iso03w100
70
0
71
0
91
1
92
0
93
4
72
1
10
862.880829016
20
271.647668394
11
896.836787565
21
271.647668394
72
1
10
896.836787565
20
271.647668394
11
896.836787565
21
249.676165803
72
1
10
896.836787565
20
249.676165803
11
862.880829016
21
249.676165803
72
1
10
862.880829016
20
249.676165803
11
862.880829016
21
271.647668394
97
0
75
0
76
1
52
-0.785398163397
41
0.5
77
0
78
0
98
0
0
HATCH
5
F7
100
AcDbEntity
8
Niveau_2
6
CONTINUOUS
62
5
370
-1
100
AcDbHatch
10
0
20
0
30
0
210
0
220
0
230
1
2
iso03w100
70
0
71
0
91
1
92
0
93
7
72
1
10
770
20
30
11
770
21
384
72
1
10
770
20
384
11
570.052378666
21
384
72
1
10
570.052378666
20
384
11
475
21
384
72
1
10
475
20
384
11
475
21
193
72
1
10
475
20
193
11
475
21
30
72
1
10
475
20
30
11
572.112606185
21
30
72
1
10
572.112606185
20
30
11
770
21
30
97
0
75
0
76
1
52
-0.785398163397
41
0.5
77
0
78
0
98
0
0
HATCH
5
F8
100
AcDbEntity
8
Niveau_2
6
CONTINUOUS
62
5
370
-1
100
AcDbHatch
10
0
20
0
30
0
210
0
220
0
230
1
2
iso03w100
70
0
71
0
91
1
92
0
93
7
72
1
10
770
20
671
11
770
21
393
72
1
10
770
20
393
11
570
21
393
72
1
10
570
20
393
11
475
21
393
72
1
10
475
20
393
11
475
21
671
72
1
10
475
20
671
11
515
21
671
72
1
10
515
20
671
11
570
21
671
72
1
10
570
20
671
11
770
21
671
97
0
75
0
76
1
52
-0.785398163397
41
0.5
77
0
78
0
98
0
0
HATCH
5
F9
100
AcDbEntity
8
Niveau_2
6
CONTINUOUS
62
5
370
-1
100
AcDbHatch
10
0
20
0
30
0
210
0
220
0
230
1
2
iso03w100
70
0
71
0
91
1
92
0
93
7
72
1
10
30
20
671
11
30
21
393
72
1
10
30
20
393
11
200
21
393
72
1
10
200
20
393
11
325
21
393
72
1
10
325
20
393
11
325
21
671
72
1
10
325
20
671
11
245
21
671
72
1
10
245
20
671
11
200
21
671
72
1
10
200
20
671
11
30
21
671
97
0
75
0
76
1
52
-0.785398163397
41
0.5
77
0
78
0
98
0
0
HATCH
5
FA
100
AcDbEntity
8
Niveau_2
6
CONTINUOUS
62
5
370
-1
100
AcDbHatch
10
0
20
0
30
0
210
0
220
0
230
1
2
iso03w100
70
0
71
0
91
1
92
0
93
4
72
1
10
862.880829016
20
183.761658031
11
896.836787565
21
183.761658031
72
1
10
896.836787565
20
183.761658031
11
896.836787565
21
161.79015544
72
1
10
896.836787565
20
161.79015544
11
862.880829016
21
161.79015544
72
1
10
862.880829016
20
161.79015544
11
862.880829016
21
183.761658031
97
0
75
0
76
1
52
-0.785398163397
41
0.5
77
0
78
0
98
0
0
HATCH
5
FB
100
AcDbEntity
8
Niveau_2
6
CONTINUOUS
62
1
370
-1
100
AcDbHatch
10
0
20
0
30
0
210
0
220
0
230
1
2
iso03w100
70
0
71
0
91
1
92
0
93
4
72
1
10
862.880829016
20
227.704663212
11
896.836787565
21
227.704663212
72
1
10
896.836787565
20
227.704663212
11
896.836787565
21
205.733160622
72
1
10
896.836787565
20
205.733160622
11
862.880829016
21
205.733160622
72
1
10
862.880829016
20
205.733160622
11
862.880829016
21
227.704663212
97
0
75
0
76
1
52
-0.785398163397
41
0.5
77
0
78
0
98
0
0
HATCH
5
FC
100
AcDbEntity
8
Niveau_1
6
ByLayer
62
256
370
-1
100
AcDbHatch
10
0
20
0
30
0
210
0
220
0
230
1
2
iso03w100
70
0
71
0
91
1
92
0
93
4
72
1
10
862.880829016
20
271.647668394
11
896.836787565
21
271.647668394
72
1
10
896.836787565
20
271.647668394
11
896.836787565
21
249.676165803
72
1
10
896.836787565
20
249.676165803
11
862.880829016
21
249.676165803
72
1
10
862.880829016
20
249.676165803
11
862.880829016
21
271.647668394
97
0
75
0
76
1
52
-0.785398163397
41
0.5
77
0
78
0
98
0
0
HATCH
5
FD
100
AcDbEntity
8
Niveau_1
6
CONTINUOUS
62
5
370
-1
100
AcDbHatch
10
0
20
0
30
0
210
0
220
0
230
1
2
iso03w100
70
0
71
0
91
1
92
0
93
4
72
1
10
862.880829016
20
227.704663212
11
896.836787565
21
227.704663212
72
1
10
896.836787565
20
227.704663212
11
896.836787565
21
205.733160622
72
1
10
896.836787565
20
205.733160622
11
862.880829016
21
205.733160622
72
1
10
862.880829016
20
205.733160622
11
862.880829016
21
227.704663212
97
0
75
0
76
1
52
-0.785398163397
41
0.5
77
0
78
0
98
0
0
HATCH
5
FE
100
AcDbEntity
8
Niveau_2
6
CONTINUOUS
62
1
370
-1
100
AcDbHatch
10
0
20
0
30
0
210
0
220
0
230
1
2
iso03w100
70
0
71
0
91
1
92
0
93
6
72
1
10
200
20
384
11
325
21
384
72
1
10
325
20
384
11
395
21
384
72
1
10
395
20
384
11
395
21
291
72
1
10
395
20
291
11
145
21
291
72
1
10
145
20
291
11
145
21
384
72
1
10
145
20
384
11
200
21
384
97
0
75
0
76
1
52
-0.785398163397
41
0.5
77
0
78
0
98
0
0
HATCH
5
FF
100
AcDbEntity
8
Niveau_2
6
CONTINUOUS
62
5
370
-1
100
AcDbHatch
10
0
20
0
30
0
210
0
220
0
230
1
2
iso03w100
70
0
71
0
91
1
92
0
93
7
72
1
10
30
20
30
11
30
21
384
72
1
10
30
20
384
11
145
21
384
72
1
10
145
20
384
11
145
21
291
72
1
10
145
20
291
11
325
21
291
72
1
10
325
20
291
11
325
21
30
72
1
10
325
20
30
11
200
21
30
72
1
10
200
20
30
11
30
21
30
97
0
75
0
76
1
52
-0.785398163397
41
0.5
77
0
78
0
98
0
0
HATCH
5
100
100
AcDbEntity
8
Niveau_2
6
ByLayer
62
256
370
-1
100
AcDbHatch
10
0
20
0
30
0
210
0
220
0
230
1
2
iso03w100
70
0
71
0
91
1
92
0
93
25
72
1
10
348.25
20
671
11
332.5
21
671
72
1
10
332.5
20
671
11
325
21
671
72
1
10
325
20
671
11
325
21
393
72
1
10
325
20
393
11
390
21
393
72
1
10
390
20
393
11
390
21
384
72
1
10
390
20
384
11
395
21
384
72
1
10
395
20
384
11
395
21
291
72
1
10
395
20
291
11
325
21
291
72
1
10
325
20
291
11
325
21
30
72
1
10
325
20
30
11
348.25
21
30
72
1
10
348.25
20
30
11
348.25
21
50
72
1
10
348.25
20
50
11
414.25
21
50
72
1
10
414.25
20
50
11
414.25
21
30
72
1
10
414.25
20
30
11
475
21
30
72
1
10
475
20
30
11
475
21
193
72
1
10
475
20
193
11
475
21
384
72
1
10
475
20
384
11
472
21
384
72
1
10
472
20
384
11
472
21
393
72
1
10
472
20
393
11
475
21
393
72
1
10
475
20
393
11
475
21
671
72
1
10
475
20
671
11
430
21
671
72
1
10
430
20
671
11
414.25
21
671
72
1
10
414.25
20
671
11
414.25
21
651
72
1
10
414.25
20
651
11
348.25
21
651
72
1
10
348.25
20
651
11
348.25
21
671
97
0
75
0
76
1
52
-0.785398163397
41
0.5
77
0
78
0
98
0
0
LINE
5
101
100
AcDbEntity
8
murs
6
ByLayer
62
256
370
-1
100
AcDbLine
10
800
20
0
11
800
21
701
0
LINE
5
102
100
AcDbEntity
8
murs
6
ByLayer
62
256
370
-1
100
AcDbLine
10
770
20
30
11
770
21
384
0
LINE
5
103
100
AcDbEntity
8
murs
6
ByLayer
62
256
370
-1
100
AcDbLine
10
245
20
671
11
245
21
701
0
LINE
5
104
100
AcDbEntity
8
murs
6
ByLayer
62
256
370
-1
100
AcDbLine
10
430
20
671
11
430
21
701
0
LINE
5
105
100
AcDbEntity
8
murs
6
ByLayer
62
256
370
-1
100
AcDbLine
10
515
20
671
11
515
21
701
0
LINE
5
106
100
AcDbEntity
8
murs
6
ByLayer
62
256
370
-1
100
AcDbLine
10
430
20
701
11
332.5
21
701
0
LINE
5
107
100
AcDbEntity
8
murs
6
ByLayer
62
256
370
-1
100
AcDbLine
10
800
20
701
11
515
21
701
0
LINE
5
108
100
AcDbEntity
8
Niveau_1
6
ByLayer
62
256
370
-1
100
AcDbLine
10
570
20
671
11
570
21
393
0
LINE
5
109
100
AcDbEntity
8
Niveau_1
6
ByLayer
62
256
370
-1
100
AcDbLine
10
572.112606185
20
30
11
570.052378666
21
384
0
LINE
5
10A
100
AcDbEntity
8
murs
6
ByLayer
62
256
370
-1
100
AcDbLine
10
770
20
671
11
570
21
671
0
LINE
5
10B
100
AcDbEntity
8
murs
6
ByLayer
62
256
370
-1
100
AcDbLine
10
570
20
671
11
515
21
671
0
LINE
5
10C
100
AcDbEntity
8
Niveau_1
6
CONTINUOUS
62
7
370
-3
100
AcDbLine
10
203
20
384
11
203
21
289
0
LINE
5
10D
100
AcDbEntity
8
Niveau_1
6
CONTINUOUS
62
7
370
-3
100
AcDbLine
10
318
20
289
11
203
21
289
0
LINE
5
10E
100
AcDbEntity
8
Niveau_1
6
CONTINUOUS
62
7
370
-3
100
AcDbLine
10
318
20
295
11
209
21
295
0
LINE
5
10F
100
AcDbEntity
8
Niveau_1
6
CONTINUOUS
62
7
370
-3
100
AcDbLine
10
209
20
384
11
209
21
295
0
LINE
5
110
100
AcDbEntity
8
Niveau_1
6
CONTINUOUS
62
7
370
-3
100
AcDbLine
10
318
20
295
11
318
21
289
0
LINE
5
111
100
AcDbEntity
8
Niveau_1
6
CONTINUOUS
62
7
370
-3
100
AcDbLine
10
209
20
298
11
209
21
295
0
LINE
5
112
100
AcDbEntity
8
Niveau_1
6
CONTINUOUS
62
7
370
-3
100
AcDbLine
10
390
20
384
11
411
21
384
0
MTEXT
5
113
100
AcDbEntity
8
Niveau_1
6
CONTINUOUS
62
7
370
-3
100
AcDbMText
10
174.733927461
20
780.021388601
30
0
40
20
41
459.444460776
71
1
72
5
1
Surfaces ajoutées au 1er étage :
7
standard
210
0
220
0
230
1
50
0
73
2
44
0.96
0
LINE
5
114
100
AcDbEntity
8
murs
6
ByLayer
62
256
370
-1
100
AcDbLine
10
411.25
20
654
11
411.25
21
671
0
LINE
5
115
100
AcDbEntity
8
traits
6
CENTERX2
62
256
370
13
100
AcDbLine
10
400
20
-90
11
400
21
771
0
LINE
5
116
100
AcDbEntity
8
Niveau_2
6
ByLayer
62
256
370
-1
100
AcDbLine
10
325
20
671
11
325
21
771
0
LINE
5
117
100
AcDbEntity
8
Niveau_2
6
ByLayer
62
256
370
-1
100
AcDbLine
10
475
20
671
11
475
21
771
0
LINE
5
118
100
AcDbEntity
8
murs
6
CONTINUOUS
62
7
370
-3
100
AcDbLine
10
475
20
30
11
572.112606185
21
30
0
LINE
5
119
100
AcDbEntity
8
murs
6
CONTINUOUS
62
7
370
-3
100
AcDbLine
10
348.25
20
30
11
414.25
21
30
0
LINE
5
11A
100
AcDbEntity
8
Niveau_2
6
ByLayer
62
256
370
-1
100
AcDbLine
10
475
20
392.504680266
11
475
21
393
0
LINE
5
11B
100
AcDbEntity
8
Niveau_2
6
CONTINUOUS
62
7
370
-1
100
AcDbLine
10
862.880829016
20
271.647668394
11
896.836787565
21
271.647668394
0
LINE
5
11C
100
AcDbEntity
8
Niveau_2
6
CONTINUOUS
62
7
370
-1
100
AcDbLine
10
896.836787565
20
271.647668394
11
896.836787565
21
249.676165803
0
LINE
5
11D
100
AcDbEntity
8
Niveau_2
6
CONTINUOUS
62
7
370
-1
100
AcDbLine
10
862.880829016
20
249.676165803
11
862.880829016
21
271.647668394
0
LINE
5
11E
100
AcDbEntity
8
Niveau_2
6
CONTINUOUS
62
7
370
-1
100
AcDbLine
10
862.880829016
20
249.676165803
11
896.836787565
21
249.676165803
0
LINE
5
11F
100
AcDbEntity
8
Niveau_2
6
CONTINUOUS
62
7
370
-1
100
AcDbLine
10
862.880829016
20
227.704663212
11
896.836787565
21
227.704663212
0
LINE
5
120
100
AcDbEntity
8
Niveau_2
6
CONTINUOUS
62
7
370
-1
100
AcDbLine
10
896.836787565
20
227.704663212
11
896.836787565
21
205.733160622
0
LINE
5
121
100
AcDbEntity
8
Niveau_2
6
CONTINUOUS
62
7
370
-1
100
AcDbLine
10
862.880829016
20
205.733160622
11
862.880829016
21
227.704663212
0
LINE
5
122
100
AcDbEntity
8
Niveau_2
6
CONTINUOUS
62
7
370
-1
100
AcDbLine
10
862.880829016
20
205.733160622
11
896.836787565
21
205.733160622
0
LINE
5
123
100
AcDbEntity
8
Niveau_2
6
CONTINUOUS
62
7
370
-1
100
AcDbLine
10
862.880829016
20
183.761658031
11
896.836787565
21
183.761658031
0
LINE
5
124
100
AcDbEntity
8
Niveau_2
6
CONTINUOUS
62
7
370
-1
100
AcDbLine
10
896.836787565
20
183.761658031
11
896.836787565
21
161.79015544
0
LINE
5
125
100
AcDbEntity
8
Niveau_2
6
CONTINUOUS
62
7
370
-1
100
AcDbLine
10
896.836787565
20
161.79015544
11
862.880829016
21
161.79015544
0
LINE
5
126
100
AcDbEntity
8
Niveau_2
6
CONTINUOUS
62
7
370
-1
100
AcDbLine
10
862.880829016
20
161.79015544
11
862.880829016
21
183.761658031
0
MTEXT
5
127
100
AcDbEntity
8
Niveau_2
6
CONTINUOUS
62
7
370
-1
100
AcDbMText
10
934.787564767
20
223.70984456
30
0
40
10
41
206.66667181
71
1
72
5
1
Trémie d'accès au 2eme étage
7
standard
210
0
220
0
230
1
50
0
73
2
44
0.96
0
LINE
5
128
100
AcDbEntity
8
Niveau_2
6
ByLayer
62
256
370
-1
100
AcDbLine
10
475
20
393
11
475
21
384
0
MTEXT
5
129
100
AcDbEntity
8
Niveau_2
6
CONTINUOUS
62
7
370
-1
100
AcDbMText
10
932.79015544
20
265.655440415
30
0
40
10
41
279.999994649
71
1
72
5
1
Surface ajoutée déclarable (HSP >180cm)
7
standard
210
0
220
0
230
1
50
0
73
2
44
0.96
0
MTEXT
5
12A
100
AcDbEntity
8
Niveau_2
6
CONTINUOUS
62
7
370
-1
100
AcDbMText
10
937.024663212
20
178.967875648
30
0
40
10
41
310.833327982
71
1
72
5
1
Surface ajoutée non déclarable (HSP <180cm)
7
standard
210
0
220
0
230
1
50
0
73
2
44
0.96
0
LINE
5
12B
100
AcDbEntity
8
Niveau_1
6
CONTINUOUS
62
7
370
-1
100
AcDbLine
10
862.880829016
20
271.647668394
11
896.836787565
21
271.647668394
0
LINE
5
12C
100
AcDbEntity
8
Niveau_1
6
CONTINUOUS
62
7
370
-1
100
AcDbLine
10
896.836787565
20
271.647668394
11
896.836787565
21
249.676165803
0
LINE
5
12D
100
AcDbEntity
8
Niveau_1
6
CONTINUOUS
62
7
370
-1
100
AcDbLine
10
862.880829016
20
249.676165803
11
862.880829016
21
271.647668394
0
LINE
5
12E
100
AcDbEntity
8
Niveau_1
6
CONTINUOUS
62
7
370
-1
100
AcDbLine
10
862.880829016
20
249.676165803
11
896.836787565
21
249.676165803
0
MTEXT
5
12F
100
AcDbEntity
8
Niveau_1
6
CONTINUOUS
62
7
370
-1
100
AcDbMText
10
932.79015544
20
265.655440415
30
0
40
10
41
279.999994649
71
1
72
5
1
Surface ajoutée déclarable (HSP >180cm)
7
standard
210
0
220
0
230
1
50
0
73
2
44
0.96
0
LINE
5
130
100
AcDbEntity
8
Niveau_1
6
CONTINUOUS
62
7
370
-1
100
AcDbLine
10
862.880829016
20
227.704663212
11
896.836787565
21
227.704663212
0
LINE
5
131
100
AcDbEntity
8
Niveau_1
6
CONTINUOUS
62
7
370
-1
100
AcDbLine
10
896.836787565
20
227.704663212
11
896.836787565
21
205.733160622
0
LINE
5
132
100
AcDbEntity
8
Niveau_1
6
CONTINUOUS
62
7
370
-1
100
AcDbLine
10
896.836787565
20
205.733160622
11
862.880829016
21
205.733160622
0
LINE
5
133
100
AcDbEntity
8
Niveau_1
6
CONTINUOUS
62
7
370
-1
100
AcDbLine
10
862.880829016
20
205.733160622
11
862.880829016
21
227.704663212
0
LINE
5
134
100
AcDbEntity
8
traits
6
ByLayer
62
256
370
-1
100
AcDbLine
10
430
20
671
11
515
21
671
0
LINE
5
135
100
AcDbEntity
8
traits
6
ByLayer
62
256
370
-1
100
AcDbLine
10
200
20
671
11
200
21
30
0
LINE
5
136
100
AcDbEntity
8
traits
6
ByLayer
62
256
370
-1
100
AcDbLine
10
572.112606185
20
30
11
570
21
671
0
LINE
5
137
100
AcDbEntity
8
traits
6
ByLayer
62
256
370
-1
100
AcDbLine
10
245
20
671
11
332.5
21
671
0
LINE
5
138
100
AcDbEntity
8
Niveau_1
6
ByLayer
62
256
370
-1
100
AcDbLine
10
200
20
671
11
200
21
393
0
LINE
5
139
100
AcDbEntity
8
Niveau_1
6
ByLayer
62
256
370
-1
100
AcDbLine
10
202.112606185
20
30
11
200.052378666
21
384
0
MTEXT
5
13A
100
AcDbEntity
8
Niveau_1
6
CONTINUOUS
62
7
370
-1
100
AcDbMText
10
937.024663212
20
222.910880829
30
0
40
10
41
310.277777569
71
1
72
5
1
Surface existante (HSP>180),  non déclarable
7
standard
210
0
220
0
230
1
50
0
73
2
44
0.96
0
LINE
5
13B
100
AcDbEntity
8
Niveau_2
6
ByLayer
62
256
370
-1
100
AcDbLine
10
95
20
291
11
145
21
291
0
LINE
5
13C
100
AcDbEntity
8
Niveau_2
6
ByLayer
62
256
370
-1
100
AcDbLine
10
95
20
294
11
145
21
294
0
LINE
5
13D
100
AcDbEntity
8
Niveau_2
6
CONTINUOUS
62
7
370
-1
100
AcDbLine
10
145
20
294
11
395
21
294
0
LINE
5
13E
100
AcDbEntity
8
Niveau_2
6
CONTINUOUS
62
7
370
-1
100
AcDbLine
10
370
20
384
11
370
21
294
0
LINE
5
13F
100
AcDbEntity
8
Niveau_2
6
CONTINUOUS
62
7
370
-1
100
AcDbLine
10
345
20
384
11
345
21
294
0
LINE
5
140
100
AcDbEntity
8
Niveau_2
6
CONTINUOUS
62
7
370
-1
100
AcDbLine
10
320
20
384
11
320
21
294
0
LINE
5
141
100
AcDbEntity
8
Niveau_2
6
CONTINUOUS
62
7
370
-1
100
AcDbLine
10
295
20
384
11
295
21
294
0
LINE
5
142
100
AcDbEntity
8
Niveau_2
6
CONTINUOUS
62
7
370
-1
100
AcDbLine
10
270
20
384
11
270
21
294
0
LINE
5
143
100
AcDbEntity
8
Niveau_2
6
CONTINUOUS
62
7
370
-1
100
AcDbLine
10
245
20
384
11
245
21
294
0
LINE
5
144
100
AcDbEntity
8
Niveau_2
6
CONTINUOUS
62
7
370
-1
100
AcDbLine
10
220
20
384
11
220
21
294
0
LINE
5
145
100
AcDbEntity
8
Niveau_2
6
CONTINUOUS
62
7
370
-1
100
AcDbLine
10
195
20
384
11
195
21
294
0
LINE
5
146
100
AcDbEntity
8
Niveau_2
6
CONTINUOUS
62
7
370
-1
100
AcDbLine
10
170
20
384
11
170
21
294
0
LINE
5
147
100
AcDbEntity
8
Niveau_2
6
DASHED
62
256
370
-1
100
AcDbLine
10
120
20
384
11
120
21
294
0
LINE
5
148
100
AcDbEntity
8
Niveau_2
6
ByLayer
62
256
370
-1
100
AcDbLine
10
95
20
384
11
95
21
291
0
LINE
5
149
100
AcDbEntity
8
Niveau_2
6
DASHED
62
256
370
-1
100
AcDbLine
10
145
20
384
11
145
21
291
0
LINE
5
14A
100
AcDbEntity
8
Niveau_2
6
CONTINUOUS
62
7
370
-1
100
AcDbLine
10
145
20
291
11
325
21
291
0
LINE
5
14B
100
AcDbEntity
8
Niveau_2
6
ByLayer
62
256
370
-1
100
AcDbLine
10
325
20
291
11
325
21
384
0
LINE
5
14C
100
AcDbEntity
8
murs
6
ByLayer
62
256
370
-1
100
AcDbLine
10
414.25
20
671
11
348.25
21
671
0
LINE
5
14D
100
AcDbEntity
8
murs
6
ByLayer
62
256
370
-1
100
AcDbLine
10
475
20
671
11
515
21
671
0
LINE
5
14E
100
AcDbEntity
8
murs
6
ByLayer
62
256
370
-1
100
AcDbLine
10
332.5
20
671
11
332.5
21
701
0
LINE
5
14F
100
AcDbEntity
8
murs
6
ByLayer
62
256
370
-1
100
AcDbLine
10
348.25
20
671
11
332.5
21
671
0
LINE
5
150
100
AcDbEntity
8
Niveau_2
6
ByLayer
62
256
370
-1
100
AcDbLine
10
325
20
393
11
325
21
671
0
LINE
5
151
100
AcDbEntity
8
Niveau_2
6
CONTINUOUS
62
7
370
-1
100
AcDbLine
10
395
20
384
11
395
21
291
0
LINE
5
152
100
AcDbEntity
8
Niveau_2
6
CONTINUOUS
62
7
370
-1
100
AcDbLine
10
325
20
291
11
395
21
291
0
LINE
5
153
100
AcDbEntity
8
Niveau_2
6
ByLayer
62
256
370
-1
100
AcDbLine
10
325
20
30
11
325
21
291
0
LINE
5
154
100
AcDbEntity
8
Niveau_2
6
ByLayer
62
256
370
-1
100
AcDbLine
10
475
20
30
11
475
21
193
0
LINE
5
155
100
AcDbEntity
8
murs
6
CONTINUOUS
62
7
370
-3
100
AcDbLine
10
414.25
20
30
11
475
21
30
0
LINE
5
156
100
AcDbEntity
8
Niveau_2
6
ByLayer
62
256
370
-1
100
AcDbLine
10
475
20
384
11
475
21
193
0
LINE
5
157
100
AcDbEntity
8
Niveau_2
6
ByLayer
62
256
370
-1
100
AcDbLine
10
393
20
393
11
475
21
393
0
LINE
5
158
100
AcDbEntity
8
murs
6
ByLayer
62
256
370
-1
100
AcDbLine
10
430
20
671
11
475
21
671
0
LINE
5
159
100
AcDbEntity
8
Niveau_2
6
ByLayer
62
256
370
-1
100
AcDbLine
10
475
20
393
11
475
21
671
0
LINE
5
15A
100
AcDbEntity
8
murs
6
ByLayer
62
256
370
-1
100
AcDbLine
10
414.25
20
651
11
414.25
21
671
0
LINE
5
15B
100
AcDbEntity
8
murs
6
ByLayer
62
256
370
-1
100
AcDbLine
10
430
20
671
11
414.25
21
671
0
LINE
5
15C
100
AcDbEntity
8
murs
6
ByLayer
62
256
370
-1
100
AcDbLine
10
332.5
20
671
11
325
21
671
0
LINE
5
15D
100
AcDbEntity
8
murs
6
ByLayer
62
256
370
-1
100
AcDbLine
10
325
20
671
11
245
21
671
0
LINE
5
15E
100
AcDbEntity
8
Niveau_2
6
CONTINUOUS
62
7
370
-1
100
AcDbLine
10
390
20
384
11
395
21
384
0
LINE
5
15F
100
AcDbEntity
8
Niveau_2
6
ByLayer
62
7
370
-1
100
AcDbLine
10
325
20
30
11
317
21
30
0
LINE
5
160
100
AcDbEntity
8
Refonte_niveau_1
6
ByLayer
62
256
370
-1
100
AcDbLine
10
597
20
30
11
597
21
-4.88655882252e-014
0
LINE
5
161
100
AcDbEntity
8
murs
6
ByLayer
62
256
370
-1
100
AcDbLine
10
597
20
-4.88655882252e-014
11
687
21
-2.72010417214e-014
0
LINE
5
162
100
AcDbEntity
8
murs
6
ByLayer
62
256
370
-1
100
AcDbLine
10
687
20
-2.72010417214e-014
11
800
21
0
0
LINE
5
163
100
AcDbEntity
8
Niveau_2
6
ByLayer
62
256
370
-1
100
AcDbLine
10
200
20
384
11
325
21
384
0
LINE
5
164
100
AcDbEntity
8
Niveau_2
6
CONTINUOUS
62
7
370
-3
100
AcDbLine
10
30
20
384
11
145
21
384
0
LINE
5
165
100
AcDbEntity
8
Niveau_2
6
CONTINUOUS
62
7
370
-3
100
AcDbLine
10
145
20
384
11
200
21
384
0
LINE
5
166
100
AcDbEntity
8
Niveau_2
6
CONTINUOUS
62
7
370
-1
100
AcDbLine
10
390
20
384
11
325
21
384
0
LINE
5
167
100
AcDbEntity
8
Niveau_2
6
ByLayer
62
256
370
-1
100
AcDbLine
10
245
20
671
11
30
21
671
0
LINE
5
168
100
AcDbEntity
8
Niveau_2
6
ByLayer
62
256
370
-1
100
AcDbLine
10
30
20
393
11
200
21
393
0
LINE
5
169
100
AcDbEntity
8
Niveau_2
6
ByLayer
62
256
370
-1
100
AcDbLine
10
200
20
393
11
325
21
393
0
LINE
5
16A
100
AcDbEntity
8
Niveau_2
6
CONTINUOUS
62
7
370
-1
100
AcDbLine
10
325
20
393
11
390
21
393
0
LINE
5
16B
100
AcDbEntity
8
murs
6
ByLayer
62
256
370
-1
100
AcDbLine
10
245
20
671
11
30
21
671
0
LINE
5
16C
100
AcDbEntity
8
murs
6
ByLayer
62
256
370
-1
100
AcDbLine
10
687
20
30
11
770
21
30
0
LINE
5
16D
100
AcDbEntity
8
murs
6
ByLayer
62
256
370
-1
100
AcDbLine
10
572.112606185
20
30
11
597
21
30
0
LINE
5
16E
100
AcDbEntity
8
murs
6
ByLayer
62
256
370
-1
100
AcDbLine
10
597
20
30
11
687
21
30
0
LINE
5
16F
100
AcDbEntity
8
Niveau_2
6
ByLayer
62
256
370
-1
100
AcDbLine
10
770
20
393
11
570
21
393
0
LINE
5
170
100
AcDbEntity
8
Niveau_2
6
ByLayer
62
256
370
-1
100
AcDbLine
10
770
20
384
11
570.052378666
21
384
0
LINE
5
171
100
AcDbEntity
8
Niveau_2
6
ByLayer
62
256
370
-1
100
AcDbLine
10
570
20
393
11
475
21
393
0
LINE
5
172
100
AcDbEntity
8
Niveau_2
6
ByLayer
62
256
370
-1
100
AcDbLine
10
570.052378666
20
384
11
475
21
384
0
LINE
5
173
100
AcDbEntity
8
Niveau_2
6
ByLayer
62
256
370
-1
100
AcDbLine
10
475
20
384
11
472
21
384
0
LINE
5
174
100
AcDbEntity
8
Niveau_2
6
ByLayer
62
256
370
-1
100
AcDbLine
10
475
20
393
11
472
21
393
0
LINE
5
175
100
AcDbEntity
8
Refonte_niveau_1
6
ByLayer
62
256
370
-1
100
AcDbLine
10
35
20
384
11
30
21
384
0
LINE
5
176
100
AcDbEntity
8
murs
6
ByLayer
62
256
370
-1
100
AcDbLine
10
245
20
701
11
332.5
21
701
0
LINE
5
177
100
AcDbEntity
8
murs
6
ByLayer
62
256
370
-1
100
AcDbLine
10
430
20
701
11
515
21
701
0
LINE
5
178
100
AcDbEntity
8
Niveau_2
6
ByLayer
62
256
370
-1
100
AcDbLine
10
120
20
384
11
120
21
295
0
LINE
5
179
100
AcDbEntity
8
Niveau_2
6
ByLayer
62
256
370
-1
100
AcDbLine
10
145
20
384
11
145
21
295
0
LINE
5
17A
100
AcDbEntity
8
Niveau_2
6
ByLayer
62
256
370
-1
100
AcDbLine
10
170
20
384
11
170
21
295
0
LINE
5
17B
100
AcDbEntity
8
Niveau_2
6
ByLayer
62
256
370
-1
100
AcDbLine
10
195
20
384
11
195
21
295
0
LINE
5
17C
100
AcDbEntity
8
Niveau_2
6
ByLayer
62
256
370
-1
100
AcDbLine
10
120
20
295
11
203
21
295
0
LINE
5
17D
100
AcDbEntity
8
Refonte_niveau_1
6
ByLayer
62
256
370
-1
100
AcDbLine
10
30
20
394
11
35
21
394
0
LINE
5
17E
100
AcDbEntity
8
murs
6
ByLayer
62
256
370
-1
100
AcDbLine
10
770
20
671
11
770
21
394
0
LINE
5
17F
100
AcDbEntity
8
murs
6
ByLayer
62
256
370
-1
100
AcDbLine
10
30
20
671
11
30
21
394
0
LINE
5
180
100
AcDbEntity
8
SDB_1
6
ByLayer
62
256
370
-1
100
AcDbLine
10
100
20
43
11
30
21
43
0
LINE
5
181
100
AcDbEntity
8
SDB_1
6
ByLayer
62
256
370
-1
100
AcDbLine
10
100
20
43
11
100
21
203
0
DIMENSION
5
182
100
AcDbEntity
8
Cotes
6
ByLayer
62
256
370
-1
100
AcDbDimension
2
*D1
10
770
20
415.623203463
30
0
11
632.5
21
428.123203463
31
0
70
32
71
5
72
0
3
Standard
53
0
210
0
220
0
230
1
100
AcDbAlignedDimension
13
495
23
384
33
0
14
770
24
384
34
0
100
AcDbRotatedDimension
0
DIMENSION
5
183
100
AcDbEntity
8
Cotes
6
ByLayer
62
256
370
-1
100
AcDbDimension
2
*D2
10
617.608311688
20
213
30
0
11
605.108311688
21
298.5
31
0
70
32
71
5
72
0
3
Standard
53
0
210
0
220
0
230
1
100
AcDbAlignedDimension
13
485
23
384
33
0
14
485
24
213
34
0
50
90
100
AcDbRotatedDimension
0
DIMENSION
5
184
100
AcDbEntity
8
Cotes
6
ByLayer
62
256
370
-1
100
AcDbDimension
2
*D3
10
770
20
554.487965368
30
0
11
580
21
566.987965368
31
0
70
32
71
5
72
0
3
Standard
53
0
210
0
220
0
230
1
100
AcDbAlignedDimension
13
390
23
394
33
0
14
770
24
394
34
0
100
AcDbRotatedDimension
0
DIMENSION
5
185
100
AcDbEntity
8
Cotes
6
ByLayer
62
256
370
-1
100
AcDbDimension
2
*D4
10
377
20
522.442251082
30
0
11
203.5
21
534.942251082
31
0
70
32
71
5
72
0
3
Standard
53
0
210
0
220
0
230
1
100
AcDbAlignedDimension
13
30
23
394
33
0
14
377
24
394
34
0
100
AcDbRotatedDimension
0
DIMENSION
5
186
100
AcDbEntity
8
Cotes
6
ByLayer
62
256
370
-1
100
AcDbDimension
2
*D5
10
708.89004329
20
394
30
0
11
696.39004329
21
532.5
31
0
70
32
71
5
72
0
3
Standard
53
0
210
0
220
0
230
1
100
AcDbAlignedDimension
13
770
23
671
33
0
14
770
24
394
34
0
50
90
100
AcDbRotatedDimension
0
DIMENSION
5
187
100
AcDbEntity
8
Cotes
6
ByLayer
62
256
370
-1
100
AcDbDimension
2
*D6
10
377.325851398
20
30
30
0
11
364.825851398
21
116.5
31
0
70
32
71
5
72
0
3
Standard
53
0
210
0
220
0
230
1
100
AcDbAlignedDimension
13
340
23
203
33
0
14
340
24
30
34
0
50
90
100
AcDbRotatedDimension
0
LINE
5
188
100
AcDbEntity
8
SDB_1
6
CONTINUOUS
62
256
370
-1
100
AcDbLine
10
105
20
203
11
105
21
213
0
LINE
5
189
100
AcDbEntity
8
SDB_1
6
CONTINUOUS
62
256
370
-1
100
AcDbLine
10
185
20
203
11
185
21
213
0
LINE
5
18A
100
AcDbEntity
8
Refonte_niveau_1
6
ByLayer
62
256
370
-1
100
AcDbLine
10
297
20
30
11
320
21
30
0
LINE
5
18B
100
AcDbEntity
8
murs
6
CONTINUOUS
62
7
370
-3
100
AcDbLine
10
330
20
30
11
348.25
21
30
0
DIMENSION
5
18C
100
AcDbEntity
8
Cotes
6
ByLayer
62
256
370
-1
100
AcDbDimension
2
*D7
10
30
20
239.186956011
30
0
11
175
21
251.686956011
31
0
70
32
71
5
3
Standard
53
0
210
0
220
0
230
1
100
AcDbAlignedDimension
13
320
23
202.819428571
33
0
14
30
24
203
34
0
100
AcDbRotatedDimension
0
LINE
5
18D
100
AcDbEntity
8
murs
6
ByLayer
62
256
370
-1
100
AcDbLine
10
30
20
30
11
110
21
30
0
LINE
5
18E
100
AcDbEntity
8
murs
6
ByLayer
62
256
370
-1
100
AcDbLine
10
0
20
0
11
110
21
-2.64768339257e-014
0
LINE
5
18F
100
AcDbEntity
8
murs
6
ByLayer
62
256
370
-1
100
AcDbLine
10
0
20
701
11
0
21
-3.5527136788e-015
0
LINE
5
190
100
AcDbEntity
8
murs
6
ByLayer
62
256
370
-1
100
AcDbLine
10
245
20
701
11
0
21
701
0
LINE
5
191
100
AcDbEntity
8
murs
6
ByLayer
62
256
370
-1
100
AcDbLine
10
297
20
30
11
220
21
30
0
LINE
5
192
100
AcDbEntity
8
murs
6
ByLayer
62
256
370
-1
100
AcDbLine
10
220
20
-4.88619572485e-014
11
597
21
-4.88655882252e-014
0
LINE
5
193
100
AcDbEntity
8
murs
6
ByLayer
62
256
370
-1
100
AcDbLine
10
220
20
-5.29536678515e-014
11
220
21
30
0
LINE
5
194
100
AcDbEntity
8
murs
6
ByLayer
62
256
370
-1
100
AcDbLine
10
110
20
-2.64768339257e-014
11
220
21
-5.29536678515e-014
0
LINE
5
195
100
AcDbEntity
8
murs
6
ByLayer
62
256
370
-1
100
AcDbLine
10
220
20
30
11
110
21
30
0
LINE
5
196
100
AcDbEntity
8
murs
6
ByLayer
62
256
370
-1
100
AcDbLine
10
110
20
-2.64768339257e-014
11
110
21
30
0
INSERT
5
197
100
AcDbEntity
8
SDB_1
6
ByLayer
62
256
370
-1
100
AcDbBlockReference
2
Chiottes
10
238.29888563
20
31.8225219941
30
0
41
1
42
1
43
0
50
270
70
1
71
1
44
1
45
1
0
LINE
5
198
100
AcDbEntity
8
SDB_1
6
ByLayer
62
256
370
-1
100
AcDbLine
10
188.64847403
20
203
11
268.64847403
21
203
0
LINE
5
199
100
AcDbEntity
8
SDB_1
6
ByLayer
62
256
370
-1
100
AcDbLine
10
268.64847403
20
203
11
268.64847403
21
154
0
LINE
5
19A
100
AcDbEntity
8
SDB_1
6
ByLayer
62
256
370
-1
100
AcDbLine
10
268.64847403
20
154
11
188.64847403
21
154
0
LINE
5
19B
100
AcDbEntity
8
SDB_1
6
ByLayer
62
256
370
-1
100
AcDbLine
10
188.64847403
20
154
11
188.64847403
21
203
0
MTEXT
5
19C
100
AcDbEntity
8
SDB_1
6
ByLayer
62
256
370
-1
100
AcDbMText
10
64.7076923077
20
122.225641026
30
0
40
10
41
57.7777777778
71
5
72
5
1
Baignoire
7
standard
210
0
220
0
230
1
50
0
73
2
44
0.96
0
LINE
5
19D
100
AcDbEntity
8
SDB_3
6
ByLayer
62
256
370
-1
100
AcDbLine
10
320
20
133
11
320
21
203
0
LINE
5
19E
100
AcDbEntity
8
SDB_3
6
ByLayer
62
256
370
-1
100
AcDbLine
10
157.24766217
20
213
11
157.24766217
21
203
0
LINE
5
19F
100
AcDbEntity
8
SDB_3
6
DASHED2
62
256
370
-1
100
AcDbLine
10
157.24766217
20
213
11
77.2476621698
21
213
0
LINE
5
1A0
100
AcDbEntity
8
SDB_3
6
DASHED2
62
7
370
-3
100
AcDbLine
10
157.24766217
20
203
11
77.2476621698
21
203
0
LINE
5
1A1
100
AcDbEntity
8
SDB_3
6
ByLayer
62
256
370
-1
100
AcDbLine
10
77.2476621698
20
213
11
77.2476621698
21
203
0
LINE
5
1A2
100
AcDbEntity
8
SDB_3
6
ByLayer
62
256
370
-1
100
AcDbLine
10
30
20
30
11
110
21
30
0
LINE
5
1A3
100
AcDbEntity
8
SDB_3
6
ByLayer
62
256
370
-1
100
AcDbLine
10
110
20
30
11
110
21
79
0
LINE
5
1A4
100
AcDbEntity
8
SDB_3
6
ByLayer
62
256
370
-1
100
AcDbLine
10
110
20
79
11
30
21
79
0
LINE
5
1A5
100
AcDbEntity
8
SDB_3
6
ByLayer
62
256
370
-1
100
AcDbLine
10
30
20
79
11
30
21
30
0
INSERT
5
1A6
100
AcDbEntity
8
SDB_3
6
ByLayer
62
256
370
-1
100
AcDbBlockReference
2
Chiottes
10
320
20
72.3898181924
30
0
41
1
42
1
43
0
50
360
70
1
71
1
44
1
45
1
0
INSERT
5
1A7
100
AcDbEntity
8
SDB_3
6
ByLayer
62
256
370
-1
100
AcDbBlockReference
2
Sèche-serviettes
10
227.409703242
20
29.9748071043
30
0
41
1
42
1
43
0
50
0
70
1
71
1
44
1
45
1
0
TEXT
5
1A8
100
AcDbEntity
8
SDB_3
6
ByLayer
62
256
370
-1
100
AcDbText
10
230.187842815
20
32.6809900293
30
0
40
4
1
Sèche-serviettes
50
0
41
1
51
0
7
standard
71
0
210
0
220
0
230
1
100
AcDbText
0
LINE
5
1A9
100
AcDbEntity
8
SDB_1
6
DASHED2
62
256
370
-1
100
AcDbLine
10
185
20
213
11
105
21
213
0
LINE
5
1AA
100
AcDbEntity
8
SDB_1
6
DASHED2
62
7
370
-3
100
AcDbLine
10
185
20
203
11
105
21
203
0
LINE
5
1AB
100
AcDbEntity
8
SDB_3
6
ByLayer
62
256
370
-1
100
AcDbLine
10
157.24766217
20
213
11
185
21
213
0
LINE
5
1AC
100
AcDbEntity
8
SDB_3
6
ByLayer
62
256
370
-1
100
AcDbLine
10
157.24766217
20
203
11
185
21
203
0
LINE
5
1AD
100
AcDbEntity
8
murs
6
ByLayer
62
256
370
-1
100
AcDbLine
10
30
20
213
11
30
21
384
0
LINE
5
1AE
100
AcDbEntity
8
murs
6
ByLayer
62
256
370
-1
100
AcDbLine
10
30
20
30
11
30
21
203
0
LINE
5
1AF
100
AcDbEntity
8
SDB_1
6
ByLayer
62
256
370
-1
100
AcDbLine
10
105
20
213
11
77.2476621698
21
213
0
LINE
5
1B0
100
AcDbEntity
8
SDB_1
6
ByLayer
62
256
370
-1
100
AcDbLine
10
105
20
203
11
77.2476621698
21
203
0
DIMENSION
5
1B1
100
AcDbEntity
8
SDB_3
6
ByLayer
62
256
370
-1
100
AcDbDimension
2
*D8
10
77.2476621698
20
229.714205278
30
0
11
53.6238310849
21
242.214205278
31
0
70
32
71
5
72
0
3
Standard
53
0
210
0
220
0
230
1
100
AcDbAlignedDimension
13
30
23
213
33
0
14
77.2476621698
24
213
34
0
100
AcDbRotatedDimension
0
TEXT
5
1B2
100
AcDbEntity
8
SDB_3
6
ByLayer
62
256
370
-1
100
AcDbText
10
47.8373912023
20
48.3110287389
30
0
40
10
1
Lavabo
50
0
41
1
51
0
7
standard
71
0
210
0
220
0
230
1
100
AcDbText
0
TEXT
5
1B3
100
AcDbEntity
8
SDB_1
6
ByLayer
62
256
370
-1
100
AcDbText
10
208.400516129
20
170.509513196
30
0
40
10
1
Lavabo
50
0
41
1
51
0
7
standard
71
0
210
0
220
0
230
1
100
AcDbText
0
TEXT
5
1B4
100
AcDbEntity
8
SDB_1
6
ByLayer
62
256
370
-1
100
AcDbText
10
316.863512023
20
87.6229442814
30
0
40
4
1
Sèche-serviettes
50
90
41
1
51
0
7
standard
71
0
210
0
220
0
230
1
100
AcDbText
0
LINE
5
1B5
100
AcDbEntity
8
SDB_3
6
ByLayer
62
256
370
100
100
AcDbLine
10
210
20
208
11
134
21
208
0
LINE
5
1B6
100
AcDbEntity
8
SDB_3
6
ByLayer
62
256
370
100
100
AcDbLine
10
210
20
208
11
201.339745962
21
213
0
LINE
5
1B7
100
AcDbEntity
8
SDB_3
6
ByLayer
62
256
370
100
100
AcDbLine
10
210
20
208
11
201.339745962
21
203
0
LINE
5
1B8
100
AcDbEntity
8
SDB_1
6
ByLayer
62
256
370
100
100
AcDbLine
10
80
20
208
11
156
21
208
0
LINE
5
1B9
100
AcDbEntity
8
SDB_1
6
ByLayer
62
256
370
100
100
AcDbLine
10
80
20
208
11
88.6602540378
21
213
0
LINE
5
1BA
100
AcDbEntity
8
SDB_1
6
ByLayer
62
256
370
100
100
AcDbLine
10
80
20
208
11
88.6602540378
21
203
0
DIMENSION
5
1BB
100
AcDbEntity
8
Cotes_SDB
6
ByLayer
62
256
370
-1
100
AcDbDimension
2
*D9
10
320
20
258.606095014
30
0
11
175
21
271.106095014
31
0
70
32
71
5
72
0
3
Standard
53
0
210
0
220
0
230
1
100
AcDbAlignedDimension
13
30
23
203
33
0
14
320
24
202.032951857
34
0
100
AcDbRotatedDimension
0
DIMENSION
5
1BC
100
AcDbEntity
8
Cotes_SDB
6
ByLayer
62
256
370
-1
100
AcDbDimension
2
*D10
10
110
20
-30.312802346
30
0
11
70
21
-17.812802346
31
0
70
32
71
5
72
0
3
Standard
53
0
210
0
220
0
230
1
100
AcDbAlignedDimension
13
30
23
30
33
0
14
110
24
30
34
0
100
AcDbRotatedDimension
0
DIMENSION
5
1BD
100
AcDbEntity
8
Cotes_SDB
6
ByLayer
62
256
370
-1
100
AcDbDimension
2
*D11
10
220
20
-61.0992422286
30
0
11
165
21
-48.5992422286
31
0
70
32
71
5
72
0
3
Standard
53
0
210
0
220
0
230
1
100
AcDbAlignedDimension
13
110
23
30
33
0
14
220
24
30
34
0
100
AcDbRotatedDimension
0
DIMENSION
5
1BE
100
AcDbEntity
8
Cotes_SDB
6
ByLayer
62
256
370
-1
100
AcDbDimension
2
*D12
10
320
20
-34.5755401759
30
0
11
270
21
-22.0755401759
31
0
70
32
71
5
72
0
3
Standard
53
0
210
0
220
0
230
1
100
AcDbAlignedDimension
13
220
23
30
33
0
14
320
24
30
34
0
100
AcDbRotatedDimension
0
DIMENSION
5
1BF
100
AcDbEntity
8
Cotes_SDB
6
ByLayer
62
256
370
-1
100
AcDbDimension
2
*D13
10
104.10915431
20
230.187842815
30
0
11
67.054577155
21
242.687842815
31
0
70
32
71
5
72
0
3
Standard
53
0
210
0
220
0
230
1
100
AcDbAlignedDimension
13
30
23
213
33
0
14
104.10915431
24
213
34
0
100
AcDbRotatedDimension
0
LINE
5
1C0
100
AcDbEntity
8
SDB_3bis
6
ByLayer
62
256
370
-1
100
AcDbLine
10
160
20
203
11
160
21
133
0
LINE
5
1C1
100
AcDbEntity
8
SDB_3bis
6
ByLayer
62
256
370
-1
100
AcDbLine
10
160
20
133
11
320
21
133
0
MTEXT
5
1C2
100
AcDbEntity
8
SDB_3bis
6
ByLayer
62
256
370
-1
100
AcDbMText
10
233.503305571
20
170.03587566
30
0
40
10
41
57.7777777778
71
5
72
5
1
Baignoire
7
standard
210
0
220
0
230
1
50
0
73
2
44
0.96
0
LINE
5
1C3
100
AcDbEntity
8
SDB_3
6
ByLayer
62
256
370
-1
100
AcDbLine
10
160
20
203
11
160
21
133
0
LINE
5
1C4
100
AcDbEntity
8
SDB_3
6
ByLayer
62
256
370
-1
100
AcDbLine
10
160
20
133
11
320
21
133
0
MTEXT
5
1C5
100
AcDbEntity
8
SDB_3
6
ByLayer
62
256
370
-1
100
AcDbMText
10
241.790508141
20
170.5088843
30
0
40
10
41
57.7777777778
71
5
72
5
1
Baignoire
7
standard
210
0
220
0
230
1
50
0
73
2
44
0.96
0
INSERT
5
1C6
100
AcDbEntity
8
SDB_3bis
6
ByLayer
62
256
370
-1
100
AcDbBlockReference
2
Sèche-serviettes
10
320
20
81.1314482255
30
0
41
1
42
1
43
0
50
90
70
1
71
1
44
1
45
1
0
TEXT
5
1C7
100
AcDbEntity
8
SDB_3bis
6
ByLayer
62
256
370
-1
100
AcDbText
10
317.293817075
20
83.9095877985
30
0
40
4
1
Sèche-serviettes
50
90
41
1
51
0
7
standard
71
0
210
0
220
0
230
1
100
AcDbText
0
LINE
5
1C8
100
AcDbEntity
8
SDB_3bis
6
ByLayer
62
256
370
-1
100
AcDbLine
10
30
20
110
11
30
21
30
0
LINE
5
1C9
100
AcDbEntity
8
SDB_3bis
6
ByLayer
62
256
370
-1
100
AcDbLine
10
30
20
30
11
79
21
30
0
LINE
5
1CA
100
AcDbEntity
8
SDB_3bis
6
ByLayer
62
256
370
-1
100
AcDbLine
10
79
20
30
11
79
21
110
0
LINE
5
1CB
100
AcDbEntity
8
SDB_3bis
6
ByLayer
62
256
370
-1
100
AcDbLine
10
79
20
110
11
30
21
110
0
TEXT
5
1CC
100
AcDbEntity
8
SDB_3bis
6
ByLayer
62
256
370
-1
100
AcDbText
10
48.3110287389
20
92.162608798
30
0
40
10
1
Lavabo
50
270
41
1
51
0
7
standard
71
0
210
0
220
0
230
1
100
AcDbText
0
DIMENSION
5
1CD
100
AcDbEntity
8
Cotes_SDB
6
ByLayer
62
256
370
-1
100
AcDbDimension
2
*D14
10
160
20
178.679134199
30
0
11
240
21
191.179134199
31
0
70
32
71
5
72
0
3
Standard
53
0
210
0
220
0
230
1
100
AcDbAlignedDimension
13
320
23
203
33
0
14
160
24
203
34
0
100
AcDbRotatedDimension
0
CIRCLE
5
1CE
100
AcDbEntity
8
Electricité R1
6
ByLayer
62
256
370
-1
100
AcDbCircle
10
690.135721728
20
377.468598973
40
6.53281101526
0
LINE
5
1CF
100
AcDbEntity
8
Electricité R1
6
ByLayer
62
256
370
106
100
AcDbLine
10
687.135721728
20
377.468598973
11
690.135721728
21
377.468598973
0
LINE
5
1D0
100
AcDbEntity
8
Electricité R1
6
ByLayer
62
256
370
106
100
AcDbLine
10
690.135721728
20
377.468598973
11
693.135721728
21
377.468598973
0
CIRCLE
5
1D1
100
AcDbEntity
8
Electricité R1
6
ByLayer
62
256
370
-1
100
AcDbCircle
10
690.135721728
20
36.5314010269
40
6.53281101526
0
LINE
5
1D2
100
AcDbEntity
8
Electricité R1
6
ByLayer
62
256
370
106
100
AcDbLine
10
687.135721728
20
36.5314010269
11
690.135721728
21
36.5314010269
0
LINE
5
1D3
100
AcDbEntity
8
Electricité R1
6
ByLayer
62
256
370
106
100
AcDbLine
10
690.135721728
20
36.5314010269
11
693.135721728
21
36.5314010269
0
CIRCLE
5
1D4
100
AcDbEntity
8
Electricité R1
6
ByLayer
62
256
370
-1
100
AcDbCircle
10
482.21513326
20
400.70689346
40
6.53281101526
0
LINE
5
1D5
100
AcDbEntity
8
Electricité R1
6
ByLayer
62
256
370
106
100
AcDbLine
10
479.21513326
20
400.70689346
11
482.21513326
21
400.70689346
0
LINE
5
1D6
100
AcDbEntity
8
Electricité R1
6
ByLayer
62
256
370
106
100
AcDbLine
10
482.21513326
20
400.70689346
11
485.21513326
21
400.70689346
0
CIRCLE
5
1D7
100
AcDbEntity
8
Electricité R1
6
ByLayer
62
256
370
-1
100
AcDbCircle
10
125.428638091
20
400.70689346
40
6.53281101526
0
LINE
5
1D8
100
AcDbEntity
8
Electricité R1
6
ByLayer
62
256
370
106
100
AcDbLine
10
122.428638091
20
400.70689346
11
125.428638091
21
400.70689346
0
LINE
5
1D9
100
AcDbEntity
8
Electricité R1
6
ByLayer
62
256
370
106
100
AcDbLine
10
125.428638091
20
400.70689346
11
128.428638091
21
400.70689346
0
CIRCLE
5
1DA
100
AcDbEntity
8
Electricité R1
6
ByLayer
62
256
370
-1
100
AcDbCircle
10
689.864278272
20
664.468598973
40
6.53281101526
0
LINE
5
1DB
100
AcDbEntity
8
Electricité R1
6
ByLayer
62
256
370
106
100
AcDbLine
10
686.864278272
20
664.468598973
11
689.864278272
21
664.468598973
0
LINE
5
1DC
100
AcDbEntity
8
Electricité R1
6
ByLayer
62
256
370
106
100
AcDbLine
10
689.864278272
20
664.468598973
11
692.864278272
21
664.468598973
0
CIRCLE
5
1DD
100
AcDbEntity
8
Electricité R1
6
ByLayer
62
256
370
-1
100
AcDbCircle
10
109.864278272
20
664.468598973
40
6.53281101526
0
CIRCLE
5
1DE
100
AcDbEntity
8
Electricité R1
6
ByLayer
62
256
370
-1
100
AcDbCircle
10
763.373881797
20
473.769561096
40
6.53281101526
0
LINE
5
1DF
100
AcDbEntity
8
Electricité R1
6
ByLayer
62
256
370
106
100
AcDbLine
10
760.373881797
20
473.769561096
11
763.373881797
21
473.769561096
0
LINE
5
1E0
100
AcDbEntity
8
Electricité R1
6
ByLayer
62
256
370
106
100
AcDbLine
10
763.373881797
20
473.769561096
11
766.373881797
21
473.769561096
0
CIRCLE
5
1E1
100
AcDbEntity
8
Electricité R1
6
ByLayer
62
256
370
-1
100
AcDbCircle
10
370.373881797
20
473.769561096
40
6.53281101526
0
LINE
5
1E2
100
AcDbEntity
8
Electricité R1
6
ByLayer
62
256
370
106
100
AcDbLine
10
367.373881797
20
473.769561096
11
370.373881797
21
473.769561096
0
LINE
5
1E3
100
AcDbEntity
8
Electricité R1
6
ByLayer
62
256
370
106
100
AcDbLine
10
370.373881797
20
473.769561096
11
373.373881797
21
473.769561096
0
CIRCLE
5
1E4
100
AcDbEntity
8
Electricité R1
6
ByLayer
62
256
370
-1
100
AcDbCircle
10
336.792133433
20
109.937914343
40
6.53281101526
0
LINE
5
1E5
100
AcDbEntity
8
Electricité R1
6
ByLayer
62
256
370
106
100
AcDbLine
10
333.792133433
20
109.937914343
11
336.792133433
21
109.937914343
0
LINE
5
1E6
100
AcDbEntity
8
Electricité R1
6
ByLayer
62
256
370
106
100
AcDbLine
10
336.792133433
20
109.937914343
11
339.792133433
21
109.937914343
0
CIRCLE
5
1E7
100
AcDbEntity
8
Electricité R1
6
ByLayer
62
256
370
-1
100
AcDbCircle
10
478.264132879
20
296.644158499
40
6.53281101526
0
LINE
5
1E8
100
AcDbEntity
8
Electricité R1
6
ByLayer
62
256
370
106
100
AcDbLine
10
475.264132879
20
296.644158499
11
478.264132879
21
296.644158499
0
LINE
5
1E9
100
AcDbEntity
8
Electricité R1
6
ByLayer
62
256
370
106
100
AcDbLine
10
478.264132879
20
296.644158499
11
481.264132879
21
296.644158499
0
LINE
5
1EA
100
AcDbEntity
8
Electricité R1
6
ByLayer
62
256
370
106
100
AcDbLine
10
106.864278272
20
664.468598973
11
109.864278272
21
664.468598973
0
LINE
5
1EB
100
AcDbEntity
8
Electricité R1
6
ByLayer
62
256
370
106
100
AcDbLine
10
109.864278272
20
664.468598973
11
112.864278272
21
664.468598973
0
CIRCLE
5
1EC
100
AcDbEntity
8
Electricité R1
6
ByLayer
62
256
370
-1
100
AcDbCircle
10
210.686005195
20
532.619193074
40
6.53281101526
0
LINE
5
1ED
100
AcDbEntity
8
Electricité R1
6
ByLayer
62
256
370
-1
100
AcDbLine
10
205.96807434
20
537.137903975
11
215.297245464
21
527.991657775
0
LINE
5
1EE
100
AcDbEntity
8
Electricité R1
6
ByLayer
62
256
370
-1
100
AcDbLine
10
206.022079492
20
528.044762311
11
215.260435957
21
537.283118776
0
CIRCLE
5
1EF
100
AcDbEntity
8
Electricité R1
6
ByLayer
62
256
370
-1
100
AcDbCircle
10
138.920497529
20
400.70689346
40
6.53281101526
0
SPLINE
5
1F0
100
AcDbEntity
8
Electricité R1
6
ByLayer
62
256
370
-1
100
AcDbSpline
210
0
220
0
230
1
70
8
71
2
72
6
73
3
74
0
42
1e-007
43
1e-007
40
0
40
0
40
0
40
1
40
1
40
1
10
145.180680866
20
401.335087654
30
0
10
235.028329975
20
428.539598568
30
0
10
215.297245464
20
527.991657775
30
0
0
CIRCLE
5
1F1
100
AcDbEntity
8
Electricité R1
6
ByLayer
62
256
370
-1
100
AcDbCircle
10
581.231109174
20
531.070185662
40
6.53281101526
0
LINE
5
1F2
100
AcDbEntity
8
Electricité R1
6
ByLayer
62
256
370
-1
100
AcDbLine
10
576.513178319
20
535.588896564
11
585.842349443
21
526.442650363
0
LINE
5
1F3
100
AcDbEntity
8
Electricité R1
6
ByLayer
62
256
370
-1
100
AcDbLine
10
576.567183471
20
526.4957549
11
585.805539936
21
535.734111365
0
CIRCLE
5
1F4
100
AcDbEntity
8
Electricité R1
6
ByLayer
62
256
370
-1
100
AcDbCircle
10
567.575265018
20
157.810445402
40
6.53281101526
0
LINE
5
1F5
100
AcDbEntity
8
Electricité R1
6
ByLayer
62
256
370
-1
100
AcDbLine
10
562.857334163
20
162.329156304
11
572.186505287
21
153.182910104
0
LINE
5
1F6
100
AcDbEntity
8
Electricité R1
6
ByLayer
62
256
370
-1
100
AcDbLine
10
562.911339315
20
153.23601464
11
572.14969578
21
162.474371105
0
CIRCLE
5
1F7
100
AcDbEntity
8
Electricité R1
6
ByLayer
62
256
370
-1
100
AcDbCircle
10
280.802537745
20
271.609146701
40
6.53281101526
0
LINE
5
1F8
100
AcDbEntity
8
Electricité R1
6
ByLayer
62
256
370
-1
100
AcDbLine
10
276.08460689
20
276.127857603
11
285.413778015
21
266.981611402
0
LINE
5
1F9
100
AcDbEntity
8
Electricité R1
6
ByLayer
62
256
370
-1
100
AcDbLine
10
276.138612042
20
267.034715939
11
285.376968508
21
276.273072404
0
CIRCLE
5
1FA
100
AcDbEntity
8
Electricité R1
6
ByLayer
62
256
370
-1
100
AcDbCircle
10
177.625048568
20
113.8082809
40
6.53281101526
0
LINE
5
1FB
100
AcDbEntity
8
Electricité R1
6
ByLayer
62
256
370
-1
100
AcDbLine
10
172.907117713
20
118.326991802
11
182.236288837
21
109.180745602
0
LINE
5
1FC
100
AcDbEntity
8
Electricité R1
6
ByLayer
62
256
370
-1
100
AcDbLine
10
172.961122865
20
109.233850138
11
182.19947933
21
118.472206603
0
CIRCLE
5
1FD
100
AcDbEntity
8
Electricité R1
6
ByLayer
62
256
370
-1
100
AcDbCircle
10
126.490644715
20
377.400919434
40
6.53281101526
0
CIRCLE
5
1FE
100
AcDbEntity
8
Electricité R1
6
ByLayer
62
256
370
-1
100
AcDbCircle
10
139.609628457
20
377.331093493
40
6.53281101526
0
CIRCLE
5
1FF
100
AcDbEntity
8
Electricité R1
6
ByLayer
62
256
370
-1
100
AcDbCircle
10
70.5313081331
20
196.489264343
40
6.53281101526
0
CIRCLE
5
200
100
AcDbEntity
8
Electricité R1
6
ByLayer
62
256
370
-1
100
AcDbCircle
10
57.3347422222
20
196.489264343
40
6.53281101526
0
CIRCLE
5
201
100
AcDbEntity
8
Electricité R1
6
ByLayer
62
256
370
-1
100
AcDbCircle
10
495.265225785
20
400.465813979
40
6.53281101526
0
CIRCLE
5
202
100
AcDbEntity
8
Electricité R1
6
ByLayer
62
256
370
-1
100
AcDbCircle
10
501.456207324
20
298.151698027
40
6.53281101526
0
SPLINE
5
203
100
AcDbEntity
8
Electricité R1
6
ByLayer
62
256
370
-1
100
AcDbSpline
210
0
220
0
230
1
70
8
71
2
72
6
73
3
74
0
42
1e-007
43
1e-007
40
0
40
0
40
0
40
1
40
1
40
1
10
501.855307359
20
400.862753247
30
0
10
612.923091927
20
416.935747438
30
0
10
585.842349443
20
526.442650363
30
0
0
SPLINE
5
204
100
AcDbEntity
8
Electricité R1
6
ByLayer
62
256
370
-1
100
AcDbSpline
210
0
220
0
230
1
70
8
71
2
72
6
73
3
74
0
42
1e-007
43
1e-007
40
0
40
0
40
0
40
1
40
1
40
1
10
507.293367965
20
296.762735931
30
0
10
625.35930384
20
276.915562309
30
0
10
572.14969578
20
162.474371105
30
0
0
SPLINE
5
205
100
AcDbEntity
8
Electricité R1
6
ByLayer
62
256
370
-1
100
AcDbSpline
210
0
220
0
230
1
70
8
71
2
72
6
73
3
74
0
42
1e-007
43
1e-007
40
0
40
0
40
0
40
1
40
1
40
1
10
71.4716536797
20
189.555255411
30
0
10
82.686509221
20
99.3523327411
30
0
10
172.961122865
20
109.233850138
30
0
0
CIRCLE
5
206
100
AcDbEntity
8
Electricité R1
6
ByLayer
62
256
370
-1
100
AcDbCircle
10
35.8349013815
20
70.7043674802
40
6.53281101526
0
LINE
5
207
100
AcDbEntity
8
Electricité R1
6
ByLayer
62
256
370
-1
100
AcDbLine
10
31.1169705268
20
75.2230783817
11
40.4461416509
21
66.0768321817
0
LINE
5
208
100
AcDbEntity
8
Electricité R1
6
ByLayer
62
256
370
-1
100
AcDbLine
10
31.1709756788
20
66.1299367177
11
40.409332144
21
75.3682931829
0
SPLINE
5
209
100
AcDbEntity
8
Electricité R1
6
ByLayer
62
256
370
-1
100
AcDbSpline
210
0
220
0
230
1
70
8
71
2
72
6
73
3
74
0
42
1e-007
43
1e-007
40
0
40
0
40
0
40
1
40
1
40
1
10
52.8268744589
20
192.662718615
30
0
10
84.3795949393
20
129.583723565
30
0
10
40.409332144
20
75.3682931829
30
0
0
CIRCLE
5
20A
100
AcDbEntity
8
Electricité R1
6
ByLayer
62
256
370
-1
100
AcDbCircle
10
386.480068796
20
377.392009716
40
6.53281101526
0
SPLINE
5
20B
100
AcDbEntity
8
Electricité R1
6
ByLayer
62
256
370
-1
100
AcDbSpline
210
0
220
0
230
1
70
8
71
2
72
6
73
3
74
0
42
1e-007
43
1e-007
40
0
40
0
40
0
40
1
40
1
40
1
10
126.629125541
20
370.564987013
30
0
10
147.888791751
20
232.296121397
30
0
10
276.138612042
20
267.034715939
30
0
0
SPLINE
5
20C
100
AcDbEntity
8
Electricité R1
6
ByLayer
62
256
370
-1
100
AcDbSpline
210
0
220
0
230
1
70
8
71
2
72
6
73
3
74
0
42
1e-007
43
1e-007
40
0
40
0
40
0
40
1
40
1
40
1
10
389.986632035
20
372.895584416
30
0
10
444.00799127
20
220.731746832
30
0
10
285.413778015
20
266.981611402
30
0
0
SPLINE
5
20D
100
AcDbEntity
8
Electricité R1
6
ByLayer
62
256
370
-1
100
AcDbSpline
210
0
220
0
230
1
70
8
71
2
72
6
73
3
74
0
42
1e-007
43
1e-007
40
0
40
0
40
0
40
1
40
1
40
1
10
209
20
375.397991065
30
0
10
293.713602862
20
374.997186967
30
0
10
285.376968508
20
276.273072404
30
0
0
TEXT
5
20E
100
AcDbEntity
8
Electricité R1
6
ByLayer
62
256
370
-1
100
AcDbText
10
139.75529871
20
377.772064272
30
0
40
7
1
R2
50
0
41
1
51
0
7
standard
71
0
72
1
11
139.75529871
21
377.772064272
31
0
210
0
220
0
230
1
100
AcDbText
73
2
0
LINE
5
20F
100
AcDbEntity
8
murs
6
ByLayer
62
256
370
-1
100
AcDbLine
10
377
20
651
11
414.25
21
651
0
LINE
5
210
100
AcDbEntity
8
murs
6
ByLayer
62
256
370
-1
100
AcDbLine
10
380
20
654
11
411.25
21
654
0
LINE
5
211
100
AcDbEntity
8
murs
6
ByLayer
62
256
370
-1
100
AcDbLine
10
380
20
654
11
380
21
671
0
LINE
5
212
100
AcDbEntity
8
Refonte_niveau_1
6
CONTINUOUS
62
7
370
-3
100
AcDbLine
10
203
20
384
11
203
21
289
0
LINE
5
213
100
AcDbEntity
8
Refonte_niveau_1
6
CONTINUOUS
62
7
370
-3
100
AcDbLine
10
318
20
289
11
203
21
289
0
LINE
5
214
100
AcDbEntity
8
Refonte_niveau_1
6
CONTINUOUS
62
7
370
-3
100
AcDbLine
10
318
20
295
11
318
21
289
0
LINE
5
215
100
AcDbEntity
8
Refonte_niveau_1
6
ByLayer
62
256
370
-1
100
AcDbLine
10
209
20
384
11
209
21
295
0
LINE
5
216
100
AcDbEntity
8
Refonte_niveau_1
6
ByLayer
62
256
370
-1
100
AcDbLine
10
318
20
295
11
209
21
295
0
LINE
5
217
100
AcDbEntity
8
Refonte_niveau_1
6
ByLayer
62
256
370
-1
100
AcDbLine
10
115
20
393
11
115
21
384
0
LINE
5
218
100
AcDbEntity
8
Refonte_niveau_1
6
ByLayer
62
256
370
-1
100
AcDbLine
10
395
20
384
11
395
21
393
0
LINE
5
219
100
AcDbEntity
8
Refonte_niveau_1
6
ByLayer
62
256
370
-1
100
AcDbLine
10
390
20
384
11
395
21
384
0
LINE
5
21A
100
AcDbEntity
8
Refonte_niveau_1
6
DASHED2
62
256
370
-1
100
AcDbLine
10
395
20
384
11
472
21
384
0
LINE
5
21B
100
AcDbEntity
8
Refonte_niveau_1
6
DASHED2
62
7
370
-3
100
AcDbLine
10
485
20
379
11
485
21
305
0
LINE
5
21C
100
AcDbEntity
8
Refonte_niveau_1
6
CONTINUOUS
62
7
370
-3
100
AcDbLine
10
485
20
384
11
485
21
379
0
ARC
5
21D
100
AcDbEntity
8
Refonte_niveau_1
6
DASHDOT2
62
256
370
-1
100
AcDbCircle
10
35
20
393
40
80
100
AcDbArc
50
0
51
93.5833216985
0
ARC
5
21E
100
AcDbEntity
8
Refonte_niveau_1
6
DASHDOT2
62
256
370
-1
100
AcDbCircle
10
395
20
393
40
77
100
AcDbArc
50
0
51
93.7231247607
0
ARC
5
21F
100
AcDbEntity
8
Refonte_niveau_1
6
DASHDOT2
62
256
370
-1
100
AcDbCircle
10
492
20
379
40
74
100
AcDbArc
50
-90
51
3.8742882063
0
LINE
5
220
100
AcDbEntity
8
Refonte_niveau_1
6
ByLayer
62
256
370
-1
100
AcDbLine
10
209
20
295
11
411
21
295
0
LINE
5
221
100
AcDbEntity
8
Refonte_niveau_1
6
ByLayer
62
256
370
-1
100
AcDbLine
10
411
20
298
11
209
21
298
0
LINE
5
222
100
AcDbEntity
8
Refonte_niveau_1
6
ByLayer
62
256
370
-1
100
AcDbLine
10
411
20
298
11
411
21
384
0
LINE
5
223
100
AcDbEntity
8
Refonte_niveau_1
6
ByLayer
62
256
370
-1
100
AcDbLine
10
383.78
20
298
11
383.78
21
384
0
LINE
5
224
100
AcDbEntity
8
Refonte_niveau_1
6
ByLayer
62
256
370
-1
100
AcDbLine
10
356.56
20
298
11
356.56
21
384
0
LINE
5
225
100
AcDbEntity
8
Refonte_niveau_1
6
ByLayer
62
256
370
-1
100
AcDbLine
10
329.34
20
298
11
329.34
21
384
0
LINE
5
226
100
AcDbEntity
8
Refonte_niveau_1
6
ByLayer
62
256
370
-1
100
AcDbLine
10
302.12
20
298
11
302.12
21
384
0
LINE
5
227
100
AcDbEntity
8
Refonte_niveau_1
6
ByLayer
62
256
370
-1
100
AcDbLine
10
274.9
20
298
11
274.9
21
384
0
LINE
5
228
100
AcDbEntity
8
Refonte_niveau_1
6
ByLayer
62
256
370
-1
100
AcDbLine
10
247.68
20
298
11
247.68
21
384
0
LINE
5
229
100
AcDbEntity
8
Refonte_niveau_1
6
ByLayer
62
256
370
-1
100
AcDbLine
10
220.46
20
298
11
220.46
21
384
0
LINE
5
22A
100
AcDbEntity
8
Refonte_niveau_1
6
ByLayer
62
256
370
-1
100
AcDbLine
10
411
20
295
11
411
21
298
0
LINE
5
22B
100
AcDbEntity
8
Refonte_niveau_1
6
CONTINUOUS
62
7
370
-3
100
AcDbLine
10
485
20
305
11
485
21
213
0
LINE
5
22C
100
AcDbEntity
8
Refonte_niveau_1
6
ByLayer
62
256
370
-1
100
AcDbLine
10
495
20
305
11
495
21
203
0
LINE
5
22D
100
AcDbEntity
8
Refonte_niveau_1
6
ByLayer
62
256
370
-1
100
AcDbLine
10
390
20
394
11
395
21
394
0
LINE
5
22E
100
AcDbEntity
8
Refonte_niveau_1
6
ByLayer
62
256
370
-1
100
AcDbLine
10
472
20
394
11
770
21
394
0
LINE
5
22F
100
AcDbEntity
8
Refonte_niveau_1
6
CONTINUOUS
62
7
370
-1
100
AcDbLine
10
390
20
394
11
390
21
651
0
LINE
5
230
100
AcDbEntity
8
Refonte_niveau_1
6
ByLayer
62
256
370
-1
100
AcDbLine
10
35
20
394
11
35
21
384
0
LINE
5
231
100
AcDbEntity
8
Refonte_niveau_1
6
DASHED2
62
256
370
-1
100
AcDbLine
10
495
20
379
11
495
21
305
0
LINE
5
232
100
AcDbEntity
8
Refonte_niveau_1
6
DASHED2
62
256
370
-1
100
AcDbLine
10
390
20
394
11
472
21
394
0
LINE
5
233
100
AcDbEntity
8
Refonte_niveau_1
6
ByLayer
62
256
370
-1
100
AcDbLine
10
485
20
379
11
495
21
379
0
LINE
5
234
100
AcDbEntity
8
Refonte_niveau_1
6
ByLayer
62
256
370
-1
100
AcDbLine
10
495
20
384
11
495
21
379
0
LINE
5
235
100
AcDbEntity
8
Refonte_niveau_1
6
ByLayer
62
256
370
-1
100
AcDbLine
10
330
20
30
11
330
21
203
0
LINE
5
236
100
AcDbEntity
8
Refonte_niveau_1
6
ByLayer
62
256
370
-1
100
AcDbLine
10
320
20
30
11
320
21
203
0
LINE
5
237
100
AcDbEntity
8
Refonte_niveau_1
6
CONTINUOUS
62
7
370
-3
100
AcDbLine
10
320
20
203
11
185
21
203
0
LINE
5
238
100
AcDbEntity
8
Refonte_niveau_1
6
ByLayer
62
256
370
-1
100
AcDbLine
10
495
20
203
11
330
21
203
0
LINE
5
239
100
AcDbEntity
8
Refonte_niveau_1
6
CONTINUOUS
62
7
370
-3
100
AcDbLine
10
485
20
305
11
495
21
305
0
LINE
5
23A
100
AcDbEntity
8
Refonte_niveau_1
6
ByLayer
62
256
370
-1
100
AcDbLine
10
485
20
213
11
185
21
213
0
LINE
5
23B
100
AcDbEntity
8
Refonte_niveau_1
6
ByLayer
62
256
370
-1
100
AcDbLine
10
77.2476621698
20
213
11
30
21
213
0
LINE
5
23C
100
AcDbEntity
8
Refonte_niveau_1
6
CONTINUOUS
62
7
370
-3
100
AcDbLine
10
77.2476621698
20
203
11
30
21
203
0
LINE
5
23D
100
AcDbEntity
8
Refonte_niveau_1
6
ByLayer
62
256
370
-1
100
AcDbLine
10
157.24766217
20
213
11
157.24766217
21
203
0
LINE
5
23E
100
AcDbEntity
8
Refonte_niveau_1
6
DASHED2
62
256
370
-1
100
AcDbLine
10
157.24766217
20
213
11
77.2476621698
21
213
0
LINE
5
23F
100
AcDbEntity
8
Refonte_niveau_1
6
DASHED2
62
7
370
-3
100
AcDbLine
10
157.24766217
20
203
11
77.2476621698
21
203
0
LINE
5
240
100
AcDbEntity
8
Refonte_niveau_1
6
ByLayer
62
256
370
-1
100
AcDbLine
10
157.24766217
20
213
11
185
21
213
0
LINE
5
241
100
AcDbEntity
8
Refonte_niveau_1
6
ByLayer
62
256
370
-1
100
AcDbLine
10
157.24766217
20
203
11
185
21
203
0
LINE
5
242
100
AcDbEntity
8
Refonte_niveau_1
6
ByLayer
62
256
370
100
100
AcDbLine
10
210
20
208
11
134
21
208
0
LINE
5
243
100
AcDbEntity
8
Refonte_niveau_1
6
ByLayer
62
256
370
100
100
AcDbLine
10
210
20
208
11
201.339745962
21
213
0
LINE
5
244
100
AcDbEntity
8
Refonte_niveau_1
6
ByLayer
62
256
370
100
100
AcDbLine
10
210
20
208
11
201.339745962
21
203
0
LINE
5
245
100
AcDbEntity
8
Refonte_niveau_1
6
ByLayer
62
256
370
-1
100
AcDbLine
10
77.2476621698
20
213
11
77.2476621698
21
203
0
LINE
5
246
100
AcDbEntity
8
Refonte_niveau_1
6
ByLayer
62
256
370
-1
100
AcDbLine
10
472
20
384
11
472
21
393
0
LINE
5
247
100
AcDbEntity
8
Refonte_niveau_1
6
ByLayer
62
256
370
-1
100
AcDbLine
10
472
20
384
11
770
21
384
0
LINE
5
248
100
AcDbEntity
8
Refonte_niveau_1
6
ByLayer
62
256
370
-1
100
AcDbLine
10
390
20
384
11
115
21
384
0
LINE
5
249
100
AcDbEntity
8
Refonte_niveau_1
6
DASHED2
62
256
370
-1
100
AcDbLine
10
115
20
384
11
35
21
384
0
LINE
5
24A
100
AcDbEntity
8
Refonte_niveau_1
6
ByLayer
62
256
370
-1
100
AcDbLine
10
115
20
394
11
377
21
394
0
LINE
5
24B
100
AcDbEntity
8
Refonte_niveau_1
6
DASHED2
62
256
370
-1
100
AcDbLine
10
35
20
394
11
115
21
394
0
LINE
5
24C
100
AcDbEntity
8
Refonte_niveau_1
6
ByLayer
62
256
370
-1
100
AcDbLine
10
377
20
394
11
377
21
651
0
LINE
5
24D
100
AcDbEntity
8
murs
6
ByLayer
62
256
370
-1
100
AcDbLine
10
377
20
651
11
377
21
671
0
LINE
5
24E
100
AcDbEntity
8
Refonte_niveau_1
6
ByLayer
62
256
370
-1
100
AcDbLine
10
687
20
-2.23148864838e-014
11
687
21
30
0
CIRCLE
5
24F
100
AcDbEntity
8
Electricité R1
6
DASHED2
62
256
370
-1
100
AcDbCircle
10
179.851008457
20
377.656934626
40
6.53281101526
0
SPLINE
5
250
100
AcDbEntity
8
Electricité R1
6
DASHED2
62
256
370
-1
100
AcDbSpline
210
0
220
0
230
1
70
8
71
2
72
6
73
3
74
0
42
1e-007
43
1e-007
40
0
40
0
40
0
40
1
40
1
40
1
10
184.117194805
20
373.672450216
30
0
10
197.426916507
20
375.452746608
30
0
10
209
20
375.397991065
30
0
0
INSERT
5
251
100
AcDbEntity
8
SDB_3bis
6
ByLayer
62
256
370
-1
100
AcDbBlockReference
2
Chiottes
10
320
20
46.4613470319
30
0
41
1
42
1
43
0
50
360
70
1
71
1
44
1
45
1
0
ENDSEC
0
SECTION
2
OBJECTS
0
DICTIONARY
5
C
330
0
100
AcDbDictionary
281
1
3
ACAD_GROUP
350
D
0
DICTIONARY
5
D
330
C
100
AcDbDictionary
281
1
0
ENDSEC
0
EOF
