999
dxfrw 0.6.3
  0
SECTION
  2
HEADER
  9
$ACADVER
  1
AC1021
  9
$DWGCODEPAGE
  3
ANSI_1252
  9
$INSBASE
 10
0
 20
0
 30
0
  9
$EXTMIN
 10
-250
 20
-250
 30
0
  9
$EXTMAX
 10
3950
 20
2720
 30
0
  9
$LIMMIN
 10
0
 20
0
  9
$LIMMAX
 10
420
 20
297
  9
$ORTHOMODE
 70
    0
  9
$REGENMODE
 70
    1
  9
$FILLMODE
 70
    1
  9
$QTEXTMODE
 70
    0
  9
$MIRRTEXT
 70
    0
  9
$LTSCALE
 40
1
  9
$ATTMODE
 70
    0
  9
$TEXTSIZE
 40
2.5
  9
$TRACEWID
 40
15.68
  9
$TEXTSTYLE
  7
STANDARD
  9
$CLAYER
  8
2 Schraffur
  9
$CELTYPE
  6
BYLAYER
  9
$CECOLOR
 62
  256
  9
$CELTSCALE
 40
1
  9
$DISPSILH
 70
    0
  9
$DIMSCALE
 40
1
  9
$DIMASZ
 40
5
  9
$DIMEXO
 40
5
  9
$DIMDLI
 40
3.75
  9
$DIMRND
 40
0
  9
$DIMDLE
 40
0
  9
$DIMEXE
 40
10
  9
$DIMTP
 40
0
  9
$DIMTM
 40
0
  9
$DIMTXT
 40
18
  9
$DIMCEN
 40
2.5
  9
$DIMTSZ
 40
10
  9
$DIMTOL
 70
    0
  9
$DIMLIM
 70
    0
  9
$DIMTIH
 70
    0
  9
$DIMTOH
 70
    0
  9
$DIMSE1
 70
    0
  9
$DIMSE2
 70
    0
  9
$DIMTAD
 70
    1
  9
$DIMZIN
 70
    9
  9
$DIMBLK
  1

  9
$DIMASO
 70
    1
  9
$DIMSHO
 70
    1
  9
$DIMPOST
  1

  9
$DIMAPOST
  1

  9
$DIMALT
 70
    0
  9
$DIMALTD
 70
    3
  9
$DIMALTF
 40
0.03937
  9
$DIMLFAC
 40
1
  9
$DIMTOFL
 70
    1
  9
$DIMTVP
 40
0
  9
$DIMTIX
 70
    0
  9
$DIMSOXD
 70
    0
  9
$DIMSAH
 70
    0
  9
$DIMBLK1
  1

  9
$DIMBLK2
  1

  9
$DIMSTYLE
  2
STANDARD
  9
$DIMCLRD
 70
    7
  9
$DIMCLRE
 70
    7
  9
$DIMCLRT
 70
    7
  9
$DIMTFAC
 40
1
  9
$DIMGAP
 40
5
  9
$DIMJUST
 70
    0
  9
$DIMSD1
 70
    0
  9
$DIMSD2
 70
    0
  9
$DIMTOLJ
 70
    0
  9
$DIMTZIN
 70
    8
  9
$DIMALTZ
 70
    0
  9
$DIMALTTZ
 70
    0
  9
$DIMUPT
 70
    0
  9
$DIMDEC
 70
    2
  9
$DIMTDEC
 70
    2
  9
$DIMALTU
 70
    2
  9
$DIMALTTD
 70
    3
  9
$DIMTXSTY
  7
standard
  9
$DIMAUNIT
 70
    0
  9
$DIMADEC
 70
    2
  9
$DIMALTRND
 40
0
  9
$DIMAZIN
 70
    0
  9
$DIMDSEP
 70
    0
  9
$DIMATFIT
 70
    3
  9
$DIMFRAC
 70
    0
  9
$DIMLDRBLK
  1
STANDARD
  9
$DIMLUNIT
 70
    2
  9
$DIMLWD
 70
   18
  9
$DIMLWE
 70
   18
  9
$DIMTMOVE
 70
    0
  9
$DIMFXL
 40
50
  9
$DIMFXLON
 70
    1
  9
$DIMJOGANG
 40
0.7854
  9
$DIMTFILL
 70
    0
  9
$DIMTFILLCLR
 70
    0
  9
$DIMARCSYM
 70
    0
  9
$DIMLTYPE
  6

  9
$DIMLTEX1
  6

  9
$DIMLTEX2
  6

  9
$LUNITS
 70
    2
  9
$LUPREC
 70
    4
  9
$SKETCHINC
 40
1
  9
$FILLETRAD
 40
0
  9
$AUNITS
 70
    0
  9
$AUPREC
 70
    2
  9
$MENU
  1
.
  9
$ELEVATION
 40
0
  9
$PELEVATION
 40
0
  9
$THICKNESS
 40
0
  9
$LIMCHECK
 70
    0
  9
$CHAMFERA
 40
0
  9
$CHAMFERB
 40
0
  9
$CHAMFERC
 40
0
  9
$CHAMFERD
 40
0
  9
$SKPOLY
 70
    0
  9
$USRTIMER
 70
    1
  9
$ANGBASE
 50
0
  9
$ANGDIR
 70
    0
  9
$PDMODE
 70
   34
  9
$PDSIZE
 40
0
  9
$PLINEWID
 40
0
  9
$SPLFRAME
 70
    0
  9
$SPLINETYPE
 70
    2
  9
$SPLINESEGS
 70
    8
  9
$HANDSEED
  5
20000
  9
$SURFTAB1
 70
    6
  9
$SURFTAB2
 70
    6
  9
$SURFTYPE
 70
    6
  9
$SURFU
 70
    6
  9
$SURFV
 70
    6
  9
$UCSBASE
  2

  9
$UCSNAME
  2

  9
$UCSORG
 10
0
 20
0
 30
0
  9
$UCSXDIR
 10
1
 20
0
 30
0
  9
$UCSYDIR
 10
0
 20
1
 30
0
  9
$UCSORTHOREF
  2

  9
$UCSORTHOVIEW
 70
    0
  9
$UCSORGTOP
 10
0
 20
0
 30
0
  9
$UCSORGBOTTOM
 10
0
 20
0
 30
0
  9
$UCSORGLEFT
 10
0
 20
0
 30
0
  9
$UCSORGRIGHT
 10
0
 20
0
 30
0
  9
$UCSORGFRONT
 10
0
 20
0
 30
0
  9
$UCSORGBACK
 10
0
 20
0
 30
0
  9
$PUCSBASE
  2

  9
$PUCSNAME
  2

  9
$PUCSORG
 10
0
 20
0
 30
0
  9
$PUCSXDIR
 10
1
 20
0
 30
0
  9
$PUCSYDIR
 10
0
 20
1
 30
0
  9
$PUCSORTHOREF
  2

  9
$PUCSORTHOVIEW
 70
    0
  9
$PUCSORGTOP
 10
0
 20
0
 30
0
  9
$PUCSORGBOTTOM
 10
0
 20
0
 30
0
  9
$PUCSORGLEFT
 10
0
 20
0
 30
0
  9
$PUCSORGRIGHT
 10
0
 20
0
 30
0
  9
$PUCSORGFRONT
 10
0
 20
0
 30
0
  9
$PUCSORGBACK
 10
0
 20
0
 30
0
  9
$USERI1
 70
    0
  9
$USERI2
 70
    0
  9
$USERI3
 70
    0
  9
$USERI4
 70
    0
  9
$USERI5
 70
    0
  9
$USERR1
 40
0
  9
$USERR2
 40
0
  9
$USERR3
 40
0
  9
$USERR4
 40
0
  9
$USERR5
 40
0
  9
$WORLDVIEW
 70
    1
  9
$SHADEDGE
 70
    3
  9
$SHADEDIF
 70
   70
  9
$TILEMODE
 70
    1
  9
$MAXACTVP
 70
   64
  9
$PINSBASE
 10
4.057239057239058
 20
3.539562289562288
 30
0
  9
$PLIMCHECK
 70
    0
  9
$PEXTMIN
 10
0
 20
0
 30
0
  9
$PEXTMAX
 10
0
 20
0
 30
0
  9
$GRIDMODE
 70
    0
  9
$SNAPSTYLE
 70
    0
  9
$GRIDUNIT
 10
0
 20
0
  9
$PLIMMIN
 10
0
 20
0
  9
$PLIMMAX
 10
42
 20
29.7
  9
$UNITMODE
 70
    0
  9
$VISRETAIN
 70
    1
  9
$PLINEGEN
 70
    0
  9
$PSLTSCALE
 70
    1
  9
$TREEDEPTH
 70
 3020
  9
$CMLSTYLE
  2
Standard
  9
$CMLJUST
 70
    0
  9
$CMLSCALE
 40
20
  9
$PROXYGRAPHICS
 70
    1
  9
$MEASUREMENT
 70
    1
  9
$CELWEIGHT
370
   -1
  9
$ENDCAPS
280
    0
  9
$JOINSTYLE
280
    0
  9
$LWDISPLAY
290
    0
  9
$INSUNITS
 70
    5
  9
$HYPERLINKBASE
  1

  9
$STYLESHEET
  1

  9
$XEDIT
290
    1
  9
$CEPSNTYPE
380
    0
  9
$PSTYLEMODE
290
    1
  9
$EXTNAMES
290
    1
  9
$PSVPSCALE
 40
0.01
  9
$OLESTARTUP
290
    0
  9
$SORTENTS
280
  127
  9
$INDEXCTL
280
    0
  9
$HIDETEXT
280
    1
  9
$XCLIPFRAME
290
    0
  9
$HALOGAP
280
    0
  9
$OBSCOLOR
 70
  257
  9
$OBSLTYPE
280
    0
  9
$INTERSECTIONDISPLAY
280
    0
  9
$INTERSECTIONCOLOR
 70
  257
  9
$DIMASSOC
280
    1
  9
$PROJECTNAME
  1

  9
$CAMERADISPLAY
290
    0
  9
$LENSLENGTH
 40
50
  9
$CAMERAHEIGHT
 40
0
  9
$STEPSPERSEC
 40
2
  9
$STEPSIZE
 40
50
  9
$3DDWFPREC
 40
2
  9
$PSOLWIDTH
 40
5
  9
$PSOLHEIGHT
 40
80
  9
$LOFTANG1
 40
1.570796326794897
  9
$LOFTANG2
 40
1.570796326794897
  9
$LOFTMAG1
 40
0
  9
$LOFTMAG2
 40
0
  9
$LOFTPARAM
 70
    7
  9
$LOFTNORMALS
280
    1
  9
$LATITUDE
 40
1
  9
$LONGITUDE
 40
1
  9
$NORTHDIRECTION
 40
0
  9
$TIMEZONE
 70
-8000
  9
$LIGHTGLYPHDISPLAY
280
    1
  9
$TILEMODELIGHTSYNCH
280
    1
  9
$SOLIDHIST
280
    1
  9
$SHOWHIST
280
    1
  9
$DWFFRAME
280
    2
  9
$DGNFRAME
280
    0
  9
$REALWORLDSCALE
290
    1
  9
$INTERFERECOLOR
 62
    1
  9
$CSHADOW
280
    0
  9
$SHADOWPLANELOCATION
 40
0
  0
ENDSEC
  0
SECTION
  2
CLASSES
  0
ENDSEC
  0
SECTION
  2
TABLES
  0
TABLE
  2
VPORT
  5
8
330
0
100
AcDbSymbolTable
 70
    1
  0
VPORT
  5
31
330
2
100
AcDbSymbolTableRecord
100
AcDbViewportTableRecord
  2
*ACTIVE
 70
    0
 10
0
 20
0
 11
1
 21
1
 12
704.8273288231295
 22
447.3050323508185
 13
0
 23
0
 14
10
 24
10
 15
10
 25
10
 16
0
 26
0
 36
1
 17
0
 27
0
 37
0
 40
1243.94465817712
 41
1.392439243924392
 42
50
 43
0
 44
0
 50
0
 51
0
 71
    0
 72
  100
 73
    1
 74
    3
 75
    0
 76
    0
 77
    0
 78
    0
281
    0
 65
    1
110
0
120
0
130
0
111
1
121
0
131
0
112
0
122
1
132
0
 79
    0
146
0
348
10020
 60
    7
 61
    5
292
1
282
    1
141
0
142
0
 63
  250
421
3358443
  0
ENDTAB
  0
TABLE
  2
LTYPE
  5
5
330
0
100
AcDbSymbolTable
 70
    4
  0
LTYPE
  5
14
330
5
100
AcDbSymbolTableRecord
100
AcDbLinetypeTableRecord
  2
ByBlock
 70
    0
  3

 72
   65
 73
    0
 40
0
  0
LTYPE
  5
15
330
5
100
AcDbSymbolTableRecord
100
AcDbLinetypeTableRecord
  2
ByLayer
 70
    0
  3

 72
   65
 73
    0
 40
0
  0
LTYPE
  5
16
330
5
100
AcDbSymbolTableRecord
100
AcDbLinetypeTableRecord
  2
Continuous
 70
    0
  3
Solid line
 72
   65
 73
    0
 40
0
  0
LTYPE
  5
32
330
5
100
AcDbSymbolTableRecord
100
AcDbLinetypeTableRecord
  2
DOT
 70
    0
  3
Dot . . . . . . . . . . . . . . . . . . . . . .
 72
   65
 73
    2
 40
6.35
 49
0
 74
    0
 49
-6.35
 74
    0
  0
LTYPE
  5
33
330
5
100
AcDbSymbolTableRecord
100
AcDbLinetypeTableRecord
  2
DOTTINY
 70
    0
  3
Dot (.15x) .....................................
 72
   65
 73
    2
 40
0.9525
 49
0
 74
    0
 49
-0.9525
 74
    0
  0
LTYPE
  5
34
330
5
100
AcDbSymbolTableRecord
100
AcDbLinetypeTableRecord
  2
DOT2
 70
    0
  3
Dot (.5x) .....................................
 72
   65
 73
    2
 40
3.175
 49
0
 74
    0
 49
-3.175
 74
    0
  0
LTYPE
  5
35
330
5
100
AcDbSymbolTableRecord
100
AcDbLinetypeTableRecord
  2
DOTX2
 70
    0
  3
Dot (2x) .  .  .  .  .  .  .  .  .  .  .  .  .
 72
   65
 73
    2
 40
12.7
 49
0
 74
    0
 49
-12.7
 74
    0
  0
LTYPE
  5
36
330
5
100
AcDbSymbolTableRecord
100
AcDbLinetypeTableRecord
  2
DASHED
 70
    0
  3
Dashed _ _ _ _ _ _ _ _ _ _ _ _ _ _ _ _ _
 72
   65
 73
    2
 40
19.05
 49
12.7
 74
    0
 49
-6.35
 74
    0
  0
LTYPE
  5
37
330
5
100
AcDbSymbolTableRecord
100
AcDbLinetypeTableRecord
  2
DASHEDTINY
 70
    0
  3
Dashed (.15x) _ _ _ _ _ _ _ _ _ _ _ _ _ _ _ _ _
 72
   65
 73
    2
 40
2.8575
 49
1.905
 74
    0
 49
-0.9525
 74
    0
  0
LTYPE
  5
38
330
5
100
AcDbSymbolTableRecord
100
AcDbLinetypeTableRecord
  2
DASHED2
 70
    0
  3
Dashed (.5x) _ _ _ _ _ _ _ _ _ _ _ _ _ _ _ _ _
 72
   65
 73
    2
 40
9.524999999999999
 49
6.35
 74
    0
 49
-3.175
 74
    0
  0
LTYPE
  5
39
330
5
100
AcDbSymbolTableRecord
100
AcDbLinetypeTableRecord
  2
DASHEDX2
 70
    0
  3
Dashed (2x) ____  ____  ____  ____  ____  ___
 72
   65
 73
    2
 40
38.09999999999999
 49
25.4
 74
    0
 49
-12.7
 74
    0
  0
LTYPE
  5
3A
330
5
100
AcDbSymbolTableRecord
100
AcDbLinetypeTableRecord
  2
DASHDOT
 70
    0
  3
Dash dot __ . __ . __ . __ . __ . __ . __ . __
 72
   65
 73
    4
 40
25.4
 49
12.7
 74
    0
 49
-6.35
 74
    0
 49
0
 74
    0
 49
-6.35
 74
    0
  0
LTYPE
  5
3B
330
5
100
AcDbSymbolTableRecord
100
AcDbLinetypeTableRecord
  2
DASHDOTTINY
 70
    0
  3
Dash dot (.15x) _._._._._._._._._._._._._._._.
 72
   65
 73
    4
 40
3.81
 49
1.905
 74
    0
 49
-0.9525
 74
    0
 49
0
 74
    0
 49
-0.9525
 74
    0
  0
LTYPE
  5
3C
330
5
100
AcDbSymbolTableRecord
100
AcDbLinetypeTableRecord
  2
DASHDOT2
 70
    0
  3
Dash dot (.5x) _._._._._._._._._._._._._._._.
 72
   65
 73
    4
 40
12.7
 49
6.35
 74
    0
 49
-3.175
 74
    0
 49
0
 74
    0
 49
-3.175
 74
    0
  0
LTYPE
  5
3D
330
5
100
AcDbSymbolTableRecord
100
AcDbLinetypeTableRecord
  2
DASHDOTX2
 70
    0
  3
Dash dot (2x) ____  .  ____  .  ____  .  ___
 72
   65
 73
    4
 40
50.8
 49
25.4
 74
    0
 49
-12.7
 74
    0
 49
0
 74
    0
 49
-12.7
 74
    0
  0
LTYPE
  5
3E
330
5
100
AcDbSymbolTableRecord
100
AcDbLinetypeTableRecord
  2
DIVIDE
 70
    0
  3
Divide ____ . . ____ . . ____ . . ____ . . ____
 72
   65
 73
    6
 40
31.75
 49
12.7
 74
    0
 49
-6.35
 74
    0
 49
0
 74
    0
 49
-6.35
 74
    0
 49
0
 74
    0
 49
-6.35
 74
    0
  0
LTYPE
  5
3F
330
5
100
AcDbSymbolTableRecord
100
AcDbLinetypeTableRecord
  2
DIVIDETINY
 70
    0
  3
Divide (.15x) __..__..__..__..__..__..__..__.._
 72
   65
 73
    6
 40
4.7625
 49
1.905
 74
    0
 49
-0.9525
 74
    0
 49
0
 74
    0
 49
-0.9525
 74
    0
 49
0
 74
    0
 49
-0.9525
 74
    0
  0
LTYPE
  5
40
330
5
100
AcDbSymbolTableRecord
100
AcDbLinetypeTableRecord
  2
DIVIDE2
 70
    0
  3
Divide (.5x) __..__..__..__..__..__..__..__.._
 72
   65
 73
    6
 40
15.875
 49
6.35
 74
    0
 49
-3.175
 74
    0
 49
0
 74
    0
 49
-3.175
 74
    0
 49
0
 74
    0
 49
-3.175
 74
    0
  0
LTYPE
  5
41
330
5
100
AcDbSymbolTableRecord
100
AcDbLinetypeTableRecord
  2
DIVIDEX2
 70
    0
  3
Divide (2x) ________  .  .  ________  .  .  _
 72
   65
 73
    6
 40
63.5
 49
25.4
 74
    0
 49
-12.7
 74
    0
 49
0
 74
    0
 49
-12.7
 74
    0
 49
0
 74
    0
 49
-12.7
 74
    0
  0
LTYPE
  5
42
330
5
100
AcDbSymbolTableRecord
100
AcDbLinetypeTableRecord
  2
BORDER
 70
    0
  3
Border __ __ . __ __ . __ __ . __ __ . __ __ .
 72
   65
 73
    6
 40
44.45
 49
12.7
 74
    0
 49
-6.35
 74
    0
 49
12.7
 74
    0
 49
-6.35
 74
    0
 49
0
 74
    0
 49
-6.35
 74
    0
  0
LTYPE
  5
43
330
5
100
AcDbSymbolTableRecord
100
AcDbLinetypeTableRecord
  2
BORDERTINY
 70
    0
  3
Border (.15x) __.__.__.__.__.__.__.__.__.__.__.
 72
   65
 73
    6
 40
6.6675
 49
1.905
 74
    0
 49
-0.9525
 74
    0
 49
1.905
 74
    0
 49
-0.9525
 74
    0
 49
0
 74
    0
 49
-0.9525
 74
    0
  0
LTYPE
  5
44
330
5
100
AcDbSymbolTableRecord
100
AcDbLinetypeTableRecord
  2
BORDER2
 70
    0
  3
Border (.5x) __.__.__.__.__.__.__.__.__.__.__.
 72
   65
 73
    6
 40
22.225
 49
6.35
 74
    0
 49
-3.175
 74
    0
 49
6.35
 74
    0
 49
-3.175
 74
    0
 49
0
 74
    0
 49
-3.175
 74
    0
  0
LTYPE
  5
45
330
5
100
AcDbSymbolTableRecord
100
AcDbLinetypeTableRecord
  2
BORDERX2
 70
    0
  3
Border (2x) ____  ____  .  ____  ____  .  ___
 72
   65
 73
    6
 40
88.89999999999999
 49
25.4
 74
    0
 49
-12.7
 74
    0
 49
25.4
 74
    0
 49
-12.7
 74
    0
 49
0
 74
    0
 49
-12.7
 74
    0
  0
LTYPE
  5
46
330
5
100
AcDbSymbolTableRecord
100
AcDbLinetypeTableRecord
  2
CENTER
 70
    0
  3
Center ____ _ ____ _ ____ _ ____ _ ____ _ ____
 72
   65
 73
    4
 40
50.8
 49
31.75
 74
    0
 49
-6.35
 74
    0
 49
6.35
 74
    0
 49
-6.35
 74
    0
  0
LTYPE
  5
47
330
5
100
AcDbSymbolTableRecord
100
AcDbLinetypeTableRecord
  2
CENTERTINY
 70
    0
  3
Center (.15x) ___ _ ___ _ ___ _ ___ _ ___ _ ___
 72
   65
 73
    4
 40
7.62
 49
4.7625
 74
    0
 49
-0.9525
 74
    0
 49
0.9525
 74
    0
 49
-0.9525
 74
    0
  0
LTYPE
  5
48
330
5
100
AcDbSymbolTableRecord
100
AcDbLinetypeTableRecord
  2
CENTER2
 70
    0
  3
Center (.5x) ___ _ ___ _ ___ _ ___ _ ___ _ ___
 72
   65
 73
    4
 40
28.575
 49
19.05
 74
    0
 49
-3.175
 74
    0
 49
3.175
 74
    0
 49
-3.175
 74
    0
  0
LTYPE
  5
49
330
5
100
AcDbSymbolTableRecord
100
AcDbLinetypeTableRecord
  2
CENTERX2
 70
    0
  3
Center (2x) ________  __  ________  __  _____
 72
   65
 73
    4
 40
101.6
 49
63.5
 74
    0
 49
-12.7
 74
    0
 49
12.7
 74
    0
 49
-12.7
 74
    0
  0
ENDTAB
  0
TABLE
  2
LAYER
  5
2
330
0
100
AcDbSymbolTable
 70
    1
  0
LAYER
  5
10
330
2
100
AcDbSymbolTableRecord
100
AcDbLayerTableRecord
  2
0
 70
    0
 62
    7
  6
CONTINUOUS
370
   25
390
F
  0
LAYER
  5
4A
330
2
100
AcDbSymbolTableRecord
100
AcDbLayerTableRecord
  2
1
 70
    0
 62
    7
  6
CONTINUOUS
370
   25
390
F
  0
LAYER
  5
4B
330
2
100
AcDbSymbolTableRecord
100
AcDbLayerTableRecord
  2
2 Schraffur
 70
    0
 62
    7
  6
CONTINUOUS
370
   25
390
F
  0
LAYER
  5
4C
330
2
100
AcDbSymbolTableRecord
100
AcDbLayerTableRecord
  2
Bemassung
 70
    0
 62
    7
  6
CONTINUOUS
370
   25
390
F
  0
ENDTAB
  0
TABLE
  2
STYLE
  5
3
330
0
100
AcDbSymbolTable
 70
    3
  0
STYLE
  5
4D
330
2
100
AcDbSymbolTableRecord
100
AcDbTextStyleTableRecord
  2
iso
 70
    0
 40
0
 41
1
 50
0
 71
    0
 42
1
  3
iso
  4

  0
STYLE
  5
4E
330
2
100
AcDbSymbolTableRecord
100
AcDbTextStyleTableRecord
  2
Standard
 70
    0
 40
0
 41
1
 50
0
 71
    0
 42
1
  3
txt
  4

  0
ENDTAB
  0
TABLE
  2
VIEW
  5
6
330
0
100
AcDbSymbolTable
 70
    0
  0
ENDTAB
  0
TABLE
  2
UCS
  5
7
330
0
100
AcDbSymbolTable
 70
    0
  0
ENDTAB
  0
TABLE
  2
APPID
  5
9
330
0
100
AcDbSymbolTable
 70
    1
  0
APPID
  5
12
330
9
100
AcDbSymbolTableRecord
100
AcDbRegAppTableRecord
  2
ACAD
 70
    0
  0
APPID
  5
4F
330
9
100
AcDbSymbolTableRecord
100
AcDbRegAppTableRecord
  2
LibreCad
 70
    0
  0
ENDTAB
  0
TABLE
  2
DIMSTYLE
  5
A
330
0
100
AcDbSymbolTable
 70
    1
100
AcDbDimStyleTable
 71
    1
  0
DIMSTYLE
105
50
330
A
100
AcDbSymbolTableRecord
100
AcDbDimStyleTableRecord
  2
Standard
 70
    0
 40
1
 41
5
 42
5
 43
0.38
 44
10
 45
0
 46
0
 47
0
 48
0
 49
50
140
18
141
0.09
142
10
143
25.4
144
1
145
0
146
1
147
5
148
0
 71
    0
 72
    0
 73
    0
 74
    1
 75
    0
 76
    0
 77
    0
 78
    9
 79
    0
170
    0
171
    2
172
    0
173
    0
174
    0
175
    0
176
    7
177
    7
178
    7
179
    2
271
    2
272
    4
273
    2
274
    2
275
    0
276
    0
277
    2
278
    0
279
    0
280
    0
281
    0
282
    0
283
    1
284
    0
285
    0
286
    0
288
    0
289
    3
290
    1
340
standard
341

371
   18
372
   18
  0
ENDTAB
  0
TABLE
  2
BLOCK_RECORD
  5
1
330
0
100
AcDbSymbolTable
 70
    2
  0
BLOCK_RECORD
  5
1F
330
1
100
AcDbSymbolTableRecord
100
AcDbBlockTableRecord
  2
*Model_Space
 70
    0
280
    1
281
    0
  0
BLOCK_RECORD
  5
1E
330
1
100
AcDbSymbolTableRecord
100
AcDbBlockTableRecord
  2
*Paper_Space
 70
    0
280
    1
281
    0
  0
BLOCK_RECORD
  5
51
330
1
100
AcDbSymbolTableRecord
100
AcDbBlockTableRecord
  2
*D10
 70
    0
280
    1
281
    0
  0
BLOCK_RECORD
  5
54
330
1
100
AcDbSymbolTableRecord
100
AcDbBlockTableRecord
  2
*D2
 70
    0
280
    1
281
    0
  0
BLOCK_RECORD
  5
57
330
1
100
AcDbSymbolTableRecord
100
AcDbBlockTableRecord
  2
*D15
 70
    0
280
    1
281
    0
  0
BLOCK_RECORD
  5
5A
330
1
100
AcDbSymbolTableRecord
100
AcDbBlockTableRecord
  2
*D16
 70
    0
280
    1
281
    0
  0
BLOCK_RECORD
  5
5D
330
1
100
AcDbSymbolTableRecord
100
AcDbBlockTableRecord
  2
*D6
 70
    0
280
    1
281
    0
  0
BLOCK_RECORD
  5
60
330
1
100
AcDbSymbolTableRecord
100
AcDbBlockTableRecord
  2
*D11
 70
    0
280
    1
281
    0
  0
BLOCK_RECORD
  5
63
330
1
100
AcDbSymbolTableRecord
100
AcDbBlockTableRecord
  2
*D4
 70
    0
280
    1
281
    0
  0
BLOCK_RECORD
  5
66
330
1
100
AcDbSymbolTableRecord
100
AcDbBlockTableRecord
  2
*D1
 70
    0
280
    1
281
    0
  0
BLOCK_RECORD
  5
69
330
1
100
AcDbSymbolTableRecord
100
AcDbBlockTableRecord
  2
*D7
 70
    0
280
    1
281
    0
  0
BLOCK_RECORD
  5
6C
330
1
100
AcDbSymbolTableRecord
100
AcDbBlockTableRecord
  2
*D8
 70
    0
280
    1
281
    0
  0
BLOCK_RECORD
  5
6F
330
1
100
AcDbSymbolTableRecord
100
AcDbBlockTableRecord
  2
*D12
 70
    0
280
    1
281
    0
  0
BLOCK_RECORD
  5
72
330
1
100
AcDbSymbolTableRecord
100
AcDbBlockTableRecord
  2
*D14
 70
    0
280
    1
281
    0
  0
BLOCK_RECORD
  5
75
330
1
100
AcDbSymbolTableRecord
100
AcDbBlockTableRecord
  2
*D5
 70
    0
280
    1
281
    0
  0
BLOCK_RECORD
  5
78
330
1
100
AcDbSymbolTableRecord
100
AcDbBlockTableRecord
  2
*D9
 70
    0
280
    1
281
    0
  0
BLOCK_RECORD
  5
7B
330
1
100
AcDbSymbolTableRecord
100
AcDbBlockTableRecord
  2
*D3
 70
    0
280
    1
281
    0
  0
BLOCK_RECORD
  5
7E
330
1
100
AcDbSymbolTableRecord
100
AcDbBlockTableRecord
  2
*D13
 70
    0
280
    1
281
    0
  0
ENDTAB
  0
ENDSEC
  0
SECTION
  2
BLOCKS
  0
BLOCK
  5
20
330
1F
100
AcDbEntity
  8
0
100
AcDbBlockBegin
  2
*Model_Space
 70
    0
 10
0
 20
0
 30
0
  3
*Model_Space
  1

  0
ENDBLK
  5
21
330
1F
100
AcDbEntity
  8
0
100
AcDbBlockEnd
  0
BLOCK
  5
1C
330
1B
100
AcDbEntity
  8
0
100
AcDbBlockBegin
  2
*Paper_Space
 70
    0
 10
0
 20
0
 30
0
  3
*Paper_Space
  1

  0
ENDBLK
  5
1D
330
1F
100
AcDbEntity
  8
0
100
AcDbBlockEnd
  0
BLOCK
  5
52
330
51
100
AcDbEntity
  8
0
100
AcDbBlockBegin
  2
*D10
 70
    1
 10
0
 20
0
  3
*D10
  1

  0
LINE
  5
81
100
AcDbEntity
  8
Bemassung
  6
ByBlock
 62
    7
370
   18
100
AcDbLine
 10
90
 20
275
 11
90
 21
375
  0
LINE
  5
82
100
AcDbEntity
  8
Bemassung
  6
ByBlock
 62
    7
370
   18
100
AcDbLine
 10
82.92893218813452
 20
282.0710678118655
 11
97.07106781186548
 21
267.9289321881345
  0
LINE
  5
83
100
AcDbEntity
  8
Bemassung
  6
ByBlock
 62
    7
370
   18
100
AcDbLine
 10
82.92893218813452
 20
382.0710678118655
 11
97.07106781186548
 21
367.9289321881345
  0
MTEXT
  5
84
100
AcDbEntity
  8
Bemassung
  6
CONTINUOUS
 62
    7
370
   -2
100
AcDbMText
 10
76
 20
325
 30
0
 40
18
 41
32
 71
    5
 72
    1
  1
100
  7
standard
210
0
220
0
230
1
 50
90
 73
    2
 44
1
  0
LINE
  5
85
100
AcDbEntity
  8
Bemassung
  6
ByBlock
 62
    7
370
   18
100
AcDbLine
 10
41.5
 20
275
 11
100
 21
275
  0
LINE
  5
86
100
AcDbEntity
  8
Bemassung
  6
ByBlock
 62
    7
370
   18
100
AcDbLine
 10
41.5
 20
375
 11
100
 21
375
  0
ENDBLK
  5
53
330
51
100
AcDbEntity
  8
0
100
AcDbBlockEnd
  0
BLOCK
  5
55
330
54
100
AcDbEntity
  8
0
100
AcDbBlockBegin
  2
*D2
 70
    1
 10
0
 20
0
  3
*D2
  1

  0
LINE
  5
87
100
AcDbEntity
  8
Bemassung
  6
ByBlock
 62
    7
370
   18
100
AcDbLine
 10
7.105427357601002e-015
 20
-140
 11
36.5
 21
-140
  0
LINE
  5
88
100
AcDbEntity
  8
Bemassung
  6
ByBlock
 62
    7
370
   18
100
AcDbLine
 10
7.071067811865484
 20
-132.9289321881345
 11
-7.07106781186547
 21
-147.0710678118655
  0
LINE
  5
89
100
AcDbEntity
  8
Bemassung
  6
ByBlock
 62
    7
370
   18
100
AcDbLine
 10
43.57106781186548
 20
-132.9289321881345
 11
29.42893218813452
 21
-147.0710678118655
  0
MTEXT
  5
8A
100
AcDbEntity
  8
Bemassung
  6
CONTINUOUS
 62
    7
370
   -2
100
AcDbMText
 10
62.50000000000168
 20
-126
 30
0
 40
18
 41
42.00000000000335
 71
    5
 72
    1
  1
36.5
  7
standard
210
0
220
0
230
1
 50
0
 73
    2
 44
1
  0
LINE
  5
8B
100
AcDbEntity
  8
Bemassung
  6
ByBlock
 62
    7
370
   18
100
AcDbLine
 10
-9.184547653667829e-016
 20
-5
 11
5.268517826867436e-015
 21
-150
  0
LINE
  5
8C
100
AcDbEntity
  8
Bemassung
  6
ByBlock
 62
    7
370
   18
100
AcDbLine
 10
36.5
 20
31.5
 11
36.5
 21
-150
  0
ENDBLK
  5
56
330
54
100
AcDbEntity
  8
0
100
AcDbBlockEnd
  0
BLOCK
  5
58
330
57
100
AcDbEntity
  8
0
100
AcDbBlockBegin
  2
*D15
 70
    1
 10
0
 20
0
  3
*D15
  1

  0
LINE
  5
8D
100
AcDbEntity
  8
2 Schraffur
  6
ByBlock
 62
    7
370
   18
100
AcDbLine
 10
452.5
 20
-140
 11
484
 21
-140
  0
LINE
  5
8E
100
AcDbEntity
  8
2 Schraffur
  6
ByBlock
 62
    7
370
   18
100
AcDbLine
 10
455.4289321881345
 20
-147.0710678118655
 11
469.5710678118655
 21
-132.9289321881345
  0
LINE
  5
8F
100
AcDbEntity
  8
2 Schraffur
  6
ByBlock
 62
    7
370
   18
100
AcDbLine
 10
466.9289321881345
 20
-147.0710678118655
 11
481.0710678118655
 21
-132.9289321881345
  0
MTEXT
  5
90
100
AcDbEntity
  8
2 Schraffur
  6
CONTINUOUS
 62
    7
370
   -2
100
AcDbMText
 10
496.0000000000006
 20
-126
 30
0
 40
18
 41
34.00000000000112
 71
    5
 72
    1
  1
11.5
  7
standard
210
0
220
0
230
1
 50
0
 73
    2
 44
1
  0
LINE
  5
91
100
AcDbEntity
  8
2 Schraffur
  6
ByBlock
 62
    7
370
   18
100
AcDbLine
 10
462.5
 20
31.5
 11
462.5
 21
-150
  0
LINE
  5
92
100
AcDbEntity
  8
2 Schraffur
  6
ByBlock
 62
    7
370
   18
100
AcDbLine
 10
474
 20
31.5
 11
474
 21
-150
  0
ENDBLK
  5
59
330
57
100
AcDbEntity
  8
0
100
AcDbBlockEnd
  0
BLOCK
  5
5B
330
5A
100
AcDbEntity
  8
0
100
AcDbBlockBegin
  2
*D16
 70
    1
 10
0
 20
0
  3
*D16
  1

  0
LINE
  5
93
100
AcDbEntity
  8
2 Schraffur
  6
ByBlock
 62
    7
370
   18
100
AcDbLine
 10
474
 20
-140
 11
736.5
 21
-140
  0
LINE
  5
94
100
AcDbEntity
  8
2 Schraffur
  6
ByBlock
 62
    7
370
   18
100
AcDbLine
 10
481.0710678118655
 20
-132.9289321881345
 11
466.9289321881345
 21
-147.0710678118655
  0
LINE
  5
95
100
AcDbEntity
  8
2 Schraffur
  6
ByBlock
 62
    7
370
   18
100
AcDbLine
 10
743.5710678118655
 20
-132.9289321881345
 11
729.4289321881345
 21
-147.0710678118655
  0
MTEXT
  5
96
100
AcDbEntity
  8
2 Schraffur
  6
CONTINUOUS
 62
    7
370
   -2
100
AcDbMText
 10
605.25
 20
-126
 30
0
 40
18
 41
56.00000000000225
 71
    5
 72
    1
  1
262.5
  7
standard
210
0
220
0
230
1
 50
0
 73
    2
 44
1
  0
LINE
  5
97
100
AcDbEntity
  8
2 Schraffur
  6
ByBlock
 62
    7
370
   18
100
AcDbLine
 10
474
 20
31.5
 11
474
 21
-150
  0
LINE
  5
98
100
AcDbEntity
  8
2 Schraffur
  6
ByBlock
 62
    7
370
   18
100
AcDbLine
 10
736.5
 20
31.5
 11
736.5
 21
-150
  0
ENDBLK
  5
5C
330
5A
100
AcDbEntity
  8
0
100
AcDbBlockEnd
  0
BLOCK
  5
5E
330
5D
100
AcDbEntity
  8
0
100
AcDbBlockBegin
  2
*D6
 70
    1
 10
0
 20
0
  3
*D6
  1

  0
LINE
  5
99
100
AcDbEntity
  8
Bemassung
  6
ByBlock
 62
    7
370
   18
100
AcDbLine
 10
530
 20
224
 11
530
 21
312.5
  0
LINE
  5
9A
100
AcDbEntity
  8
Bemassung
  6
ByBlock
 62
    7
370
   18
100
AcDbLine
 10
522.9289321881346
 20
231.0710678118655
 11
537.0710678118654
 21
216.9289321881345
  0
LINE
  5
9B
100
AcDbEntity
  8
Bemassung
  6
ByBlock
 62
    7
370
   18
100
AcDbLine
 10
522.9289321881346
 20
319.5710678118655
 11
537.0710678118654
 21
305.4289321881345
  0
MTEXT
  5
9C
100
AcDbEntity
  8
Bemassung
  6
CONTINUOUS
 62
    7
370
   -2
100
AcDbMText
 10
516
 20
268.25
 30
0
 40
18
 41
42.00000000000112
 71
    5
 72
    1
  1
88.5
  7
standard
210
0
220
0
230
1
 50
90
 73
    2
 44
1
  0
LINE
  5
9D
100
AcDbEntity
  8
Bemassung
  6
ByBlock
 62
    7
370
   18
100
AcDbLine
 10
479
 20
224
 11
540
 21
224
  0
LINE
  5
9E
100
AcDbEntity
  8
Bemassung
  6
ByBlock
 62
    7
370
   18
100
AcDbLine
 10
479
 20
312.5
 11
540
 21
312.5
  0
ENDBLK
  5
5F
330
5D
100
AcDbEntity
  8
0
100
AcDbBlockEnd
  0
BLOCK
  5
61
330
60
100
AcDbEntity
  8
0
100
AcDbBlockBegin
  2
*D11
 70
    1
 10
0
 20
0
  3
*D11
  1

  0
LINE
  5
9F
100
AcDbEntity
  8
Bemassung
  6
ByBlock
 62
    7
370
   18
100
AcDbLine
 10
900
 20
1000
 11
900
 21
1036.5
  0
LINE
  5
A0
100
AcDbEntity
  8
Bemassung
  6
ByBlock
 62
    7
370
   18
100
AcDbLine
 10
892.9289321881346
 20
1007.071067811866
 11
907.0710678118654
 21
992.9289321881345
  0
LINE
  5
A1
100
AcDbEntity
  8
Bemassung
  6
ByBlock
 62
    7
370
   18
100
AcDbLine
 10
892.9289321881346
 20
1043.571067811866
 11
907.0710678118654
 21
1029.428932188134
  0
MTEXT
  5
A2
100
AcDbEntity
  8
Bemassung
  6
CONTINUOUS
 62
    7
370
   -2
100
AcDbMText
 10
886
 20
1062.500000000002
 30
0
 40
18
 41
42.00000000000335
 71
    5
 72
    1
  1
36.5
  7
standard
210
0
220
0
230
1
 50
90
 73
    2
 44
1
  0
LINE
  5
A3
100
AcDbEntity
  8
Bemassung
  6
ByBlock
 62
    7
370
   18
100
AcDbLine
 10
995
 20
1000
 11
890
 21
1000
  0
LINE
  5
A4
100
AcDbEntity
  8
Bemassung
  6
ByBlock
 62
    7
370
   18
100
AcDbLine
 10
1031.5
 20
1036.5
 11
890
 21
1036.5
  0
ENDBLK
  5
62
330
60
100
AcDbEntity
  8
0
100
AcDbBlockEnd
  0
BLOCK
  5
64
330
63
100
AcDbEntity
  8
0
100
AcDbBlockBegin
  2
*D4
 70
    1
 10
0
 20
0
  3
*D4
  1

  0
LINE
  5
A5
100
AcDbEntity
  8
Bemassung
  6
ByBlock
 62
    7
370
   18
100
AcDbLine
 10
530
 20
86.5
 11
530
 21
175
  0
LINE
  5
A6
100
AcDbEntity
  8
Bemassung
  6
ByBlock
 62
    7
370
   18
100
AcDbLine
 10
522.9289321881346
 20
93.57106781186548
 11
537.0710678118654
 21
79.42893218813452
  0
LINE
  5
A7
100
AcDbEntity
  8
Bemassung
  6
ByBlock
 62
    7
370
   18
100
AcDbLine
 10
522.9289321881346
 20
182.0710678118655
 11
537.0710678118654
 21
167.9289321881345
  0
MTEXT
  5
A8
100
AcDbEntity
  8
Bemassung
  6
CONTINUOUS
 62
    7
370
   -2
100
AcDbMText
 10
516
 20
130.75
 30
0
 40
18
 41
42.00000000000112
 71
    5
 72
    1
  1
88.5
  7
standard
210
0
220
0
230
1
 50
90
 73
    2
 44
1
  0
LINE
  5
A9
100
AcDbEntity
  8
Bemassung
  6
ByBlock
 62
    7
370
   18
100
AcDbLine
 10
479
 20
86.5
 11
540
 21
86.5
  0
LINE
  5
AA
100
AcDbEntity
  8
Bemassung
  6
ByBlock
 62
    7
370
   18
100
AcDbLine
 10
479
 20
175
 11
540
 21
175
  0
ENDBLK
  5
65
330
63
100
AcDbEntity
  8
0
100
AcDbBlockEnd
  0
BLOCK
  5
67
330
66
100
AcDbEntity
  8
0
100
AcDbBlockBegin
  2
*D1
 70
    1
 10
0
 20
0
  3
*D1
  1

  0
LINE
  5
AB
100
AcDbEntity
  8
Bemassung
  6
ByBlock
 62
    7
370
   18
100
AcDbLine
 10
36.5
 20
-140
 11
462.5
 21
-140
  0
LINE
  5
AC
100
AcDbEntity
  8
Bemassung
  6
ByBlock
 62
    7
370
   18
100
AcDbLine
 10
43.57106781186548
 20
-132.9289321881345
 11
29.42893218813452
 21
-147.0710678118655
  0
LINE
  5
AD
100
AcDbEntity
  8
Bemassung
  6
ByBlock
 62
    7
370
   18
100
AcDbLine
 10
469.5710678118655
 20
-132.9289321881345
 11
455.4289321881345
 21
-147.0710678118655
  0
MTEXT
  5
AE
100
AcDbEntity
  8
Bemassung
  6
CONTINUOUS
 62
    7
370
   -2
100
AcDbMText
 10
249.5
 20
-126
 30
0
 40
18
 41
38.00000000000112
 71
    5
 72
    1
  1
426
  7
standard
210
0
220
0
230
1
 50
0
 73
    2
 44
1
  0
LINE
  5
AF
100
AcDbEntity
  8
Bemassung
  6
ByBlock
 62
    7
370
   18
100
AcDbLine
 10
36.5
 20
31.5
 11
36.5
 21
-150
  0
LINE
  5
B0
100
AcDbEntity
  8
Bemassung
  6
ByBlock
 62
    7
370
   18
100
AcDbLine
 10
462.5
 20
31.5
 11
462.5
 21
-150
  0
ENDBLK
  5
68
330
66
100
AcDbEntity
  8
0
100
AcDbBlockEnd
  0
BLOCK
  5
6A
330
69
100
AcDbEntity
  8
0
100
AcDbBlockBegin
  2
*D7
 70
    1
 10
0
 20
0
  3
*D7
  1

  0
LINE
  5
B1
100
AcDbEntity
  8
Bemassung
  6
ByBlock
 62
    7
370
   18
100
AcDbLine
 10
530
 20
312.5
 11
530
 21
375
  0
LINE
  5
B2
100
AcDbEntity
  8
Bemassung
  6
ByBlock
 62
    7
370
   18
100
AcDbLine
 10
522.9289321881346
 20
319.5710678118655
 11
537.0710678118654
 21
305.4289321881345
  0
LINE
  5
B3
100
AcDbEntity
  8
Bemassung
  6
ByBlock
 62
    7
370
   18
100
AcDbLine
 10
522.9289321881346
 20
382.0710678118655
 11
537.0710678118654
 21
367.9289321881345
  0
MTEXT
  5
B4
100
AcDbEntity
  8
Bemassung
  6
CONTINUOUS
 62
    7
370
   -2
100
AcDbMText
 10
516
 20
343.75
 30
0
 40
18
 41
42.00000000000223
 71
    5
 72
    1
  1
62.5
  7
standard
210
0
220
0
230
1
 50
90
 73
    2
 44
1
  0
LINE
  5
B5
100
AcDbEntity
  8
Bemassung
  6
ByBlock
 62
    7
370
   18
100
AcDbLine
 10
479
 20
312.5
 11
540
 21
312.5
  0
LINE
  5
B6
100
AcDbEntity
  8
Bemassung
  6
ByBlock
 62
    7
370
   18
100
AcDbLine
 10
479
 20
375
 11
540
 21
375
  0
ENDBLK
  5
6B
330
69
100
AcDbEntity
  8
0
100
AcDbBlockEnd
  0
BLOCK
  5
6D
330
6C
100
AcDbEntity
  8
0
100
AcDbBlockBegin
  2
*D8
 70
    1
 10
0
 20
0
  3
*D8
  1

  0
LINE
  5
B7
100
AcDbEntity
  8
Bemassung
  6
ByBlock
 62
    7
370
   18
100
AcDbLine
 10
90
 20
36.5
 11
90
 21
136.5
  0
LINE
  5
B8
100
AcDbEntity
  8
Bemassung
  6
ByBlock
 62
    7
370
   18
100
AcDbLine
 10
82.92893218813452
 20
43.57106781186548
 11
97.07106781186548
 21
29.42893218813452
  0
LINE
  5
B9
100
AcDbEntity
  8
Bemassung
  6
ByBlock
 62
    7
370
   18
100
AcDbLine
 10
82.92893218813452
 20
143.5710678118655
 11
97.07106781186548
 21
129.4289321881345
  0
MTEXT
  5
BA
100
AcDbEntity
  8
Bemassung
  6
CONTINUOUS
 62
    7
370
   -2
100
AcDbMText
 10
76
 20
86.5
 30
0
 40
18
 41
32
 71
    5
 72
    1
  1
100
  7
standard
210
0
220
0
230
1
 50
90
 73
    2
 44
1
  0
LINE
  5
BB
100
AcDbEntity
  8
Bemassung
  6
ByBlock
 62
    7
370
   18
100
AcDbLine
 10
41.5
 20
36.5
 11
100
 21
36.5
  0
LINE
  5
BC
100
AcDbEntity
  8
Bemassung
  6
ByBlock
 62
    7
370
   18
100
AcDbLine
 10
41.5
 20
136.5
 11
100
 21
136.5
  0
ENDBLK
  5
6E
330
6C
100
AcDbEntity
  8
0
100
AcDbBlockEnd
  0
BLOCK
  5
70
330
6F
100
AcDbEntity
  8
0
100
AcDbBlockBegin
  2
*D12
 70
    1
 10
0
 20
0
  3
*D12
  1

  0
LINE
  5
BD
100
AcDbEntity
  8
Bemassung
  6
ByBlock
 62
    7
370
   18
100
AcDbLine
 10
900
 20
1036.5
 11
900
 21
1662.5
  0
LINE
  5
BE
100
AcDbEntity
  8
Bemassung
  6
ByBlock
 62
    7
370
   18
100
AcDbLine
 10
892.9289321881346
 20
1043.571067811866
 11
907.0710678118654
 21
1029.428932188134
  0
LINE
  5
BF
100
AcDbEntity
  8
Bemassung
  6
ByBlock
 62
    7
370
   18
100
AcDbLine
 10
892.9289321881346
 20
1669.571067811866
 11
907.0710678118654
 21
1655.428932188134
  0
MTEXT
  5
C0
100
AcDbEntity
  8
Bemassung
  6
CONTINUOUS
 62
    7
370
   -2
100
AcDbMText
 10
886
 20
1349.5
 30
0
 40
18
 41
36.00000000000223
 71
    5
 72
    1
  1
626
  7
standard
210
0
220
0
230
1
 50
90
 73
    2
 44
1
  0
LINE
  5
C1
100
AcDbEntity
  8
Bemassung
  6
ByBlock
 62
    7
370
   18
100
AcDbLine
 10
1031.5
 20
1036.5
 11
890
 21
1036.5
  0
LINE
  5
C2
100
AcDbEntity
  8
Bemassung
  6
ByBlock
 62
    7
370
   18
100
AcDbLine
 10
1031.5
 20
1662.5
 11
890
 21
1662.5
  0
ENDBLK
  5
71
330
6F
100
AcDbEntity
  8
0
100
AcDbBlockEnd
  0
BLOCK
  5
73
330
72
100
AcDbEntity
  8
0
100
AcDbBlockBegin
  2
*D14
 70
    1
 10
0
 20
0
  3
*D14
  1

  0
LINE
  5
C3
100
AcDbEntity
  8
2 Schraffur
  6
ByBlock
 62
    7
370
   18
100
AcDbLine
 10
850
 20
1699
 11
850
 21
1000
  0
LINE
  5
C4
100
AcDbEntity
  8
2 Schraffur
  6
ByBlock
 62
    7
370
   18
100
AcDbLine
 10
857.0710678118654
 20
1691.928932188134
 11
842.9289321881346
 21
1706.071067811866
  0
LINE
  5
C5
100
AcDbEntity
  8
2 Schraffur
  6
ByBlock
 62
    7
370
   18
100
AcDbLine
 10
857.0710678118654
 20
992.9289321881345
 11
842.9289321881346
 21
1007.071067811866
  0
MTEXT
  5
C6
100
AcDbEntity
  8
2 Schraffur
  6
CONTINUOUS
 62
    7
370
   -2
100
AcDbMText
 10
836
 20
1349.5
 30
0
 40
18
 41
36.00000000000112
 71
    5
 72
    1
  1
699
  7
standard
210
0
220
0
230
1
 50
90
 73
    2
 44
1
  0
LINE
  5
C7
100
AcDbEntity
  8
2 Schraffur
  6
ByBlock
 62
    7
370
   18
100
AcDbLine
 10
995
 20
1699
 11
840
 21
1699
  0
LINE
  5
C8
100
AcDbEntity
  8
2 Schraffur
  6
ByBlock
 62
    7
370
   18
100
AcDbLine
 10
995.000016
 20
1000
 11
840
 21
1000
  0
ENDBLK
  5
74
330
72
100
AcDbEntity
  8
0
100
AcDbBlockEnd
  0
BLOCK
  5
76
330
75
100
AcDbEntity
  8
0
100
AcDbBlockBegin
  2
*D5
 70
    1
 10
0
 20
0
  3
*D5
  1

  0
LINE
  5
C9
100
AcDbEntity
  8
Bemassung
  6
ByBlock
 62
    7
370
   18
100
AcDbLine
 10
530
 20
175
 11
530
 21
224
  0
LINE
  5
CA
100
AcDbEntity
  8
Bemassung
  6
ByBlock
 62
    7
370
   18
100
AcDbLine
 10
522.9289321881346
 20
182.0710678118655
 11
537.0710678118654
 21
167.9289321881345
  0
LINE
  5
CB
100
AcDbEntity
  8
Bemassung
  6
ByBlock
 62
    7
370
   18
100
AcDbLine
 10
522.9289321881346
 20
231.0710678118655
 11
537.0710678118654
 21
216.9289321881345
  0
MTEXT
  5
CC
100
AcDbEntity
  8
Bemassung
  6
CONTINUOUS
 62
    7
370
   -2
100
AcDbMText
 10
516
 20
199.5
 30
0
 40
18
 41
24
 71
    5
 72
    1
  1
49
  7
standard
210
0
220
0
230
1
 50
90
 73
    2
 44
1
  0
LINE
  5
CD
100
AcDbEntity
  8
Bemassung
  6
ByBlock
 62
    7
370
   18
100
AcDbLine
 10
479
 20
175
 11
540
 21
175
  0
LINE
  5
CE
100
AcDbEntity
  8
Bemassung
  6
ByBlock
 62
    7
370
   18
100
AcDbLine
 10
479
 20
224
 11
540
 21
224
  0
ENDBLK
  5
77
330
75
100
AcDbEntity
  8
0
100
AcDbBlockEnd
  0
BLOCK
  5
79
330
78
100
AcDbEntity
  8
0
100
AcDbBlockBegin
  2
*D9
 70
    1
 10
0
 20
0
  3
*D9
  1

  0
LINE
  5
CF
100
AcDbEntity
  8
Bemassung
  6
ByBlock
 62
    7
370
   18
100
AcDbLine
 10
90
 20
136.5
 11
90
 21
275
  0
LINE
  5
D0
100
AcDbEntity
  8
Bemassung
  6
ByBlock
 62
    7
370
   18
100
AcDbLine
 10
82.92893218813452
 20
143.5710678118655
 11
97.07106781186548
 21
129.4289321881345
  0
LINE
  5
D1
100
AcDbEntity
  8
Bemassung
  6
ByBlock
 62
    7
370
   18
100
AcDbLine
 10
82.92893218813452
 20
282.0710678118655
 11
97.07106781186548
 21
267.9289321881345
  0
MTEXT
  5
D2
100
AcDbEntity
  8
Bemassung
  6
CONTINUOUS
 62
    7
370
   -2
100
AcDbMText
 10
76
 20
205.75
 30
0
 40
18
 41
52.00000000000223
 71
    5
 72
    1
  1
138.5
  7
standard
210
0
220
0
230
1
 50
90
 73
    2
 44
1
  0
LINE
  5
D3
100
AcDbEntity
  8
Bemassung
  6
ByBlock
 62
    7
370
   18
100
AcDbLine
 10
41.5
 20
136.5
 11
100
 21
136.5
  0
LINE
  5
D4
100
AcDbEntity
  8
Bemassung
  6
ByBlock
 62
    7
370
   18
100
AcDbLine
 10
41.5
 20
275
 11
100
 21
275
  0
ENDBLK
  5
7A
330
78
100
AcDbEntity
  8
0
100
AcDbBlockEnd
  0
BLOCK
  5
7C
330
7B
100
AcDbEntity
  8
0
100
AcDbBlockBegin
  2
*D3
 70
    1
 10
0
 20
0
  3
*D3
  1

  0
LINE
  5
D5
100
AcDbEntity
  8
Bemassung
  6
ByBlock
 62
    7
370
   18
100
AcDbLine
 10
530
 20
36.50000000000001
 11
530
 21
86.5
  0
LINE
  5
D6
100
AcDbEntity
  8
Bemassung
  6
ByBlock
 62
    7
370
   18
100
AcDbLine
 10
522.9289321881346
 20
43.57106781186548
 11
537.0710678118654
 21
29.42893218813453
  0
LINE
  5
D7
100
AcDbEntity
  8
Bemassung
  6
ByBlock
 62
    7
370
   18
100
AcDbLine
 10
522.9289321881346
 20
93.57106781186548
 11
537.0710678118654
 21
79.42893218813452
  0
MTEXT
  5
D8
100
AcDbEntity
  8
Bemassung
  6
CONTINUOUS
 62
    7
370
   -2
100
AcDbMText
 10
516
 20
61.5
 30
0
 40
18
 41
22.00000000000112
 71
    5
 72
    1
  1
50
  7
standard
210
0
220
0
230
1
 50
90
 73
    2
 44
1
  0
LINE
  5
D9
100
AcDbEntity
  8
Bemassung
  6
ByBlock
 62
    7
370
   18
100
AcDbLine
 10
479
 20
36.5
 11
540
 21
36.50000000000001
  0
LINE
  5
DA
100
AcDbEntity
  8
Bemassung
  6
ByBlock
 62
    7
370
   18
100
AcDbLine
 10
479
 20
86.5
 11
540
 21
86.5
  0
ENDBLK
  5
7D
330
7B
100
AcDbEntity
  8
0
100
AcDbBlockEnd
  0
BLOCK
  5
7F
330
7E
100
AcDbEntity
  8
0
100
AcDbBlockBegin
  2
*D13
 70
    1
 10
0
 20
0
  3
*D13
  1

  0
LINE
  5
DB
100
AcDbEntity
  8
Bemassung
  6
ByBlock
 62
    7
370
   18
100
AcDbLine
 10
900
 20
1662.5
 11
900
 21
1699
  0
LINE
  5
DC
100
AcDbEntity
  8
Bemassung
  6
ByBlock
 62
    7
370
   18
100
AcDbLine
 10
892.9289321881346
 20
1669.571067811866
 11
907.0710678118654
 21
1655.428932188134
  0
LINE
  5
DD
100
AcDbEntity
  8
Bemassung
  6
ByBlock
 62
    7
370
   18
100
AcDbLine
 10
892.9289321881346
 20
1706.071067811866
 11
907.0710678118654
 21
1691.928932188134
  0
MTEXT
  5
DE
100
AcDbEntity
  8
Bemassung
  6
CONTINUOUS
 62
    7
370
   -2
100
AcDbMText
 10
886
 20
1725.000000000002
 30
0
 40
18
 41
42.00000000000335
 71
    5
 72
    1
  1
36.5
  7
standard
210
0
220
0
230
1
 50
90
 73
    2
 44
1
  0
LINE
  5
DF
100
AcDbEntity
  8
Bemassung
  6
ByBlock
 62
    7
370
   18
100
AcDbLine
 10
1031.5
 20
1662.5
 11
890
 21
1662.5
  0
LINE
  5
E0
100
AcDbEntity
  8
Bemassung
  6
ByBlock
 62
    7
370
   18
100
AcDbLine
 10
995
 20
1699
 11
890
 21
1699
  0
ENDBLK
  5
80
330
7E
100
AcDbEntity
  8
0
100
AcDbBlockEnd
  0
ENDSEC
  0
SECTION
  2
ENTITIES
  0
HATCH
  5
E1
100
AcDbEntity
  8
2 Schraffur
  6
CONTINUOUS
 62
    7
370
   18
100
AcDbHatch
 10
0
 20
0
 30
0
210
0
220
0
230
1
  2
ansi31
 70
    0
 71
    0
 91
    1
 92
    0
 93
    4
 72
    1
 10
439.5
 20
0
 11
736.5
 21
0
 72
    1
 10
736.5
 20
0
 11
736.5
 21
36.5
 72
    1
 10
736.5
 20
36.5
 11
439.5
 21
36.5
 72
    1
 10
439.5
 20
36.5
 11
439.5
 21
0
 97
    0
 75
    0
 76
    1
 52
0
 41
4
 77
    0
 78
    0
 98
    0
  0
HATCH
  5
E2
100
AcDbEntity
  8
2 Schraffur
  6
ByLayer
 62
  256
370
   13
100
AcDbHatch
 10
0
 20
0
 30
0
210
0
220
0
230
1
  2
ansi31
 70
    0
 71
    0
 91
    1
 92
    0
 93
   10
 72
    1
 10
1036.5
 20
1036.5
 11
1962.5
 21
1036.5
 72
    1
 10
1962.5
 20
1036.5
 11
1962.5
 21
1662.5
 72
    1
 10
1962.5
 20
1662.5
 11
1036.5
 21
1662.5
 72
    1
 10
1036.5
 20
1662.5
 11
1036.5
 21
1662.5
 72
    1
 10
1036.5
 20
1662.5
 11
1036.5
 21
1036.5
 72
    1
 10
1000
 20
1000
 11
1999
 21
1000
 72
    1
 10
1999
 20
1000
 11
1999
 21
1699
 72
    1
 10
1999
 20
1699
 11
1000
 21
1699
 72
    1
 10
1000
 20
1699
 11
1000
 21
1699
 72
    1
 10
1000
 20
1699
 11
1000
 21
1000
 97
    0
 75
    0
 76
    1
 52
0
 41
4
 77
    0
 78
    0
 98
    0
  0
IMAGE
  5
E5
100
AcDbEntity
  8
2 Schraffur
  6
ByLayer
 62
  256
370
   -1
100
AcDbRasterImage
 10
800
 20
0
 30
0
 11
1
 21
0
 31
0
 12
6.123031769111886e-017
 22
1
 32
0
 13
216
 23
339
340
E3
 70
    1
280
    0
281
   50
282
   50
283
    0
360
E4
  0
HATCH
  5
E6
100
AcDbEntity
  8
2 Schraffur
  6
CONTINUOUS
 62
    7
370
   18
100
AcDbHatch
 10
0
 20
0
 30
0
210
0
220
0
230
1
  2
ansi31
 70
    0
 71
    0
 91
    1
 92
    0
 93
    4
 72
    1
 10
462.5
 20
375
 11
462.5
 21
312.5
 72
    1
 10
462.5
 20
312.5
 11
474
 21
312.5
 72
    1
 10
474
 20
312.5
 11
474
 21
375
 72
    1
 10
474
 20
375
 11
462.5
 21
375
 97
    0
 75
    0
 76
    1
 52
4.71238898038469
 41
4
 77
    0
 78
    0
 98
    0
  0
HATCH
  5
E7
100
AcDbEntity
  8
2 Schraffur
  6
CONTINUOUS
 62
    7
370
   18
100
AcDbHatch
 10
0
 20
0
 30
0
210
0
220
0
230
1
  2
ansi31
 70
    0
 71
    0
 91
    1
 92
    0
 93
    4
 72
    1
 10
462.5
 20
224
 11
462.5
 21
175
 72
    1
 10
462.5
 20
175
 11
474
 21
175
 72
    1
 10
474
 20
175
 11
474
 21
224
 72
    1
 10
474
 20
224
 11
462.5
 21
224
 97
    0
 75
    0
 76
    1
 52
4.71238898038469
 41
4
 77
    0
 78
    0
 98
    0
  0
HATCH
  5
E8
100
AcDbEntity
  8
2 Schraffur
  6
CONTINUOUS
 62
    7
370
   18
100
AcDbHatch
 10
0
 20
0
 30
0
210
0
220
0
230
1
  2
ansi31
 70
    0
 71
    0
 91
    1
 92
    0
 93
    4
 72
    1
 10
462.5
 20
86.5
 11
462.5
 21
36.5
 72
    1
 10
462.5
 20
36.5
 11
474
 21
36.5
 72
    1
 10
474
 20
36.5
 11
474
 21
86.5
 72
    1
 10
474
 20
86.5
 11
462.5
 21
86.5
 97
    0
 75
    0
 76
    1
 52
4.71238898038469
 41
4
 77
    0
 78
    0
 98
    0
  0
HATCH
  5
E9
100
AcDbEntity
  8
2 Schraffur
  6
CONTINUOUS
 62
    7
370
   18
100
AcDbHatch
 10
0
 20
0
 30
0
210
0
220
0
230
1
  2
ansi31
 70
    0
 71
    0
 91
    1
 92
    0
 93
    4
 72
    1
 10
2000
 20
0
 11
2101
 21
0
 72
    1
 10
2101
 20
0
 11
2101
 21
36.5
 72
    1
 10
2101
 20
36.5
 11
2000
 21
36.5
 72
    1
 10
2000
 20
36.5
 11
2000
 21
0
 97
    0
 75
    0
 76
    1
 52
0
 41
4
 77
    0
 78
    0
 98
    0
  0
HATCH
  5
EA
100
AcDbEntity
  8
2 Schraffur
  6
CONTINUOUS
 62
    7
370
   18
100
AcDbHatch
 10
0
 20
0
 30
0
210
0
220
0
230
1
  2
ansi31
 70
    0
 71
    0
 91
    1
 92
    0
 93
    4
 72
    1
 10
-6.310887241768094e-030
 20
375
 11
0
 21
275
 72
    1
 10
0
 20
275
 11
36.5
 21
275
 72
    1
 10
36.5
 20
275
 11
36.5
 21
375
 72
    1
 10
36.5
 20
375
 11
-6.310887241768094e-030
 21
375
 97
    0
 75
    0
 76
    1
 52
4.71238898038469
 41
4
 77
    0
 78
    0
 98
    0
  0
HATCH
  5
EB
100
AcDbEntity
  8
2 Schraffur
  6
CONTINUOUS
 62
    7
370
   18
100
AcDbHatch
 10
0
 20
0
 30
0
210
0
220
0
230
1
  2
ansi31
 70
    0
 71
    0
 91
    1
 92
    0
 93
    4
 72
    1
 10
-6.310887241768094e-030
 20
136.5
 11
0
 21
36.5
 72
    1
 10
0
 20
36.5
 11
36.5
 21
36.5
 72
    1
 10
36.5
 20
36.5
 11
36.5
 21
136.5
 72
    1
 10
36.5
 20
136.5
 11
-6.310887241768094e-030
 21
136.5
 97
    0
 75
    0
 76
    1
 52
4.71238898038469
 41
4
 77
    0
 78
    0
 98
    0
  0
HATCH
  5
EC
100
AcDbEntity
  8
2 Schraffur
  6
CONTINUOUS
 62
    7
370
   18
100
AcDbHatch
 10
0
 20
0
 30
0
210
0
220
0
230
1
  2
ansi31
 70
    0
 71
    0
 91
    1
 92
    0
 93
    4
 72
    1
 10
237.5
 20
0
 11
338.5
 21
0
 72
    1
 10
338.5
 20
0
 11
338.5
 21
36.5
 72
    1
 10
338.5
 20
36.5
 11
237.5
 21
36.5
 72
    1
 10
237.5
 20
36.5
 11
237.5
 21
0
 97
    0
 75
    0
 76
    1
 52
0
 41
4
 77
    0
 78
    0
 98
    0
  0
HATCH
  5
ED
100
AcDbEntity
  8
2 Schraffur
  6
CONTINUOUS
 62
    7
370
   18
100
AcDbHatch
 10
0
 20
0
 30
0
210
0
220
0
230
1
  2
ansi31
 70
    0
 71
    0
 91
    1
 92
    0
 93
    4
 72
    1
 10
0
 20
0
 11
99
 21
0
 72
    1
 10
99
 20
0
 11
99
 21
36.5
 72
    1
 10
99
 20
36.5
 11
0
 21
36.5
 72
    1
 10
0
 20
36.5
 11
0
 21
0
 97
    0
 75
    0
 76
    1
 52
0
 41
4
 77
    0
 78
    0
 98
    0
  0
LINE
  5
EE
100
AcDbEntity
  8
0
  6
CONTINUOUS
 62
    7
370
   18
100
AcDbLine
 10
-200
 20
-200
 11
-200
 21
-150
  0
LINE
  5
EF
100
AcDbEntity
  8
0
  6
CONTINUOUS
 62
    7
370
   18
100
AcDbLine
 10
-200
 20
-200
 11
-150
 21
-200
  0
LINE
  5
F0
100
AcDbEntity
  8
0
  6
CONTINUOUS
 62
    7
370
   18
100
AcDbLine
 10
-250
 20
-250
 11
-250
 21
2720
  0
LINE
  5
F1
100
AcDbEntity
  8
0
  6
CONTINUOUS
 62
    7
370
   18
100
AcDbLine
 10
-200
 20
2620
 11
-200
 21
2670
  0
LINE
  5
F2
100
AcDbEntity
  8
0
  6
CONTINUOUS
 62
    7
370
   18
100
AcDbLine
 10
-200
 20
2670
 11
-150
 21
2670
  0
LINE
  5
F3
100
AcDbEntity
  8
0
  6
CONTINUOUS
 62
    7
370
   18
100
AcDbLine
 10
3950
 20
-250
 11
3950
 21
2720
  0
LINE
  5
F4
100
AcDbEntity
  8
0
  6
CONTINUOUS
 62
    7
370
   18
100
AcDbLine
 10
3850
 20
2670
 11
3900
 21
2670
  0
LINE
  5
F5
100
AcDbEntity
  8
0
  6
CONTINUOUS
 62
    7
370
   18
100
AcDbLine
 10
3900
 20
2620
 11
3900
 21
2670
  0
LINE
  5
F6
100
AcDbEntity
  8
0
  6
CONTINUOUS
 62
    7
370
   18
100
AcDbLine
 10
3900
 20
-200
 11
3900
 21
-150
  0
LINE
  5
F7
100
AcDbEntity
  8
0
  6
CONTINUOUS
 62
    7
370
   18
100
AcDbLine
 10
3850
 20
-200
 11
3900
 21
-200
  0
MTEXT
  5
F8
100
AcDbEntity
  8
0
  6
CONTINUOUS
 62
    7
370
   25
100
AcDbMText
 10
3789.992224318275
 20
-222.6298562452521
 30
0
 40
25
 41
286.8055555555593
 71
    5
 72
    1
  1
Arch cm 1:100 A3
  7
iso
210
0
220
0
230
1
 50
0
 73
    2
 44
1
  0
LINE
  5
F9
100
AcDbEntity
  8
0
  6
CONTINUOUS
 62
    7
370
   18
100
AcDbLine
 10
-250
 20
2720
 11
3950
 21
2720
  0
LINE
  5
FA
100
AcDbEntity
  8
0
  6
CONTINUOUS
 62
    7
370
   18
100
AcDbLine
 10
-250
 20
-250
 11
3950
 21
-250
  0
CIRCLE
  5
FB
100
AcDbEntity
  8
0
  6
ByLayer
 62
  256
370
   -1
100
AcDbCircle
 10
-250
 20
1235
 40
0
  0
LWPOLYLINE
  5
FC
100
AcDbEntity
  8
1
  6
CONTINUOUS
 62
    7
370
   35
100
AcDbPolyline
 90
    4
 70
    1
 43
0
 10
0
 20
0
 10
99
 20
0
 10
99
 20
36.5
 10
0
 20
36.5
  0
LWPOLYLINE
  5
FD
100
AcDbEntity
  8
1
  6
CONTINUOUS
 62
    7
370
   35
100
AcDbPolyline
 90
    4
 70
    1
 43
0
 10
237.5
 20
0
 10
338.5
 20
0
 10
338.5
 20
36.5
 10
237.5
 20
36.5
  0
LWPOLYLINE
  5
FE
100
AcDbEntity
  8
1
  6
CONTINUOUS
 62
    7
370
   35
100
AcDbPolyline
 90
    4
 70
    1
 43
0
 10
-6.310887241768094e-030
 20
136.5
 10
0
 20
36.5
 10
36.5
 20
36.5
 10
36.5
 20
136.5
  0
LWPOLYLINE
  5
FF
100
AcDbEntity
  8
1
  6
CONTINUOUS
 62
    7
370
   35
100
AcDbPolyline
 90
    4
 70
    1
 43
0
 10
-6.310887241768094e-030
 20
375
 10
0
 20
275
 10
36.5
 20
275
 10
36.5
 20
375
  0
LWPOLYLINE
  5
100
100
AcDbEntity
  8
1
  6
CONTINUOUS
 62
    7
370
   35
100
AcDbPolyline
 90
    4
 70
    1
 43
0
 10
2000
 20
0
 10
2101
 20
0
 10
2101
 20
36.5
 10
2000
 20
36.5
  0
LWPOLYLINE
  5
101
100
AcDbEntity
  8
1
  6
CONTINUOUS
 62
    7
370
   18
100
AcDbPolyline
 90
    5
 70
    1
 43
0
 10
1981.75
 20
82.75
 10
1981.75
 20
-18.25
 10
2000
 20
-18.25
 10
2000
 20
82.75
 10
2000
 20
82.75
  0
LWPOLYLINE
  5
102
100
AcDbEntity
  8
1
  6
CONTINUOUS
 62
    7
370
   18
100
AcDbPolyline
 90
    5
 70
    1
 43
0
 10
2000
 20
-18.25
 10
2101
 20
-18.25
 10
2101
 20
0
 10
2000
 20
0
 10
2000
 20
0
  0
LWPOLYLINE
  5
103
100
AcDbEntity
  8
1
  6
CONTINUOUS
 62
    7
370
   35
100
AcDbPolyline
 90
    4
 70
    1
 43
0
 10
462.5
 20
86.5
 10
462.5
 20
36.5
 10
474
 20
36.5
 10
474
 20
86.5
  0
LWPOLYLINE
  5
104
100
AcDbEntity
  8
1
  6
CONTINUOUS
 62
    7
370
   35
100
AcDbPolyline
 90
    4
 70
    1
 43
0
 10
462.5
 20
224
 10
462.5
 20
175
 10
474
 20
175
 10
474
 20
224
  0
LWPOLYLINE
  5
105
100
AcDbEntity
  8
1
  6
CONTINUOUS
 62
    7
370
   35
100
AcDbPolyline
 90
    4
 70
    1
 43
0
 10
462.5
 20
375
 10
462.5
 20
312.5
 10
474
 20
312.5
 10
474
 20
375
  0
LWPOLYLINE
  5
106
100
AcDbEntity
  8
1
  6
ByLayer
 62
  256
370
   -1
100
AcDbPolyline
 90
    5
 70
    1
 43
0
 10
1036.5
 20
1036.5
 10
1962.5
 20
1036.5
 10
1962.5
 20
1662.5
 10
1036.5
 20
1662.5
 10
1036.5
 20
1662.5
  0
LWPOLYLINE
  5
107
100
AcDbEntity
  8
1
  6
ByLayer
 62
  256
370
   -1
100
AcDbPolyline
 90
    5
 70
    1
 43
0
 10
1000
 20
1000
 10
1999
 20
1000
 10
1999
 20
1699
 10
1000
 20
1699
 10
1000
 20
1699
  0
DIMENSION
  5
108
100
AcDbEntity
  8
Bemassung
  6
ByLayer
 62
  256
370
   -1
100
AcDbDimension
  2
*D1
 10
464.5
 20
-140
 30
0
 11
249.5
 21
-126
 31
0
 70
   32
 71
    5
 72
    0
  3
Standard
 53
0
210
0
220
0
230
1
100
AcDbAlignedDimension
 13
36.5
 23
36.5
 33
0
 14
462.5
 24
36.5
 34
0
100
AcDbRotatedDimension
  0
DIMENSION
  5
109
100
AcDbEntity
  8
Bemassung
  6
ByLayer
 62
  256
370
   -1
100
AcDbDimension
  2
*D2
 10
36.49999999999999
 20
-140
 30
0
 11
18.25
 21
-126
 31
0
 70
   32
 71
    5
 72
    0
  3
Standard
 53
0
210
0
220
0
230
1
100
AcDbAlignedDimension
 13
0
 23
0
 33
0
 14
36.5
 24
36.5
 34
0
100
AcDbRotatedDimension
  0
DIMENSION
  5
10A
100
AcDbEntity
  8
Bemassung
  6
ByLayer
 62
  256
370
   -1
100
AcDbDimension
  2
*D3
 10
530
 20
86.49999999999999
 30
0
 11
516
 21
61.5
 31
0
 70
   32
 71
    5
 72
    0
  3
Standard
 53
0
210
0
220
0
230
1
100
AcDbAlignedDimension
 13
474
 23
36.5
 33
0
 14
474
 24
86.5
 34
0
 50
90
100
AcDbRotatedDimension
  0
DIMENSION
  5
10B
100
AcDbEntity
  8
Bemassung
  6
ByLayer
 62
  256
370
   -1
100
AcDbDimension
  2
*D4
 10
530
 20
175
 30
0
 11
516
 21
130.75
 31
0
 70
   32
 71
    5
 72
    0
  3
Standard
 53
0
210
0
220
0
230
1
100
AcDbAlignedDimension
 13
474
 23
86.5
 33
0
 14
474
 24
175
 34
0
 50
90
100
AcDbRotatedDimension
  0
DIMENSION
  5
10C
100
AcDbEntity
  8
Bemassung
  6
ByLayer
 62
  256
370
   -1
100
AcDbDimension
  2
*D5
 10
530
 20
225
 30
0
 11
516
 21
199.5
 31
0
 70
   32
 71
    5
 72
    0
  3
Standard
 53
0
210
0
220
0
230
1
100
AcDbAlignedDimension
 13
474
 23
175
 33
0
 14
474
 24
224
 34
0
 50
90
100
AcDbRotatedDimension
  0
DIMENSION
  5
10D
100
AcDbEntity
  8
Bemassung
  6
ByLayer
 62
  256
370
   -1
100
AcDbDimension
  2
*D6
 10
530
 20
312.5
 30
0
 11
516
 21
268.25
 31
0
 70
   32
 71
    5
 72
    0
  3
Standard
 53
0
210
0
220
0
230
1
100
AcDbAlignedDimension
 13
474
 23
224
 33
0
 14
474
 24
312.5
 34
0
 50
90
100
AcDbRotatedDimension
  0
DIMENSION
  5
10E
100
AcDbEntity
  8
Bemassung
  6
ByLayer
 62
  256
370
   -1
100
AcDbDimension
  2
*D7
 10
530
 20
375
 30
0
 11
516
 21
343.75
 31
0
 70
   32
 71
    5
 72
    0
  3
Standard
 53
0
210
0
220
0
230
1
100
AcDbAlignedDimension
 13
474
 23
312.5
 33
0
 14
474
 24
375
 34
0
 50
90
100
AcDbRotatedDimension
  0
DIMENSION
  5
10F
100
AcDbEntity
  8
Bemassung
  6
ByLayer
 62
  256
370
   -1
100
AcDbDimension
  2
*D8
 10
90
 20
136.5
 30
0
 11
76
 21
86.5
 31
0
 70
   32
 71
    5
 72
    0
  3
Standard
 53
0
210
0
220
0
230
1
100
AcDbAlignedDimension
 13
36.5
 23
36.5
 33
0
 14
36.5
 24
136.5
 34
0
 50
90
100
AcDbRotatedDimension
  0
DIMENSION
  5
110
100
AcDbEntity
  8
Bemassung
  6
ByLayer
 62
  256
370
   -1
100
AcDbDimension
  2
*D9
 10
90
 20
275
 30
0
 11
76
 21
205.75
 31
0
 70
   32
 71
    5
 72
    0
  3
Standard
 53
0
210
0
220
0
230
1
100
AcDbAlignedDimension
 13
36.5
 23
136.5
 33
0
 14
36.5
 24
275
 34
0
 50
90
100
AcDbRotatedDimension
  0
DIMENSION
  5
111
100
AcDbEntity
  8
Bemassung
  6
ByLayer
 62
  256
370
   -1
100
AcDbDimension
  2
*D10
 10
90
 20
375
 30
0
 11
76
 21
325
 31
0
 70
   32
 71
    5
 72
    0
  3
Standard
 53
0
210
0
220
0
230
1
100
AcDbAlignedDimension
 13
36.5
 23
275
 33
0
 14
36.5
 24
375
 34
0
 50
90
100
AcDbRotatedDimension
  0
LWPOLYLINE
  5
112
100
AcDbEntity
  8
1
  6
ByLayer
 62
  256
370
   -1
100
AcDbPolyline
 90
    5
 70
    1
 43
0
 10
2236.5
 20
1036.5
 10
3162.5
 20
1036.5
 10
3162.5
 20
1662.5
 10
2236.5
 20
1662.5
 10
2236.5
 20
1662.5
  0
LWPOLYLINE
  5
113
100
AcDbEntity
  8
1
  6
ByLayer
 62
  256
370
   -1
100
AcDbPolyline
 90
    5
 70
    1
 43
0
 10
2200
 20
1000
 10
3199
 20
1000
 10
3199
 20
1699
 10
2200
 20
1699
 10
2200
 20
1699
  0
DIMENSION
  5
114
100
AcDbEntity
  8
Bemassung
  6
ByLayer
 62
  256
370
   -1
100
AcDbDimension
  2
*D11
 10
900
 20
1036.5
 30
0
 11
886
 21
1018.25
 31
0
 70
   32
 71
    5
 72
    0
  3
Standard
 53
0
210
0
220
0
230
1
100
AcDbAlignedDimension
 13
1000
 23
1000
 33
0
 14
1036.5
 24
1036.5
 34
0
 50
90
100
AcDbRotatedDimension
  0
DIMENSION
  5
115
100
AcDbEntity
  8
Bemassung
  6
ByLayer
 62
  256
370
   -1
100
AcDbDimension
  2
*D12
 10
900
 20
1662.5
 30
0
 11
886
 21
1349.5
 31
0
 70
   32
 71
    5
 72
    0
  3
Standard
 53
0
210
0
220
0
230
1
100
AcDbAlignedDimension
 13
1036.5
 23
1036.5
 33
0
 14
1036.5
 24
1662.5
 34
0
 50
90
100
AcDbRotatedDimension
  0
DIMENSION
  5
116
100
AcDbEntity
  8
Bemassung
  6
ByLayer
 62
  256
370
   -1
100
AcDbDimension
  2
*D13
 10
900
 20
1699
 30
0
 11
886
 21
1680.75
 31
0
 70
   32
 71
    5
 72
    0
  3
Standard
 53
0
210
0
220
0
230
1
100
AcDbAlignedDimension
 13
1036.5
 23
1662.5
 33
0
 14
1000
 24
1699
 34
0
 50
90
100
AcDbRotatedDimension
  0
DIMENSION
  5
117
100
AcDbEntity
  8
2 Schraffur
  6
ByLayer
 62
  256
370
   -1
100
AcDbDimension
  2
*D14
 10
850
 20
1000
 30
0
 11
836
 21
1349.5
 31
0
 70
   32
 71
    5
  3
Standard
 53
0
210
0
220
0
230
1
100
AcDbAlignedDimension
 13
1000
 23
1699
 33
0
 14
1000.000016
 24
1000
 34
0
 50
90
100
AcDbRotatedDimension
  0
DIMENSION
  5
118
100
AcDbEntity
  8
2 Schraffur
  6
ByLayer
 62
  256
370
   -1
100
AcDbDimension
  2
*D15
 10
474
 20
-140
 30
0
 11
468.25
 21
-126
 31
0
 70
   32
 71
    5
  3
Standard
 53
0
210
0
220
0
230
1
100
AcDbAlignedDimension
 13
462.5
 23
36.5
 33
0
 14
474
 24
36.5
 34
0
100
AcDbRotatedDimension
  0
LWPOLYLINE
  5
119
100
AcDbEntity
  8
1
  6
CONTINUOUS
 62
    7
370
   35
100
AcDbPolyline
 90
    4
 70
    1
 43
0
 10
439.5
 20
0
 10
736.5
 20
0
 10
736.5
 20
36.5
 10
439.5
 20
36.5
  0
DIMENSION
  5
11A
100
AcDbEntity
  8
2 Schraffur
  6
ByLayer
 62
  256
370
   -1
100
AcDbDimension
  2
*D16
 10
738.5
 20
-140
 30
0
 11
605.25
 21
-126
 31
0
 70
   32
 71
    5
  3
Standard
 53
0
210
0
220
0
230
1
100
AcDbAlignedDimension
 13
474
 23
36.5
 33
0
 14
736.5
 24
36.5
 34
0
100
AcDbRotatedDimension
  0
ENDSEC
  0
SECTION
  2
OBJECTS
  0
DICTIONARY
  5
C
330
0
100
AcDbDictionary
281
    1
  3
ACAD_GROUP
350
D
  3
ACAD_IMAGE_DICT
350
11B
  0
DICTIONARY
  5
D
330
C
100
AcDbDictionary
281
    1
  0
IMAGEDEF_REACTOR
  5
E4
330
E5
100
AcDbRasterImageDefReactor
 90
    2
330
E5
  0
DICTIONARY
  5
11B
330
C
100
AcDbDictionary
281
    1
  3
baum06
350
E3
  0
IMAGEDEF
  5
E3
102
{ACAD_REACTORS
330
E4
102
}
100
AcDbRasterImageDef
 90
    0
  1
D:/tutorial_-_let's_draw_a_little_house_project/baum06.png
 10
216
 20
339
 11
1
 21
1
280
    1
281
    0
  0
ENDSEC
  0
EOF
