999
dxfrw 0.6.3
  0
SECTION
  2
HEADER
  9
$ACADVER
  1
AC1021
  9
$DWGCODEPAGE
  3
ANSI_1252
  9
$INSBASE
 10
0
 20
0
 30
0
  9
$EXTMIN
 10
-45.8437
 20
-660.110422840325
 30
0
  9
$EXTMAX
 10
1658.936753729195
 20
167.8288303664188
 30
0
  9
$LIMMIN
 10
0
 20
0
  9
$LIMMAX
 10
420
 20
297
  9
$ORTHOMODE
 70
    0
  9
$REGENMODE
 70
    1
  9
$FILLMODE
 70
    1
  9
$QTEXTMODE
 70
    0
  9
$MIRRTEXT
 70
    0
  9
$LTSCALE
 40
1
  9
$ATTMODE
 70
    0
  9
$TEXTSIZE
 40
2.5
  9
$TRACEWID
 40
15.68
  9
$TEXTSTYLE
  7
STANDARD
  9
$CLAYER
  8
walls
  9
$CELTYPE
  6
BYLAYER
  9
$CECOLOR
 62
  256
  9
$CELTSCALE
 40
1
  9
$DISPSILH
 70
    0
  9
$DIMSCALE
 40
1
  9
$DIMASZ
 40
5
  9
$DIMEXO
 40
1
  9
$DIMDLI
 40
3.75
  9
$DIMRND
 40
0
  9
$DIMDLE
 40
0
  9
$DIMEXE
 40
0.125
  9
$DIMTP
 40
0
  9
$DIMTM
 40
0
  9
$DIMTXT
 40
8
  9
$DIMCEN
 40
2.5
  9
$DIMTSZ
 40
0
  9
$DIMTOL
 70
    0
  9
$DIMLIM
 70
    0
  9
$DIMTIH
 70
    1
  9
$DIMTOH
 70
    0
  9
$DIMSE1
 70
    0
  9
$DIMSE2
 70
    0
  9
$DIMTAD
 70
    1
  9
$DIMZIN
 70
    8
  9
$DIMBLK
  1

  9
$DIMASO
 70
    1
  9
$DIMSHO
 70
    1
  9
$DIMPOST
  1

  9
$DIMAPOST
  1

  9
$DIMALT
 70
    0
  9
$DIMALTD
 70
    3
  9
$DIMALTF
 40
0.03937
  9
$DIMLFAC
 40
1
  9
$DIMTOFL
 70
    1
  9
$DIMTVP
 40
0
  9
$DIMTIX
 70
    0
  9
$DIMSOXD
 70
    0
  9
$DIMSAH
 70
    0
  9
$DIMBLK1
  1

  9
$DIMBLK2
  1

  9
$DIMSTYLE
  2
Standard
  9
$DIMCLRD
 70
    8
  9
$DIMCLRE
 70
    8
  9
$DIMCLRT
 70
   25
  9
$DIMTFAC
 40
1
  9
$DIMGAP
 40
5
  9
$DIMJUST
 70
    0
  9
$DIMSD1
 70
    0
  9
$DIMSD2
 70
    0
  9
$DIMTOLJ
 70
    0
  9
$DIMTZIN
 70
    8
  9
$DIMALTZ
 70
    0
  9
$DIMALTTZ
 70
    0
  9
$DIMUPT
 70
    0
  9
$DIMDEC
 70
    1
  9
$DIMTDEC
 70
    2
  9
$DIMALTU
 70
    2
  9
$DIMALTTD
 70
    3
  9
$DIMTXSTY
  7
romand
  9
$DIMAUNIT
 70
    0
  9
$DIMADEC
 70
    0
  9
$DIMALTRND
 40
0
  9
$DIMAZIN
 70
    0
  9
$DIMDSEP
 70
    0
  9
$DIMATFIT
 70
    3
  9
$DIMFRAC
 70
    0
  9
$DIMLDRBLK
  1
STANDARD
  9
$DIMLUNIT
 70
    2
  9
$DIMLWD
 70
    5
  9
$DIMLWE
 70
    5
  9
$DIMTMOVE
 70
    0
  9
$DIMFXL
 40
1
  9
$DIMFXLON
 70
    0
  9
$DIMJOGANG
 40
0.7854
  9
$DIMTFILL
 70
    0
  9
$DIMTFILLCLR
 70
    0
  9
$DIMARCSYM
 70
    0
  9
$DIMLTYPE
  6

  9
$DIMLTEX1
  6

  9
$DIMLTEX2
  6

  9
$LUNITS
 70
    2
  9
$LUPREC
 70
    1
  9
$SKETCHINC
 40
1
  9
$FILLETRAD
 40
0
  9
$AUNITS
 70
    0
  9
$AUPREC
 70
    2
  9
$MENU
  1
.
  9
$ELEVATION
 40
0
  9
$PELEVATION
 40
0
  9
$THICKNESS
 40
0
  9
$LIMCHECK
 70
    0
  9
$CHAMFERA
 40
0
  9
$CHAMFERB
 40
0
  9
$CHAMFERC
 40
0
  9
$CHAMFERD
 40
0
  9
$SKPOLY
 70
    0
  9
$USRTIMER
 70
    1
  9
$ANGBASE
 50
0
  9
$ANGDIR
 70
    0
  9
$PDMODE
 70
   34
  9
$PDSIZE
 40
0
  9
$PLINEWID
 40
0
  9
$SPLFRAME
 70
    0
  9
$SPLINETYPE
 70
    2
  9
$SPLINESEGS
 70
    8
  9
$HANDSEED
  5
20000
  9
$SURFTAB1
 70
    6
  9
$SURFTAB2
 70
    6
  9
$SURFTYPE
 70
    6
  9
$SURFU
 70
    6
  9
$SURFV
 70
    6
  9
$UCSBASE
  2

  9
$UCSNAME
  2

  9
$UCSORG
 10
0
 20
0
 30
0
  9
$UCSXDIR
 10
1
 20
0
 30
0
  9
$UCSYDIR
 10
0
 20
1
 30
0
  9
$UCSORTHOREF
  2

  9
$UCSORTHOVIEW
 70
    0
  9
$UCSORGTOP
 10
0
 20
0
 30
0
  9
$UCSORGBOTTOM
 10
0
 20
0
 30
0
  9
$UCSORGLEFT
 10
0
 20
0
 30
0
  9
$UCSORGRIGHT
 10
0
 20
0
 30
0
  9
$UCSORGFRONT
 10
0
 20
0
 30
0
  9
$UCSORGBACK
 10
0
 20
0
 30
0
  9
$PUCSBASE
  2

  9
$PUCSNAME
  2

  9
$PUCSORG
 10
0
 20
0
 30
0
  9
$PUCSXDIR
 10
1
 20
0
 30
0
  9
$PUCSYDIR
 10
0
 20
1
 30
0
  9
$PUCSORTHOREF
  2

  9
$PUCSORTHOVIEW
 70
    0
  9
$PUCSORGTOP
 10
0
 20
0
 30
0
  9
$PUCSORGBOTTOM
 10
0
 20
0
 30
0
  9
$PUCSORGLEFT
 10
0
 20
0
 30
0
  9
$PUCSORGRIGHT
 10
0
 20
0
 30
0
  9
$PUCSORGFRONT
 10
0
 20
0
 30
0
  9
$PUCSORGBACK
 10
0
 20
0
 30
0
  9
$USERI1
 70
    0
  9
$USERI2
 70
    0
  9
$USERI3
 70
    0
  9
$USERI4
 70
    0
  9
$USERI5
 70
    0
  9
$USERR1
 40
0
  9
$USERR2
 40
0
  9
$USERR3
 40
0
  9
$USERR4
 40
0
  9
$USERR5
 40
0
  9
$WORLDVIEW
 70
    1
  9
$SHADEDGE
 70
    3
  9
$SHADEDIF
 70
   70
  9
$TILEMODE
 70
    1
  9
$MAXACTVP
 70
   64
  9
$PINSBASE
 10
1.379382349423391
 20
15.15601879076359
 30
0
  9
$PLIMCHECK
 70
    0
  9
$PEXTMIN
 10
0
 20
0
 30
0
  9
$PEXTMAX
 10
0
 20
0
 30
0
  9
$GRIDMODE
 70
    1
  9
$SNAPSTYLE
 70
    0
  9
$GRIDUNIT
 10
0
 20
0
  9
$PLIMMIN
 10
0
 20
0
  9
$PLIMMAX
 10
29.7
 20
21
  9
$UNITMODE
 70
    0
  9
$VISRETAIN
 70
    1
  9
$PLINEGEN
 70
    0
  9
$PSLTSCALE
 70
    1
  9
$TREEDEPTH
 70
 3020
  9
$CMLSTYLE
  2
Standard
  9
$CMLJUST
 70
    0
  9
$CMLSCALE
 40
20
  9
$PROXYGRAPHICS
 70
    1
  9
$MEASUREMENT
 70
    1
  9
$CELWEIGHT
370
   -1
  9
$ENDCAPS
280
    0
  9
$JOINSTYLE
280
    0
  9
$LWDISPLAY
290
    0
  9
$INSUNITS
 70
    5
  9
$HYPERLINKBASE
  1

  9
$STYLESHEET
  1

  9
$XEDIT
290
    1
  9
$CEPSNTYPE
380
    0
  9
$PSTYLEMODE
290
    1
  9
$EXTNAMES
290
    1
  9
$PSVPSCALE
 40
0.02
  9
$OLESTARTUP
290
    0
  9
$SORTENTS
280
  127
  9
$INDEXCTL
280
    0
  9
$HIDETEXT
280
    1
  9
$XCLIPFRAME
290
    0
  9
$HALOGAP
280
    0
  9
$OBSCOLOR
 70
  257
  9
$OBSLTYPE
280
    0
  9
$INTERSECTIONDISPLAY
280
    0
  9
$INTERSECTIONCOLOR
 70
  257
  9
$DIMASSOC
280
    1
  9
$PROJECTNAME
  1

  9
$CAMERADISPLAY
290
    0
  9
$LENSLENGTH
 40
50
  9
$CAMERAHEIGHT
 40
0
  9
$STEPSPERSEC
 40
2
  9
$STEPSIZE
 40
50
  9
$3DDWFPREC
 40
2
  9
$PSOLWIDTH
 40
5
  9
$PSOLHEIGHT
 40
80
  9
$LOFTANG1
 40
1.570796326794897
  9
$LOFTANG2
 40
1.570796326794897
  9
$LOFTMAG1
 40
0
  9
$LOFTMAG2
 40
0
  9
$LOFTPARAM
 70
    7
  9
$LOFTNORMALS
280
    1
  9
$LATITUDE
 40
1
  9
$LONGITUDE
 40
1
  9
$NORTHDIRECTION
 40
0
  9
$TIMEZONE
 70
-8000
  9
$LIGHTGLYPHDISPLAY
280
    1
  9
$TILEMODELIGHTSYNCH
280
    1
  9
$SOLIDHIST
280
    1
  9
$SHOWHIST
280
    1
  9
$DWFFRAME
280
    2
  9
$DGNFRAME
280
    0
  9
$REALWORLDSCALE
290
    1
  9
$INTERFERECOLOR
 62
    1
  9
$CSHADOW
280
    0
  9
$SHADOWPLANELOCATION
 40
0
  0
ENDSEC
  0
SECTION
  2
CLASSES
  0
ENDSEC
  0
SECTION
  2
TABLES
  0
TABLE
  2
VPORT
  5
8
330
0
100
AcDbSymbolTable
 70
    1
  0
VPORT
  5
31
330
2
100
AcDbSymbolTableRecord
100
AcDbViewportTableRecord
  2
*ACTIVE
 70
    0
 10
0
 20
0
 11
1
 21
1
 12
837.9565259393269
 22
141.1295201582024
 13
0
 23
0
 14
10
 24
10
 15
10
 25
10
 16
0
 26
0
 36
1
 17
0
 27
0
 37
0
 40
1053.660167544761
 41
1.648401826484018
 42
50
 43
0
 44
0
 50
0
 51
0
 71
    0
 72
  100
 73
    1
 74
    3
 75
    0
 76
    1
 77
    0
 78
    0
281
    0
 65
    1
110
0
120
0
130
0
111
1
121
0
131
0
112
0
122
1
132
0
 79
    0
146
0
348
10020
 60
    7
 61
    5
292
1
282
    1
141
0
142
0
 63
  250
421
3358443
  0
ENDTAB
  0
TABLE
  2
LTYPE
  5
5
330
0
100
AcDbSymbolTable
 70
    4
  0
LTYPE
  5
14
330
5
100
AcDbSymbolTableRecord
100
AcDbLinetypeTableRecord
  2
ByBlock
 70
    0
  3

 72
   65
 73
    0
 40
0
  0
LTYPE
  5
15
330
5
100
AcDbSymbolTableRecord
100
AcDbLinetypeTableRecord
  2
ByLayer
 70
    0
  3

 72
   65
 73
    0
 40
0
  0
LTYPE
  5
16
330
5
100
AcDbSymbolTableRecord
100
AcDbLinetypeTableRecord
  2
Continuous
 70
    0
  3
Solid line
 72
   65
 73
    0
 40
0
  0
LTYPE
  5
32
330
5
100
AcDbSymbolTableRecord
100
AcDbLinetypeTableRecord
  2
DOT
 70
    0
  3
Dot . . . . . . . . . . . . . . . . . . . . . .
 72
   65
 73
    2
 40
6.35
 49
0
 74
    0
 49
-6.35
 74
    0
  0
LTYPE
  5
33
330
5
100
AcDbSymbolTableRecord
100
AcDbLinetypeTableRecord
  2
DOTTINY
 70
    0
  3
Dot (.15x) .....................................
 72
   65
 73
    2
 40
0.9525
 49
0
 74
    0
 49
-0.9525
 74
    0
  0
LTYPE
  5
34
330
5
100
AcDbSymbolTableRecord
100
AcDbLinetypeTableRecord
  2
DOT2
 70
    0
  3
Dot (.5x) .....................................
 72
   65
 73
    2
 40
3.175
 49
0
 74
    0
 49
-3.175
 74
    0
  0
LTYPE
  5
35
330
5
100
AcDbSymbolTableRecord
100
AcDbLinetypeTableRecord
  2
DOTX2
 70
    0
  3
Dot (2x) .  .  .  .  .  .  .  .  .  .  .  .  .
 72
   65
 73
    2
 40
12.7
 49
0
 74
    0
 49
-12.7
 74
    0
  0
LTYPE
  5
36
330
5
100
AcDbSymbolTableRecord
100
AcDbLinetypeTableRecord
  2
DASHED
 70
    0
  3
Dashed _ _ _ _ _ _ _ _ _ _ _ _ _ _ _ _ _
 72
   65
 73
    2
 40
19.05
 49
12.7
 74
    0
 49
-6.35
 74
    0
  0
LTYPE
  5
37
330
5
100
AcDbSymbolTableRecord
100
AcDbLinetypeTableRecord
  2
DASHEDTINY
 70
    0
  3
Dashed (.15x) _ _ _ _ _ _ _ _ _ _ _ _ _ _ _ _ _
 72
   65
 73
    2
 40
2.8575
 49
1.905
 74
    0
 49
-0.9525
 74
    0
  0
LTYPE
  5
38
330
5
100
AcDbSymbolTableRecord
100
AcDbLinetypeTableRecord
  2
DASHED2
 70
    0
  3
Dashed (.5x) _ _ _ _ _ _ _ _ _ _ _ _ _ _ _ _ _
 72
   65
 73
    2
 40
9.524999999999999
 49
6.35
 74
    0
 49
-3.175
 74
    0
  0
LTYPE
  5
39
330
5
100
AcDbSymbolTableRecord
100
AcDbLinetypeTableRecord
  2
DASHEDX2
 70
    0
  3
Dashed (2x) ____  ____  ____  ____  ____  ___
 72
   65
 73
    2
 40
38.09999999999999
 49
25.4
 74
    0
 49
-12.7
 74
    0
  0
LTYPE
  5
3A
330
5
100
AcDbSymbolTableRecord
100
AcDbLinetypeTableRecord
  2
DASHDOT
 70
    0
  3
Dash dot __ . __ . __ . __ . __ . __ . __ . __
 72
   65
 73
    4
 40
25.4
 49
12.7
 74
    0
 49
-6.35
 74
    0
 49
0
 74
    0
 49
-6.35
 74
    0
  0
LTYPE
  5
3B
330
5
100
AcDbSymbolTableRecord
100
AcDbLinetypeTableRecord
  2
DASHDOTTINY
 70
    0
  3
Dash dot (.15x) _._._._._._._._._._._._._._._.
 72
   65
 73
    4
 40
3.81
 49
1.905
 74
    0
 49
-0.9525
 74
    0
 49
0
 74
    0
 49
-0.9525
 74
    0
  0
LTYPE
  5
3C
330
5
100
AcDbSymbolTableRecord
100
AcDbLinetypeTableRecord
  2
DASHDOT2
 70
    0
  3
Dash dot (.5x) _._._._._._._._._._._._._._._.
 72
   65
 73
    4
 40
12.7
 49
6.35
 74
    0
 49
-3.175
 74
    0
 49
0
 74
    0
 49
-3.175
 74
    0
  0
LTYPE
  5
3D
330
5
100
AcDbSymbolTableRecord
100
AcDbLinetypeTableRecord
  2
DASHDOTX2
 70
    0
  3
Dash dot (2x) ____  .  ____  .  ____  .  ___
 72
   65
 73
    4
 40
50.8
 49
25.4
 74
    0
 49
-12.7
 74
    0
 49
0
 74
    0
 49
-12.7
 74
    0
  0
LTYPE
  5
3E
330
5
100
AcDbSymbolTableRecord
100
AcDbLinetypeTableRecord
  2
DIVIDE
 70
    0
  3
Divide ____ . . ____ . . ____ . . ____ . . ____
 72
   65
 73
    6
 40
31.75
 49
12.7
 74
    0
 49
-6.35
 74
    0
 49
0
 74
    0
 49
-6.35
 74
    0
 49
0
 74
    0
 49
-6.35
 74
    0
  0
LTYPE
  5
3F
330
5
100
AcDbSymbolTableRecord
100
AcDbLinetypeTableRecord
  2
DIVIDETINY
 70
    0
  3
Divide (.15x) __..__..__..__..__..__..__..__.._
 72
   65
 73
    6
 40
4.7625
 49
1.905
 74
    0
 49
-0.9525
 74
    0
 49
0
 74
    0
 49
-0.9525
 74
    0
 49
0
 74
    0
 49
-0.9525
 74
    0
  0
LTYPE
  5
40
330
5
100
AcDbSymbolTableRecord
100
AcDbLinetypeTableRecord
  2
DIVIDE2
 70
    0
  3
Divide (.5x) __..__..__..__..__..__..__..__.._
 72
   65
 73
    6
 40
15.875
 49
6.35
 74
    0
 49
-3.175
 74
    0
 49
0
 74
    0
 49
-3.175
 74
    0
 49
0
 74
    0
 49
-3.175
 74
    0
  0
LTYPE
  5
41
330
5
100
AcDbSymbolTableRecord
100
AcDbLinetypeTableRecord
  2
DIVIDEX2
 70
    0
  3
Divide (2x) ________  .  .  ________  .  .  _
 72
   65
 73
    6
 40
63.5
 49
25.4
 74
    0
 49
-12.7
 74
    0
 49
0
 74
    0
 49
-12.7
 74
    0
 49
0
 74
    0
 49
-12.7
 74
    0
  0
LTYPE
  5
42
330
5
100
AcDbSymbolTableRecord
100
AcDbLinetypeTableRecord
  2
BORDER
 70
    0
  3
Border __ __ . __ __ . __ __ . __ __ . __ __ .
 72
   65
 73
    6
 40
44.45
 49
12.7
 74
    0
 49
-6.35
 74
    0
 49
12.7
 74
    0
 49
-6.35
 74
    0
 49
0
 74
    0
 49
-6.35
 74
    0
  0
LTYPE
  5
43
330
5
100
AcDbSymbolTableRecord
100
AcDbLinetypeTableRecord
  2
BORDERTINY
 70
    0
  3
Border (.15x) __.__.__.__.__.__.__.__.__.__.__.
 72
   65
 73
    6
 40
6.6675
 49
1.905
 74
    0
 49
-0.9525
 74
    0
 49
1.905
 74
    0
 49
-0.9525
 74
    0
 49
0
 74
    0
 49
-0.9525
 74
    0
  0
LTYPE
  5
44
330
5
100
AcDbSymbolTableRecord
100
AcDbLinetypeTableRecord
  2
BORDER2
 70
    0
  3
Border (.5x) __.__.__.__.__.__.__.__.__.__.__.
 72
   65
 73
    6
 40
22.225
 49
6.35
 74
    0
 49
-3.175
 74
    0
 49
6.35
 74
    0
 49
-3.175
 74
    0
 49
0
 74
    0
 49
-3.175
 74
    0
  0
LTYPE
  5
45
330
5
100
AcDbSymbolTableRecord
100
AcDbLinetypeTableRecord
  2
BORDERX2
 70
    0
  3
Border (2x) ____  ____  .  ____  ____  .  ___
 72
   65
 73
    6
 40
88.89999999999999
 49
25.4
 74
    0
 49
-12.7
 74
    0
 49
25.4
 74
    0
 49
-12.7
 74
    0
 49
0
 74
    0
 49
-12.7
 74
    0
  0
LTYPE
  5
46
330
5
100
AcDbSymbolTableRecord
100
AcDbLinetypeTableRecord
  2
CENTER
 70
    0
  3
Center ____ _ ____ _ ____ _ ____ _ ____ _ ____
 72
   65
 73
    4
 40
50.8
 49
31.75
 74
    0
 49
-6.35
 74
    0
 49
6.35
 74
    0
 49
-6.35
 74
    0
  0
LTYPE
  5
47
330
5
100
AcDbSymbolTableRecord
100
AcDbLinetypeTableRecord
  2
CENTERTINY
 70
    0
  3
Center (.15x) ___ _ ___ _ ___ _ ___ _ ___ _ ___
 72
   65
 73
    4
 40
7.619999999999999
 49
4.7625
 74
    0
 49
-0.9525
 74
    0
 49
0.9525
 74
    0
 49
-0.9525
 74
    0
  0
LTYPE
  5
48
330
5
100
AcDbSymbolTableRecord
100
AcDbLinetypeTableRecord
  2
CENTER2
 70
    0
  3
Center (.5x) ___ _ ___ _ ___ _ ___ _ ___ _ ___
 72
   65
 73
    4
 40
28.575
 49
19.05
 74
    0
 49
-3.175
 74
    0
 49
3.175
 74
    0
 49
-3.175
 74
    0
  0
LTYPE
  5
49
330
5
100
AcDbSymbolTableRecord
100
AcDbLinetypeTableRecord
  2
CENTERX2
 70
    0
  3
Center (2x) ________  __  ________  __  _____
 72
   65
 73
    4
 40
101.6
 49
63.5
 74
    0
 49
-12.7
 74
    0
 49
12.7
 74
    0
 49
-12.7
 74
    0
  0
ENDTAB
  0
TABLE
  2
LAYER
  5
2
330
0
100
AcDbSymbolTable
 70
    1
  0
LAYER
  5
10
330
2
100
AcDbSymbolTableRecord
100
AcDbLayerTableRecord
  2
0
 70
    0
 62
    7
  6
CONTINUOUS
370
    5
390
F
  0
LAYER
  5
4A
330
2
100
AcDbSymbolTableRecord
100
AcDbLayerTableRecord
  2
dimensions geodesiques
 70
    4
 62
    7
  6
CONTINUOUS
370
    5
390
F
  0
LAYER
  5
4B
330
2
100
AcDbSymbolTableRecord
100
AcDbLayerTableRecord
  2
limites chauffage
 70
    5
 62
  255
  6
CONTINUOUS
370
    0
390
F
  0
LAYER
  5
4C
330
2
100
AcDbSymbolTableRecord
100
AcDbLayerTableRecord
  2
walls
 70
    0
 62
    7
  6
CONTINUOUS
370
    0
390
F
  0
LAYER
  5
4D
330
2
100
AcDbSymbolTableRecord
100
AcDbLayerTableRecord
  2
nappe chauffante
 70
    5
 62
   25
420
10053171
  6
CONTINUOUS
370
   -3
390
F
  0
ENDTAB
  0
TABLE
  2
STYLE
  5
3
330
0
100
AcDbSymbolTable
 70
    3
  0
STYLE
  5
4E
330
2
100
AcDbSymbolTableRecord
100
AcDbTextStyleTableRecord
  2
iso
 70
    0
 40
0
 41
1
 50
0
 71
    0
 42
1
  3
iso
  4

  0
STYLE
  5
4F
330
2
100
AcDbSymbolTableRecord
100
AcDbTextStyleTableRecord
  2
Standard
 70
    0
 40
0
 41
1
 50
0
 71
    0
 42
1
  3
txt
  4

  0
ENDTAB
  0
TABLE
  2
VIEW
  5
6
330
0
100
AcDbSymbolTable
 70
    0
  0
ENDTAB
  0
TABLE
  2
UCS
  5
7
330
0
100
AcDbSymbolTable
 70
    0
  0
ENDTAB
  0
TABLE
  2
APPID
  5
9
330
0
100
AcDbSymbolTable
 70
    1
  0
APPID
  5
12
330
9
100
AcDbSymbolTableRecord
100
AcDbRegAppTableRecord
  2
ACAD
 70
    0
  0
APPID
  5
50
330
9
100
AcDbSymbolTableRecord
100
AcDbRegAppTableRecord
  2
LibreCad
 70
    0
  0
ENDTAB
  0
TABLE
  2
DIMSTYLE
  5
A
330
0
100
AcDbSymbolTable
 70
    1
100
AcDbDimStyleTable
 71
    1
  0
DIMSTYLE
105
51
330
A
100
AcDbSymbolTableRecord
100
AcDbDimStyleTableRecord
  2
Standard
 70
    0
 40
1
 41
5
 42
1
 43
0.38
 44
0.125
 45
0
 46
0
 47
0
 48
0
 49
1
140
8
141
0.09
142
0
143
25.4
144
1
145
0
146
1
147
5
148
0
 71
    0
 72
    0
 73
    1
 74
    1
 75
    0
 76
    0
 77
    0
 78
    8
 79
    0
170
    0
171
    2
172
    0
173
    0
174
    0
175
    0
176
    8
177
    8
178
   25
179
    0
271
    1
272
    4
273
    2
274
    2
275
    0
276
    0
277
    2
278
    0
279
    0
280
    0
281
    0
282
    0
283
    1
284
    0
285
    0
286
    0
288
    0
289
    3
340
romand
341

371
    5
372
    5
  0
ENDTAB
  0
TABLE
  2
BLOCK_RECORD
  5
1
330
0
100
AcDbSymbolTable
 70
    2
  0
BLOCK_RECORD
  5
1F
330
1
100
AcDbSymbolTableRecord
100
AcDbBlockTableRecord
  2
*Model_Space
 70
    0
280
    1
281
    0
  0
BLOCK_RECORD
  5
1E
330
1
100
AcDbSymbolTableRecord
100
AcDbBlockTableRecord
  2
*Paper_Space
 70
    0
280
    1
281
    0
  0
BLOCK_RECORD
  5
52
330
1
100
AcDbSymbolTableRecord
100
AcDbBlockTableRecord
  2
*D13
 70
    0
280
    1
281
    0
  0
BLOCK_RECORD
  5
55
330
1
100
AcDbSymbolTableRecord
100
AcDbBlockTableRecord
  2
*D23
 70
    0
280
    1
281
    0
  0
BLOCK_RECORD
  5
58
330
1
100
AcDbSymbolTableRecord
100
AcDbBlockTableRecord
  2
*D4
 70
    0
280
    1
281
    0
  0
BLOCK_RECORD
  5
5B
330
1
100
AcDbSymbolTableRecord
100
AcDbBlockTableRecord
  2
*D3
 70
    0
280
    1
281
    0
  0
BLOCK_RECORD
  5
5E
330
1
100
AcDbSymbolTableRecord
100
AcDbBlockTableRecord
  2
*D17
 70
    0
280
    1
281
    0
  0
BLOCK_RECORD
  5
61
330
1
100
AcDbSymbolTableRecord
100
AcDbBlockTableRecord
  2
*D20
 70
    0
280
    1
281
    0
  0
BLOCK_RECORD
  5
64
330
1
100
AcDbSymbolTableRecord
100
AcDbBlockTableRecord
  2
*D15
 70
    0
280
    1
281
    0
  0
BLOCK_RECORD
  5
67
330
1
100
AcDbSymbolTableRecord
100
AcDbBlockTableRecord
  2
*D6
 70
    0
280
    1
281
    0
  0
BLOCK_RECORD
  5
6A
330
1
100
AcDbSymbolTableRecord
100
AcDbBlockTableRecord
  2
*D12
 70
    0
280
    1
281
    0
  0
BLOCK_RECORD
  5
6D
330
1
100
AcDbSymbolTableRecord
100
AcDbBlockTableRecord
  2
*D21
 70
    0
280
    1
281
    0
  0
BLOCK_RECORD
  5
70
330
1
100
AcDbSymbolTableRecord
100
AcDbBlockTableRecord
  2
*D18
 70
    0
280
    1
281
    0
  0
BLOCK_RECORD
  5
73
330
1
100
AcDbSymbolTableRecord
100
AcDbBlockTableRecord
  2
*D2
 70
    0
280
    1
281
    0
  0
BLOCK_RECORD
  5
76
330
1
100
AcDbSymbolTableRecord
100
AcDbBlockTableRecord
  2
*D5
 70
    0
280
    1
281
    0
  0
BLOCK_RECORD
  5
79
330
1
100
AcDbSymbolTableRecord
100
AcDbBlockTableRecord
  2
*D10
 70
    0
280
    1
281
    0
  0
BLOCK_RECORD
  5
7C
330
1
100
AcDbSymbolTableRecord
100
AcDbBlockTableRecord
  2
*D9
 70
    0
280
    1
281
    0
  0
BLOCK_RECORD
  5
7F
330
1
100
AcDbSymbolTableRecord
100
AcDbBlockTableRecord
  2
*D14
 70
    0
280
    1
281
    0
  0
BLOCK_RECORD
  5
82
330
1
100
AcDbSymbolTableRecord
100
AcDbBlockTableRecord
  2
*D16
 70
    0
280
    1
281
    0
  0
BLOCK_RECORD
  5
85
330
1
100
AcDbSymbolTableRecord
100
AcDbBlockTableRecord
  2
*D7
 70
    0
280
    1
281
    0
  0
BLOCK_RECORD
  5
88
330
1
100
AcDbSymbolTableRecord
100
AcDbBlockTableRecord
  2
*D8
 70
    0
280
    1
281
    0
  0
BLOCK_RECORD
  5
8B
330
1
100
AcDbSymbolTableRecord
100
AcDbBlockTableRecord
  2
*D1
 70
    0
280
    1
281
    0
  0
BLOCK_RECORD
  5
8E
330
1
100
AcDbSymbolTableRecord
100
AcDbBlockTableRecord
  2
*D11
 70
    0
280
    1
281
    0
  0
BLOCK_RECORD
  5
91
330
1
100
AcDbSymbolTableRecord
100
AcDbBlockTableRecord
  2
*D19
 70
    0
280
    1
281
    0
  0
BLOCK_RECORD
  5
94
330
1
100
AcDbSymbolTableRecord
100
AcDbBlockTableRecord
  2
*D22
 70
    0
280
    1
281
    0
  0
ENDTAB
  0
ENDSEC
  0
SECTION
  2
BLOCKS
  0
BLOCK
  5
20
330
1F
100
AcDbEntity
  8
0
100
AcDbBlockBegin
  2
*Model_Space
 70
    0
 10
0
 20
0
 30
0
  3
*Model_Space
  1

  0
ENDBLK
  5
21
330
1F
100
AcDbEntity
  8
0
100
AcDbBlockEnd
  0
BLOCK
  5
1C
330
1B
100
AcDbEntity
  8
0
100
AcDbBlockBegin
  2
*Paper_Space
 70
    0
 10
0
 20
0
 30
0
  3
*Paper_Space
  1

  0
ENDBLK
  5
1D
330
1F
100
AcDbEntity
  8
0
100
AcDbBlockEnd
  0
BLOCK
  5
53
330
52
100
AcDbEntity
  8
0
100
AcDbBlockBegin
  2
*D13
 70
    1
 10
0
 20
0
  3
*D13
  1

  0
LINE
  5
97
100
AcDbEntity
  8
dimensions geodesiques
  6
ByBlock
 62
    8
370
    5
100
AcDbLine
 10
432.4827401318181
 20
-396.3522529872589
 11
432.9293489066224
 21
-396.959847230082
  0
LINE
  5
98
100
AcDbEntity
  8
dimensions geodesiques
  6
ByBlock
 62
    8
370
    5
100
AcDbLine
 10
955.9037401318182
 20
-11.61455298725891
 11
956.3503489066223
 21
-12.222147230082
  0
LINE
  5
99
100
AcDbEntity
  8
dimensions geodesiques
  6
ByBlock
 62
    8
370
    5
100
AcDbLine
 10
433.0033813901451
 20
-397.0605656066746
 11
682.4697238771173
 21
-213.6917156066747
  0
SOLID
  5
9A
100
AcDbEntity
  8
dimensions geodesiques
  6
ByBlock
 62
    8
370
    5
100
AcDbTrace
 10
433.0033813901451
 20
-397.0605656066746
 30
0
 11
436.5390190607717
 21
-393.4284260268631
 31
0
 12
437.525213846927
 22
-394.7701065046643
 32
0
 13
437.525213846927
 23
-394.7701065046643
 33
0
  0
SOLID
  5
9B
100
AcDbEntity
  8
dimensions geodesiques
  6
ByBlock
 62
    8
370
    5
100
AcDbTrace
 10
956.4243813901451
 20
-12.32286560667463
 30
0
 11
952.8887437195184
 21
-15.9550051864862
 31
0
 12
951.9025489333632
 22
-14.61332470868494
 32
0
 13
951.9025489333632
 23
-14.61332470868494
 33
0
  0
LINE
  5
9C
100
AcDbEntity
  8
dimensions geodesiques
  6
ByBlock
 62
    8
370
    5
100
AcDbLine
 10
706.9580389031726
 20
-195.6917156066747
 11
956.4243813901451
 21
-12.32286560667463
  0
MTEXT
  5
9D
100
AcDbEntity
  8
dimensions geodesiques
  6
CONTINUOUS
 62
   25
370
   -2
100
AcDbMText
 10
694.713881390145
 20
-204.6917156066747
 30
0
 40
8
 41
32.38096
 71
    5
 72
    1
  1
649.6
  7
romand
210
0
220
0
230
1
 50
0
 73
    2
 44
1
  0
ENDBLK
  5
54
330
52
100
AcDbEntity
  8
0
100
AcDbBlockEnd
  0
BLOCK
  5
56
330
55
100
AcDbEntity
  8
0
100
AcDbBlockBegin
  2
*D23
 70
    1
 10
0
 20
0
  3
*D23
  1

  0
LINE
  5
9E
100
AcDbEntity
  8
dimensions geodesiques
  6
ByBlock
 62
    8
370
    5
100
AcDbLine
 10
-21.52548226968158
 20
39.55530795608314
 11
5.852415431709193
 21
39.03251264108135
  0
LINE
  5
9F
100
AcDbEntity
  8
dimensions geodesiques
  6
ByBlock
 62
    8
370
    5
100
AcDbLine
 10
-29.84388226968158
 20
-396.0650920439169
 11
-2.465984568290804
 21
-396.5878873589186
  0
LINE
  5
A0
100
AcDbEntity
  8
dimensions geodesiques
  6
ByBlock
 62
    8
370
    5
100
AcDbLine
 10
5.72743821541939
 20
39.03489914657096
 11
1.740097935487595
 21
-169.7753008534292
  0
SOLID
  5
A1
100
AcDbEntity
  8
dimensions geodesiques
  6
ByBlock
 62
    8
370
    5
100
AcDbTrace
 10
5.72743821541939
 20
39.03489914657096
 30
0
 11
6.464395559236727
 21
34.01991504504263
 31
0
 12
4.79956043243344
 22
34.05170594491508
 32
0
 13
4.79956043243344
 23
34.05170594491508
 33
0
  0
SOLID
  5
A2
100
AcDbEntity
  8
dimensions geodesiques
  6
ByBlock
 62
    8
370
    5
100
AcDbTrace
 10
-2.590961784580607
 20
-396.585500853429
 30
0
 11
-3.327919128397943
 21
-391.5705167519007
 31
0
 12
-1.663084001594657
 22
-391.6023076517732
 32
0
 13
-1.663084001594657
 23
-391.6023076517732
 33
0
  0
LINE
  5
A3
100
AcDbEntity
  8
dimensions geodesiques
  6
ByBlock
 62
    8
370
    5
100
AcDbLine
 10
1.396378495351183
 20
-187.7753008534292
 11
-2.590961784580607
 21
-396.585500853429
  0
MTEXT
  5
A4
100
AcDbEntity
  8
dimensions geodesiques
  6
CONTINUOUS
 62
   25
370
   -2
100
AcDbMText
 10
1.568238215419388
 20
-178.7753008534292
 30
0
 40
8
 41
33.52378666666667
 71
    5
 72
    1
  1
435.7
  7
romand
210
0
220
0
230
1
 50
0
 73
    2
 44
1
  0
ENDBLK
  5
57
330
55
100
AcDbEntity
  8
0
100
AcDbBlockEnd
  0
BLOCK
  5
59
330
58
100
AcDbEntity
  8
0
100
AcDbBlockBegin
  2
*D4
 70
    1
 10
0
 20
0
  3
*D4
  1

  0
LINE
  5
A5
100
AcDbEntity
  8
dimensions geodesiques
  6
ByBlock
 62
    8
370
    5
100
AcDbLine
 10
-23.21284303212363
 20
38.8482282156427
 11
-23.52291030611866
 21
38.52073843817498
  0
LINE
  5
A6
100
AcDbEntity
  8
dimensions geodesiques
  6
ByBlock
 62
    8
370
    5
100
AcDbLine
 10
332.3871499678764
 20
-297.8337937843573
 11
332.0770826938813
 21
-298.161283561825
  0
LINE
  5
A7
100
AcDbEntity
  8
dimensions geodesiques
  6
ByBlock
 62
    8
370
    5
100
AcDbLine
 10
-23.4369694271032
 20
38.61150828621965
 11
144.8573222004223
 21
-120.7295027137804
  0
SOLID
  5
A8
100
AcDbEntity
  8
dimensions geodesiques
  6
ByBlock
 62
    8
370
    5
100
AcDbTrace
 10
-23.4369694271032
 20
38.61150828621965
 30
0
 11
-19.2337615947624
 21
35.7784506476713
 31
0
 12
-20.37858941587106
 22
34.56929560353163
 32
0
 13
-20.37858941587106
 23
34.56929560353163
 33
0
  0
SOLID
  5
A9
100
AcDbEntity
  8
dimensions geodesiques
  6
ByBlock
 62
    8
370
    5
100
AcDbTrace
 10
332.1630235728968
 20
-298.0705137137804
 30
0
 11
327.959815740556
 21
-295.237456075232
 31
0
 12
329.1046435616647
 22
-294.0283010310923
 32
0
 13
329.1046435616647
 23
-294.0283010310923
 33
0
  0
LINE
  5
AA
100
AcDbEntity
  8
dimensions geodesiques
  6
ByBlock
 62
    8
370
    5
100
AcDbLine
 10
163.8687319453714
 20
-138.7295027137804
 11
332.1630235728968
 21
-298.0705137137804
  0
MTEXT
  5
AB
100
AcDbEntity
  8
dimensions geodesiques
  6
CONTINUOUS
 62
   25
370
   -2
100
AcDbMText
 10
154.3630270728968
 20
-129.7295027137804
 30
0
 40
8
 41
33.14284444444445
 71
    5
 72
    1
  1
489.7
  7
romand
210
0
220
0
230
1
 50
0
 73
    2
 44
1
  0
ENDBLK
  5
5A
330
58
100
AcDbEntity
  8
0
100
AcDbBlockEnd
  0
BLOCK
  5
5C
330
5B
100
AcDbEntity
  8
0
100
AcDbBlockBegin
  2
*D3
 70
    1
 10
0
 20
0
  3
*D3
  1

  0
LINE
  5
AC
100
AcDbEntity
  8
dimensions geodesiques
  6
ByBlock
 62
    8
370
    5
100
AcDbLine
 10
332.8697168227234
 20
-298.0867026193524
 11
317.0749307184488
 21
-373.389505008936
  0
LINE
  5
AD
100
AcDbEntity
  8
dimensions geodesiques
  6
ByBlock
 62
    8
370
    5
100
AcDbLine
 10
196.3407168227234
 20
-269.4497026193524
 11
180.5459307184488
 21
-344.752505008936
  0
LINE
  5
AE
100
AcDbEntity
  8
dimensions geodesiques
  6
ByBlock
 62
    8
370
    5
100
AcDbLine
 10
317.1005911156084
 20
-373.2671671815169
 11
268.5027533378307
 21
-363.0737556686353
  0
SOLID
  5
AF
100
AcDbEntity
  8
dimensions geodesiques
  6
ByBlock
 62
    8
370
    5
100
AcDbTrace
 10
317.1005911156084
 20
-373.2671671815169
 30
0
 11
312.0361655444482
 21
-373.055589065051
 31
0
 12
312.3779904932446
 22
-371.425913525217
 32
0
 13
312.3779904932446
 23
-371.425913525217
 33
0
  0
SOLID
  5
B0
100
AcDbEntity
  8
dimensions geodesiques
  6
ByBlock
 62
    8
370
    5
100
AcDbTrace
 10
180.5715911156084
 20
-344.6301671815169
 30
0
 11
185.6360166867685
 21
-344.8417452979829
 31
0
 12
185.2941917379721
 22
-346.4714208378168
 32
0
 13
185.2941917379721
 23
-346.4714208378168
 33
0
  0
LINE
  5
B1
100
AcDbEntity
  8
dimensions geodesiques
  6
ByBlock
 62
    8
370
    5
100
AcDbLine
 10
229.1694288933861
 20
-354.8235786943986
 11
180.5715911156084
 21
-344.6301671815169
  0
MTEXT
  5
B2
100
AcDbEntity
  8
dimensions geodesiques
  6
CONTINUOUS
 62
   25
370
   -2
100
AcDbMText
 10
248.8360911156084
 20
-358.9486671815168
 30
0
 40
8
 41
29.33332444444444
 71
    5
 72
    1
  1
139.5
  7
romand
210
0
220
0
230
1
 50
0
 73
    2
 44
1
  0
ENDBLK
  5
5D
330
5B
100
AcDbEntity
  8
0
100
AcDbBlockEnd
  0
BLOCK
  5
5F
330
5E
100
AcDbEntity
  8
0
100
AcDbBlockBegin
  2
*D17
 70
    1
 10
0
 20
0
  3
*D17
  1

  0
LINE
  5
B3
100
AcDbEntity
  8
dimensions geodesiques
  6
ByBlock
 62
    8
370
    5
100
AcDbLine
 10
434.075
 20
-397.158
 11
463.1101544555005
 21
-397.158
  0
LINE
  5
B4
100
AcDbEntity
  8
dimensions geodesiques
  6
ByBlock
 62
    8
370
    5
100
AcDbLine
 10
434.075
 20
-3.358470000000001
 11
463.1101544555005
 21
-3.358470000000007
  0
LINE
  5
B5
100
AcDbEntity
  8
dimensions geodesiques
  6
ByBlock
 62
    8
370
    5
100
AcDbLine
 10
462.9851544555005
 20
-397.158
 11
462.9851544555005
 21
-209.258235
  0
SOLID
  5
B6
100
AcDbEntity
  8
dimensions geodesiques
  6
ByBlock
 62
    8
370
    5
100
AcDbTrace
 10
462.9851544555005
 20
-397.158
 30
0
 11
462.1525851399548
 21
-392.158
 31
0
 12
463.8177237710462
 22
-392.158
 32
0
 13
463.8177237710462
 23
-392.158
 33
0
  0
SOLID
  5
B7
100
AcDbEntity
  8
dimensions geodesiques
  6
ByBlock
 62
    8
370
    5
100
AcDbTrace
 10
462.9851544555005
 20
-3.358470000000007
 30
0
 11
463.8177237710462
 21
-8.358470000000008
 31
0
 12
462.1525851399548
 22
-8.358470000000008
 32
0
 13
462.1525851399548
 23
-8.358470000000008
 33
0
  0
LINE
  5
B8
100
AcDbEntity
  8
dimensions geodesiques
  6
ByBlock
 62
    8
370
    5
100
AcDbLine
 10
462.9851544555005
 20
-191.258235
 11
462.9851544555005
 21
-3.358470000000007
  0
MTEXT
  5
B9
100
AcDbEntity
  8
dimensions geodesiques
  6
CONTINUOUS
 62
   25
370
   -2
100
AcDbMText
 10
462.9851544555005
 20
-200.258235
 30
0
 40
8
 41
32.76188444444445
 71
    5
 72
    1
  1
393.8
  7
romand
210
0
220
0
230
1
 50
0
 73
    2
 44
1
  0
ENDBLK
  5
60
330
5E
100
AcDbEntity
  8
0
100
AcDbBlockEnd
  0
BLOCK
  5
62
330
61
100
AcDbEntity
  8
0
100
AcDbBlockBegin
  2
*D20
 70
    1
 10
0
 20
0
  3
*D20
  1

  0
LINE
  5
BA
100
AcDbEntity
  8
dimensions geodesiques
  6
ByBlock
 62
    8
370
    5
100
AcDbLine
 10
346.0751820400008
 20
38.64150001656928
 11
346.0787299066063
 21
19.15201126643602
  0
LINE
  5
BB
100
AcDbEntity
  8
dimensions geodesiques
  6
ByBlock
 62
    8
370
    5
100
AcDbLine
 10
-22.52511795999925
 20
38.57440001656928
 11
-22.52157009339374
 21
19.08491126643602
  0
LINE
  5
BC
100
AcDbEntity
  8
dimensions geodesiques
  6
ByBlock
 62
    8
370
    5
100
AcDbLine
 10
346.0787071516062
 20
19.27701126436486
 11
182.9690282627172
 21
19.24731877780572
  0
SOLID
  5
BD
100
AcDbEntity
  8
dimensions geodesiques
  6
ByBlock
 62
    8
370
    5
100
AcDbTrace
 10
346.0787071516062
 20
19.27701126436486
 30
0
 11
341.0788587953714
 21
18.44353176261051
 31
0
 12
341.0785556735337
 22
20.10867036611172
 32
0
 13
341.0785556735337
 23
20.10867036611172
 33
0
  0
SOLID
  5
BE
100
AcDbEntity
  8
dimensions geodesiques
  6
ByBlock
 62
    8
370
    5
100
AcDbTrace
 10
-22.52159284839384
 20
19.20991126436486
 30
0
 11
-17.52174449215907
 21
20.04339076611921
 31
0
 12
-17.52144137032142
 22
18.378252162618
 32
0
 13
-17.52144137032142
 23
18.378252162618
 33
0
  0
LINE
  5
BF
100
AcDbEntity
  8
dimensions geodesiques
  6
ByBlock
 62
    8
370
    5
100
AcDbLine
 10
140.588086040495
 20
19.239603750924
 11
-22.52159284839384
 21
19.20991126436486
  0
MTEXT
  5
C0
100
AcDbEntity
  8
dimensions geodesiques
  6
CONTINUOUS
 62
   25
370
   -2
100
AcDbMText
 10
161.7785571516061
 20
19.24346126436486
 30
0
 40
8
 41
32.38094222222222
 71
    5
 72
    1
  1
368.6
  7
romand
210
0
220
0
230
1
 50
0
 73
    2
 44
1
  0
ENDBLK
  5
63
330
61
100
AcDbEntity
  8
0
100
AcDbBlockEnd
  0
BLOCK
  5
65
330
64
100
AcDbEntity
  8
0
100
AcDbBlockBegin
  2
*D15
 70
    1
 10
0
 20
0
  3
*D15
  1

  0
LINE
  5
C1
100
AcDbEntity
  8
dimensions geodesiques
  6
ByBlock
 62
    8
370
    5
100
AcDbLine
 10
955.4966904865913
 20
-12.45745503210804
 11
924.8310305377296
 21
-13.59762588480778
  0
LINE
  5
C2
100
AcDbEntity
  8
dimensions geodesiques
  6
ByBlock
 62
    8
370
    5
100
AcDbLine
 10
971.5736904865913
 20
-444.859155032108
 11
940.9080305377296
 21
-445.9993258848078
  0
LINE
  5
C3
100
AcDbEntity
  8
dimensions geodesiques
  6
ByBlock
 62
    8
370
    5
100
AcDbLine
 10
924.9559442269057
 20
-13.59298150579428
 11
932.6598178829297
 21
-220.7938315057943
  0
SOLID
  5
C4
100
AcDbEntity
  8
dimensions geodesiques
  6
ByBlock
 62
    8
370
    5
100
AcDbTrace
 10
924.9559442269057
 20
-13.59298150579428
 30
0
 11
925.9737138250428
 21
-18.55859493318631
 31
0
 12
924.3097249498489
 22
-18.62046321248884
 32
0
 13
924.3097249498489
 23
-18.62046321248884
 33
0
  0
SOLID
  5
C5
100
AcDbEntity
  8
dimensions geodesiques
  6
ByBlock
 62
    8
370
    5
100
AcDbTrace
 10
941.0329442269057
 20
-445.9946815057943
 30
0
 11
940.0151746287686
 21
-441.0290680784022
 31
0
 12
941.6791635039624
 22
-440.9671997990997
 32
0
 13
941.6791635039624
 23
-440.9671997990997
 33
0
  0
LINE
  5
C6
100
AcDbEntity
  8
dimensions geodesiques
  6
ByBlock
 62
    8
370
    5
100
AcDbLine
 10
933.3290705708816
 20
-238.7938315057943
 11
941.0329442269057
 21
-445.9946815057943
  0
MTEXT
  5
C7
100
AcDbEntity
  8
dimensions geodesiques
  6
CONTINUOUS
 62
   25
370
   -2
100
AcDbMText
 10
932.9944442269057
 20
-229.7938315057943
 30
0
 40
8
 41
33.52378666666667
 71
    5
 72
    1
  1
432.7
  7
romand
210
0
220
0
230
1
 50
0
 73
    2
 44
1
  0
ENDBLK
  5
66
330
64
100
AcDbEntity
  8
0
100
AcDbBlockEnd
  0
BLOCK
  5
68
330
67
100
AcDbEntity
  8
0
100
AcDbBlockBegin
  2
*D6
 70
    1
 10
0
 20
0
  3
*D6
  1

  0
LINE
  5
C8
100
AcDbEntity
  8
dimensions geodesiques
  6
ByBlock
 62
    8
370
    5
100
AcDbLine
 10
-23.43795141782451
 20
39.16566122089663
 11
-23.73161554092368
 21
39.03414122016279
  0
LINE
  5
C9
100
AcDbEntity
  8
dimensions geodesiques
  6
ByBlock
 62
    8
370
    5
100
AcDbLine
 10
120.0293955821755
 20
-281.1750657791034
 11
119.7357314590763
 21
-281.3065857798372
  0
LINE
  5
CA
100
AcDbEntity
  8
dimensions geodesiques
  6
ByBlock
 62
    8
370
    5
100
AcDbLine
 10
-23.61753411369561
 20
39.08523356755072
 11
44.08541205702543
 21
-112.0851299324493
  0
SOLID
  5
CB
100
AcDbEntity
  8
dimensions geodesiques
  6
ByBlock
 62
    8
370
    5
100
AcDbTrace
 10
-23.61753411369561
 20
39.08523356755072
 30
0
 11
-20.81399465190876
 21
34.86227984398328
 31
0
 12
-22.33368578444864
 22
34.18167311287312
 32
0
 13
-22.33368578444864
 23
34.18167311287312
 33
0
  0
SOLID
  5
CC
100
AcDbEntity
  8
dimensions geodesiques
  6
ByBlock
 62
    8
370
    5
100
AcDbTrace
 10
119.8498128863044
 20
-281.2554934324493
 30
0
 11
117.0462734245175
 21
-277.0325397088818
 31
0
 12
118.5659645570574
 22
-276.3519329777717
 32
0
 13
118.5659645570574
 23
-276.3519329777717
 33
0
  0
LINE
  5
CD
100
AcDbEntity
  8
dimensions geodesiques
  6
ByBlock
 62
    8
370
    5
100
AcDbLine
 10
52.14686671558341
 20
-130.0851299324493
 11
119.8498128863044
 21
-281.2554934324493
  0
MTEXT
  5
CE
100
AcDbEntity
  8
dimensions geodesiques
  6
CONTINUOUS
 62
   25
370
   -2
100
AcDbMText
 10
48.11613938630436
 20
-121.0851299324493
 30
0
 40
8
 41
17.90474666666667
 71
    5
 72
    1
  1
351
  7
romand
210
0
220
0
230
1
 50
0
 73
    2
 44
1
  0
ENDBLK
  5
69
330
67
100
AcDbEntity
  8
0
100
AcDbBlockEnd
  0
BLOCK
  5
6B
330
6A
100
AcDbEntity
  8
0
100
AcDbBlockBegin
  2
*D12
 70
    1
 10
0
 20
0
  3
*D12
  1

  0
LINE
  5
CF
100
AcDbEntity
  8
dimensions geodesiques
  6
ByBlock
 62
    8
370
    5
100
AcDbLine
 10
120.9245456953337
 20
-279.7661523379791
 11
120.6292348323636
 21
-262.8496448313681
  0
LINE
  5
D0
100
AcDbEntity
  8
dimensions geodesiques
  6
ByBlock
 62
    8
370
    5
100
AcDbLine
 10
-28.70970280512675
 20
-282.3783120309469
 11
-29.00501366809685
 21
-265.4618045243359
  0
LINE
  5
D1
100
AcDbEntity
  8
dimensions geodesiques
  6
ByBlock
 62
    8
370
    5
100
AcDbLine
 10
120.6314166204469
 20
-262.9746257891207
 11
65.67143459243889
 21
-263.9340602181936
  0
SOLID
  5
D2
100
AcDbEntity
  8
dimensions geodesiques
  6
ByBlock
 62
    8
370
    5
100
AcDbTrace
 10
120.6314166204469
 20
-262.9746257891207
 30
0
 11
115.6467102288318
 21
-263.8943397960708
 31
0
 12
115.6176463918532
 22
-262.2294548288335
 32
0
 13
115.6176463918532
 23
-262.2294548288335
 33
0
  0
SOLID
  5
D3
100
AcDbEntity
  8
dimensions geodesiques
  6
ByBlock
 62
    8
370
    5
100
AcDbTrace
 10
-29.00283188001356
 20
-265.5867854820885
 30
0
 11
-24.01812548839851
 21
-264.6670714751384
 31
0
 12
-23.98906165141982
 22
-266.3319564423757
 32
0
 13
-23.98906165141982
 23
-266.3319564423757
 33
0
  0
LINE
  5
D4
100
AcDbEntity
  8
dimensions geodesiques
  6
ByBlock
 62
    8
370
    5
100
AcDbLine
 10
25.95715014799444
 20
-264.6273510530156
 11
-29.00283188001356
 21
-265.5867854820885
  0
MTEXT
  5
D5
100
AcDbEntity
  8
dimensions geodesiques
  6
CONTINUOUS
 62
   25
370
   -2
100
AcDbMText
 10
45.81429237021666
 20
-264.2807056356046
 30
0
 40
8
 41
29.71428444444444
 71
    5
 72
    1
  1
149.7
  7
romand
210
0
220
0
230
1
 50
0
 73
    2
 44
1
  0
ENDBLK
  5
6C
330
6A
100
AcDbEntity
  8
0
100
AcDbBlockEnd
  0
BLOCK
  5
6E
330
6D
100
AcDbEntity
  8
0
100
AcDbBlockBegin
  2
*D21
 70
    1
 10
0
 20
0
  3
*D21
  1

  0
LINE
  5
D6
100
AcDbEntity
  8
dimensions geodesiques
  6
ByBlock
 62
    8
370
    5
100
AcDbLine
 10
346.9746522860279
 20
39.20489289487614
 11
354.7821878472694
 21
35.41584511220947
  0
LINE
  5
D7
100
AcDbEntity
  8
dimensions geodesiques
  6
ByBlock
 62
    8
370
    5
100
AcDbLine
 10
197.445652286028
 20
-268.9076071051239
 11
205.2531878472695
 21
-272.6966548877905
  0
LINE
  5
D8
100
AcDbEntity
  8
dimensions geodesiques
  6
ByBlock
 62
    8
370
    5
100
AcDbLine
 10
354.6697313115159
 20
35.47042100034996
 11
284.2729898412737
 21
-109.5858289996501
  0
SOLID
  5
D9
100
AcDbEntity
  8
dimensions geodesiques
  6
ByBlock
 62
    8
370
    5
100
AcDbTrace
 10
354.6697313115159
 20
35.47042100034996
 30
0
 11
353.235718673904
 21
30.60865389153473
 31
0
 12
351.7376728978892
 22
31.33566524888545
 32
0
 13
351.7376728978892
 23
31.33566524888545
 33
0
  0
SOLID
  5
DA
100
AcDbEntity
  8
dimensions geodesiques
  6
ByBlock
 62
    8
370
    5
100
AcDbTrace
 10
205.140731311516
 20
-272.64207899965
 30
0
 11
206.5747439491279
 21
-267.7803118908348
 31
0
 12
208.0727897251427
 22
-268.5073232481855
 32
0
 13
208.0727897251427
 23
-268.5073232481855
 33
0
  0
LINE
  5
DB
100
AcDbEntity
  8
dimensions geodesiques
  6
ByBlock
 62
    8
370
    5
100
AcDbLine
 10
275.5374727817581
 20
-127.5858289996501
 11
205.140731311516
 21
-272.64207899965
  0
MTEXT
  5
DC
100
AcDbEntity
  8
dimensions geodesiques
  6
CONTINUOUS
 62
   25
370
   -2
100
AcDbMText
 10
279.905231311516
 20
-118.5858289996501
 30
0
 40
8
 41
33.52378666666667
 71
    5
 72
    1
  1
342.5
  7
romand
210
0
220
0
230
1
 50
0
 73
    2
 44
1
  0
ENDBLK
  5
6F
330
6D
100
AcDbEntity
  8
0
100
AcDbBlockEnd
  0
BLOCK
  5
71
330
70
100
AcDbEntity
  8
0
100
AcDbBlockBegin
  2
*D18
 70
    1
 10
0
 20
0
  3
*D18
  1

  0
LINE
  5
DD
100
AcDbEntity
  8
dimensions geodesiques
  6
ByBlock
 62
    8
370
    5
100
AcDbLine
 10
433.057689895407
 20
-4.358320168914813
 11
432.3369878703817
 21
-45.98684052746589
  0
LINE
  5
DE
100
AcDbEntity
  8
dimensions geodesiques
  6
ByBlock
 62
    8
370
    5
100
AcDbLine
 10
956.478689895407
 20
-13.42015016891481
 11
955.7579878703817
 21
-55.04867052746589
  0
LINE
  5
DF
100
AcDbEntity
  8
dimensions geodesiques
  6
ByBlock
 62
    8
370
    5
100
AcDbLine
 10
432.3391516334558
 20
-45.86185925635154
 11
672.4782383001225
 21
-50.01931487950881
  0
SOLID
  5
E0
100
AcDbEntity
  8
dimensions geodesiques
  6
ByBlock
 62
    8
370
    5
100
AcDbTrace
 10
432.3391516334558
 20
-45.86185925635154
 30
0
 11
437.3528143399629
 21
-45.11596520853495
 31
0
 12
437.3239906160968
 22
-46.78085435009822
 32
0
 13
437.3239906160968
 23
-46.78085435009822
 33
0
  0
SOLID
  5
E1
100
AcDbEntity
  8
dimensions geodesiques
  6
ByBlock
 62
    8
370
    5
100
AcDbTrace
 10
955.7601516334558
 20
-54.92368925635154
 30
0
 11
950.7464889269488
 21
-55.66958330416814
 31
0
 12
950.7753126508148
 22
-54.00469416260486
 32
0
 13
950.7753126508148
 23
-54.00469416260486
 33
0
  0
LINE
  5
E2
100
AcDbEntity
  8
dimensions geodesiques
  6
ByBlock
 62
    8
370
    5
100
AcDbLine
 10
715.6210649667892
 20
-50.76623363319427
 11
955.7601516334558
 21
-54.92368925635154
  0
MTEXT
  5
E3
100
AcDbEntity
  8
dimensions geodesiques
  6
CONTINUOUS
 62
   25
370
   -2
100
AcDbMText
 10
694.0496516334558
 20
-50.39277425635154
 30
0
 40
8
 41
33.14282666666666
 71
    5
 72
    1
  1
523.5
  7
romand
210
0
220
0
230
1
 50
0
 73
    2
 44
1
  0
ENDBLK
  5
72
330
70
100
AcDbEntity
  8
0
100
AcDbBlockEnd
  0
BLOCK
  5
74
330
73
100
AcDbEntity
  8
0
100
AcDbBlockBegin
  2
*D2
 70
    1
 10
0
 20
0
  3
*D2
  1

  0
LINE
  5
E4
100
AcDbEntity
  8
dimensions geodesiques
  6
ByBlock
 62
    8
370
    5
100
AcDbLine
 10
333.0668380455652
 20
-298.1076042749247
 11
332.7703527000072
 21
-335.9284946103312
  0
LINE
  5
E5
100
AcDbEntity
  8
dimensions geodesiques
  6
ByBlock
 62
    8
370
    5
100
AcDbLine
 10
250.0693882268175
 20
-297.456971056835
 11
249.7729028812595
 21
-335.2778613922415
  0
LINE
  5
E6
100
AcDbEntity
  8
dimensions geodesiques
  6
ByBlock
 62
    8
370
    5
100
AcDbLine
 10
332.7713325693115
 20
-335.8034984509656
 11
302.9392654377155
 21
-335.569639050677
  0
SOLID
  5
E7
100
AcDbEntity
  8
dimensions geodesiques
  6
ByBlock
 62
    8
370
    5
100
AcDbTrace
 10
332.7713325693115
 20
-335.8034984509656
 30
0
 11
327.7649597217598
 21
-336.5968474135823
 31
0
 12
327.7780126676166
 22
-334.9317599440008
 32
0
 13
327.7780126676166
 23
-334.9317599440008
 33
0
  0
SOLID
  5
E8
100
AcDbEntity
  8
dimensions geodesiques
  6
ByBlock
 62
    8
370
    5
100
AcDbTrace
 10
249.7738827505639
 20
-335.1528652328759
 30
0
 11
254.7802555981156
 21
-334.3595162702592
 31
0
 12
254.7672026522588
 22
-336.0246037398408
 32
0
 13
254.7672026522588
 23
-336.0246037398408
 33
0
  0
LINE
  5
E9
100
AcDbEntity
  8
dimensions geodesiques
  6
ByBlock
 62
    8
370
    5
100
AcDbLine
 10
279.6059498821599
 20
-335.3867246331645
 11
249.7738827505639
 21
-335.1528652328759
  0
MTEXT
  5
EA
100
AcDbEntity
  8
dimensions geodesiques
  6
CONTINUOUS
 62
   25
370
   -2
100
AcDbMText
 10
291.2726076599377
 20
-335.4781818419207
 30
0
 40
8
 41
13.33331555555555
 71
    5
 72
    1
  1
83
  7
romand
210
0
220
0
230
1
 50
0
 73
    2
 44
1
  0
ENDBLK
  5
75
330
73
100
AcDbEntity
  8
0
100
AcDbBlockEnd
  0
BLOCK
  5
77
330
76
100
AcDbEntity
  8
0
100
AcDbBlockBegin
  2
*D5
 70
    1
 10
0
 20
0
  3
*D5
  1

  0
LINE
  5
EB
100
AcDbEntity
  8
dimensions geodesiques
  6
ByBlock
 62
    8
370
    5
100
AcDbLine
 10
346.8312707042918
 20
38.98724116602835
 11
346.2506259260658
 21
39.48956391024938
  0
LINE
  5
EC
100
AcDbEntity
  8
dimensions geodesiques
  6
ByBlock
 62
    8
370
    5
100
AcDbLine
 10
-30.08738080489882
 20
-396.70047023487
 11
-30.66802558312478
 21
-396.1981474906489
  0
LINE
  5
ED
100
AcDbEntity
  8
dimensions geodesiques
  6
ByBlock
 62
    8
370
    5
100
AcDbLine
 10
346.1560920880294
 20
39.57134626449584
 11
165.4827740054781
 21
-169.2725094359534
  0
SOLID
  5
EE
100
AcDbEntity
  8
dimensions geodesiques
  6
ByBlock
 62
    8
370
    5
100
AcDbTrace
 10
346.1560920880294
 20
39.57134626449584
 30
0
 11
343.5144457008057
 21
35.2452769134502
 31
0
 12
342.255150135528
 22
36.33470857263061
 32
0
 13
342.255150135528
 23
36.33470857263061
 33
0
  0
SOLID
  5
EF
100
AcDbEntity
  8
dimensions geodesiques
  6
ByBlock
 62
    8
370
    5
100
AcDbTrace
 10
-30.76255942116126
 20
-396.1163651364025
 30
0
 11
-28.1209130339376
 21
-391.7902957853568
 31
0
 12
-26.86161746865984
 22
-392.8797274445373
 32
0
 13
-26.86161746865984
 23
-392.8797274445373
 33
0
  0
LINE
  5
F0
100
AcDbEntity
  8
dimensions geodesiques
  6
ByBlock
 62
    8
370
    5
100
AcDbLine
 10
149.91075866139
 20
-187.2725094359534
 11
-30.76255942116126
 21
-396.1163651364025
  0
MTEXT
  5
F1
100
AcDbEntity
  8
dimensions geodesiques
  6
CONTINUOUS
 62
   25
370
   -2
100
AcDbMText
 10
157.696766333434
 20
-178.2725094359534
 30
0
 40
8
 41
29.33332444444444
 71
    5
 72
    1
  1
576.1
  7
romand
210
0
220
0
230
1
 50
0
 73
    2
 44
1
  0
ENDBLK
  5
78
330
76
100
AcDbEntity
  8
0
100
AcDbBlockEnd
  0
BLOCK
  5
7A
330
79
100
AcDbEntity
  8
0
100
AcDbBlockBegin
  2
*D10
 70
    1
 10
0
 20
0
  3
*D10
  1

  0
LINE
  5
F2
100
AcDbEntity
  8
dimensions geodesiques
  6
ByBlock
 62
    8
370
    5
100
AcDbLine
 10
-21.72835805926179
 20
39.25596584995613
 11
-22.06534712631144
 21
39.01559040271302
  0
LINE
  5
F3
100
AcDbEntity
  8
dimensions geodesiques
  6
ByBlock
 62
    8
370
    5
100
AcDbLine
 10
197.3601115417827
 20
-267.8902914693788
 11
197.023122474733
 21
-268.130666916622
  0
LINE
  5
F4
100
AcDbEntity
  8
dimensions geodesiques
  6
ByBlock
 62
    8
370
    5
100
AcDbLine
 10
-22.16711106903428
 20
38.94300183638537
 11
80.95739313272192
 21
-105.6301268232821
  0
SOLID
  5
F5
100
AcDbEntity
  8
dimensions geodesiques
  6
ByBlock
 62
    8
370
    5
100
AcDbTrace
 10
-22.16711106903428
 20
38.94300183638537
 30
0
 11
-18.58576412680842
 21
35.35592423134283
 31
0
 12
-19.94137270504811
 22
34.38896402360116
 32
0
 13
-19.94137270504811
 23
34.38896402360116
 33
0
  0
SOLID
  5
F6
100
AcDbEntity
  8
dimensions geodesiques
  6
ByBlock
 62
    8
370
    5
100
AcDbTrace
 10
196.9213585320102
 20
-268.2032554829496
 30
0
 11
193.3400115897844
 21
-264.616177877907
 31
0
 12
194.695620168024
 22
-263.6492176701654
 32
0
 13
194.695620168024
 23
-263.6492176701654
 33
0
  0
LINE
  5
F7
100
AcDbEntity
  8
dimensions geodesiques
  6
ByBlock
 62
    8
370
    5
100
AcDbLine
 10
93.79685433025399
 20
-123.6301268232821
 11
196.9213585320102
 21
-268.2032554829496
  0
MTEXT
  5
F8
100
AcDbEntity
  8
dimensions geodesiques
  6
CONTINUOUS
 62
   25
370
   -2
100
AcDbMText
 10
87.37712373148796
 20
-114.6301268232821
 30
0
 40
8
 41
33.14282666666666
 71
    5
 72
    1
  1
377.3
  7
romand
210
0
220
0
230
1
 50
0
 73
    2
 44
1
  0
ENDBLK
  5
7B
330
79
100
AcDbEntity
  8
0
100
AcDbBlockEnd
  0
BLOCK
  5
7D
330
7C
100
AcDbEntity
  8
0
100
AcDbBlockBegin
  2
*D9
 70
    1
 10
0
 20
0
  3
*D9
  1

  0
LINE
  5
F9
100
AcDbEntity
  8
dimensions geodesiques
  6
ByBlock
 62
    8
370
    5
100
AcDbLine
 10
119.9472788192401
 20
-280.8686146799815
 11
98.79433049402152
 21
-283.0507367309063
  0
LINE
  5
FA
100
AcDbEntity
  8
dimensions geodesiques
  6
ByBlock
 62
    8
370
    5
100
AcDbLine
 10
135.1342788192401
 20
-428.0876146799815
 11
113.9813304940215
 21
-430.2697367309063
  0
LINE
  5
FB
100
AcDbEntity
  8
dimensions geodesiques
  6
ByBlock
 62
    8
370
    5
100
AcDbLine
 10
98.9186706416165
 20
-283.0379098959086
 11
105.5837374910041
 21
-347.6474098959086
  0
SOLID
  5
FC
100
AcDbEntity
  8
dimensions geodesiques
  6
ByBlock
 62
    8
370
    5
100
AcDbTrace
 10
98.9186706416165
 20
-283.0379098959086
 30
0
 11
100.2599183741482
 21
-287.9260819658307
 31
0
 12
98.6035697089001
 22
-288.0969496335851
 32
0
 13
98.6035697089001
 23
-288.0969496335851
 33
0
  0
SOLID
  5
FD
100
AcDbEntity
  8
dimensions geodesiques
  6
ByBlock
 62
    8
370
    5
100
AcDbTrace
 10
114.1056706416165
 20
-430.2569098959086
 30
0
 11
112.7644229090849
 21
-425.3687378259865
 31
0
 12
114.4207715743329
 22
-425.1978701582321
 32
0
 13
114.4207715743329
 23
-425.1978701582321
 33
0
  0
LINE
  5
FE
100
AcDbEntity
  8
dimensions geodesiques
  6
ByBlock
 62
    8
370
    5
100
AcDbLine
 10
107.4406037922289
 20
-365.6474098959086
 11
114.1056706416165
 21
-430.2569098959086
  0
MTEXT
  5
FF
100
AcDbEntity
  8
dimensions geodesiques
  6
CONTINUOUS
 62
   25
370
   -2
100
AcDbMText
 10
106.5121706416165
 20
-356.6474098959086
 30
0
 40
8
 41
18.28570666666666
 71
    5
 72
    1
  1
148
  7
romand
210
0
220
0
230
1
 50
0
 73
    2
 44
1
  0
ENDBLK
  5
7E
330
7C
100
AcDbEntity
  8
0
100
AcDbBlockEnd
  0
BLOCK
  5
80
330
7F
100
AcDbEntity
  8
0
100
AcDbBlockBegin
  2
*D14
 70
    1
 10
0
 20
0
  3
*D14
  1

  0
LINE
  5
100
100
AcDbEntity
  8
dimensions geodesiques
  6
ByBlock
 62
    8
370
    5
100
AcDbLine
 10
432.4417140259724
 20
-4.132387873614458
 11
422.5487892335136
 21
-16.22220453340027
  0
LINE
  5
101
100
AcDbEntity
  8
dimensions geodesiques
  6
ByBlock
 62
    8
370
    5
100
AcDbLine
 10
971.9397140259724
 20
-445.5959178736144
 11
962.0467892335136
 21
-457.6857345334003
  0
LINE
  5
102
100
AcDbEntity
  8
dimensions geodesiques
  6
ByBlock
 62
    8
370
    5
100
AcDbLine
 10
422.627949980267
 20
-16.12546479919846
 11
681.3783472191285
 21
-227.8572297991986
  0
SOLID
  5
103
100
AcDbEntity
  8
dimensions geodesiques
  6
ByBlock
 62
    8
370
    5
100
AcDbTrace
 10
422.627949980267
 20
-16.12546479919846
 30
0
 11
427.0247938182802
 21
-18.64755439501263
 31
0
 12
425.9702848783985
 22
-19.93623494366016
 32
0
 13
425.9702848783985
 23
-19.93623494366016
 33
0
  0
SOLID
  5
104
100
AcDbEntity
  8
dimensions geodesiques
  6
ByBlock
 62
    8
370
    5
100
AcDbTrace
 10
962.125949980267
 20
-457.5889947991985
 30
0
 11
957.7291061422538
 21
-455.0669052033843
 31
0
 12
958.7836150821355
 22
-453.7782246547368
 32
0
 13
958.7836150821355
 23
-453.7782246547368
 33
0
  0
LINE
  5
105
100
AcDbEntity
  8
dimensions geodesiques
  6
ByBlock
 62
    8
370
    5
100
AcDbLine
 10
703.3755527414057
 20
-245.8572297991986
 11
962.125949980267
 21
-457.5889947991985
  0
MTEXT
  5
106
100
AcDbEntity
  8
dimensions geodesiques
  6
CONTINUOUS
 62
   25
370
   -2
100
AcDbMText
 10
692.376949980267
 20
-236.8572297991986
 30
0
 40
8
 41
28.95238222222222
 71
    5
 72
    1
  1
697.1
  7
romand
210
0
220
0
230
1
 50
0
 73
    2
 44
1
  0
ENDBLK
  5
81
330
7F
100
AcDbEntity
  8
0
100
AcDbBlockEnd
  0
BLOCK
  5
83
330
82
100
AcDbEntity
  8
0
100
AcDbBlockBegin
  2
*D16
 70
    1
 10
0
 20
0
  3
*D16
  1

  0
LINE
  5
107
100
AcDbEntity
  8
dimensions geodesiques
  6
ByBlock
 62
    8
370
    5
100
AcDbLine
 10
972.6610060000917
 20
-443.8258800554412
 11
974.8003588929995
 21
-419.6110301263953
  0
LINE
  5
108
100
AcDbEntity
  8
dimensions geodesiques
  6
ByBlock
 62
    8
370
    5
100
AcDbLine
 10
433.1630060000916
 20
-396.1618800554412
 11
435.3023588929995
 21
-371.9470301263954
  0
LINE
  5
109
100
AcDbEntity
  8
dimensions geodesiques
  6
ByBlock
 62
    8
370
    5
100
AcDbLine
 10
974.789358142988
 20
-419.7355451194652
 11
724.8975003652104
 21
-397.6578997730135
  0
SOLID
  5
10A
100
AcDbEntity
  8
dimensions geodesiques
  6
ByBlock
 62
    8
370
    5
100
AcDbTrace
 10
974.789358142988
 20
-419.7355451194652
 30
0
 11
969.7354873249337
 21
-420.1248540194496
 31
0
 12
969.8820295154542
 22
-418.4661762185642
 32
0
 13
969.8820295154542
 23
-418.4661762185642
 33
0
  0
SOLID
  5
10B
100
AcDbEntity
  8
dimensions geodesiques
  6
ByBlock
 62
    8
370
    5
100
AcDbTrace
 10
435.291358142988
 20
-372.0715451194652
 30
0
 11
440.3452289610424
 21
-371.6822362194808
 31
0
 12
440.1986867705219
 22
-373.3409140203663
 32
0
 13
440.1986867705219
 23
-373.3409140203663
 33
0
  0
LINE
  5
10C
100
AcDbEntity
  8
dimensions geodesiques
  6
ByBlock
 62
    8
370
    5
100
AcDbLine
 10
685.1832159207661
 20
-394.1491904659169
 11
435.291358142988
 21
-372.0715451194652
  0
MTEXT
  5
10D
100
AcDbEntity
  8
dimensions geodesiques
  6
CONTINUOUS
 62
   25
370
   -2
100
AcDbMText
 10
705.0403581429881
 20
-395.9035451194652
 30
0
 40
8
 41
29.71428444444444
 71
    5
 72
    1
  1
541.6
  7
romand
210
0
220
0
230
1
 50
0
 73
    2
 44
1
  0
ENDBLK
  5
84
330
82
100
AcDbEntity
  8
0
100
AcDbBlockEnd
  0
BLOCK
  5
86
330
85
100
AcDbEntity
  8
0
100
AcDbBlockBegin
  2
*D7
 70
    1
 10
0
 20
0
  3
*D7
  1

  0
LINE
  5
10E
100
AcDbEntity
  8
dimensions geodesiques
  6
ByBlock
 62
    8
370
    5
100
AcDbLine
 10
121.1025149949207
 20
-281.7530334018693
 11
128.4617346776174
 21
-327.0060992734109
  0
LINE
  5
10F
100
AcDbEntity
  8
dimensions geodesiques
  6
ByBlock
 62
    8
370
    5
100
AcDbLine
 10
196.7065149949207
 20
-269.4580334018693
 11
204.0657346776175
 21
-314.7110992734109
  0
LINE
  5
110
100
AcDbEntity
  8
dimensions geodesiques
  6
ByBlock
 62
    8
370
    5
100
AcDbLine
 10
128.4416703032524
 20
-326.8827200981773
 11
149.0531947476968
 21
-323.5307983341906
  0
SOLID
  5
111
100
AcDbEntity
  8
dimensions geodesiques
  6
ByBlock
 62
    8
370
    5
100
AcDbTrace
 10
128.4416703032524
 20
-326.8827200981773
 30
0
 11
133.2431974531428
 21
-325.2583713997589
 31
0
 12
133.5104771720546
 22
-326.9019188473889
 32
0
 13
133.5104771720546
 23
-326.9019188473889
 33
0
  0
SOLID
  5
112
100
AcDbEntity
  8
dimensions geodesiques
  6
ByBlock
 62
    8
370
    5
100
AcDbTrace
 10
204.0456703032524
 20
-314.5877200981773
 30
0
 11
199.244143153362
 21
-316.2120687965956
 31
0
 12
198.9768634344501
 22
-314.5685213489656
 32
0
 13
198.9768634344501
 23
-314.5685213489656
 33
0
  0
LINE
  5
113
100
AcDbEntity
  8
dimensions geodesiques
  6
ByBlock
 62
    8
370
    5
100
AcDbLine
 10
183.434145858808
 20
-317.9396418621639
 11
204.0456703032524
 21
-314.5877200981773
  0
MTEXT
  5
114
100
AcDbEntity
  8
dimensions geodesiques
  6
CONTINUOUS
 62
   25
370
   -2
100
AcDbMText
 10
166.2436703032524
 20
-320.7352200981774
 30
0
 40
8
 41
24.38095111111111
 71
    5
 72
    1
  1
76.6
  7
romand
210
0
220
0
230
1
 50
0
 73
    2
 44
1
  0
ENDBLK
  5
87
330
85
100
AcDbEntity
  8
0
100
AcDbBlockEnd
  0
BLOCK
  5
89
330
88
100
AcDbEntity
  8
0
100
AcDbBlockBegin
  2
*D8
 70
    1
 10
0
 20
0
  3
*D8
  1

  0
LINE
  5
115
100
AcDbEntity
  8
dimensions geodesiques
  6
ByBlock
 62
    8
370
    5
100
AcDbLine
 10
345.2564927153473
 20
40.21643837120499
 11
345.916880719607
 21
39.75242069154124
  0
LINE
  5
116
100
AcDbEntity
  8
dimensions geodesiques
  6
ByBlock
 62
    8
370
    5
100
AcDbLine
 10
120.1238327153473
 20
-280.191413628795
 11
120.784220719607
 21
-280.6554313084587
  0
LINE
  5
117
100
AcDbEntity
  8
dimensions geodesiques
  6
ByBlock
 62
    8
370
    5
100
AcDbLine
 10
346.0191575051886
 20
39.68055652014061
 11
239.7766236523566
 21
-111.5233694798595
  0
SOLID
  5
118
100
AcDbEntity
  8
dimensions geodesiques
  6
ByBlock
 62
    8
370
    5
100
AcDbTrace
 10
346.0191575051886
 20
39.68055652014061
 30
0
 11
343.8258107561068
 21
35.1108298649149
 31
0
 12
342.4633705422207
 22
36.06814032883925
 32
0
 13
342.4633705422207
 23
36.06814032883925
 33
0
  0
SOLID
  5
119
100
AcDbEntity
  8
dimensions geodesiques
  6
ByBlock
 62
    8
370
    5
100
AcDbTrace
 10
120.8864975051886
 20
-280.7272954798594
 30
0
 11
123.0798442542704
 21
-276.1575688246336
 31
0
 12
124.4422844681564
 22
-277.114879288558
 32
0
 13
124.4422844681564
 23
-277.114879288558
 33
0
  0
LINE
  5
11A
100
AcDbEntity
  8
dimensions geodesiques
  6
ByBlock
 62
    8
370
    5
100
AcDbLine
 10
227.1290313580204
 20
-129.5233694798595
 11
120.8864975051886
 21
-280.7272954798594
  0
MTEXT
  5
11B
100
AcDbEntity
  8
dimensions geodesiques
  6
CONTINUOUS
 62
   25
370
   -2
100
AcDbMText
 10
233.4528275051887
 20
-120.5233694798595
 30
0
 40
8
 41
28.95238222222222
 71
    5
 72
    1
  1
391.6
  7
romand
210
0
220
0
230
1
 50
0
 73
    2
 44
1
  0
ENDBLK
  5
8A
330
88
100
AcDbEntity
  8
0
100
AcDbBlockEnd
  0
BLOCK
  5
8C
330
8B
100
AcDbEntity
  8
0
100
AcDbBlockBegin
  2
*D1
 70
    1
 10
0
 20
0
  3
*D1
  1

  0
LINE
  5
11C
100
AcDbEntity
  8
dimensions geodesiques
  6
ByBlock
 62
    8
370
    5
100
AcDbLine
 10
-22.52531599999998
 20
81.41369396850467
 11
451.6998303888889
 21
81.41369396850467
  0
SOLID
  5
11D
100
AcDbEntity
  8
dimensions geodesiques
  6
ByBlock
 62
    8
370
    5
100
AcDbTrace
 10
-22.52531599999998
 20
81.41369396850467
 30
0
 11
-17.52531599999998
 21
82.24626328405036
 31
0
 12
-17.52531599999998
 22
80.58112465295899
 32
0
 13
-17.52531599999998
 23
80.58112465295899
 33
0
  0
SOLID
  5
11E
100
AcDbEntity
  8
dimensions geodesiques
  6
ByBlock
 62
    8
370
    5
100
AcDbTrace
 10
956.496399
 20
81.41369396850467
 30
0
 11
951.496399
 21
80.58112465295899
 31
0
 12
951.496399
 22
82.24626328405036
 32
0
 13
951.496399
 23
82.24626328405036
 33
0
  0
LINE
  5
11F
100
AcDbEntity
  8
dimensions geodesiques
  6
ByBlock
 62
    8
370
    5
100
AcDbLine
 10
482.2712526111111
 20
81.41369396850467
 11
956.496399
 21
81.41369396850467
  0
MTEXT
  5
120
100
AcDbEntity
  8
dimensions geodesiques
  6
CONTINUOUS
 62
   25
370
   -2
100
AcDbMText
 10
466.9855415
 20
81.41369396850467
 30
0
 40
8
 41
20.57142222222222
 71
    5
 72
    1
  1
979
  7
romand
210
0
220
0
230
1
 50
0
 73
    2
 44
1
  0
LINE
  5
121
100
AcDbEntity
  8
dimensions geodesiques
  6
ByBlock
 62
    8
370
    5
100
AcDbLine
 10
-22.525316
 20
40.574387
 11
-22.52531599999998
 21
81.53869396850467
  0
LINE
  5
122
100
AcDbEntity
  8
dimensions geodesiques
  6
ByBlock
 62
    8
370
    5
100
AcDbLine
 10
956.496399
 20
-11.420307
 11
956.496399
 21
81.53869396850467
  0
ENDBLK
  5
8D
330
8B
100
AcDbEntity
  8
0
100
AcDbBlockEnd
  0
BLOCK
  5
8F
330
8E
100
AcDbEntity
  8
0
100
AcDbBlockBegin
  2
*D11
 70
    1
 10
0
 20
0
  3
*D11
  1

  0
LINE
  5
123
100
AcDbEntity
  8
dimensions geodesiques
  6
ByBlock
 62
    8
370
    5
100
AcDbLine
 10
121.5468267199875
 20
-281.562357105066
 11
122.3823356153831
 21
-282.6624464748079
  0
LINE
  5
124
100
AcDbEntity
  8
dimensions geodesiques
  6
ByBlock
 62
    8
370
    5
100
AcDbLine
 10
-30.23887328001247
 20
-396.842357105066
 11
-29.40336438461691
 21
-397.9424464748079
  0
LINE
  5
125
100
AcDbEntity
  8
dimensions geodesiques
  6
ByBlock
 62
    8
370
    5
100
AcDbLine
 10
122.3067322753846
 20
-282.5629018366747
 11
58.26391090133899
 21
-331.2029018366746
  0
SOLID
  5
126
100
AcDbEntity
  8
dimensions geodesiques
  6
ByBlock
 62
    8
370
    5
100
AcDbTrace
 10
122.3067322753846
 20
-282.5629018366747
 30
0
 11
118.8285069183383
 21
-286.2500579265071
 31
0
 12
117.8213865817708
 22
-284.9240129467175
 32
0
 13
117.8213865817708
 23
-284.9240129467175
 33
0
  0
SOLID
  5
127
100
AcDbEntity
  8
dimensions geodesiques
  6
ByBlock
 62
    8
370
    5
100
AcDbTrace
 10
-29.47896772461535
 20
-397.8429018366746
 30
0
 11
-26.00074236756901
 21
-394.1557457468422
 31
0
 12
-24.9936220310015
 22
-395.4817907266317
 32
0
 13
-24.9936220310015
 23
-395.4817907266317
 33
0
  0
LINE
  5
128
100
AcDbEntity
  8
dimensions geodesiques
  6
ByBlock
 62
    8
370
    5
100
AcDbLine
 10
34.5638536494306
 20
-349.2029018366746
 11
-29.47896772461535
 21
-397.8429018366746
  0
MTEXT
  5
129
100
AcDbEntity
  8
dimensions geodesiques
  6
CONTINUOUS
 62
   25
370
   -2
100
AcDbMText
 10
46.41388227538458
 20
-340.2029018366746
 30
0
 40
8
 41
28.95238222222223
 71
    5
 72
    1
  1
190.6
  7
romand
210
0
220
0
230
1
 50
0
 73
    2
 44
1
  0
ENDBLK
  5
90
330
8E
100
AcDbEntity
  8
0
100
AcDbBlockEnd
  0
BLOCK
  5
92
330
91
100
AcDbEntity
  8
0
100
AcDbBlockBegin
  2
*D19
 70
    1
 10
0
 20
0
  3
*D19
  1

  0
LINE
  5
12A
100
AcDbEntity
  8
dimensions geodesiques
  6
ByBlock
 62
    8
370
    5
100
AcDbLine
 10
345.0757443165921
 20
39.68007562931586
 11
323.6998460572976
 21
40.50527856909991
  0
LINE
  5
12B
100
AcDbEntity
  8
dimensions geodesiques
  6
ByBlock
 62
    8
370
    5
100
AcDbLine
 10
332.0757443165921
 20
-297.0694243706841
 11
310.6998460572976
 21
-296.2442214309001
  0
LINE
  5
12C
100
AcDbEntity
  8
dimensions geodesiques
  6
ByBlock
 62
    8
370
    5
100
AcDbLine
 10
323.8247530177236
 20
40.50045661543543
 11
317.6721922863788
 21
-118.8742933845645
  0
SOLID
  5
12D
100
AcDbEntity
  8
dimensions geodesiques
  6
ByBlock
 62
    8
370
    5
100
AcDbTrace
 10
323.8247530177236
 20
40.50045661543543
 30
0
 11
324.4638244915343
 21
35.47206131309994
 31
0
 12
322.7999252507543
 22
35.53629508369244
 32
0
 13
322.7999252507543
 23
35.53629508369244
 33
0
  0
SOLID
  5
12E
100
AcDbEntity
  8
dimensions geodesiques
  6
ByBlock
 62
    8
370
    5
100
AcDbTrace
 10
310.8247530177236
 20
-296.2490433845646
 30
0
 11
310.1856815439129
 21
-291.2206480822291
 31
0
 12
311.8495807846929
 22
-291.2848818528216
 32
0
 13
311.8495807846929
 23
-291.2848818528216
 33
0
  0
LINE
  5
12F
100
AcDbEntity
  8
dimensions geodesiques
  6
ByBlock
 62
    8
370
    5
100
AcDbLine
 10
316.9773137490684
 20
-136.8742933845645
 11
310.8247530177236
 21
-296.2490433845646
  0
MTEXT
  5
130
100
AcDbEntity
  8
dimensions geodesiques
  6
CONTINUOUS
 62
   25
370
   -2
100
AcDbMText
 10
317.3247530177236
 20
-127.8742933845645
 30
0
 40
8
 41
21.33330666666667
 71
    5
 72
    1
  1
337
  7
romand
210
0
220
0
230
1
 50
0
 73
    2
 44
1
  0
ENDBLK
  5
93
330
91
100
AcDbEntity
  8
0
100
AcDbBlockEnd
  0
BLOCK
  5
95
330
94
100
AcDbEntity
  8
0
100
AcDbBlockBegin
  2
*D22
 70
    1
 10
0
 20
0
  3
*D22
  1

  0
LINE
  5
131
100
AcDbEntity
  8
dimensions geodesiques
  6
ByBlock
 62
    8
370
    5
100
AcDbLine
 10
-30.65582347176906
 20
-395.0638073457107
 11
-25.09639277887025
 21
-365.9998681724056
  0
LINE
  5
132
100
AcDbEntity
  8
dimensions geodesiques
  6
ByBlock
 62
    8
370
    5
100
AcDbLine
 10
136.3168765282309
 20
-427.0028073457107
 11
141.8763072211297
 21
-397.9388681724056
  0
LINE
  5
133
100
AcDbEntity
  8
dimensions geodesiques
  6
ByBlock
 62
    8
370
    5
100
AcDbLine
 10
-25.11987734489911
 20
-366.1226422541918
 11
44.41409932176771
 21
-379.4232936825791
  0
SOLID
  5
134
100
AcDbEntity
  8
dimensions geodesiques
  6
ByBlock
 62
    8
370
    5
100
AcDbTrace
 10
-25.11987734489911
 20
-366.1226422541918
 30
0
 11
-20.05249384093621
 21
-366.2442814294308
 31
0
 12
-20.36533430596887
 22
-367.8797683612621
 32
0
 13
-20.36533430596887
 23
-367.8797683612621
 33
0
  0
SOLID
  5
135
100
AcDbEntity
  8
dimensions geodesiques
  6
ByBlock
 62
    8
370
    5
100
AcDbTrace
 10
141.8528226551009
 20
-398.0616422541918
 30
0
 11
136.785439151138
 21
-397.9400030789527
 31
0
 12
137.0982796161707
 22
-396.3045161471214
 32
0
 13
137.0982796161707
 23
-396.3045161471214
 33
0
  0
LINE
  5
136
100
AcDbEntity
  8
dimensions geodesiques
  6
ByBlock
 62
    8
370
    5
100
AcDbLine
 10
72.31884598843408
 20
-384.7609908258046
 11
141.8528226551009
 21
-398.0616422541918
  0
MTEXT
  5
137
100
AcDbEntity
  8
dimensions geodesiques
  6
CONTINUOUS
 62
   25
370
   -2
100
AcDbMText
 10
58.36647265510094
 20
-382.0921422541918
 30
0
 40
8
 41
17.90474666666667
 71
    5
 72
    1
  1
170
  7
romand
210
0
220
0
230
1
 50
0
 73
    2
 44
1
  0
ENDBLK
  5
96
330
94
100
AcDbEntity
  8
0
100
AcDbBlockEnd
  0
ENDSEC
  0
SECTION
  2
ENTITIES
  0
DIMENSION
  5
138
100
AcDbEntity
  8
dimensions geodesiques
  6
ByLayer
 62
  256
370
   -1
100
AcDbDimension
  2
*D1
 10
956.496399
 20
81.41369396850467
 30
0
 11
466.9855415
 21
81.41369396850467
 31
0
 70
   32
 71
    5
  3
Standard
 53
0
210
0
220
0
230
1
100
AcDbAlignedDimension
 13
-22.525316
 23
39.574387
 33
0
 14
956.496399
 24
-12.420307
 34
0
100
AcDbRotatedDimension
  0
DIMENSION
  5
139
100
AcDbEntity
  8
dimensions geodesiques
  6
ByLayer
 62
  256
370
   -1
100
AcDbDimension
  2
*D2
 10
249.7738827505639
 20
-335.1528652328759
 30
0
 11
291.2726076599377
 21
-335.4781818419207
 31
0
 70
   33
 71
    5
  3
Standard
 53
0
210
0
220
0
230
1
100
AcDbAlignedDimension
 13
333.074677
 23
-297.107635
 33
0
 14
250.0772271812523
 24
-296.4570017819103
 34
0
  0
DIMENSION
  5
13A
100
AcDbEntity
  8
dimensions geodesiques
  6
ByLayer
 62
  256
370
   -1
100
AcDbDimension
  2
*D3
 10
180.5715911156084
 20
-344.6301671815169
 30
0
 11
248.8360911156084
 21
-358.9486671815168
 31
0
 70
   33
 71
    5
  3
Standard
 53
0
210
0
220
0
230
1
100
AcDbAlignedDimension
 13
333.075
 23
-297.108
 33
0
 14
196.546
 24
-268.471
 34
0
  0
DIMENSION
  5
13B
100
AcDbEntity
  8
dimensions geodesiques
  6
ByLayer
 62
  256
370
   -1
100
AcDbDimension
  2
*D4
 10
332.1630235728968
 20
-298.0705137137804
 30
0
 11
154.3630270728968
 21
-129.7295027137804
 31
0
 70
   33
 71
    5
  3
Standard
 53
0
210
0
220
0
230
1
100
AcDbAlignedDimension
 13
-22.525316
 23
39.574387
 33
0
 14
333.074677
 24
-297.107635
 34
0
  0
DIMENSION
  5
13C
100
AcDbEntity
  8
dimensions geodesiques
  6
ByLayer
 62
  256
370
   -1
100
AcDbDimension
  2
*D5
 10
-30.76255942116126
 20
-396.1163651364025
 30
0
 11
157.696766333434
 21
-178.2725094359534
 31
0
 70
   33
 71
    5
  3
Standard
 53
0
210
0
220
0
230
1
100
AcDbAlignedDimension
 13
346.075
 23
39.6415
 33
0
 14
-30.84365150919065
 24
-396.0462114008983
 34
0
  0
DIMENSION
  5
13D
100
AcDbEntity
  8
dimensions geodesiques
  6
ByLayer
 62
  256
370
   -1
100
AcDbDimension
  2
*D6
 10
119.8498128863044
 20
-281.2554934324493
 30
0
 11
48.11613938630436
 21
-121.0851299324493
 31
0
 70
   33
 71
    5
  3
Standard
 53
0
210
0
220
0
230
1
100
AcDbAlignedDimension
 13
-22.5253
 23
39.5744
 33
0
 14
120.942047
 24
-280.766327
 34
0
  0
DIMENSION
  5
13E
100
AcDbEntity
  8
dimensions geodesiques
  6
ByLayer
 62
  256
370
   -1
100
AcDbDimension
  2
*D7
 10
204.0456703032524
 20
-314.5877200981773
 30
0
 11
166.2436703032524
 21
-320.7352200981774
 31
0
 70
   33
 71
    5
  3
Standard
 53
0
210
0
220
0
230
1
100
AcDbAlignedDimension
 13
120.942
 23
-280.766
 33
0
 14
196.546
 24
-268.471
 34
0
  0
DIMENSION
  5
13F
100
AcDbEntity
  8
dimensions geodesiques
  6
ByLayer
 62
  256
370
   -1
100
AcDbDimension
  2
*D8
 10
120.8864975051886
 20
-280.7272954798594
 30
0
 11
233.4528275051887
 21
-120.5233694798595
 31
0
 70
   33
 71
    5
  3
Standard
 53
0
210
0
220
0
230
1
100
AcDbAlignedDimension
 13
346.074707
 23
39.641525
 33
0
 14
120.942047
 24
-280.766327
 34
0
  0
DIMENSION
  5
140
100
AcDbEntity
  8
dimensions geodesiques
  6
ByLayer
 62
  256
370
   -1
100
AcDbDimension
  2
*D9
 10
114.1056706416165
 20
-430.2569098959086
 30
0
 11
106.5121706416165
 21
-356.6474098959086
 31
0
 70
   33
 71
    5
  3
Standard
 53
0
210
0
220
0
230
1
100
AcDbAlignedDimension
 13
120.942
 23
-280.766
 33
0
 14
136.129
 24
-427.985
 34
0
  0
DIMENSION
  5
141
100
AcDbEntity
  8
dimensions geodesiques
  6
ByLayer
 62
  256
370
   -1
100
AcDbDimension
  2
*D10
 10
196.9213585320102
 20
-268.2032554829496
 30
0
 11
87.37712373148796
 21
-114.6301268232821
 31
0
 70
   33
 71
    5
  3
Standard
 53
0
210
0
220
0
230
1
100
AcDbAlignedDimension
 13
-22.54246960104449
 23
38.67525731933497
 33
0
 14
196.546
 24
-268.471
 34
0
  0
DIMENSION
  5
142
100
AcDbEntity
  8
dimensions geodesiques
  6
ByLayer
 62
  256
370
   -1
100
AcDbDimension
  2
*D11
 10
-29.47896772461535
 20
-397.8429018366746
 30
0
 11
46.41388227538458
 21
-340.2029018366746
 31
0
 70
   33
 71
    5
  3
Standard
 53
0
210
0
220
0
230
1
100
AcDbAlignedDimension
 13
120.942
 23
-280.766
 33
0
 14
-30.8437
 24
-396.046
 34
0
  0
DIMENSION
  5
143
100
AcDbEntity
  8
dimensions geodesiques
  6
ByLayer
 62
    1
370
   -1
100
AcDbDimension
  2
*D12
 10
-29.00283188001356
 20
-265.5867854820885
 30
0
 11
45.81429237021666
 21
-264.2807056356046
 31
0
 70
   33
 71
    5
  3
Standard
 53
0
210
0
220
0
230
1
100
AcDbAlignedDimension
 13
120.942
 23
-280.766
 33
0
 14
-28.69224850046045
 24
-283.3781596929678
 34
0
  0
CIRCLE
  5
144
100
AcDbEntity
  8
dimensions geodesiques
  6
ByLayer
 62
    8
370
   -1
100
AcDbCircle
 10
136.129
 20
-427.985
 40
15
  0
CIRCLE
  5
145
100
AcDbEntity
  8
dimensions geodesiques
  6
ByLayer
 62
    8
370
   -1
100
AcDbCircle
 10
-30.8437
 20
-396.046
 40
15
  0
CIRCLE
  5
146
100
AcDbEntity
  8
dimensions geodesiques
  6
ByLayer
 62
    8
370
   -1
100
AcDbCircle
 10
120.942
 20
-280.766
 40
15
  0
CIRCLE
  5
147
100
AcDbEntity
  8
dimensions geodesiques
  6
ByLayer
 62
    8
370
   -1
100
AcDbCircle
 10
196.546
 20
-268.471
 40
15
  0
CIRCLE
  5
148
100
AcDbEntity
  8
dimensions geodesiques
  6
ByLayer
 62
    8
370
   -1
100
AcDbCircle
 10
250.077
 20
-296.457
 40
15
  0
CIRCLE
  5
149
100
AcDbEntity
  8
dimensions geodesiques
  6
ByLayer
 62
    8
370
   -1
100
AcDbCircle
 10
333.075
 20
-297.108
 40
15
  0
CIRCLE
  5
14A
100
AcDbEntity
  8
dimensions geodesiques
  6
ByLayer
 62
    8
370
   -1
100
AcDbCircle
 10
-22.5253
 20
39.5744
 40
15
  0
CIRCLE
  5
14B
100
AcDbEntity
  8
dimensions geodesiques
  6
ByLayer
 62
    8
370
   -1
100
AcDbCircle
 10
346.075
 20
39.6415
 40
15
  0
CIRCLE
  5
14C
100
AcDbEntity
  8
dimensions geodesiques
  6
ByLayer
 62
    8
370
   -1
100
AcDbCircle
 10
433.075
 20
-3.35847
 40
15
  0
CIRCLE
  5
14D
100
AcDbEntity
  8
dimensions geodesiques
  6
ByLayer
 62
    8
370
   -1
100
AcDbCircle
 10
956.496
 20
-12.4203
 40
15
  0
CIRCLE
  5
14E
100
AcDbEntity
  8
dimensions geodesiques
  6
ByLayer
 62
    8
370
   -1
100
AcDbCircle
 10
972.573
 20
-444.822
 40
15
  0
CIRCLE
  5
14F
100
AcDbEntity
  8
dimensions geodesiques
  6
ByLayer
 62
    8
370
   -1
100
AcDbCircle
 10
433.075
 20
-397.158
 40
15
  0
DIMENSION
  5
150
100
AcDbEntity
  8
dimensions geodesiques
  6
ByLayer
 62
  256
370
   -1
100
AcDbDimension
  2
*D13
 10
956.4243813901451
 20
-12.32286560667463
 30
0
 11
694.713881390145
 21
-204.6917156066747
 31
0
 70
   33
 71
    5
  3
Standard
 53
0
210
0
220
0
230
1
100
AcDbAlignedDimension
 13
433.075
 23
-397.158
 33
0
 14
956.496
 24
-12.4203
 34
0
  0
DIMENSION
  5
151
100
AcDbEntity
  8
dimensions geodesiques
  6
ByLayer
 62
  256
370
   -1
100
AcDbDimension
  2
*D14
 10
962.125949980267
 20
-457.5889947991985
 30
0
 11
692.376949980267
 21
-236.8572297991986
 31
0
 70
   33
 71
    5
  3
Standard
 53
0
210
0
220
0
230
1
100
AcDbAlignedDimension
 13
433.075
 23
-3.35847
 33
0
 14
972.573
 24
-444.822
 34
0
  0
DIMENSION
  5
152
100
AcDbEntity
  8
dimensions geodesiques
  6
ByLayer
 62
  256
370
   -1
100
AcDbDimension
  2
*D15
 10
941.0329442269057
 20
-445.9946815057943
 30
0
 11
932.9944442269057
 21
-229.7938315057943
 31
0
 70
   33
 71
    5
  3
Standard
 53
0
210
0
220
0
230
1
100
AcDbAlignedDimension
 13
956.496
 23
-12.4203
 33
0
 14
972.573
 24
-444.822
 34
0
  0
DIMENSION
  5
153
100
AcDbEntity
  8
dimensions geodesiques
  6
ByLayer
 62
  256
370
   -1
100
AcDbDimension
  2
*D16
 10
435.291358142988
 20
-372.0715451194652
 30
0
 11
705.0403581429881
 21
-395.9035451194652
 31
0
 70
   33
 71
    5
  3
Standard
 53
0
210
0
220
0
230
1
100
AcDbAlignedDimension
 13
972.573
 23
-444.822
 33
0
 14
433.075
 24
-397.158
 34
0
  0
DIMENSION
  5
154
100
AcDbEntity
  8
dimensions geodesiques
  6
ByLayer
 62
  256
370
   -1
100
AcDbDimension
  2
*D17
 10
462.9851544555005
 20
-3.358470000000017
 30
0
 11
462.9851544555005
 21
-200.258235
 31
0
 70
   33
 71
    5
  3
Standard
 53
0
210
0
220
0
230
1
100
AcDbAlignedDimension
 13
433.075
 23
-397.158
 33
0
 14
433.075
 24
-3.35847
 34
0
  0
DIMENSION
  5
155
100
AcDbEntity
  8
dimensions geodesiques
  6
ByLayer
 62
  256
370
   -1
100
AcDbDimension
  2
*D18
 10
955.7601516334558
 20
-54.92368925635154
 30
0
 11
694.0496516334558
 21
-50.39277425635154
 31
0
 70
   33
 71
    5
  3
Standard
 53
0
210
0
220
0
230
1
100
AcDbAlignedDimension
 13
433.075
 23
-3.35847
 33
0
 14
956.496
 24
-12.4203
 34
0
  0
DIMENSION
  5
156
100
AcDbEntity
  8
dimensions geodesiques
  6
ByLayer
 62
  256
370
   -1
100
AcDbDimension
  2
*D19
 10
310.8247530177236
 20
-296.2490433845646
 30
0
 11
317.3247530177236
 21
-127.8742933845645
 31
0
 70
   33
 71
    5
  3
Standard
 53
0
210
0
220
0
230
1
100
AcDbAlignedDimension
 13
346.075
 23
39.6415
 33
0
 14
333.075
 24
-297.108
 34
0
  0
DIMENSION
  5
157
100
AcDbEntity
  8
dimensions geodesiques
  6
ByLayer
 62
  256
370
   -1
100
AcDbDimension
  2
*D20
 10
-22.52159284839383
 20
19.20991126436486
 30
0
 11
161.7785571516061
 21
19.24346126436486
 31
0
 70
   33
 71
    5
  3
Standard
 53
0
210
0
220
0
230
1
100
AcDbAlignedDimension
 13
346.075
 23
39.6415
 33
0
 14
-22.5253
 24
39.5744
 34
0
  0
DIMENSION
  5
158
100
AcDbEntity
  8
dimensions geodesiques
  6
ByLayer
 62
  256
370
   -1
100
AcDbDimension
  2
*D21
 10
205.140731311516
 20
-272.64207899965
 30
0
 11
279.905231311516
 21
-118.5858289996501
 31
0
 70
   33
 71
    5
  3
Standard
 53
0
210
0
220
0
230
1
100
AcDbAlignedDimension
 13
346.075
 23
39.6415
 33
0
 14
196.546
 24
-268.471
 34
0
  0
DIMENSION
  5
159
100
AcDbEntity
  8
dimensions geodesiques
  6
ByLayer
 62
  256
370
   -1
100
AcDbDimension
  2
*D22
 10
141.8528226551009
 20
-398.0616422541918
 30
0
 11
58.36647265510094
 21
-382.0921422541918
 31
0
 70
   33
 71
    5
  3
Standard
 53
0
210
0
220
0
230
1
100
AcDbAlignedDimension
 13
-30.8437
 23
-396.046
 33
0
 14
136.129
 24
-427.985
 34
0
  0
DIMENSION
  5
15A
100
AcDbEntity
  8
dimensions geodesiques
  6
ByLayer
 62
  256
370
   -1
100
AcDbDimension
  2
*D23
 10
-2.590961784580606
 20
-396.585500853429
 30
0
 11
1.568238215419388
 21
-178.7753008534292
 31
0
 70
   33
 71
    5
  3
Standard
 53
0
210
0
220
0
230
1
100
AcDbAlignedDimension
 13
-22.5253
 23
39.5744
 33
0
 14
-30.8437
 24
-396.046
 34
0
  0
LINE
  5
15B
100
AcDbEntity
  8
0
  6
CONTINUOUS
 62
  256
370
   -1
100
AcDbLine
 10
394.574707
 20
8.695295
 11
394.574707
 21
-87.571907
  0
LINE
  5
15C
100
AcDbEntity
  8
0
  6
ByLayer
 62
    8
370
   -1
100
AcDbLine
 10
367.9374871444388
 20
-640.110422840325
 11
367.9374871444388
 21
-660.110422840325
  0
MTEXT
  5
15D
100
AcDbEntity
  8
0
  6
ByLayer
 62
    8
370
   -1
100
AcDbMText
 10
382.2739021488915
 20
-633.7777619363376
 30
0
 40
10
 41
26.38888888888935
 71
    1
 72
    1
  1
1 cm
  7
iso
210
0
220
0
230
1
 50
0
 73
    2
 44
1
  0
LINE
  5
15E
100
AcDbEntity
  8
0
  6
ByLayer
 62
    8
370
   -1
100
AcDbLine
 10
417.9374871444388
 20
-650.110422840325
 11
367.7884871444388
 21
-650.110422840325
  0
LINE
  5
15F
100
AcDbEntity
  8
0
  6
ByLayer
 62
    8
370
   -1
100
AcDbLine
 10
417.9374871444388
 20
-640.110422840325
 11
417.9374871444388
 21
-660.110422840325
  0
MTEXT
  5
160
100
AcDbEntity
  8
0
  6
ByLayer
 62
    8
370
   -1
100
AcDbMText
 10
427.0553860600885
 20
-635.3257348670311
 30
0
 40
10
 41
51.66666666666775
 71
    1
 72
    1
  1
= 50 cm
  7
iso
210
0
220
0
230
1
 50
0
 73
    2
 44
1
  0
MTEXT
  5
161
100
AcDbEntity
  8
0
  6
ByLayer
 62
    8
370
   -1
100
AcDbMText
 10
816.7463617829673
 20
-640.0017049051041
 30
0
 40
10
 41
274.9999988888923
 71
    1
 72
    1
  1
Emilie RC 22 avril 2016 (LibreCad drawn)
  7
iso
210
0
220
0
230
1
 50
0
 73
    2
 44
1
  0
LWPOLYLINE
  5
162
100
AcDbEntity
  8
dimensions geodesiques
  6
ByLayer
 62
    5
370
   -1
100
AcDbPolyline
 90
    9
 70
    1
 43
0
 10
-30.8437
 20
-396.046
 10
136.129
 20
-427.985
 10
120.942
 20
-280.766
 10
196.546
 20
-268.471
 10
250.077
 20
-296.457
 10
333.075
 20
-297.108
 10
346.075
 20
39.6415
 10
-22.5253
 20
39.5744
 10
-22.5253
 20
39.5744
  0
LWPOLYLINE
  5
163
100
AcDbEntity
  8
dimensions geodesiques
  6
ByLayer
 62
    5
370
   -1
100
AcDbPolyline
 90
    5
 70
    1
 43
0
 10
972.573
 20
-444.822
 10
956.496
 20
-12.4203
 10
433.075
 20
-3.35847
 10
433.075
 20
-397.158
 10
433.075
 20
-397.158
  0
LINE
  5
164
100
AcDbEntity
  8
limites chauffage
  6
ByLayer
 62
  256
370
   -1
100
AcDbLine
 10
133.8636255687841
 20
-425.5154125186774
 11
118.7589800972546
 21
-279.0947368307141
  0
LINE
  5
165
100
AcDbEntity
  8
limites chauffage
  6
ByLayer
 62
  256
370
   -1
100
AcDbLine
 10
118.7589800972546
 20
-279.0947368307141
 11
196.8823693853568
 21
-266.3900244967475
  0
LINE
  5
166
100
AcDbEntity
  8
limites chauffage
  6
ByLayer
 62
  256
370
   -1
100
AcDbLine
 10
196.8823693853568
 20
-266.3900244967475
 11
250.575620658566
 21
-294.4608494417706
  0
LINE
  5
167
100
AcDbEntity
  8
limites chauffage
  6
ByLayer
 62
  256
370
   -1
100
AcDbLine
 10
250.575620658566
 20
-294.4608494417706
 11
331.1513038462957
 21
-295.0928498484697
  0
LINE
  5
168
100
AcDbEntity
  8
limites chauffage
  6
ByLayer
 62
  256
370
   -1
100
AcDbLine
 10
331.1513038462957
 20
-295.0928498484697
 11
343.9962869220928
 21
37.64112155792491
  0
LINE
  5
169
100
AcDbEntity
  8
limites chauffage
  6
ByLayer
 62
  256
370
   -1
100
AcDbLine
 10
343.9962869220928
 20
37.64112155792491
 11
-20.56311962288507
 21
37.57475716218467
  0
LINE
  5
16A
100
AcDbEntity
  8
limites chauffage
  6
ByLayer
 62
  256
370
   -1
100
AcDbLine
 10
-20.56311962288507
 20
37.57475716218467
 11
-28.81187347454353
 21
-394.398393006237
  0
LINE
  5
16B
100
AcDbEntity
  8
limites chauffage
  6
ByLayer
 62
  256
370
   -1
100
AcDbLine
 10
-28.81187347454353
 20
-394.398393006237
 11
133.8636255687841
 21
-425.5154125186774
  0
LINE
  5
16C
100
AcDbEntity
  8
limites chauffage
  6
DASHDOT2
 62
  256
370
   -1
100
AcDbLine
 10
343.997
 20
33.6411
 11
-20.5624
 21
33.5748
  0
LINE
  5
16D
100
AcDbEntity
  8
limites chauffage
  6
DASHDOT2
 62
  256
370
   -1
100
AcDbLine
 10
-28.0604
 20
-390.47
 11
134.615
 21
-421.587
  0
LINE
  5
16E
100
AcDbEntity
  8
limites chauffage
  6
ByLayer
 62
  256
370
   -1
100
AcDbLine
 10
78.81469362481752
 20
-414.9855005189412
 11
90.77320108030209
 21
-417.2729569092417
  0
LINE
  5
16F
100
AcDbEntity
  8
limites chauffage
  6
ByLayer
 62
  256
370
   -1
100
AcDbLine
 10
90.77320108030209
 20
-417.2729569092417
 11
78.81469362481752
 21
-414.9855005189412
  0
LINE
  5
170
100
AcDbEntity
  8
limites chauffage
  6
ByLayer
 62
  256
370
   -1
100
AcDbLine
 10
66.85618616933296
 20
-412.6980441286407
 11
78.81469362481752
 21
-414.9855005189412
  0
LINE
  5
171
100
AcDbEntity
  8
limites chauffage
  6
ByLayer
 62
  256
370
   -1
100
AcDbLine
 10
19.02215634739472
 20
-403.5482185674389
 11
30.98066380287928
 21
-405.8356749577393
  0
LINE
  5
172
100
AcDbEntity
  8
limites chauffage
  6
ByLayer
 62
  256
370
   -1
100
AcDbLine
 10
107.4606601793568
 20
37.59806261154196
 11
119.462889535817
 21
37.6002474974192
  0
LINE
  5
173
100
AcDbEntity
  8
limites chauffage
  6
ByLayer
 62
  256
370
   -1
100
AcDbLine
 10
107.4606601793568
 20
37.59806261154196
 11
119.462889535817
 21
37.6002474974192
  0
LINE
  5
174
100
AcDbEntity
  8
limites chauffage
  6
ByLayer
 62
  256
370
   -1
100
AcDbLine
 10
107.4606601793568
 20
37.59806261154196
 11
111.4614032981769
 21
37.59879090683438
  0
LINE
  5
175
100
AcDbEntity
  8
limites chauffage
  6
ByLayer
 62
  256
370
   -1
100
AcDbLine
 10
107.4606601793568
 20
37.59806261154196
 11
119.462889535817
 21
37.6002474974192
  0
LINE
  5
176
100
AcDbEntity
  8
limites chauffage
  6
ByLayer
 62
  256
370
   -1
100
AcDbLine
 10
118.1169201175719
 20
-275.146603223237
 11
196.2403094056741
 21
-262.4418908892704
  0
LINE
  5
177
100
AcDbEntity
  8
limites chauffage
  6
ByLayer
 62
  256
370
   -1
100
AcDbLine
 10
121.4251706883754
 20
-278.6611511299862
 11
133.4647458306838
 21
-276.7032312266123
  0
LINE
  5
178
100
AcDbEntity
  8
limites chauffage
  6
ByLayer
 62
  256
370
   -1
100
AcDbLine
 10
133.4647458306838
 20
-276.7032312266123
 11
121.4251706883754
 21
-278.6611511299862
  0
LINE
  5
179
100
AcDbEntity
  8
limites chauffage
  6
ByLayer
 62
  256
370
   -1
100
AcDbLine
 10
121.4251706883754
 20
-278.6611511299862
 11
133.4647458306838
 21
-276.7032312266123
  0
LINE
  5
17A
100
AcDbEntity
  8
limites chauffage
  6
ByLayer
 62
  256
370
   -1
100
AcDbLine
 10
251.5728619756981
 20
-290.4685483253118
 11
331.1826771312271
 21
-291.0929728857379
  0
LINE
  5
17B
100
AcDbEntity
  8
limites chauffage
  6
ByLayer
 62
  256
370
   -1
100
AcDbLine
 10
198.7355883436652
 20
-262.8452283823615
 11
251.5728619756981
 21
-290.4685483253118
  0
MTEXT
  5
17C
100
AcDbEntity
  8
0
  6
ByLayer
 62
  256
370
   -1
100
AcDbMText
 10
-11.39945132735214
 20
-485.616626545201
 30
0
 40
10
 41
306.1111111111187
 71
    1
 72
    1
  1
longueur du fil chauffant 338.793mm = 339m
  7
iso
210
0
220
0
230
1
 50
0
 73
    2
 44
1
  0
LWPOLYLINE
  5
17D
100
AcDbEntity
  8
nappe chauffante
  6
ByLayer
 62
  256
370
   -1
100
AcDbPolyline
 90
  183
 70
    0
 43
0
 10
331.4258920982174
 20
33.63881377598853
 10
325.1494875110042
 20
-295.0457742269577
 10
313.1490972578097
 20
-294.9516484160363
 10
319.4236627822406
 20
33.63663101015216
 10
315.4229196769149
 20
33.63590342154004
 10
309.1489671734116
 20
-294.9202731457293
 10
297.1485769202171
 20
-294.8261473348082
 10
303.4206903609382
 20
33.63372065570366
 10
299.4199472556126
 20
33.63299306709153
 10
293.1484468358188
 20
-294.7947720645014
 10
293.148446835819
 20
-294.7947720645014
 10
281.1480565826245
 20
-294.70064625358
 10
287.4177179396356
 20
33.63081030125516
 10
283.4169748343099
 20
33.63008271264303
 10
277.1479264982263
 20
-294.669270983273
 10
265.1475362450318
 20
-294.5751451723518
 10
271.4147455183331
 20
33.62789994680666
 10
267.4140024130076
 20
33.62717235819454
 10
261.1474061606337
 20
-294.5437699020449
 10
249.1609250366707
 20
-293.7212467503513
 10
255.4117730970305
 20
33.62498959235816
 10
251.4110299917049
 20
33.62426200374604
 10
245.199740872229
 20
-291.6503401723672
 10
233.3161883789037
 20
-285.437620438415
 10
239.408800675728
 20
33.62207923790966
 10
235.4080575704024
 20
33.62135164929754
 10
229.355004214462
 20
-283.3667138604309
 10
217.4714517211367
 20
-277.1539941264786
 10
223.4058282544256
 20
33.61916888346116
 10
219.4050851490999
 20
33.61844129484903
 10
213.510267556695
 20
-275.0830875484945
 10
201.6267150633698
 20
-268.8703678145422
 10
207.4028558331231
 20
33.61625852901266
 10
203.4021127277974
 20
33.61553094040054
 10
197.675813256329
 20
-266.2609917419514
 10
185.6362381140204
 20
-268.2189116453253
 10
191.3998833099878
 20
33.61334284175953
 10
187.3991403064949
 20
33.61262058595204
 10
181.6230463999177
 20
-268.8715516131167
 10
169.5834712576092
 20
-270.8294715164906
 10
175.396910990518
 20
33.61043782011566
 10
171.3961678851925
 20
33.60971023150353
 10
165.5702795435064
 20
-271.4821114842819
 10
153.5307044011979
 20
-273.4400313876557
 10
159.3939383594273
 20
33.60751647942023
 10
155.3931954638899
 20
33.60679987705504
 10
149.5175126870951
 20
-274.0926713554471
 10
137.4779375447867
 20
-276.050591258821
 10
143.3909658841472
 20
33.60460329825059
 10
139.3902230425873
 20
33.60388952260654
 10
133.4647458306838
 20
-276.7032312266123
 10
121.4251706883754
 20
-278.6611511299862
 10
127.3879937266105
 20
33.60170675677016
 10
123.387
 20
33.601
 10
117.512
 20
-274.088
 10
133.118
 20
-425.373
 10
120.812
 20
-423.019
 10
105.5
 20
-274.591
 10
111.385
 20
33.5983
 10
107.384
 20
33.5976
 10
101.496
 20
-274.759
 10
116.709
 20
-422.234
 10
86.78700000000001
 20
-416.51
 10
95.38200000000001
 20
33.5959
 10
91.3813
 20
33.5948
 10
82.8009
 20
-415.748
 10
70.8424
 20
-413.461
 10
79.37909999999999
 20
33.5927
 10
75.3783
 20
33.5922
 10
66.8562
 20
-412.698
 10
54.8977
 20
-410.411
 10
63.3761
 20
33.59
 10
59.3754
 20
33.5893
 10
50.9115
 20
-409.648
 10
38.953
 20
-407.361
 10
47.3731
 20
33.5871
 10
43.3724
 20
33.5864
 10
34.9668
 20
-406.598
 10
23.0083
 20
-404.311
 10
31.3702
 20
33.5842
 10
27.3694
 20
33.5835
 10
19.0222
 20
-403.548
 10
7.06365
 20
-401.261
 10
15.3672
 20
33.5813
 10
11.3664
 20
33.5806
 10
3.07748
 20
-400.499
 10
-8.88104
 20
-398.211
 10
-0.635786
 20
33.5784
 10
-4.63653
 20
33.5777
 10
-12.8672
 20
-397.449
 10
-24.8257
 20
-395.162
 10
-16.5624
 20
37.5755
 10
-12.5616
 20
37.5762
 10
-20.762
 20
-391.866
 10
-16.7759
 20
-392.628
 10
-8.560890000000001
 20
37.5769
 10
3.44134
 20
37.5791
 10
-4.81739
 20
-394.916
 10
-0.831201
 20
-395.678
 10
7.44208
 20
37.5799
 10
19.4443
 20
37.582
 10
11.1273
 20
-397.966
 10
15.1135
 20
-398.728
 10
23.4451
 20
37.5828
 10
35.4473
 20
37.585
 10
27.072
 20
-401.016
 10
31.0581
 20
-401.778
 10
39.448
 20
37.5857
 10
51.4503
 20
37.5879
 10
43.0166
 20
-404.066
 10
47.0028
 20
-404.828
 10
55.451
 20
37.5886
 10
67.4532
 20
37.5908
 10
58.9613
 20
-407.116
 10
62.9475
 20
-407.878
 10
71.45399999999999
 20
37.5915
 10
83.4562
 20
37.5937
 10
74.90600000000001
 20
-410.166
 10
78.8922
 20
-410.928
 10
87.4569
 20
37.5944
 10
99.4592
 20
37.5966
 10
90.8507
 20
-413.216
 10
112.179
 20
-417.295
 10
97.49209999999999
 20
-274.927
 10
103.46
 20
37.5973
 10
115.462
 20
37.5995
 10
109.504
 20
-274.424
 10
124.485
 20
-419.649
 10
128.587
 20
-420.434
 10
113.508
 20
-274.256
 10
119.4633852871222
 20
37.60024758766577
 10
131.4651188922771
 20
37.60243238329645
 10
125.515988987665
 20
-273.9433394837815
 10
129.5291807017678
 20
-273.2906995159902
 10
135.4658620110972
 20
37.60316067858886
 10
147.4673426540606
 20
37.56613671745731
 10
141.5687558440763
 20
-271.3327796126163
 10
145.5819475581791
 20
-270.680139644825
 10
151.4688344863774
 20
37.60607385975852
 10
163.4710638428376
 20
37.60825874563577
 10
157.6215227004876
 20
-268.7222197414511
 10
161.6347144145904
 20
-268.0695797736597
 10
167.4718069616577
 20
37.60898704092818
 10
179.4740363181178
 20
37.61117192680543
 10
173.6742895568988
 20
-266.1116598702858
 10
177.6874812710017
 20
-265.4590199024946
 10
183.4747794369379
 20
37.61190022209784
 10
195.4770087933981
 20
37.61408510797509
 10
189.7270564133101
 20
-263.5010999991206
 10
193.7402481274129
 20
-262.8484600313293
 10
199.4777519122183
 20
37.61481340326751
 10
211.4799812686775
 20
37.61699828914475
 10
205.6732379605228
 20
-266.4722307207705
 10
209.6344221249645
 20
-268.5431372987546
 10
215.4807243874984
 20
37.61772658443717
 10
227.4829537439584
 20
37.61991147031441
 10
221.5179746182897
 20
-274.7558570327069
 10
225.4791587827315
 20
-276.826763610691
 10
231.4836968627787
 20
37.62063976560683
 10
243.4859262192388
 20
37.62282465148407
 10
237.3627112760567
 20
-283.0394833446433
 10
241.3238954404984
 20
-285.1103899226273
 10
247.4866693380588
 20
37.62355294677649
 10
259.4888986945189
 20
37.62573783265373
 10
253.2235190002634
 20
-290.4814953568425
 10
257.2236490846616
 20
-290.5128706271496
 10
263.4896418133391
 20
37.62646612794615
 10
275.4918711697994
 20
37.6286510138234
 10
269.224039337856
 20
-290.6069964380707
 10
273.2241694222541
 20
-290.6383717083777
 10
279.4926142886193
 20
37.62937930911581
 10
291.4948436450795
 20
37.63156419499306
 10
285.2245596754487
 20
-290.7324975192988
 10
289.2246897598469
 20
-290.7638727896058
 10
295.4955867638997
 20
37.63229249028547
 10
307.4978161203596
 20
37.63447737616272
 10
301.2250800130412
 20
-290.857998600527
 10
305.2252100974393
 20
-290.889373870834
 10
311.4985592391799
 20
37.63520567145514
 10
323.5007885956399
 20
37.63739055733238
 10
317.2256003506339
 20
-290.9834996817551
 10
321.2257304350321
 20
-291.0148749520621
 10
327.50153171446
 20
37.6381188526248
  0
MTEXT
  5
17E
100
AcDbEntity
  8
0
  6
ByLayer
 62
  256
370
   -1
100
AcDbMText
 10
-17.85674979437593
 20
-539.9040820181899
 30
0
 40
10
 41
878.0556224129018
 71
    1
 72
    1
  1
331.381mm dans la version dernière (sans le dessous du bureau, mais avec les plages a supprimer au niveau des tetes de lit
  7
iso
210
0
220
0
230
1
 50
0
 73
    2
 44
1
  0
LWPOLYLINE
  5
17F
100
AcDbEntity
  8
0
  6
CONTINUOUS
 62
    7
370
    5
100
AcDbPolyline
 90
   29
 70
    0
 43
0
 10
405.0273456511686
 20
18.39150444771602
 10
493.6550373550946
 20
14.69868396005236
 10
498.3699903276548
 20
35.91597233657281
 10
537.9985976285102
 20
36.83756785519736
 10
540.3093958175366
 20
11.41878777590723
 10
648.2527186064851
 20
11.41878777590723
 10
650.5434873103336
 20
22.87263129514961
 10
833.685322503123
 20
17.04008877308609
 10
834.8418972889068
 20
41.32815927454497
 10
897.4912994577993
 20
38.29673658895334
 10
910.329948575972
 20
14.95373819227555
 10
988.3699351994445
 20
13.82272389338463
 10
990.6497545813712
 20
-24.93420559936795
 10
1005.373624236058
 20
-27.19941631547358
 10
1004.378574978351
 20
-93.86771658186815
 10
983.2352709644082
 20
-93.86771658186815
 10
988.1526241969848
 20
-290.5618458849419
 10
1010.213513452431
 20
-295.2062436229306
 10
1012.327341431728
 20
-381.8731907740717
 10
1000.861022624979
 20
-387.606350177446
 10
999.7327286032054
 20
-463.2020496362932
 10
884.0421117968608
 20
-464.3038650344487
 10
664.4631232172582
 20
-438.0498555303657
 10
661.7339751988806
 20
-480.3516498152199
 10
659.8074916750874
 20
-507.3224191483234
 10
538.8654918557621
 20
-508.3833138835807
 10
537.8244236195187
 20
-466.7405844338454
 10
520.8817676536827
 20
-425.035585133326
 10
407.9183323586532
 20
-419.0268917665691
  0
LWPOLYLINE
  5
180
100
AcDbEntity
  8
0
  6
CONTINUOUS
 62
    7
370
    5
100
AcDbPolyline
 90
   29
 70
    0
 43
0
 10
1051.636757948636
 20
144.8921755395898
 10
1140.264449652562
 20
141.1993550519262
 10
1144.979402625122
 20
162.4166434284466
 10
1184.608009925978
 20
163.3382389470712
 10
1186.918808115004
 20
137.919458867781
 10
1294.862130903952
 20
137.919458867781
 10
1297.152899607801
 20
149.3733023870234
 10
1480.29473480059
 20
143.5407598649599
 10
1481.451309586374
 20
167.8288303664188
 10
1544.100711755267
 20
164.7974076808271
 10
1556.939360873439
 20
141.4544092841494
 10
1634.979347496912
 20
140.3233949852584
 10
1637.259166878839
 20
101.5664654925059
 10
1651.983036533525
 20
99.30125477640023
 10
1650.987987275818
 20
32.63295451000566
 10
1629.844683261876
 20
32.63295451000566
 10
1634.762036494452
 20
-164.0611747930681
 10
1656.822925749898
 20
-168.7055725310568
 10
1658.936753729195
 20
-255.3725196821979
 10
1647.470434922446
 20
-261.1056790855722
 10
1646.342140900673
 20
-336.7013785444194
 10
1530.651524094328
 20
-337.8031939425749
 10
1311.072535514726
 20
-311.5491844384919
 10
1308.343387496348
 20
-353.8509787233461
 10
1306.416903972555
 20
-380.8217480564496
 10
1185.47490415323
 20
-381.8826427917069
 10
1184.433835916986
 20
-340.2399133419716
 10
1167.49117995115
 20
-298.5349140414522
 10
1054.52774465612
 20
-292.5262206746953
  0
ENDSEC
  0
SECTION
  2
OBJECTS
  0
DICTIONARY
  5
C
330
0
100
AcDbDictionary
281
    1
  3
ACAD_GROUP
350
D
  0
DICTIONARY
  5
D
330
C
100
AcDbDictionary
281
    1
  0
ENDSEC
  0
EOF
