999
dxfrw 0.6.3
  0
SECTION
  2
HEADER
  9
$ACADVER
  1
AC1021
  9
$DWGCODEPAGE
  3
ANSI_1252
  9
$INSBASE
 10
0
 20
0
 30
0
  9
$EXTMIN
 10
-511.3581401190979
 20
-487.060345124238
 30
0
  9
$EXTMAX
 10
214.9080101346647
 20
105
 30
0
  9
$LIMMIN
 10
0
 20
0
  9
$LIMMAX
 10
420
 20
297
  9
$ORTHOMODE
 70
    0
  9
$REGENMODE
 70
    1
  9
$FILLMODE
 70
    1
  9
$QTEXTMODE
 70
    0
  9
$MIRRTEXT
 70
    0
  9
$LTSCALE
 40
1
  9
$ATTMODE
 70
    0
  9
$TEXTSIZE
 40
2.5
  9
$TRACEWID
 40
15.68
  9
$TEXTSTYLE
  7
STANDARD
  9
$CLAYER
  8
Dimension
  9
$CELTYPE
  6
BYLAYER
  9
$CECOLOR
 62
  256
  9
$CELTSCALE
 40
1
  9
$DISPSILH
 70
    0
  9
$DIMSCALE
 40
1
  9
$DIMASZ
 40
3
  9
$DIMEXO
 40
1.5
  9
$DIMDLI
 40
3.75
  9
$DIMRND
 40
0
  9
$DIMDLE
 40
0
  9
$DIMEXE
 40
1.25
  9
$DIMTP
 40
0
  9
$DIMTM
 40
0
  9
$DIMTXT
 40
3
  9
$DIMCEN
 40
2.5
  9
$DIMTSZ
 40
0
  9
$DIMTOL
 70
    0
  9
$DIMLIM
 70
    0
  9
$DIMTIH
 70
    0
  9
$DIMTOH
 70
    0
  9
$DIMSE1
 70
    0
  9
$DIMSE2
 70
    0
  9
$DIMTAD
 70
    1
  9
$DIMZIN
 70
    1
  9
$DIMBLK
  1

  9
$DIMASO
 70
    1
  9
$DIMSHO
 70
    1
  9
$DIMPOST
  1

  9
$DIMAPOST
  1

  9
$DIMALT
 70
    0
  9
$DIMALTD
 70
    3
  9
$DIMALTF
 40
0.03937
  9
$DIMLFAC
 40
1
  9
$DIMTOFL
 70
    1
  9
$DIMTVP
 40
0
  9
$DIMTIX
 70
    0
  9
$DIMSOXD
 70
    0
  9
$DIMSAH
 70
    0
  9
$DIMBLK1
  1

  9
$DIMBLK2
  1

  9
$DIMSTYLE
  2
STANDARD
  9
$DIMCLRD
 70
    0
  9
$DIMCLRE
 70
    0
  9
$DIMCLRT
 70
    0
  9
$DIMTFAC
 40
1
  9
$DIMGAP
 40
1.5
  9
$DIMJUST
 70
    0
  9
$DIMSD1
 70
    0
  9
$DIMSD2
 70
    0
  9
$DIMTOLJ
 70
    0
  9
$DIMTZIN
 70
    8
  9
$DIMALTZ
 70
    0
  9
$DIMALTTZ
 70
    0
  9
$DIMUPT
 70
    0
  9
$DIMDEC
 70
    0
  9
$DIMTDEC
 70
    2
  9
$DIMALTU
 70
    2
  9
$DIMALTTD
 70
    3
  9
$DIMTXSTY
  7
standard
  9
$DIMAUNIT
 70
    0
  9
$DIMADEC
 70
    0
  9
$DIMALTRND
 40
0
  9
$DIMAZIN
 70
    0
  9
$DIMDSEP
 70
    0
  9
$DIMATFIT
 70
    3
  9
$DIMFRAC
 70
    0
  9
$DIMLDRBLK
  1
STANDARD
  9
$DIMLUNIT
 70
    2
  9
$DIMLWD
 70
   -2
  9
$DIMLWE
 70
   -2
  9
$DIMTMOVE
 70
    0
  9
$DIMFXL
 40
1
  9
$DIMFXLON
 70
    0
  9
$DIMJOGANG
 40
0.7854
  9
$DIMTFILL
 70
    0
  9
$DIMTFILLCLR
 70
    0
  9
$DIMARCSYM
 70
    0
  9
$DIMLTYPE
  6

  9
$DIMLTEX1
  6

  9
$DIMLTEX2
  6

  9
$LUNITS
 70
    2
  9
$LUPREC
 70
    4
  9
$SKETCHINC
 40
1
  9
$FILLETRAD
 40
0
  9
$AUNITS
 70
    0
  9
$AUPREC
 70
    2
  9
$MENU
  1
.
  9
$ELEVATION
 40
0
  9
$PELEVATION
 40
0
  9
$THICKNESS
 40
0
  9
$LIMCHECK
 70
    0
  9
$CHAMFERA
 40
0
  9
$CHAMFERB
 40
0
  9
$CHAMFERC
 40
0
  9
$CHAMFERD
 40
0
  9
$SKPOLY
 70
    0
  9
$USRTIMER
 70
    1
  9
$ANGBASE
 50
0
  9
$ANGDIR
 70
    0
  9
$PDMODE
 70
   34
  9
$PDSIZE
 40
0
  9
$PLINEWID
 40
0
  9
$SPLFRAME
 70
    0
  9
$SPLINETYPE
 70
    2
  9
$SPLINESEGS
 70
    8
  9
$HANDSEED
  5
20000
  9
$SURFTAB1
 70
    6
  9
$SURFTAB2
 70
    6
  9
$SURFTYPE
 70
    6
  9
$SURFU
 70
    6
  9
$SURFV
 70
    6
  9
$UCSBASE
  2

  9
$UCSNAME
  2

  9
$UCSORG
 10
0
 20
0
 30
0
  9
$UCSXDIR
 10
1
 20
0
 30
0
  9
$UCSYDIR
 10
0
 20
1
 30
0
  9
$UCSORTHOREF
  2

  9
$UCSORTHOVIEW
 70
    0
  9
$UCSORGTOP
 10
0
 20
0
 30
0
  9
$UCSORGBOTTOM
 10
0
 20
0
 30
0
  9
$UCSORGLEFT
 10
0
 20
0
 30
0
  9
$UCSORGRIGHT
 10
0
 20
0
 30
0
  9
$UCSORGFRONT
 10
0
 20
0
 30
0
  9
$UCSORGBACK
 10
0
 20
0
 30
0
  9
$PUCSBASE
  2

  9
$PUCSNAME
  2

  9
$PUCSORG
 10
0
 20
0
 30
0
  9
$PUCSXDIR
 10
1
 20
0
 30
0
  9
$PUCSYDIR
 10
0
 20
1
 30
0
  9
$PUCSORTHOREF
  2

  9
$PUCSORTHOVIEW
 70
    0
  9
$PUCSORGTOP
 10
0
 20
0
 30
0
  9
$PUCSORGBOTTOM
 10
0
 20
0
 30
0
  9
$PUCSORGLEFT
 10
0
 20
0
 30
0
  9
$PUCSORGRIGHT
 10
0
 20
0
 30
0
  9
$PUCSORGFRONT
 10
0
 20
0
 30
0
  9
$PUCSORGBACK
 10
0
 20
0
 30
0
  9
$USERI1
 70
    0
  9
$USERI2
 70
    0
  9
$USERI3
 70
    0
  9
$USERI4
 70
    0
  9
$USERI5
 70
    0
  9
$USERR1
 40
0
  9
$USERR2
 40
0
  9
$USERR3
 40
0
  9
$USERR4
 40
0
  9
$USERR5
 40
0
  9
$WORLDVIEW
 70
    1
  9
$SHADEDGE
 70
    3
  9
$SHADEDIF
 70
   70
  9
$TILEMODE
 70
    1
  9
$MAXACTVP
 70
   64
  9
$PINSBASE
 10
76.45659471163563
 20
93.97528416600582
 30
0
  9
$PLIMCHECK
 70
    0
  9
$PEXTMIN
 10
0
 20
0
 30
0
  9
$PEXTMAX
 10
0
 20
0
 30
0
  9
$GRIDMODE
 70
    0
  9
$SNAPSTYLE
 70
    0
  9
$GRIDUNIT
 10
0
 20
0
  9
$PLIMMIN
 10
0
 20
0
  9
$PLIMMAX
 10
297
 20
210
  9
$UNITMODE
 70
    0
  9
$VISRETAIN
 70
    1
  9
$PLINEGEN
 70
    0
  9
$PSLTSCALE
 70
    1
  9
$TREEDEPTH
 70
 3020
  9
$CMLSTYLE
  2
Standard
  9
$CMLJUST
 70
    0
  9
$CMLSCALE
 40
20
  9
$PROXYGRAPHICS
 70
    1
  9
$MEASUREMENT
 70
    1
  9
$CELWEIGHT
370
   -1
  9
$ENDCAPS
280
    0
  9
$JOINSTYLE
280
    0
  9
$LWDISPLAY
290
    0
  9
$INSUNITS
 70
    4
  9
$HYPERLINKBASE
  1

  9
$STYLESHEET
  1

  9
$XEDIT
290
    1
  9
$CEPSNTYPE
380
    0
  9
$PSTYLEMODE
290
    1
  9
$EXTNAMES
290
    1
  9
$PSVPSCALE
 40
1
  9
$OLESTARTUP
290
    0
  9
$SORTENTS
280
  127
  9
$INDEXCTL
280
    0
  9
$HIDETEXT
280
    1
  9
$XCLIPFRAME
290
    0
  9
$HALOGAP
280
    0
  9
$OBSCOLOR
 70
  257
  9
$OBSLTYPE
280
    0
  9
$INTERSECTIONDISPLAY
280
    0
  9
$INTERSECTIONCOLOR
 70
  257
  9
$DIMASSOC
280
    1
  9
$PROJECTNAME
  1

  9
$CAMERADISPLAY
290
    0
  9
$LENSLENGTH
 40
50
  9
$CAMERAHEIGHT
 40
0
  9
$STEPSPERSEC
 40
2
  9
$STEPSIZE
 40
50
  9
$3DDWFPREC
 40
2
  9
$PSOLWIDTH
 40
5
  9
$PSOLHEIGHT
 40
80
  9
$LOFTANG1
 40
1.570796326794897
  9
$LOFTANG2
 40
1.570796326794897
  9
$LOFTMAG1
 40
0
  9
$LOFTMAG2
 40
0
  9
$LOFTPARAM
 70
    7
  9
$LOFTNORMALS
280
    1
  9
$LATITUDE
 40
1
  9
$LONGITUDE
 40
1
  9
$NORTHDIRECTION
 40
0
  9
$TIMEZONE
 70
-8000
  9
$LIGHTGLYPHDISPLAY
280
    1
  9
$TILEMODELIGHTSYNCH
280
    1
  9
$SOLIDHIST
280
    1
  9
$SHOWHIST
280
    1
  9
$DWFFRAME
280
    2
  9
$DGNFRAME
280
    0
  9
$REALWORLDSCALE
290
    1
  9
$INTERFERECOLOR
 62
    1
  9
$CSHADOW
280
    0
  9
$SHADOWPLANELOCATION
 40
0
  0
ENDSEC
  0
SECTION
  2
CLASSES
  0
ENDSEC
  0
SECTION
  2
TABLES
  0
TABLE
  2
VPORT
  5
8
330
0
100
AcDbSymbolTable
 70
    1
  0
VPORT
  5
31
330
2
100
AcDbSymbolTableRecord
100
AcDbViewportTableRecord
  2
*ACTIVE
 70
    0
 10
0
 20
0
 11
1
 21
1
 12
108.8539863627518
 22
-75.29357203685549
 13
0
 23
0
 14
10
 24
10
 15
10
 25
10
 16
0
 26
0
 36
1
 17
0
 27
0
 37
0
 40
301.52206446168
 41
1.644752018454441
 42
50
 43
0
 44
0
 50
0
 51
0
 71
    0
 72
  100
 73
    1
 74
    3
 75
    0
 76
    0
 77
    0
 78
    0
281
    0
 65
    1
110
0
120
0
130
0
111
1
121
0
131
0
112
0
122
1
132
0
 79
    0
146
0
348
10020
 60
    7
 61
    5
292
1
282
    1
141
0
142
0
 63
  250
421
3358443
  0
ENDTAB
  0
TABLE
  2
LTYPE
  5
5
330
0
100
AcDbSymbolTable
 70
    4
  0
LTYPE
  5
14
330
5
100
AcDbSymbolTableRecord
100
AcDbLinetypeTableRecord
  2
ByBlock
 70
    0
  3

 72
   65
 73
    0
 40
0
  0
LTYPE
  5
15
330
5
100
AcDbSymbolTableRecord
100
AcDbLinetypeTableRecord
  2
ByLayer
 70
    0
  3

 72
   65
 73
    0
 40
0
  0
LTYPE
  5
16
330
5
100
AcDbSymbolTableRecord
100
AcDbLinetypeTableRecord
  2
Continuous
 70
    0
  3
Solid line
 72
   65
 73
    0
 40
0
  0
LTYPE
  5
32
330
5
100
AcDbSymbolTableRecord
100
AcDbLinetypeTableRecord
  2
DOT
 70
    0
  3
Dot . . . . . . . . . . . . . . . . . . . . . .
 72
   65
 73
    2
 40
6.35
 49
0
 74
    0
 49
-6.35
 74
    0
  0
LTYPE
  5
33
330
5
100
AcDbSymbolTableRecord
100
AcDbLinetypeTableRecord
  2
DOTTINY
 70
    0
  3
Dot (.15x) .....................................
 72
   65
 73
    2
 40
0.9525
 49
0
 74
    0
 49
-0.9525
 74
    0
  0
LTYPE
  5
34
330
5
100
AcDbSymbolTableRecord
100
AcDbLinetypeTableRecord
  2
DOT2
 70
    0
  3
Dot (.5x) .....................................
 72
   65
 73
    2
 40
3.175
 49
0
 74
    0
 49
-3.175
 74
    0
  0
LTYPE
  5
35
330
5
100
AcDbSymbolTableRecord
100
AcDbLinetypeTableRecord
  2
DOTX2
 70
    0
  3
Dot (2x) .  .  .  .  .  .  .  .  .  .  .  .  .
 72
   65
 73
    2
 40
12.7
 49
0
 74
    0
 49
-12.7
 74
    0
  0
LTYPE
  5
36
330
5
100
AcDbSymbolTableRecord
100
AcDbLinetypeTableRecord
  2
DASHED
 70
    0
  3
Dashed _ _ _ _ _ _ _ _ _ _ _ _ _ _ _ _ _
 72
   65
 73
    2
 40
19.05
 49
12.7
 74
    0
 49
-6.35
 74
    0
  0
LTYPE
  5
37
330
5
100
AcDbSymbolTableRecord
100
AcDbLinetypeTableRecord
  2
DASHEDTINY
 70
    0
  3
Dashed (.15x) _ _ _ _ _ _ _ _ _ _ _ _ _ _ _ _ _
 72
   65
 73
    2
 40
2.8575
 49
1.905
 74
    0
 49
-0.9525
 74
    0
  0
LTYPE
  5
38
330
5
100
AcDbSymbolTableRecord
100
AcDbLinetypeTableRecord
  2
DASHED2
 70
    0
  3
Dashed (.5x) _ _ _ _ _ _ _ _ _ _ _ _ _ _ _ _ _
 72
   65
 73
    2
 40
9.524999999999999
 49
6.35
 74
    0
 49
-3.175
 74
    0
  0
LTYPE
  5
39
330
5
100
AcDbSymbolTableRecord
100
AcDbLinetypeTableRecord
  2
DASHEDX2
 70
    0
  3
Dashed (2x) ____  ____  ____  ____  ____  ___
 72
   65
 73
    2
 40
38.09999999999999
 49
25.4
 74
    0
 49
-12.7
 74
    0
  0
LTYPE
  5
3A
330
5
100
AcDbSymbolTableRecord
100
AcDbLinetypeTableRecord
  2
DASHDOT
 70
    0
  3
Dash dot __ . __ . __ . __ . __ . __ . __ . __
 72
   65
 73
    4
 40
25.4
 49
12.7
 74
    0
 49
-6.35
 74
    0
 49
0
 74
    0
 49
-6.35
 74
    0
  0
LTYPE
  5
3B
330
5
100
AcDbSymbolTableRecord
100
AcDbLinetypeTableRecord
  2
DASHDOTTINY
 70
    0
  3
Dash dot (.15x) _._._._._._._._._._._._._._._.
 72
   65
 73
    4
 40
3.81
 49
1.905
 74
    0
 49
-0.9525
 74
    0
 49
0
 74
    0
 49
-0.9525
 74
    0
  0
LTYPE
  5
3C
330
5
100
AcDbSymbolTableRecord
100
AcDbLinetypeTableRecord
  2
DASHDOT2
 70
    0
  3
Dash dot (.5x) _._._._._._._._._._._._._._._.
 72
   65
 73
    4
 40
12.7
 49
6.35
 74
    0
 49
-3.175
 74
    0
 49
0
 74
    0
 49
-3.175
 74
    0
  0
LTYPE
  5
3D
330
5
100
AcDbSymbolTableRecord
100
AcDbLinetypeTableRecord
  2
DASHDOTX2
 70
    0
  3
Dash dot (2x) ____  .  ____  .  ____  .  ___
 72
   65
 73
    4
 40
50.8
 49
25.4
 74
    0
 49
-12.7
 74
    0
 49
0
 74
    0
 49
-12.7
 74
    0
  0
LTYPE
  5
3E
330
5
100
AcDbSymbolTableRecord
100
AcDbLinetypeTableRecord
  2
DIVIDE
 70
    0
  3
Divide ____ . . ____ . . ____ . . ____ . . ____
 72
   65
 73
    6
 40
31.75
 49
12.7
 74
    0
 49
-6.35
 74
    0
 49
0
 74
    0
 49
-6.35
 74
    0
 49
0
 74
    0
 49
-6.35
 74
    0
  0
LTYPE
  5
3F
330
5
100
AcDbSymbolTableRecord
100
AcDbLinetypeTableRecord
  2
DIVIDETINY
 70
    0
  3
Divide (.15x) __..__..__..__..__..__..__..__.._
 72
   65
 73
    6
 40
4.7625
 49
1.905
 74
    0
 49
-0.9525
 74
    0
 49
0
 74
    0
 49
-0.9525
 74
    0
 49
0
 74
    0
 49
-0.9525
 74
    0
  0
LTYPE
  5
40
330
5
100
AcDbSymbolTableRecord
100
AcDbLinetypeTableRecord
  2
DIVIDE2
 70
    0
  3
Divide (.5x) __..__..__..__..__..__..__..__.._
 72
   65
 73
    6
 40
15.875
 49
6.35
 74
    0
 49
-3.175
 74
    0
 49
0
 74
    0
 49
-3.175
 74
    0
 49
0
 74
    0
 49
-3.175
 74
    0
  0
LTYPE
  5
41
330
5
100
AcDbSymbolTableRecord
100
AcDbLinetypeTableRecord
  2
DIVIDEX2
 70
    0
  3
Divide (2x) ________  .  .  ________  .  .  _
 72
   65
 73
    6
 40
63.5
 49
25.4
 74
    0
 49
-12.7
 74
    0
 49
0
 74
    0
 49
-12.7
 74
    0
 49
0
 74
    0
 49
-12.7
 74
    0
  0
LTYPE
  5
42
330
5
100
AcDbSymbolTableRecord
100
AcDbLinetypeTableRecord
  2
BORDER
 70
    0
  3
Border __ __ . __ __ . __ __ . __ __ . __ __ .
 72
   65
 73
    6
 40
44.45
 49
12.7
 74
    0
 49
-6.35
 74
    0
 49
12.7
 74
    0
 49
-6.35
 74
    0
 49
0
 74
    0
 49
-6.35
 74
    0
  0
LTYPE
  5
43
330
5
100
AcDbSymbolTableRecord
100
AcDbLinetypeTableRecord
  2
BORDERTINY
 70
    0
  3
Border (.15x) __.__.__.__.__.__.__.__.__.__.__.
 72
   65
 73
    6
 40
6.6675
 49
1.905
 74
    0
 49
-0.9525
 74
    0
 49
1.905
 74
    0
 49
-0.9525
 74
    0
 49
0
 74
    0
 49
-0.9525
 74
    0
  0
LTYPE
  5
44
330
5
100
AcDbSymbolTableRecord
100
AcDbLinetypeTableRecord
  2
BORDER2
 70
    0
  3
Border (.5x) __.__.__.__.__.__.__.__.__.__.__.
 72
   65
 73
    6
 40
22.225
 49
6.35
 74
    0
 49
-3.175
 74
    0
 49
6.35
 74
    0
 49
-3.175
 74
    0
 49
0
 74
    0
 49
-3.175
 74
    0
  0
LTYPE
  5
45
330
5
100
AcDbSymbolTableRecord
100
AcDbLinetypeTableRecord
  2
BORDERX2
 70
    0
  3
Border (2x) ____  ____  .  ____  ____  .  ___
 72
   65
 73
    6
 40
88.89999999999999
 49
25.4
 74
    0
 49
-12.7
 74
    0
 49
25.4
 74
    0
 49
-12.7
 74
    0
 49
0
 74
    0
 49
-12.7
 74
    0
  0
LTYPE
  5
46
330
5
100
AcDbSymbolTableRecord
100
AcDbLinetypeTableRecord
  2
CENTER
 70
    0
  3
Center ____ _ ____ _ ____ _ ____ _ ____ _ ____
 72
   65
 73
    4
 40
50.8
 49
31.75
 74
    0
 49
-6.35
 74
    0
 49
6.35
 74
    0
 49
-6.35
 74
    0
  0
LTYPE
  5
47
330
5
100
AcDbSymbolTableRecord
100
AcDbLinetypeTableRecord
  2
CENTERTINY
 70
    0
  3
Center (.15x) ___ _ ___ _ ___ _ ___ _ ___ _ ___
 72
   65
 73
    4
 40
7.619999999999999
 49
4.7625
 74
    0
 49
-0.9525
 74
    0
 49
0.9525
 74
    0
 49
-0.9525
 74
    0
  0
LTYPE
  5
48
330
5
100
AcDbSymbolTableRecord
100
AcDbLinetypeTableRecord
  2
CENTER2
 70
    0
  3
Center (.5x) ___ _ ___ _ ___ _ ___ _ ___ _ ___
 72
   65
 73
    4
 40
28.575
 49
19.05
 74
    0
 49
-3.175
 74
    0
 49
3.175
 74
    0
 49
-3.175
 74
    0
  0
LTYPE
  5
49
330
5
100
AcDbSymbolTableRecord
100
AcDbLinetypeTableRecord
  2
CENTERX2
 70
    0
  3
Center (2x) ________  __  ________  __  _____
 72
   65
 73
    4
 40
101.6
 49
63.5
 74
    0
 49
-12.7
 74
    0
 49
12.7
 74
    0
 49
-12.7
 74
    0
  0
ENDTAB
  0
TABLE
  2
LAYER
  5
2
330
0
100
AcDbSymbolTable
 70
    1
  0
LAYER
  5
10
330
2
100
AcDbSymbolTableRecord
100
AcDbLayerTableRecord
  2
0
 70
    0
 62
    7
  6
CONTINUOUS
370
    0
390
F
  0
LAYER
  5
4A
330
2
100
AcDbSymbolTableRecord
100
AcDbLayerTableRecord
  2
Annotation
 70
    0
 62
    7
  6
CONTINUOUS
370
    0
390
F
  0
LAYER
  5
4B
330
2
100
AcDbSymbolTableRecord
100
AcDbLayerTableRecord
  2
Axis
 70
    0
 62
    1
  6
CENTER2
370
   25
390
F
  0
LAYER
  5
4C
330
2
100
AcDbSymbolTableRecord
100
AcDbLayerTableRecord
  2
Construction
 70
    1
 62
   96
420
32768
  6
CONTINUOUS
370
   13
390
F
1001
LibreCad
1070
    1
  0
LAYER
  5
4D
330
2
100
AcDbSymbolTableRecord
100
AcDbLayerTableRecord
  2
Cut
 70
    0
 62
    6
  6
CONTINUOUS
370
   25
390
F
  0
LAYER
  5
4E
330
2
100
AcDbSymbolTableRecord
100
AcDbLayerTableRecord
  2
Dimension
 70
    0
 62
    4
  6
CONTINUOUS
370
   13
390
F
  0
LAYER
  5
4F
330
2
100
AcDbSymbolTableRecord
100
AcDbLayerTableRecord
  2
Edges
 70
    0
 62
    7
  6
CONTINUOUS
370
   50
390
F
  0
LAYER
  5
50
330
2
100
AcDbSymbolTableRecord
100
AcDbLayerTableRecord
  2
Hatches
 70
    1
 62
    8
  6
CONTINUOUS
370
   35
390
F
  0
LAYER
  5
51
330
2
100
AcDbSymbolTableRecord
100
AcDbLayerTableRecord
  2
Hidden
 70
    0
 62
    7
  6
DASHED2
370
   25
390
F
  0
LAYER
  5
52
330
2
100
AcDbSymbolTableRecord
100
AcDbLayerTableRecord
  2
Symmetry
 70
    1
 62
    1
  6
CONTINUOUS
370
   18
390
F
  0
ENDTAB
  0
TABLE
  2
STYLE
  5
3
330
0
100
AcDbSymbolTable
 70
    3
  0
STYLE
  5
53
330
2
100
AcDbSymbolTableRecord
100
AcDbTextStyleTableRecord
  2
standard
 70
    0
 40
0
 41
1
 50
0
 71
    0
 42
1
  3
standard
  4

  0
STYLE
  5
54
330
2
100
AcDbSymbolTableRecord
100
AcDbTextStyleTableRecord
  2
STANDARD
 70
    0
 40
0
 41
1
 50
0
 71
    0
 42
1
  3
STANDARD
  4

  0
ENDTAB
  0
TABLE
  2
VIEW
  5
6
330
0
100
AcDbSymbolTable
 70
    0
  0
ENDTAB
  0
TABLE
  2
UCS
  5
7
330
0
100
AcDbSymbolTable
 70
    0
  0
ENDTAB
  0
TABLE
  2
APPID
  5
9
330
0
100
AcDbSymbolTable
 70
    1
  0
APPID
  5
12
330
9
100
AcDbSymbolTableRecord
100
AcDbRegAppTableRecord
  2
ACAD
 70
    0
  0
APPID
  5
55
330
9
100
AcDbSymbolTableRecord
100
AcDbRegAppTableRecord
  2
LibreCad
 70
    0
  0
ENDTAB
  0
TABLE
  2
DIMSTYLE
  5
A
330
0
100
AcDbSymbolTable
 70
    1
100
AcDbDimStyleTable
 71
    1
  0
DIMSTYLE
105
56
330
A
100
AcDbSymbolTableRecord
100
AcDbDimStyleTableRecord
  2
Standard
 70
    0
 40
1
 41
3
 42
1.5
 43
0.38
 44
1.25
 45
0
 46
0
 47
0
 48
0
 49
1
140
3
141
0.09
142
0
143
25.4
144
1
145
0
146
1
147
1.5
148
0
 71
    0
 72
    0
 73
    0
 74
    1
 75
    0
 76
    0
 77
    0
 78
    1
 79
    0
170
    0
171
    2
172
    0
173
    0
174
    0
175
    0
176
    0
177
    0
178
    0
179
    0
271
    0
272
    4
273
    2
274
    2
275
    0
276
    0
277
    2
278
    0
279
    0
280
    0
281
    0
282
    0
283
    1
284
    0
285
    0
286
    0
288
    0
289
    3
340
standard
341

371
   -2
372
   -2
  0
ENDTAB
  0
TABLE
  2
BLOCK_RECORD
  5
1
330
0
100
AcDbSymbolTable
 70
    2
  0
BLOCK_RECORD
  5
1F
330
1
100
AcDbSymbolTableRecord
100
AcDbBlockTableRecord
  2
*Model_Space
 70
    0
280
    1
281
    0
  0
BLOCK_RECORD
  5
1E
330
1
100
AcDbSymbolTableRecord
100
AcDbBlockTableRecord
  2
*Paper_Space
 70
    0
280
    1
281
    0
  0
BLOCK_RECORD
  5
57
330
1
100
AcDbSymbolTableRecord
100
AcDbBlockTableRecord
  2
*D17
 70
    0
280
    1
281
    0
  0
BLOCK_RECORD
  5
5A
330
1
100
AcDbSymbolTableRecord
100
AcDbBlockTableRecord
  2
*D27
 70
    0
280
    1
281
    0
  0
BLOCK_RECORD
  5
5D
330
1
100
AcDbSymbolTableRecord
100
AcDbBlockTableRecord
  2
*D5
 70
    0
280
    1
281
    0
  0
BLOCK_RECORD
  5
60
330
1
100
AcDbSymbolTableRecord
100
AcDbBlockTableRecord
  2
*D24
 70
    0
280
    1
281
    0
  0
BLOCK_RECORD
  5
63
330
1
100
AcDbSymbolTableRecord
100
AcDbBlockTableRecord
  2
*D25
 70
    0
280
    1
281
    0
  0
BLOCK_RECORD
  5
66
330
1
100
AcDbSymbolTableRecord
100
AcDbBlockTableRecord
  2
*D29
 70
    0
280
    1
281
    0
  0
BLOCK_RECORD
  5
69
330
1
100
AcDbSymbolTableRecord
100
AcDbBlockTableRecord
  2
*D15
 70
    0
280
    1
281
    0
  0
BLOCK_RECORD
  5
6C
330
1
100
AcDbSymbolTableRecord
100
AcDbBlockTableRecord
  2
*D31
 70
    0
280
    1
281
    0
  0
BLOCK_RECORD
  5
6F
330
1
100
AcDbSymbolTableRecord
100
AcDbBlockTableRecord
  2
*D10
 70
    0
280
    1
281
    0
  0
BLOCK_RECORD
  5
72
330
1
100
AcDbSymbolTableRecord
100
AcDbBlockTableRecord
  2
*D18
 70
    0
280
    1
281
    0
  0
BLOCK_RECORD
  5
75
330
1
100
AcDbSymbolTableRecord
100
AcDbBlockTableRecord
  2
*D16
 70
    0
280
    1
281
    0
  0
BLOCK_RECORD
  5
78
330
1
100
AcDbSymbolTableRecord
100
AcDbBlockTableRecord
  2
*D7
 70
    0
280
    1
281
    0
  0
BLOCK_RECORD
  5
7B
330
1
100
AcDbSymbolTableRecord
100
AcDbBlockTableRecord
  2
*D26
 70
    0
280
    1
281
    0
  0
BLOCK_RECORD
  5
7E
330
1
100
AcDbSymbolTableRecord
100
AcDbBlockTableRecord
  2
*D19
 70
    0
280
    1
281
    0
  0
BLOCK_RECORD
  5
81
330
1
100
AcDbSymbolTableRecord
100
AcDbBlockTableRecord
  2
*D11
 70
    0
280
    1
281
    0
  0
BLOCK_RECORD
  5
84
330
1
100
AcDbSymbolTableRecord
100
AcDbBlockTableRecord
  2
*D13
 70
    0
280
    1
281
    0
  0
BLOCK_RECORD
  5
87
330
1
100
AcDbSymbolTableRecord
100
AcDbBlockTableRecord
  2
*D33
 70
    0
280
    1
281
    0
  0
BLOCK_RECORD
  5
8A
330
1
100
AcDbSymbolTableRecord
100
AcDbBlockTableRecord
  2
*D2
 70
    0
280
    1
281
    0
  0
BLOCK_RECORD
  5
8D
330
1
100
AcDbSymbolTableRecord
100
AcDbBlockTableRecord
  2
*D30
 70
    0
280
    1
281
    0
  0
BLOCK_RECORD
  5
90
330
1
100
AcDbSymbolTableRecord
100
AcDbBlockTableRecord
  2
*D32
 70
    0
280
    1
281
    0
  0
BLOCK_RECORD
  5
93
330
1
100
AcDbSymbolTableRecord
100
AcDbBlockTableRecord
  2
*D12
 70
    0
280
    1
281
    0
  0
BLOCK_RECORD
  5
96
330
1
100
AcDbSymbolTableRecord
100
AcDbBlockTableRecord
  2
*D6
 70
    0
280
    1
281
    0
  0
BLOCK_RECORD
  5
99
330
1
100
AcDbSymbolTableRecord
100
AcDbBlockTableRecord
  2
*D8
 70
    0
280
    1
281
    0
  0
BLOCK_RECORD
  5
9C
330
1
100
AcDbSymbolTableRecord
100
AcDbBlockTableRecord
  2
*D22
 70
    0
280
    1
281
    0
  0
BLOCK_RECORD
  5
9F
330
1
100
AcDbSymbolTableRecord
100
AcDbBlockTableRecord
  2
*D3
 70
    0
280
    1
281
    0
  0
BLOCK_RECORD
  5
A2
330
1
100
AcDbSymbolTableRecord
100
AcDbBlockTableRecord
  2
*D28
 70
    0
280
    1
281
    0
  0
BLOCK_RECORD
  5
A5
330
1
100
AcDbSymbolTableRecord
100
AcDbBlockTableRecord
  2
*D23
 70
    0
280
    1
281
    0
  0
BLOCK_RECORD
  5
A8
330
1
100
AcDbSymbolTableRecord
100
AcDbBlockTableRecord
  2
*D4
 70
    0
280
    1
281
    0
  0
BLOCK_RECORD
  5
AB
330
1
100
AcDbSymbolTableRecord
100
AcDbBlockTableRecord
  2
*D14
 70
    0
280
    1
281
    0
  0
BLOCK_RECORD
  5
AE
330
1
100
AcDbSymbolTableRecord
100
AcDbBlockTableRecord
  2
*D21
 70
    0
280
    1
281
    0
  0
BLOCK_RECORD
  5
B1
330
1
100
AcDbSymbolTableRecord
100
AcDbBlockTableRecord
  2
*D1
 70
    0
280
    1
281
    0
  0
BLOCK_RECORD
  5
B4
330
1
100
AcDbSymbolTableRecord
100
AcDbBlockTableRecord
  2
*D20
 70
    0
280
    1
281
    0
  0
BLOCK_RECORD
  5
B7
330
1
100
AcDbSymbolTableRecord
100
AcDbBlockTableRecord
  2
*D9
 70
    0
280
    1
281
    0
  0
ENDTAB
  0
ENDSEC
  0
SECTION
  2
BLOCKS
  0
BLOCK
  5
20
330
1F
100
AcDbEntity
  8
0
100
AcDbBlockBegin
  2
*Model_Space
 70
    0
 10
0
 20
0
 30
0
  3
*Model_Space
  1

  0
ENDBLK
  5
21
330
1F
100
AcDbEntity
  8
0
100
AcDbBlockEnd
  0
BLOCK
  5
1C
330
1B
100
AcDbEntity
  8
0
100
AcDbBlockBegin
  2
*Paper_Space
 70
    0
 10
0
 20
0
 30
0
  3
*Paper_Space
  1

  0
ENDBLK
  5
1D
330
1F
100
AcDbEntity
  8
0
100
AcDbBlockEnd
  0
BLOCK
  5
58
330
57
100
AcDbEntity
  8
0
100
AcDbBlockBegin
  2
*D17
 70
    1
 10
0
 20
0
  3
*D17
  1

  0
LINE
  5
BA
100
AcDbEntity
  8
Dimension
  6
ByBlock
 62
    0
370
   -2
100
AcDbLine
 10
-15.81509241456191
 20
-40
 11
-15.81509241456192
 21
-90
  0
MTEXT
  5
BB
100
AcDbEntity
  8
Dimension
  6
CONTINUOUS
 62
    0
370
   -2
100
AcDbMText
 10
-18.81509241456191
 20
-65
 30
0
 40
3
 41
3.666666666666852
 71
    5
 72
    1
  1
50
  7
standard
210
0
220
0
230
1
 50
90
 73
    2
 44
1
  0
SOLID
  5
BC
100
AcDbEntity
  8
Dimension
  6
ByBlock
 62
    0
370
   -2
100
AcDbTrace
 10
-15.81509241456191
 20
-40
 30
0
 11
-15.3155508252345
 21
-43
 31
0
 12
-16.31463400388932
 22
-43
 32
0
 13
-16.31463400388932
 23
-43
 33
0
  0
SOLID
  5
BD
100
AcDbEntity
  8
Dimension
  6
ByBlock
 62
    0
370
   -2
100
AcDbTrace
 10
-15.81509241456192
 20
-90
 30
0
 11
-16.31463400388932
 21
-87
 31
0
 12
-15.31555082523451
 22
-87
 32
0
 13
-15.31555082523451
 23
-87
 33
0
  0
LINE
  5
BE
100
AcDbEntity
  8
Dimension
  6
ByBlock
 62
    0
370
   -2
100
AcDbLine
 10
-1.5
 20
-40
 11
-17.06509241456191
 21
-40
  0
LINE
  5
BF
100
AcDbEntity
  8
Dimension
  6
ByBlock
 62
    0
370
   -2
100
AcDbLine
 10
-1.5
 20
-90
 11
-17.06509241456192
 21
-90
  0
ENDBLK
  5
59
330
57
100
AcDbEntity
  8
0
100
AcDbBlockEnd
  0
BLOCK
  5
5B
330
5A
100
AcDbEntity
  8
0
100
AcDbBlockBegin
  2
*D27
 70
    1
 10
0
 20
0
  3
*D27
  1

  0
LINE
  5
C0
100
AcDbEntity
  8
Dimension
  6
ByBlock
 62
    0
370
   -2
100
AcDbLine
 10
-33.1209114883028
 20
-310.0387479161668
 11
-52.1209114883028
 21
-310.0387479161668
  0
MTEXT
  5
C1
100
AcDbEntity
  8
Dimension
  6
CONTINUOUS
 62
    0
370
   -2
100
AcDbMText
 10
-42.6209114883028
 20
-307.0387479161668
 30
0
 40
3
 41
3
 71
    5
 72
    1
  1
19
  7
standard
210
0
220
0
230
1
 50
0
 73
    2
 44
1
  0
SOLID
  5
C2
100
AcDbEntity
  8
Dimension
  6
ByBlock
 62
    0
370
   -2
100
AcDbTrace
 10
-33.1209114883028
 20
-310.0387479161668
 30
0
 11
-36.1209114883028
 21
-310.5382895054942
 31
0
 12
-36.1209114883028
 22
-309.5392063268394
 32
0
 13
-36.1209114883028
 23
-309.5392063268394
 33
0
  0
SOLID
  5
C3
100
AcDbEntity
  8
Dimension
  6
ByBlock
 62
    0
370
   -2
100
AcDbTrace
 10
-52.1209114883028
 20
-310.0387479161668
 30
0
 11
-49.1209114883028
 21
-309.5392063268394
 31
0
 12
-49.1209114883028
 22
-310.5382895054942
 32
0
 13
-49.1209114883028
 23
-310.5382895054942
 33
0
  0
LINE
  5
C4
100
AcDbEntity
  8
Dimension
  6
ByBlock
 62
    0
370
   -2
100
AcDbLine
 10
-33.1209114883028
 20
-304.1179922087067
 11
-33.1209114883028
 21
-311.2887479161668
  0
LINE
  5
C5
100
AcDbEntity
  8
Dimension
  6
ByBlock
 62
    0
370
   -2
100
AcDbLine
 10
-52.1209114883028
 20
-304.1179922087067
 11
-52.1209114883028
 21
-311.2887479161668
  0
ENDBLK
  5
5C
330
5A
100
AcDbEntity
  8
0
100
AcDbBlockEnd
  0
BLOCK
  5
5E
330
5D
100
AcDbEntity
  8
0
100
AcDbBlockBegin
  2
*D5
 70
    1
 10
0
 20
0
  3
*D5
  1

  0
SOLID
  5
C6
100
AcDbEntity
  8
Annotation
  6
ByBlock
 62
    0
370
   -2
100
AcDbTrace
 10
83.24400148136547
 20
91.40043356991968
 30
0
 11
85.48933691403371
 21
93.45177717699099
 31
0
 12
86.0329074708081
 22
92.61350618997128
 32
0
 13
86.0329074708081
 23
92.61350618997128
 33
0
  0
LINE
  5
C7
100
AcDbEntity
  8
Annotation
  6
ByBlock
 62
    0
370
   -2
100
AcDbLine
 10
78
 20
88
 11
89.39696321950112
 21
95.39027562529222
  0
MTEXT
  5
C8
100
AcDbEntity
  8
Annotation
  6
CONTINUOUS
 62
    0
370
   -2
100
AcDbMText
 10
84.68827423687185
 20
95.91247530866137
 30
0
 40
3
 41
1.333333333333519
 71
    5
 72
    1
  1
6
  7
standard
210
0
220
0
230
1
 50
32.96109063406195
 73
    2
 44
1
  0
ENDBLK
  5
5F
330
5D
100
AcDbEntity
  8
0
100
AcDbBlockEnd
  0
BLOCK
  5
61
330
60
100
AcDbEntity
  8
0
100
AcDbBlockBegin
  2
*D24
 70
    1
 10
0
 20
0
  3
*D24
  1

  0
LINE
  5
C9
100
AcDbEntity
  8
Dimension
  6
ByBlock
 62
    0
370
   -2
100
AcDbLine
 10
-87.91434265156079
 20
-302.6179922087067
 11
-87.91434265156079
 21
-214.6179922087067
  0
MTEXT
  5
CA
100
AcDbEntity
  8
Dimension
  6
CONTINUOUS
 62
    0
370
   -2
100
AcDbMText
 10
-90.91434265156079
 20
-258.6179922087067
 30
0
 40
3
 41
3.666666666666667
 71
    5
 72
    1
  1
88
  7
standard
210
0
220
0
230
1
 50
90
 73
    2
 44
1
  0
SOLID
  5
CB
100
AcDbEntity
  8
Dimension
  6
ByBlock
 62
    0
370
   -2
100
AcDbTrace
 10
-87.91434265156079
 20
-302.6179922087067
 30
0
 11
-88.41388424088819
 21
-299.6179922087067
 31
0
 12
-87.41480106223338
 22
-299.6179922087067
 32
0
 13
-87.41480106223338
 23
-299.6179922087067
 33
0
  0
SOLID
  5
CC
100
AcDbEntity
  8
Dimension
  6
ByBlock
 62
    0
370
   -2
100
AcDbTrace
 10
-87.91434265156079
 20
-214.6179922087067
 30
0
 11
-87.41480106223338
 21
-217.6179922087067
 31
0
 12
-88.41388424088819
 22
-217.6179922087067
 32
0
 13
-88.41388424088819
 23
-217.6179922087067
 33
0
  0
LINE
  5
CD
100
AcDbEntity
  8
Dimension
  6
ByBlock
 62
    0
370
   -2
100
AcDbLine
 10
-76.6209114883028
 20
-302.6179922087067
 11
-89.16434265156079
 21
-302.6179922087067
  0
LINE
  5
CE
100
AcDbEntity
  8
Dimension
  6
ByBlock
 62
    0
370
   -2
100
AcDbLine
 10
-84.6209114883028
 20
-214.6179922087067
 11
-89.16434265156079
 21
-214.6179922087067
  0
ENDBLK
  5
62
330
60
100
AcDbEntity
  8
0
100
AcDbBlockEnd
  0
BLOCK
  5
64
330
63
100
AcDbEntity
  8
0
100
AcDbBlockBegin
  2
*D25
 70
    1
 10
0
 20
0
  3
*D25
  1

  0
LINE
  5
CF
100
AcDbEntity
  8
Dimension
  6
ByBlock
 62
    0
370
   -2
100
AcDbLine
 10
-26.08957271587249
 20
-292.6179922087067
 11
-26.08957271587249
 21
-308.6179922087067
  0
MTEXT
  5
D0
100
AcDbEntity
  8
Dimension
  6
CONTINUOUS
 62
    0
370
   -2
100
AcDbMText
 10
-29.08957271587249
 20
-300.6179922087067
 30
0
 40
3
 41
1.666666666666667
 71
    5
 72
    1
  1
4
  7
standard
210
0
220
0
230
1
 50
90
 73
    2
 44
1
  0
SOLID
  5
D1
100
AcDbEntity
  8
Dimension
  6
ByBlock
 62
    0
370
   -2
100
AcDbTrace
 10
-26.08957271587249
 20
-298.6179922087067
 30
0
 11
-26.5891143051999
 21
-295.6179922087067
 31
0
 12
-25.59003112654508
 22
-295.6179922087067
 32
0
 13
-25.59003112654508
 23
-295.6179922087067
 33
0
  0
SOLID
  5
D2
100
AcDbEntity
  8
Dimension
  6
ByBlock
 62
    0
370
   -2
100
AcDbTrace
 10
-26.08957271587249
 20
-302.6179922087067
 30
0
 11
-25.59003112654509
 21
-305.6179922087067
 31
0
 12
-26.5891143051999
 22
-305.6179922087067
 32
0
 13
-26.5891143051999
 23
-305.6179922087067
 33
0
  0
LINE
  5
D3
100
AcDbEntity
  8
Dimension
  6
ByBlock
 62
    0
370
   -2
100
AcDbLine
 10
-31.6209114883028
 20
-298.6179922087067
 11
-24.83957271587249
 21
-298.6179922087067
  0
LINE
  5
D4
100
AcDbEntity
  8
Dimension
  6
ByBlock
 62
    0
370
   -2
100
AcDbLine
 10
-31.6209114883028
 20
-302.6179922087067
 11
-24.83957271587249
 21
-302.6179922087067
  0
ENDBLK
  5
65
330
63
100
AcDbEntity
  8
0
100
AcDbBlockEnd
  0
BLOCK
  5
67
330
66
100
AcDbEntity
  8
0
100
AcDbBlockBegin
  2
*D29
 70
    1
 10
0
 20
0
  3
*D29
  1

  0
LINE
  5
D5
100
AcDbEntity
  8
Dimension
  6
ByBlock
 62
    0
370
   -2
100
AcDbLine
 10
-0.03231491758109529
 20
-366.095610045726
 11
-0.03231491758109327
 21
-333.095610045726
  0
MTEXT
  5
D6
100
AcDbEntity
  8
Dimension
  6
CONTINUOUS
 62
    0
370
   -2
100
AcDbMText
 10
-3.032314917581094
 20
-349.595610045726
 30
0
 40
3
 41
3.666666666667038
 71
    5
 72
    1
  1
33
  7
standard
210
0
220
0
230
1
 50
90
 73
    2
 44
1
  0
SOLID
  5
D7
100
AcDbEntity
  8
Dimension
  6
ByBlock
 62
    0
370
   -2
100
AcDbTrace
 10
-0.03231491758109529
 20
-366.095610045726
 30
0
 11
-0.5318565069085034
 21
-363.095610045726
 31
0
 12
0.4672266717463138
 22
-363.095610045726
 32
0
 13
0.4672266717463138
 23
-363.095610045726
 33
0
  0
SOLID
  5
D8
100
AcDbEntity
  8
Dimension
  6
ByBlock
 62
    0
370
   -2
100
AcDbTrace
 10
-0.03231491758109327
 20
-333.095610045726
 30
0
 11
0.4672266717463152
 21
-336.095610045726
 31
0
 12
-0.5318565069085021
 22
-336.095610045726
 32
0
 13
-0.5318565069085021
 23
-336.095610045726
 33
0
  0
LINE
  5
D9
100
AcDbEntity
  8
Dimension
  6
ByBlock
 62
    0
370
   -2
100
AcDbLine
 10
5.12667136223445
 20
-366.095610045726
 11
-1.282314917581095
 21
-366.095610045726
  0
LINE
  5
DA
100
AcDbEntity
  8
Dimension
  6
ByBlock
 62
    0
370
   -2
100
AcDbLine
 10
24.12667136223445
 20
-333.095610045726
 11
-1.282314917581093
 21
-333.095610045726
  0
ENDBLK
  5
68
330
66
100
AcDbEntity
  8
0
100
AcDbBlockEnd
  0
BLOCK
  5
6A
330
69
100
AcDbEntity
  8
0
100
AcDbBlockBegin
  2
*D15
 70
    1
 10
0
 20
0
  3
*D15
  1

  0
SOLID
  5
DB
100
AcDbEntity
  8
Dimension
  6
ByBlock
 62
    0
370
   -2
100
AcDbTrace
 10
154.3551139598881
 20
6.352333239214571
 30
0
 11
151.8272189478953
 21
4.661390127276797
 31
0
 12
151.415679911713
 22
5.571776209974196
 32
0
 13
151.415679911713
 23
5.571776209974196
 33
0
  0
LINE
  5
DC
100
AcDbEntity
  8
Dimension
  6
ByBlock
 62
    0
370
   -2
100
AcDbLine
 10
158
 20
8
 11
147.3690823830069
 21
3.194305281042494
  0
MTEXT
  5
DD
100
AcDbEntity
  8
Dimension
  6
CONTINUOUS
 62
    0
370
   -2
100
AcDbMText
 10
149.6263481008584
 20
7.506983790212484
 30
0
 40
3
 41
1.666666666666667
 71
    5
 72
    1
  1
4
  7
standard
210
0
220
0
230
1
 50
24.32529527957443
 73
    2
 44
1
  0
ENDBLK
  5
6B
330
69
100
AcDbEntity
  8
0
100
AcDbBlockEnd
  0
BLOCK
  5
6D
330
6C
100
AcDbEntity
  8
0
100
AcDbBlockBegin
  2
*D31
 70
    1
 10
0
 20
0
  3
*D31
  1

  0
SOLID
  5
DE
100
AcDbEntity
  8
Dimension
  6
ByBlock
 62
    0
370
   -2
100
AcDbTrace
 10
56.46684814938857
 20
-319.8415412002895
 30
0
 11
59.24566231284597
 21
-318.6055259720515
 31
0
 12
59.49624613051611
 22
-319.5726738140037
 32
0
 13
59.49624613051611
 23
-319.5726738140037
 33
0
  0
LINE
  5
DF
100
AcDbEntity
  8
Dimension
  6
ByBlock
 62
    0
370
   -2
100
AcDbLine
 10
51.62667136223445
 20
-321.095610045726
 11
63.56577410388145
 21
-318.0022402269826
  0
MTEXT
  5
E0
100
AcDbEntity
  8
Dimension
  6
CONTINUOUS
 62
    0
370
   -2
100
AcDbMText
 10
59.26386981937311
 20
-316.0177846413436
 30
0
 40
3
 41
1.333333333333519
 71
    5
 72
    1
  1
5
  7
standard
210
0
220
0
230
1
 50
14.52567206229531
 73
    2
 44
1
  0
ENDBLK
  5
6E
330
6C
100
AcDbEntity
  8
0
100
AcDbBlockEnd
  0
BLOCK
  5
70
330
6F
100
AcDbEntity
  8
0
100
AcDbBlockBegin
  2
*D10
 70
    1
 10
0
 20
0
  3
*D10
  1

  0
LINE
  5
E1
100
AcDbEntity
  8
Dimension
  6
ByBlock
 62
    0
370
   -2
100
AcDbLine
 10
0
 20
-97.67067659763129
 11
78
 21
-97.67067659763129
  0
MTEXT
  5
E2
100
AcDbEntity
  8
Dimension
  6
CONTINUOUS
 62
    0
370
   -2
100
AcDbMText
 10
39
 20
-94.67067659763129
 30
0
 40
3
 41
3.666666666666667
 71
    5
 72
    1
  1
78
  7
standard
210
0
220
0
230
1
 50
0
 73
    2
 44
1
  0
SOLID
  5
E3
100
AcDbEntity
  8
Dimension
  6
ByBlock
 62
    0
370
   -2
100
AcDbTrace
 10
0
 20
-97.67067659763129
 30
0
 11
3
 21
-97.17113500830388
 31
0
 12
3
 22
-98.17021818695869
 32
0
 13
3
 23
-98.17021818695869
 33
0
  0
SOLID
  5
E4
100
AcDbEntity
  8
Dimension
  6
ByBlock
 62
    0
370
   -2
100
AcDbTrace
 10
78
 20
-97.67067659763129
 30
0
 11
75
 21
-98.17021818695869
 31
0
 12
75
 22
-97.17113500830388
 32
0
 13
75
 23
-97.17113500830388
 33
0
  0
LINE
  5
E5
100
AcDbEntity
  8
Dimension
  6
ByBlock
 62
    0
370
   -2
100
AcDbLine
 10
-2.755455298081545e-16
 20
-91.5
 11
-2.296212748401287e-16
 21
-98.92067659763129
  0
LINE
  5
E6
100
AcDbEntity
  8
Dimension
  6
ByBlock
 62
    0
370
   -2
100
AcDbLine
 10
78
 20
-91.5
 11
78
 21
-98.92067659763129
  0
ENDBLK
  5
71
330
6F
100
AcDbEntity
  8
0
100
AcDbBlockEnd
  0
BLOCK
  5
73
330
72
100
AcDbEntity
  8
0
100
AcDbBlockBegin
  2
*D18
 70
    1
 10
0
 20
0
  3
*D18
  1

  0
SOLID
  5
E7
100
AcDbEntity
  8
Annotation
  6
ByBlock
 62
    0
370
   -2
100
AcDbTrace
 10
97.16844082066957
 20
-226.0942293468746
 30
0
 11
94.61796046097523
 21
-224.4375484076829
 31
0
 12
95.29241431268095
 22
-223.7004736490659
 32
0
 13
95.29241431268095
 23
-223.7004736490659
 33
0
  0
LINE
  5
E8
100
AcDbEntity
  8
Annotation
  6
ByBlock
 62
    0
370
   -2
100
AcDbLine
 10
84.62667136223445
 20
-214.6179922087067
 11
97.16844082066957
 21
-226.0942293468746
  0
MTEXT
  5
E9
100
AcDbEntity
  8
Annotation
  6
CONTINUOUS
 62
    0
370
   -2
100
AcDbMText
 10
92.92277440995223
 20
-218.1428573439492
 30
0
 40
3
 41
3
 71
    5
 72
    1
  1
17
  7
standard
210
0
220
0
230
1
 50
317.5401983125801
 73
    2
 44
1
  0
ENDBLK
  5
74
330
72
100
AcDbEntity
  8
0
100
AcDbBlockEnd
  0
BLOCK
  5
76
330
75
100
AcDbEntity
  8
0
100
AcDbBlockBegin
  2
*D16
 70
    1
 10
0
 20
0
  3
*D16
  1

  0
LINE
  5
EA
100
AcDbEntity
  8
Dimension
  6
ByBlock
 62
    0
370
   -2
100
AcDbLine
 10
-6.658986279815545
 20
-90
 11
-6.658986279815544
 21
-57
  0
MTEXT
  5
EB
100
AcDbEntity
  8
Dimension
  6
CONTINUOUS
 62
    0
370
   -2
100
AcDbMText
 10
-9.658986279815544
 20
-73.5
 30
0
 40
3
 41
3.666666666667038
 71
    5
 72
    1
  1
33
  7
standard
210
0
220
0
230
1
 50
90
 73
    2
 44
1
  0
SOLID
  5
EC
100
AcDbEntity
  8
Dimension
  6
ByBlock
 62
    0
370
   -2
100
AcDbTrace
 10
-6.658986279815545
 20
-90
 30
0
 11
-7.158527869142953
 21
-87
 31
0
 12
-6.159444690488137
 22
-87
 32
0
 13
-6.159444690488137
 23
-87
 33
0
  0
SOLID
  5
ED
100
AcDbEntity
  8
Dimension
  6
ByBlock
 62
    0
370
   -2
100
AcDbTrace
 10
-6.658986279815544
 20
-57
 30
0
 11
-6.159444690488135
 21
-60
 31
0
 12
-7.158527869142953
 22
-60
 32
0
 13
-7.158527869142953
 23
-60
 33
0
  0
LINE
  5
EE
100
AcDbEntity
  8
Dimension
  6
ByBlock
 62
    0
370
   -2
100
AcDbLine
 10
-1.5
 20
-90
 11
-7.908986279815545
 21
-90
  0
LINE
  5
EF
100
AcDbEntity
  8
Dimension
  6
ByBlock
 62
    0
370
   -2
100
AcDbLine
 10
17.5
 20
-57
 11
-7.908986279815544
 21
-57
  0
ENDBLK
  5
77
330
75
100
AcDbEntity
  8
0
100
AcDbBlockEnd
  0
BLOCK
  5
79
330
78
100
AcDbEntity
  8
0
100
AcDbBlockBegin
  2
*D7
 70
    1
 10
0
 20
0
  3
*D7
  1

  0
SOLID
  5
F0
100
AcDbEntity
  8
Dimension
  6
ByBlock
 62
    0
370
   -2
100
AcDbTrace
 10
1.382397516566199
 20
44.44935697921941
 30
0
 11
4.221103579698707
 21
43.35789480094547
 31
0
 12
3.714252943493971
 22
42.4969246327922
 32
0
 13
3.714252943493971
 23
42.4969246327922
 33
0
  0
LINE
  5
F1
100
AcDbEntity
  8
Dimension
  6
ByBlock
 62
    0
370
   -2
100
AcDbLine
 10
10
 20
39.37619943805083
 11
1.382397516566199
 21
44.44935697921941
  0
MTEXT
  5
F2
100
AcDbEntity
  8
Dimension
  6
CONTINUOUS
 62
    0
370
   -2
100
AcDbMText
 10
7.213146020633672
 20
44.49805895366526
 30
0
 40
3
 41
3
 71
    5
 72
    1
  1
10
  7
standard
210
0
220
0
230
1
 50
329.5148017007634
 73
    2
 44
1
  0
ENDBLK
  5
7A
330
78
100
AcDbEntity
  8
0
100
AcDbBlockEnd
  0
BLOCK
  5
7C
330
7B
100
AcDbEntity
  8
0
100
AcDbBlockBegin
  2
*D26
 70
    1
 10
0
 20
0
  3
*D26
  1

  0
SOLID
  5
F3
100
AcDbEntity
  8
Dimension
  6
ByBlock
 62
    0
370
   -2
100
AcDbTrace
 10
-78.76579752841471
 20
-296.2656589694922
 30
0
 11
-81.29369254040748
 21
-297.9566020814299
 31
0
 12
-81.70523157658982
 22
-297.0462159987326
 32
0
 13
-81.70523157658982
 23
-297.0462159987326
 33
0
  0
LINE
  5
F4
100
AcDbEntity
  8
Dimension
  6
ByBlock
 62
    0
370
   -2
100
AcDbLine
 10
-75.1209114883028
 20
-294.6179922087067
 11
-85.75182910529588
 21
-299.4236869276643
  0
MTEXT
  5
F5
100
AcDbEntity
  8
Dimension
  6
CONTINUOUS
 62
    0
370
   -2
100
AcDbMText
 10
-83.49456338744439
 20
-295.1110084184943
 30
0
 40
3
 41
1.666666666666667
 71
    5
 72
    1
  1
4
  7
standard
210
0
220
0
230
1
 50
24.32529527957484
 73
    2
 44
1
  0
ENDBLK
  5
7D
330
7B
100
AcDbEntity
  8
0
100
AcDbBlockEnd
  0
BLOCK
  5
7F
330
7E
100
AcDbEntity
  8
0
100
AcDbBlockBegin
  2
*D19
 70
    1
 10
0
 20
0
  3
*D19
  1

  0
SOLID
  5
F6
100
AcDbEntity
  8
Annotation
  6
ByBlock
 62
    0
370
   -2
100
AcDbTrace
 10
89.87067284359992
 20
-211.217558638787
 30
0
 11
92.11600827626815
 21
-209.1662150317157
 31
0
 12
92.65957883304253
 22
-210.0044860187354
 32
0
 13
92.65957883304253
 23
-210.0044860187354
 33
0
  0
LINE
  5
F7
100
AcDbEntity
  8
Annotation
  6
ByBlock
 62
    0
370
   -2
100
AcDbLine
 10
84.62667136223445
 20
-214.6179922087067
 11
96.02363458173556
 21
-207.2277165834145
  0
MTEXT
  5
F8
100
AcDbEntity
  8
Annotation
  6
CONTINUOUS
 62
    0
370
   -2
100
AcDbMText
 10
91.3149455991063
 20
-206.7055169000453
 30
0
 40
3
 41
1.333333333333519
 71
    5
 72
    1
  1
6
  7
standard
210
0
220
0
230
1
 50
32.96109063406205
 73
    2
 44
1
  0
ENDBLK
  5
80
330
7E
100
AcDbEntity
  8
0
100
AcDbBlockEnd
  0
BLOCK
  5
82
330
81
100
AcDbEntity
  8
0
100
AcDbBlockBegin
  2
*D11
 70
    1
 10
0
 20
0
  3
*D11
  1

  0
LINE
  5
F9
100
AcDbEntity
  8
Dimension
  6
ByBlock
 62
    0
370
   -2
100
AcDbLine
 10
0
 20
-105.4652709663487
 11
95
 21
-105.4652709663487
  0
MTEXT
  5
FA
100
AcDbEntity
  8
Dimension
  6
CONTINUOUS
 62
    0
370
   -2
100
AcDbMText
 10
47.5
 20
-102.4652709663487
 30
0
 40
3
 41
3.666666666667039
 71
    5
 72
    1
  1
95
  7
standard
210
0
220
0
230
1
 50
0
 73
    2
 44
1
  0
SOLID
  5
FB
100
AcDbEntity
  8
Dimension
  6
ByBlock
 62
    0
370
   -2
100
AcDbTrace
 10
0
 20
-105.4652709663487
 30
0
 11
3
 21
-104.9657293770213
 31
0
 12
3
 22
-105.9648125556761
 32
0
 13
3
 23
-105.9648125556761
 33
0
  0
SOLID
  5
FC
100
AcDbEntity
  8
Dimension
  6
ByBlock
 62
    0
370
   -2
100
AcDbTrace
 10
95
 20
-105.4652709663487
 30
0
 11
92
 21
-105.9648125556761
 31
0
 12
92
 22
-104.9657293770213
 32
0
 13
92
 23
-104.9657293770213
 33
0
  0
LINE
  5
FD
100
AcDbEntity
  8
Dimension
  6
ByBlock
 62
    0
370
   -2
100
AcDbLine
 10
-2.755455298081545e-16
 20
-91.5
 11
-2.296212748401287e-16
 21
-106.7152709663487
  0
LINE
  5
FE
100
AcDbEntity
  8
Dimension
  6
ByBlock
 62
    0
370
   -2
100
AcDbLine
 10
95
 20
-91.5
 11
95
 21
-106.7152709663487
  0
ENDBLK
  5
83
330
81
100
AcDbEntity
  8
0
100
AcDbBlockEnd
  0
BLOCK
  5
85
330
84
100
AcDbEntity
  8
0
100
AcDbBlockBegin
  2
*D13
 70
    1
 10
0
 20
0
  3
*D13
  1

  0
LINE
  5
FF
100
AcDbEntity
  8
Dimension
  6
ByBlock
 62
    0
370
   -2
100
AcDbLine
 10
145.206568836742
 20
0
 11
145.206568836742
 21
88
  0
MTEXT
  5
100
100
AcDbEntity
  8
Dimension
  6
CONTINUOUS
 62
    0
370
   -2
100
AcDbMText
 10
142.206568836742
 20
44
 30
0
 40
3
 41
3.666666666666667
 71
    5
 72
    1
  1
88
  7
standard
210
0
220
0
230
1
 50
90
 73
    2
 44
1
  0
SOLID
  5
101
100
AcDbEntity
  8
Dimension
  6
ByBlock
 62
    0
370
   -2
100
AcDbTrace
 10
145.206568836742
 20
0
 30
0
 11
144.7070272474146
 21
3
 31
0
 12
145.7061104260694
 22
3
 32
0
 13
145.7061104260694
 23
3
 33
0
  0
SOLID
  5
102
100
AcDbEntity
  8
Dimension
  6
ByBlock
 62
    0
370
   -2
100
AcDbTrace
 10
145.206568836742
 20
88
 30
0
 11
145.7061104260694
 21
85
 31
0
 12
144.7070272474146
 22
85
 32
0
 13
144.7070272474146
 23
85
 33
0
  0
LINE
  5
103
100
AcDbEntity
  8
Dimension
  6
ByBlock
 62
    0
370
   -2
100
AcDbLine
 10
156.5
 20
1.83697019872103e-16
 11
143.956568836742
 21
1.530808498934192e-16
  0
LINE
  5
104
100
AcDbEntity
  8
Dimension
  6
ByBlock
 62
    0
370
   -2
100
AcDbLine
 10
148.5
 20
88
 11
143.956568836742
 21
88
  0
ENDBLK
  5
86
330
84
100
AcDbEntity
  8
0
100
AcDbBlockEnd
  0
BLOCK
  5
88
330
87
100
AcDbEntity
  8
0
100
AcDbBlockBegin
  2
*D33
 70
    1
 10
0
 20
0
  3
*D33
  1

  0
LINE
  5
105
100
AcDbEntity
  8
Dimension
  6
ByBlock
 62
    0
370
   -2
100
AcDbLine
 10
6.626671362234447
 20
-378.3963887927823
 11
101.6266713622344
 21
-378.3963887927823
  0
MTEXT
  5
106
100
AcDbEntity
  8
Dimension
  6
CONTINUOUS
 62
    0
370
   -2
100
AcDbMText
 10
54.12667136223445
 20
-375.3963887927823
 30
0
 40
3
 41
3.666666666667039
 71
    5
 72
    1
  1
95
  7
standard
210
0
220
0
230
1
 50
0
 73
    2
 44
1
  0
SOLID
  5
107
100
AcDbEntity
  8
Dimension
  6
ByBlock
 62
    0
370
   -2
100
AcDbTrace
 10
6.626671362234447
 20
-378.3963887927823
 30
0
 11
9.626671362234447
 21
-377.8968472034549
 31
0
 12
9.626671362234447
 22
-378.8959303821097
 32
0
 13
9.626671362234447
 23
-378.8959303821097
 33
0
  0
SOLID
  5
108
100
AcDbEntity
  8
Dimension
  6
ByBlock
 62
    0
370
   -2
100
AcDbTrace
 10
101.6266713622344
 20
-378.3963887927823
 30
0
 11
98.62667136223445
 21
-378.8959303821097
 31
0
 12
98.62667136223445
 22
-377.8968472034549
 32
0
 13
98.62667136223445
 23
-377.8968472034549
 33
0
  0
LINE
  5
109
100
AcDbEntity
  8
Dimension
  6
ByBlock
 62
    0
370
   -2
100
AcDbLine
 10
6.62667136223445
 20
-367.595610045726
 11
6.626671362234447
 21
-379.6463887927823
  0
LINE
  5
10A
100
AcDbEntity
  8
Dimension
  6
ByBlock
 62
    0
370
   -2
100
AcDbLine
 10
101.6266713622344
 20
-367.595610045726
 11
101.6266713622344
 21
-379.6463887927823
  0
ENDBLK
  5
89
330
87
100
AcDbEntity
  8
0
100
AcDbBlockEnd
  0
BLOCK
  5
8B
330
8A
100
AcDbEntity
  8
0
100
AcDbBlockBegin
  2
*D2
 70
    1
 10
0
 20
0
  3
*D2
  1

  0
LINE
  5
10B
100
AcDbEntity
  8
Dimension
  6
ByBlock
 62
    0
370
   -2
100
AcDbLine
 10
13.87082223463406
 20
-53.42872075422886
 11
24.12917776536594
 21
-60.57127924577114
  0
MTEXT
  5
10C
100
AcDbEntity
  8
Dimension
  6
CONTINUOUS
 62
    0
370
   -2
100
AcDbMText
 10
20.71421403797015
 20
-54.53799467262435
 30
0
 40
3
 41
6.333333333333519
 71
    5
 72
    1
  1
12.5
  7
standard
210
0
220
0
230
1
 50
325.1517634888296
 73
    2
 44
1
  0
SOLID
  5
10D
100
AcDbEntity
  8
Dimension
  6
ByBlock
 62
    0
370
   -2
100
AcDbTrace
 10
13.87082223463406
 20
-53.42872075422886
 30
0
 11
16.61826796366803
 21
-54.73297677414241
 31
0
 12
16.04738716035139
 22
-55.5528928102556
 32
0
 13
16.04738716035139
 23
-55.5528928102556
 33
0
  0
SOLID
  5
10E
100
AcDbEntity
  8
Dimension
  6
ByBlock
 62
    0
370
   -2
100
AcDbTrace
 10
24.12917776536594
 20
-60.57127924577114
 30
0
 11
21.38173203633197
 21
-59.26702322585759
 31
0
 12
21.95261283964861
 22
-58.4471071897444
 32
0
 13
21.95261283964861
 23
-58.4471071897444
 33
0
  0
ENDBLK
  5
8C
330
8A
100
AcDbEntity
  8
0
100
AcDbBlockEnd
  0
BLOCK
  5
8E
330
8D
100
AcDbEntity
  8
0
100
AcDbBlockBegin
  2
*D30
 70
    1
 10
0
 20
0
  3
*D30
  1

  0
LINE
  5
10F
100
AcDbEntity
  8
Dimension
  6
ByBlock
 62
    0
370
   -2
100
AcDbLine
 10
-9.188421052327461
 20
-316.095610045726
 11
-9.188421052327465
 21
-366.095610045726
  0
MTEXT
  5
110
100
AcDbEntity
  8
Dimension
  6
CONTINUOUS
 62
    0
370
   -2
100
AcDbMText
 10
-12.18842105232746
 20
-341.095610045726
 30
0
 40
3
 41
3.666666666666852
 71
    5
 72
    1
  1
50
  7
standard
210
0
220
0
230
1
 50
90
 73
    2
 44
1
  0
SOLID
  5
111
100
AcDbEntity
  8
Dimension
  6
ByBlock
 62
    0
370
   -2
100
AcDbTrace
 10
-9.188421052327461
 20
-316.095610045726
 30
0
 11
-8.688879463000053
 21
-319.095610045726
 31
0
 12
-9.68796264165487
 22
-319.095610045726
 32
0
 13
-9.68796264165487
 23
-319.095610045726
 33
0
  0
SOLID
  5
112
100
AcDbEntity
  8
Dimension
  6
ByBlock
 62
    0
370
   -2
100
AcDbTrace
 10
-9.188421052327465
 20
-366.095610045726
 30
0
 11
-9.687962641654874
 21
-363.095610045726
 31
0
 12
-8.688879463000056
 22
-363.095610045726
 32
0
 13
-8.688879463000056
 23
-363.095610045726
 33
0
  0
LINE
  5
113
100
AcDbEntity
  8
Dimension
  6
ByBlock
 62
    0
370
   -2
100
AcDbLine
 10
5.12667136223445
 20
-316.095610045726
 11
-10.43842105232746
 21
-316.095610045726
  0
LINE
  5
114
100
AcDbEntity
  8
Dimension
  6
ByBlock
 62
    0
370
   -2
100
AcDbLine
 10
5.12667136223445
 20
-366.095610045726
 11
-10.43842105232746
 21
-366.095610045726
  0
ENDBLK
  5
8F
330
8D
100
AcDbEntity
  8
0
100
AcDbBlockEnd
  0
BLOCK
  5
91
330
90
100
AcDbEntity
  8
0
100
AcDbBlockBegin
  2
*D32
 70
    1
 10
0
 20
0
  3
*D32
  1

  0
LINE
  5
115
100
AcDbEntity
  8
Dimension
  6
ByBlock
 62
    0
370
   -2
100
AcDbLine
 10
6.626671362234461
 20
-372.2952295131356
 11
84.62667136223445
 21
-372.2952295131356
  0
MTEXT
  5
116
100
AcDbEntity
  8
Dimension
  6
CONTINUOUS
 62
    0
370
   -2
100
AcDbMText
 10
45.62667136223445
 20
-369.2952295131356
 30
0
 40
3
 41
3.666666666666667
 71
    5
 72
    1
  1
78
  7
standard
210
0
220
0
230
1
 50
0
 73
    2
 44
1
  0
SOLID
  5
117
100
AcDbEntity
  8
Dimension
  6
ByBlock
 62
    0
370
   -2
100
AcDbTrace
 10
6.626671362234461
 20
-372.2952295131356
 30
0
 11
9.626671362234461
 21
-371.7956879238082
 31
0
 12
9.626671362234461
 22
-372.794771102463
 32
0
 13
9.626671362234461
 23
-372.794771102463
 33
0
  0
SOLID
  5
118
100
AcDbEntity
  8
Dimension
  6
ByBlock
 62
    0
370
   -2
100
AcDbTrace
 10
84.62667136223445
 20
-372.2952295131356
 30
0
 11
81.62667136223445
 21
-372.794771102463
 31
0
 12
81.62667136223445
 22
-371.7956879238082
 32
0
 13
81.62667136223445
 23
-371.7956879238082
 33
0
  0
LINE
  5
119
100
AcDbEntity
  8
Dimension
  6
ByBlock
 62
    0
370
   -2
100
AcDbLine
 10
6.626671362234453
 20
-367.595610045726
 11
6.626671362234463
 21
-373.5452295131356
  0
LINE
  5
11A
100
AcDbEntity
  8
Dimension
  6
ByBlock
 62
    0
370
   -2
100
AcDbLine
 10
84.62667136223445
 20
-367.595610045726
 11
84.62667136223445
 21
-373.5452295131356
  0
ENDBLK
  5
92
330
90
100
AcDbEntity
  8
0
100
AcDbBlockEnd
  0
BLOCK
  5
94
330
93
100
AcDbEntity
  8
0
100
AcDbBlockBegin
  2
*D12
 70
    1
 10
0
 20
0
  3
*D12
  1

  0
LINE
  5
11B
100
AcDbEntity
  8
Dimension
  6
ByBlock
 62
    0
370
   -2
100
AcDbLine
 10
134.8894939206409
 20
105
 11
134.8894939206409
 21
0
  0
MTEXT
  5
11C
100
AcDbEntity
  8
Dimension
  6
CONTINUOUS
 62
    0
370
   -2
100
AcDbMText
 10
131.8894939206409
 20
52.5
 30
0
 40
3
 41
5.333333333333519
 71
    5
 72
    1
  1
105
  7
standard
210
0
220
0
230
1
 50
90
 73
    2
 44
1
  0
SOLID
  5
11D
100
AcDbEntity
  8
Dimension
  6
ByBlock
 62
    0
370
   -2
100
AcDbTrace
 10
134.8894939206409
 20
105
 30
0
 11
135.3890355099683
 21
102
 31
0
 12
134.3899523313135
 22
102
 32
0
 13
134.3899523313135
 23
102
 33
0
  0
SOLID
  5
11E
100
AcDbEntity
  8
Dimension
  6
ByBlock
 62
    0
370
   -2
100
AcDbTrace
 10
134.8894939206409
 20
0
 30
0
 11
134.3899523313135
 21
3
 31
0
 12
135.3890355099683
 22
3
 32
0
 13
135.3890355099683
 23
3
 33
0
  0
LINE
  5
11F
100
AcDbEntity
  8
Dimension
  6
ByBlock
 62
    0
370
   -2
100
AcDbLine
 10
148.5
 20
105
 11
133.6394939206409
 21
105
  0
LINE
  5
120
100
AcDbEntity
  8
Dimension
  6
ByBlock
 62
    0
370
   -2
100
AcDbLine
 10
156.5
 20
1.83697019872103e-16
 11
133.6394939206409
 21
1.530808498934192e-16
  0
ENDBLK
  5
95
330
93
100
AcDbEntity
  8
0
100
AcDbBlockEnd
  0
BLOCK
  5
97
330
96
100
AcDbEntity
  8
0
100
AcDbBlockBegin
  2
*D6
 70
    1
 10
0
 20
0
  3
*D6
  1

  0
SOLID
  5
121
100
AcDbEntity
  8
Dimension
  6
ByBlock
 62
    0
370
   -2
100
AcDbTrace
 10
49.09196951188704
 20
-42.12671172455896
 30
0
 11
51.26008582067733
 21
-39.99391696860486
 31
0
 12
51.83421661736119
 22
-40.8115605499838
 32
0
 13
51.83421661736119
 23
-40.8115605499838
 33
0
  0
LINE
  5
122
100
AcDbEntity
  8
Dimension
  6
ByBlock
 62
    0
370
   -2
100
AcDbLine
 10
45
 20
-45
 11
55.09352479598818
 21
-37.91255558724533
  0
MTEXT
  5
123
100
AcDbEntity
  8
Dimension
  6
CONTINUOUS
 62
    0
370
   -2
100
AcDbMText
 10
50.36877418867299
 20
-37.56445194876991
 30
0
 40
3
 41
1.333333333333519
 71
    5
 72
    1
  1
5
  7
standard
210
0
220
0
230
1
 50
35.07566109701366
 73
    2
 44
1
  0
ENDBLK
  5
98
330
96
100
AcDbEntity
  8
0
100
AcDbBlockEnd
  0
BLOCK
  5
9A
330
99
100
AcDbEntity
  8
0
100
AcDbBlockBegin
  2
*D8
 70
    1
 10
0
 20
0
  3
*D8
  1

  0
LINE
  5
124
100
AcDbEntity
  8
Dimension
  6
ByBlock
 62
    0
370
   -2
100
AcDbLine
 10
0
 20
-6.854286471513659
 11
50
 21
-6.854286471513659
  0
MTEXT
  5
125
100
AcDbEntity
  8
Dimension
  6
CONTINUOUS
 62
    0
370
   -2
100
AcDbMText
 10
25
 20
-3.854286471513659
 30
0
 40
3
 41
3.666666666666852
 71
    5
 72
    1
  1
50
  7
standard
210
0
220
0
230
1
 50
0
 73
    2
 44
1
  0
SOLID
  5
126
100
AcDbEntity
  8
Dimension
  6
ByBlock
 62
    0
370
   -2
100
AcDbTrace
 10
0
 20
-6.854286471513659
 30
0
 11
3
 21
-6.354744882186251
 31
0
 12
3
 22
-7.353828060841068
 32
0
 13
3
 23
-7.353828060841068
 33
0
  0
SOLID
  5
127
100
AcDbEntity
  8
Dimension
  6
ByBlock
 62
    0
370
   -2
100
AcDbTrace
 10
50
 20
-6.854286471513659
 30
0
 11
47
 21
-7.353828060841068
 31
0
 12
47
 22
-6.35474488218625
 32
0
 13
47
 23
-6.35474488218625
 33
0
  0
LINE
  5
128
100
AcDbEntity
  8
Dimension
  6
ByBlock
 62
    0
370
   -2
100
AcDbLine
 10
-2.755455298081545e-16
 20
-1.5
 11
-2.296212748401287e-16
 21
-8.10428647151366
  0
LINE
  5
129
100
AcDbEntity
  8
Dimension
  6
ByBlock
 62
    0
370
   -2
100
AcDbLine
 10
50
 20
-1.5
 11
50
 21
-8.10428647151366
  0
ENDBLK
  5
9B
330
99
100
AcDbEntity
  8
0
100
AcDbBlockEnd
  0
BLOCK
  5
9D
330
9C
100
AcDbEntity
  8
0
100
AcDbBlockBegin
  2
*D22
 70
    1
 10
0
 20
0
  3
*D22
  1

  0
LINE
  5
12A
100
AcDbEntity
  8
Dimension
  6
ByBlock
 62
    0
370
   -2
100
AcDbLine
 10
-0.05698528659727398
 20
-302.6179922087067
 11
-0.05698528659727129
 21
-258.6179922087067
  0
MTEXT
  5
12B
100
AcDbEntity
  8
Dimension
  6
CONTINUOUS
 62
    0
370
   -2
100
AcDbMText
 10
-3.056985286597273
 20
-280.6179922087067
 30
0
 40
3
 41
4.333333333333333
 71
    5
 72
    1
  1
44
  7
standard
210
0
220
0
230
1
 50
90
 73
    2
 44
1
  0
SOLID
  5
12C
100
AcDbEntity
  8
Dimension
  6
ByBlock
 62
    0
370
   -2
100
AcDbTrace
 10
-0.05698528659727398
 20
-302.6179922087067
 30
0
 11
-0.5565268759246821
 21
-299.6179922087067
 31
0
 12
0.4425563027301351
 22
-299.6179922087067
 32
0
 13
0.4425563027301351
 23
-299.6179922087067
 33
0
  0
SOLID
  5
12D
100
AcDbEntity
  8
Dimension
  6
ByBlock
 62
    0
370
   -2
100
AcDbTrace
 10
-0.05698528659727129
 20
-258.6179922087067
 30
0
 11
0.4425563027301371
 21
-261.6179922087067
 31
0
 12
-0.5565268759246801
 22
-261.6179922087067
 32
0
 13
-0.5565268759246801
 23
-261.6179922087067
 33
0
  0
LINE
  5
12E
100
AcDbEntity
  8
Dimension
  6
ByBlock
 62
    0
370
   -2
100
AcDbLine
 10
5.12667136223445
 20
-302.6179922087067
 11
-1.306985286597274
 21
-302.6179922087067
  0
LINE
  5
12F
100
AcDbEntity
  8
Dimension
  6
ByBlock
 62
    0
370
   -2
100
AcDbLine
 10
5.12667136223445
 20
-258.6179922087067
 11
-1.306985286597271
 21
-258.6179922087067
  0
ENDBLK
  5
9E
330
9C
100
AcDbEntity
  8
0
100
AcDbBlockEnd
  0
BLOCK
  5
A0
330
9F
100
AcDbEntity
  8
0
100
AcDbBlockBegin
  2
*D3
 70
    1
 10
0
 20
0
  3
*D3
  1

  0
LINE
  5
130
100
AcDbEntity
  8
Annotation
  6
CONTINUOUS
 62
    7
370
    0
100
AcDbLine
 10
10.4321190069666
 20
8
 11
-14.82459016779465
 21
-14.82459016779465
  0
LINE
  5
131
100
AcDbEntity
  8
Annotation
  6
CONTINUOUS
 62
    7
370
    0
100
AcDbLine
 10
-14.82459016779465
 20
-14.82459016779465
 11
-80.34561831681296
 21
-14.82459016779465
  0
LINE
  5
132
100
AcDbEntity
  8
Annotation
  6
CONTINUOUS
 62
    7
370
    0
100
AcDbLine
 10
-80.34561831681296
 20
-14.82459016779465
 11
-80.16259868511179
 21
-14.82459016779465
  0
SOLID
  5
133
100
AcDbEntity
  8
Annotation
  6
CONTINUOUS
 62
    7
370
    0
100
AcDbTrace
 10
10.4321190069666
 20
8
 30
0
 11
8.541274096774034
 21
5.617932132564941
 31
0
 12
7.871407171273541
 22
6.359178043171893
 32
0
 13
7.871407171273541
 23
6.359178043171893
 33
0
  0
ENDBLK
  5
A1
330
9F
100
AcDbEntity
  8
0
100
AcDbBlockEnd
  0
BLOCK
  5
A3
330
A2
100
AcDbEntity
  8
0
100
AcDbBlockBegin
  2
*D28
 70
    1
 10
0
 20
0
  3
*D28
  1

  0
LINE
  5
134
100
AcDbEntity
  8
Dimension
  6
ByBlock
 62
    0
370
   -2
100
AcDbLine
 10
20.49749359686851
 20
-329.5243307999548
 11
30.75584912760039
 21
-336.6668892914972
  0
MTEXT
  5
135
100
AcDbEntity
  8
Dimension
  6
CONTINUOUS
 62
    0
370
   -2
100
AcDbMText
 10
27.34088540020461
 20
-330.6336047183503
 30
0
 40
3
 41
6.333333333333519
 71
    5
 72
    1
  1
12.5
  7
standard
210
0
220
0
230
1
 50
325.1517634888294
 73
    2
 44
1
  0
SOLID
  5
136
100
AcDbEntity
  8
Dimension
  6
ByBlock
 62
    0
370
   -2
100
AcDbTrace
 10
20.49749359686851
 20
-329.5243307999548
 30
0
 11
23.24493932590248
 21
-330.8285868198684
 31
0
 12
22.67405852258583
 22
-331.6485028559816
 32
0
 13
22.67405852258583
 23
-331.6485028559816
 33
0
  0
SOLID
  5
137
100
AcDbEntity
  8
Dimension
  6
ByBlock
 62
    0
370
   -2
100
AcDbTrace
 10
30.75584912760039
 20
-336.6668892914972
 30
0
 11
28.00840339856643
 21
-335.3626332715836
 31
0
 12
28.57928420188307
 22
-334.5427172354704
 32
0
 13
28.57928420188307
 23
-334.5427172354704
 33
0
  0
ENDBLK
  5
A4
330
A2
100
AcDbEntity
  8
0
100
AcDbBlockEnd
  0
BLOCK
  5
A6
330
A5
100
AcDbEntity
  8
0
100
AcDbBlockBegin
  2
*D23
 70
    1
 10
0
 20
0
  3
*D23
  1

  0
LINE
  5
138
100
AcDbEntity
  8
Dimension
  6
ByBlock
 62
    0
370
   -2
100
AcDbLine
 10
-98.23141756766188
 20
-197.6179922087067
 11
-98.23141756766188
 21
-302.6179922087067
  0
MTEXT
  5
139
100
AcDbEntity
  8
Dimension
  6
CONTINUOUS
 62
    0
370
   -2
100
AcDbMText
 10
-101.2314175676619
 20
-250.1179922087067
 30
0
 40
3
 41
5.333333333333519
 71
    5
 72
    1
  1
105
  7
standard
210
0
220
0
230
1
 50
90
 73
    2
 44
1
  0
SOLID
  5
13A
100
AcDbEntity
  8
Dimension
  6
ByBlock
 62
    0
370
   -2
100
AcDbTrace
 10
-98.23141756766188
 20
-197.6179922087067
 30
0
 11
-97.73187597833447
 21
-200.6179922087067
 31
0
 12
-98.73095915698929
 22
-200.6179922087067
 32
0
 13
-98.73095915698929
 23
-200.6179922087067
 33
0
  0
SOLID
  5
13B
100
AcDbEntity
  8
Dimension
  6
ByBlock
 62
    0
370
   -2
100
AcDbTrace
 10
-98.23141756766188
 20
-302.6179922087067
 30
0
 11
-98.73095915698929
 21
-299.6179922087067
 31
0
 12
-97.73187597833447
 22
-299.6179922087067
 32
0
 13
-97.73187597833447
 23
-299.6179922087067
 33
0
  0
LINE
  5
13C
100
AcDbEntity
  8
Dimension
  6
ByBlock
 62
    0
370
   -2
100
AcDbLine
 10
-84.6209114883028
 20
-197.6179922087067
 11
-99.48141756766188
 21
-197.6179922087067
  0
LINE
  5
13D
100
AcDbEntity
  8
Dimension
  6
ByBlock
 62
    0
370
   -2
100
AcDbLine
 10
-76.6209114883028
 20
-302.6179922087067
 11
-99.48141756766188
 21
-302.6179922087067
  0
ENDBLK
  5
A7
330
A5
100
AcDbEntity
  8
0
100
AcDbBlockEnd
  0
BLOCK
  5
A9
330
A8
100
AcDbEntity
  8
0
100
AcDbBlockBegin
  2
*D4
 70
    1
 10
0
 20
0
  3
*D4
  1

  0
SOLID
  5
13E
100
AcDbEntity
  8
Annotation
  6
ByBlock
 62
    0
370
   -2
100
AcDbTrace
 10
90.54176945843513
 20
76.5237628618321
 30
0
 11
87.99128909874078
 21
78.18044380102381
 31
0
 12
88.6657429504465
 22
78.91751855964083
 32
0
 13
88.6657429504465
 23
78.91751855964083
 33
0
  0
LINE
  5
13F
100
AcDbEntity
  8
Annotation
  6
ByBlock
 62
    0
370
   -2
100
AcDbLine
 10
78
 20
88
 11
90.54176945843513
 21
76.5237628618321
  0
MTEXT
  5
140
100
AcDbEntity
  8
Annotation
  6
CONTINUOUS
 62
    0
370
   -2
100
AcDbMText
 10
86.29610304771778
 20
84.47513486475754
 30
0
 40
3
 41
3
 71
    5
 72
    1
  1
17
  7
standard
210
0
220
0
230
1
 50
317.5401983125801
 73
    2
 44
1
  0
ENDBLK
  5
AA
330
A8
100
AcDbEntity
  8
0
100
AcDbBlockEnd
  0
BLOCK
  5
AC
330
AB
100
AcDbEntity
  8
0
100
AcDbBlockBegin
  2
*D14
 70
    1
 10
0
 20
0
  3
*D14
  1

  0
LINE
  5
141
100
AcDbEntity
  8
Dimension
  6
ByBlock
 62
    0
370
   -2
100
AcDbLine
 10
207.0313387724303
 20
10
 11
207.0313387724303
 21
-6
  0
MTEXT
  5
142
100
AcDbEntity
  8
Dimension
  6
CONTINUOUS
 62
    0
370
   -2
100
AcDbMText
 10
204.0313387724303
 20
2.000000000000001
 30
0
 40
3
 41
1.666666666666667
 71
    5
 72
    1
  1
4
  7
standard
210
0
220
0
230
1
 50
90
 73
    2
 44
1
  0
SOLID
  5
143
100
AcDbEntity
  8
Dimension
  6
ByBlock
 62
    0
370
   -2
100
AcDbTrace
 10
207.0313387724303
 20
4.000000000000001
 30
0
 11
206.5317971831029
 21
7.000000000000001
 31
0
 12
207.5308803617577
 22
7.000000000000001
 32
0
 13
207.5308803617577
 23
7.000000000000001
 33
0
  0
SOLID
  5
144
100
AcDbEntity
  8
Dimension
  6
ByBlock
 62
    0
370
   -2
100
AcDbTrace
 10
207.0313387724303
 20
0
 30
0
 11
207.5308803617577
 21
-3
 31
0
 12
206.5317971831029
 22
-3
 32
0
 13
206.5317971831029
 23
-3
 33
0
  0
LINE
  5
145
100
AcDbEntity
  8
Dimension
  6
ByBlock
 62
    0
370
   -2
100
AcDbLine
 10
201.5
 20
4
 11
208.2813387724303
 21
4.000000000000001
  0
LINE
  5
146
100
AcDbEntity
  8
Dimension
  6
ByBlock
 62
    0
370
   -2
100
AcDbLine
 10
201.5
 20
0
 11
208.2813387724303
 21
0
  0
ENDBLK
  5
AD
330
AB
100
AcDbEntity
  8
0
100
AcDbBlockEnd
  0
BLOCK
  5
AF
330
AE
100
AcDbEntity
  8
0
100
AcDbBlockBegin
  2
*D21
 70
    1
 10
0
 20
0
  3
*D21
  1

  0
LINE
  5
147
100
AcDbEntity
  8
Dimension
  6
ByBlock
 62
    0
370
   -2
100
AcDbLine
 10
6.626671362234447
 20
-309.4722786802204
 11
56.62667136223445
 21
-309.4722786802204
  0
MTEXT
  5
148
100
AcDbEntity
  8
Dimension
  6
CONTINUOUS
 62
    0
370
   -2
100
AcDbMText
 10
31.62667136223445
 20
-306.4722786802204
 30
0
 40
3
 41
3.666666666666852
 71
    5
 72
    1
  1
50
  7
standard
210
0
220
0
230
1
 50
0
 73
    2
 44
1
  0
SOLID
  5
149
100
AcDbEntity
  8
Dimension
  6
ByBlock
 62
    0
370
   -2
100
AcDbTrace
 10
6.626671362234447
 20
-309.4722786802204
 30
0
 11
9.626671362234447
 21
-308.972737090893
 31
0
 12
9.626671362234447
 22
-309.9718202695478
 32
0
 13
9.626671362234447
 23
-309.9718202695478
 33
0
  0
SOLID
  5
14A
100
AcDbEntity
  8
Dimension
  6
ByBlock
 62
    0
370
   -2
100
AcDbTrace
 10
56.62667136223445
 20
-309.4722786802204
 30
0
 11
53.62667136223445
 21
-309.9718202695478
 31
0
 12
53.62667136223445
 22
-308.972737090893
 32
0
 13
53.62667136223445
 23
-308.972737090893
 33
0
  0
LINE
  5
14B
100
AcDbEntity
  8
Dimension
  6
ByBlock
 62
    0
370
   -2
100
AcDbLine
 10
6.626671362234449
 20
-304.1179922087067
 11
6.626671362234445
 21
-310.7222786802204
  0
LINE
  5
14C
100
AcDbEntity
  8
Dimension
  6
ByBlock
 62
    0
370
   -2
100
AcDbLine
 10
56.62667136223445
 20
-304.1179922087067
 11
56.62667136223445
 21
-310.7222786802204
  0
ENDBLK
  5
B0
330
AE
100
AcDbEntity
  8
0
100
AcDbBlockEnd
  0
BLOCK
  5
B2
330
B1
100
AcDbEntity
  8
0
100
AcDbBlockBegin
  2
*D1
 70
    1
 10
0
 20
0
  3
*D1
  1

  0
LINE
  5
14D
100
AcDbEntity
  8
Dimension
  6
ByBlock
 62
    0
370
   -2
100
AcDbLine
 10
0
 20
-35
 11
19
 21
-35
  0
MTEXT
  5
14E
100
AcDbEntity
  8
Dimension
  6
CONTINUOUS
 62
    0
370
   -2
100
AcDbMText
 10
9.5
 20
-32
 30
0
 40
3
 41
3
 71
    5
 72
    1
  1
19
  7
standard
210
0
220
0
230
1
 50
0
 73
    2
 44
1
  0
SOLID
  5
14F
100
AcDbEntity
  8
Dimension
  6
ByBlock
 62
    0
370
   -2
100
AcDbTrace
 10
0
 20
-35
 30
0
 11
3
 21
-34.50045841067259
 31
0
 12
3
 22
-35.49954158932741
 32
0
 13
3
 23
-35.49954158932741
 33
0
  0
SOLID
  5
150
100
AcDbEntity
  8
Dimension
  6
ByBlock
 62
    0
370
   -2
100
AcDbTrace
 10
19
 20
-35
 30
0
 11
16
 21
-35.49954158932741
 31
0
 12
16
 22
-34.50045841067259
 32
0
 13
16
 23
-34.50045841067259
 33
0
  0
LINE
  5
151
100
AcDbEntity
  8
Dimension
  6
ByBlock
 62
    0
370
   -2
100
AcDbLine
 10
9.184850993605148e-17
 20
-38.5
 11
7.654042494670958e-17
 21
-33.75
  0
LINE
  5
152
100
AcDbEntity
  8
Dimension
  6
ByBlock
 62
    0
370
   -2
100
AcDbLine
 10
19
 20
-55.5
 11
19
 21
-33.75
  0
ENDBLK
  5
B3
330
B1
100
AcDbEntity
  8
0
100
AcDbBlockEnd
  0
BLOCK
  5
B5
330
B4
100
AcDbEntity
  8
0
100
AcDbBlockBegin
  2
*D20
 70
    1
 10
0
 20
0
  3
*D20
  1

  0
SOLID
  5
153
100
AcDbEntity
  8
Dimension
  6
ByBlock
 62
    0
370
   -2
100
AcDbTrace
 10
8.009068878800649
 20
-258.1686352294873
 30
0
 11
10.84777494193315
 21
-259.2600974077612
 31
0
 12
10.34092430572842
 22
-260.1210675759145
 32
0
 13
10.34092430572842
 23
-260.1210675759145
 33
0
  0
LINE
  5
154
100
AcDbEntity
  8
Dimension
  6
ByBlock
 62
    0
370
   -2
100
AcDbLine
 10
16.62667136223445
 20
-263.2417927706559
 11
8.009068878800649
 21
-258.1686352294873
  0
MTEXT
  5
155
100
AcDbEntity
  8
Dimension
  6
CONTINUOUS
 62
    0
370
   -2
100
AcDbMText
 10
13.83981738286813
 20
-258.1199332550414
 30
0
 40
3
 41
3
 71
    5
 72
    1
  1
10
  7
standard
210
0
220
0
230
1
 50
329.5148017007633
 73
    2
 44
1
  0
ENDBLK
  5
B6
330
B4
100
AcDbEntity
  8
0
100
AcDbBlockEnd
  0
BLOCK
  5
B8
330
B7
100
AcDbEntity
  8
0
100
AcDbBlockBegin
  2
*D9
 70
    1
 10
0
 20
0
  3
*D9
  1

  0
LINE
  5
156
100
AcDbEntity
  8
Dimension
  6
ByBlock
 62
    0
370
   -2
100
AcDbLine
 10
-6.683656648831724
 20
0
 11
-6.683656648831722
 21
44
  0
MTEXT
  5
157
100
AcDbEntity
  8
Dimension
  6
CONTINUOUS
 62
    0
370
   -2
100
AcDbMText
 10
-9.683656648831724
 20
22
 30
0
 40
3
 41
4.333333333333333
 71
    5
 72
    1
  1
44
  7
standard
210
0
220
0
230
1
 50
90
 73
    2
 44
1
  0
SOLID
  5
158
100
AcDbEntity
  8
Dimension
  6
ByBlock
 62
    0
370
   -2
100
AcDbTrace
 10
-6.683656648831724
 20
0
 30
0
 11
-7.183198238159132
 21
3
 31
0
 12
-6.184115059504316
 22
3
 32
0
 13
-6.184115059504316
 23
3
 33
0
  0
SOLID
  5
159
100
AcDbEntity
  8
Dimension
  6
ByBlock
 62
    0
370
   -2
100
AcDbTrace
 10
-6.683656648831722
 20
44
 30
0
 11
-6.184115059504313
 21
41
 31
0
 12
-7.183198238159131
 22
41
 32
0
 13
-7.183198238159131
 23
41
 33
0
  0
LINE
  5
15A
100
AcDbEntity
  8
Dimension
  6
ByBlock
 62
    0
370
   -2
100
AcDbLine
 10
-1.5
 20
1.83697019872103e-16
 11
-7.933656648831724
 21
1.530808498934192e-16
  0
LINE
  5
15B
100
AcDbEntity
  8
Dimension
  6
ByBlock
 62
    0
370
   -2
100
AcDbLine
 10
-1.5
 20
44
 11
-7.933656648831722
 21
44
  0
ENDBLK
  5
B9
330
B7
100
AcDbEntity
  8
0
100
AcDbBlockEnd
  0
ENDSEC
  0
SECTION
  2
ENTITIES
  0
CIRCLE
  5
15C
100
AcDbEntity
  8
Construction
  6
ByLayer
 62
  256
370
   -1
100
AcDbCircle
 10
78
 20
88
 40
17
  0
LINE
  5
15D
100
AcDbEntity
  8
Construction
  6
ByLayer
 62
  256
370
   -1
100
AcDbLine
 10
95
 20
88
 11
95.00000000000001
 21
288
  0
LINE
  5
15E
100
AcDbEntity
  8
Construction
  6
ByLayer
 62
  256
370
   -1
100
AcDbLine
 10
95
 20
105
 11
295
 21
105
  0
LINE
  5
15F
100
AcDbEntity
  8
Edges
  6
ByLayer
 62
  256
370
   -1
100
AcDbLine
 10
0
 20
0
 11
50
 21
0
  0
LINE
  5
160
100
AcDbEntity
  8
Edges
  6
ByLayer
 62
  256
370
   -1
100
AcDbLine
 10
92.97400684537843
 20
79.95145236737959
 11
50
 21
0
  0
ARC
  5
161
100
AcDbEntity
  8
Edges
  6
ByLayer
 62
  256
370
   -1
100
AcDbCircle
 10
78
 20
88
 40
17.00000000000001
100
AcDbArc
 50
331.7419141192639
 51
130.3702404239584
  0
CIRCLE
  5
162
100
AcDbEntity
  8
Edges
  6
ByLayer
 62
  256
370
   -1
100
AcDbCircle
 10
78
 20
88
 40
6.25
  0
LINE
  5
163
100
AcDbEntity
  8
Construction
  6
ByLayer
 62
  256
370
   -1
100
AcDbLine
 10
66.98868743226798
 20
100.9518722791613
 11
0
 21
44
  0
LINE
  5
164
100
AcDbEntity
  8
Construction
  6
ByLayer
 62
  256
370
   -1
100
AcDbLine
 10
92.97400684537843
 20
79.95145236737959
 11
50
 21
0
  0
LINE
  5
165
100
AcDbEntity
  8
Edges
  6
ByLayer
 62
  256
370
   -1
100
AcDbLine
 10
0
 20
39.37619943805083
 11
0
 21
0
  0
LINE
  5
166
100
AcDbEntity
  8
Edges
  6
ByLayer
 62
  256
370
   -1
100
AcDbLine
 10
66.98868743226798
 20
100.9518722791613
 11
3.522757313098808
 21
46.99494783755748
  0
ARC
  5
167
100
AcDbEntity
  8
Edges
  6
ByLayer
 62
  256
370
   -1
100
AcDbCircle
 10
10
 20
39.37619943805083
 40
10
100
AcDbArc
 50
130.3702404239584
 51
180
  0
LINE
  5
168
100
AcDbEntity
  8
Construction
  6
ByLayer
 62
  256
370
   -1
100
AcDbLine
 10
-6.713032512426972e-15
 20
-100
 11
-6.713032512426972e-15
 21
-50
  0
LINE
  5
169
100
AcDbEntity
  8
Construction
  6
ByLayer
 62
  256
370
   -1
100
AcDbLine
 10
50
 20
-50
 11
95
 21
4
  0
POINT
  5
16A
100
AcDbEntity
  8
Construction
  6
ByLayer
 62
  256
370
   -1
100
AcDbPoint
 10
78
 20
88
  0
LINE
  5
16B
100
AcDbEntity
  8
Edges
  6
ByLayer
 62
  256
370
   -1
100
AcDbLine
 10
200
 20
0
 11
200
 21
4
  0
LINE
  5
16C
100
AcDbEntity
  8
Edges
  6
ByLayer
 62
  256
370
   -1
100
AcDbLine
 10
154
 20
105
 11
150
 21
105
  0
LINE
  5
16D
100
AcDbEntity
  8
Edges
  6
ByLayer
 62
  256
370
   -1
100
AcDbLine
 10
200
 20
4
 11
158
 21
4
  0
LINE
  5
16E
100
AcDbEntity
  8
Edges
  6
ByLayer
 62
  256
370
   -1
100
AcDbLine
 10
154
 20
8
 11
154
 21
105
  0
ARC
  5
16F
100
AcDbEntity
  8
Edges
  6
ByLayer
 62
  256
370
   -1
100
AcDbCircle
 10
158
 20
8
 40
4
100
AcDbArc
 50
180
 51
270
  0
LINE
  5
170
100
AcDbEntity
  8
Edges
  6
ByLayer
 62
  256
370
   -1
100
AcDbLine
 10
158
 20
0
 11
200
 21
0
  0
LINE
  5
171
100
AcDbEntity
  8
Edges
  6
ByLayer
 62
  256
370
   -1
100
AcDbLine
 10
150
 20
105
 11
150
 21
8
  0
ARC
  5
172
100
AcDbEntity
  8
Edges
  6
ByLayer
 62
  256
370
   -1
100
AcDbCircle
 10
158
 20
8
 40
8
100
AcDbArc
 50
180
 51
270
  0
LINE
  5
173
100
AcDbEntity
  8
Edges
  6
ByLayer
 62
  256
370
   -1
100
AcDbLine
 10
95
 20
-90
 11
0
 21
-90
  0
LINE
  5
174
100
AcDbEntity
  8
Edges
  6
ByLayer
 62
  256
370
   -1
100
AcDbLine
 10
95
 20
-86
 11
95
 21
-90
  0
LINE
  5
175
100
AcDbEntity
  8
Edges
  6
ByLayer
 62
  256
370
   -1
100
AcDbLine
 10
0
 20
-90
 11
0
 21
-45
  0
ARC
  5
176
100
AcDbEntity
  8
Edges
  6
ByLayer
 62
  256
370
   -1
100
AcDbCircle
 10
5
 20
-45
 40
5
100
AcDbArc
 50
90
 51
180
  0
LINE
  5
177
100
AcDbEntity
  8
Edges
  6
ByLayer
 62
  256
370
   -1
100
AcDbLine
 10
5
 20
-40
 11
45
 21
-40
  0
LINE
  5
178
100
AcDbEntity
  8
Edges
  6
ByLayer
 62
  256
370
   -1
100
AcDbLine
 10
50
 20
-45
 11
50
 21
-86
  0
ARC
  5
179
100
AcDbEntity
  8
Edges
  6
ByLayer
 62
  256
370
   -1
100
AcDbCircle
 10
45
 20
-45
 40
5
100
AcDbArc
 50
0
 51
90
  0
LINE
  5
17A
100
AcDbEntity
  8
Edges
  6
ByLayer
 62
  256
370
   -1
100
AcDbLine
 10
50
 20
-82
 11
2.449212707644755e-15
 21
-82
  0
LINE
  5
17B
100
AcDbEntity
  8
Edges
  6
ByLayer
 62
  256
370
   -1
100
AcDbLine
 10
0
 20
-86
 11
95
 21
-86
  0
CIRCLE
  5
17C
100
AcDbEntity
  8
Edges
  6
ByLayer
 62
  256
370
   -1
100
AcDbCircle
 10
19
 20
-57
 40
6.25
  0
POINT
  5
17D
100
AcDbEntity
  8
Edges
  6
ByLayer
 62
  256
370
   -1
100
AcDbPoint
 10
19
 20
-57
  0
DIMENSION
  5
17E
100
AcDbEntity
  8
Dimension
  6
ByLayer
 62
  256
370
   -1
100
AcDbDimension
  2
*D1
 10
19
 20
-35
 30
0
 11
9.5
 21
-32
 31
0
 70
   32
 71
    5
 72
    0
  3
Standard
 53
0
210
0
220
0
230
1
100
AcDbAlignedDimension
 13
0
 23
-40
 33
0
 14
19
 24
-57
 34
0
100
AcDbRotatedDimension
  0
DIMENSION
  5
17F
100
AcDbEntity
  8
Dimension
  6
ByLayer
 62
  256
370
   -1
100
AcDbDimension
  2
*D2
 10
13.87082223463406
 20
-53.42872075422886
 30
0
 11
20.71421403797015
 21
-54.53799467262435
 31
0
 70
   35
  1
12.5
 71
    5
 72
    0
  3
Standard
 53
0
210
0
220
0
230
1
100
AcDbDiametricDimension
 15
24.12917776536594
 25
-60.57127924577114
 35
0
 40
0
  0
MTEXT
  5
180
100
AcDbEntity
  8
Annotation
  6
ByLayer
 62
  256
370
   -1
100
AcDbMText
 10
170
 20
40
 30
0
 40
10
 41
20.00000000000047
 71
    7
 72
    1
  1
End
  7
STANDARD
210
0
220
0
230
1
 50
0
 73
    2
 44
1
  0
MTEXT
  5
181
100
AcDbEntity
  8
Annotation
  6
ByLayer
 62
  256
370
   -1
100
AcDbMText
 10
10
 20
-80
 30
0
 40
10
 41
21.11111111111111
 71
    7
 72
    1
  1
Top
  7
STANDARD
210
0
220
0
230
1
 50
0
 73
    2
 44
1
  0
MTEXT
  5
182
100
AcDbEntity
  8
Annotation
  6
ByLayer
 62
  256
370
   -1
100
AcDbMText
 10
20
 20
30
 30
0
 40
10
 41
24.44444232442295
 71
    7
 72
    1
  1
Side
  7
STANDARD
210
0
220
0
230
1
 50
0
 73
    2
 44
1
  0
LINE
  5
183
100
AcDbEntity
  8
Axis
  6
ByLayer
 62
  256
370
   -1
100
AcDbLine
 10
88
 20
88
 11
68
 21
88
  0
LINE
  5
184
100
AcDbEntity
  8
Axis
  6
ByLayer
 62
  256
370
   -1
100
AcDbLine
 10
78
 20
98
 11
78
 21
78
  0
LINE
  5
185
100
AcDbEntity
  8
Construction
  6
ByLayer
 62
  256
370
   -1
100
AcDbLine
 10
78
 20
94.25
 11
58
 21
94.25
  0
LINE
  5
186
100
AcDbEntity
  8
Construction
  6
ByLayer
 62
  256
370
   -1
100
AcDbLine
 10
78
 20
81.75
 11
58
 21
81.75
  0
LINE
  5
187
100
AcDbEntity
  8
Construction
  6
ByLayer
 62
  256
370
   -1
100
AcDbLine
 10
71.75000000000014
 20
88
 11
71.75000000000014
 21
68
  0
LINE
  5
188
100
AcDbEntity
  8
Construction
  6
ByLayer
 62
  256
370
   -1
100
AcDbLine
 10
84.25
 20
88
 11
84.25
 21
68
  0
LINE
  5
189
100
AcDbEntity
  8
Hidden
  6
ByLayer
 62
  256
370
   -1
100
AcDbLine
 10
150
 20
94.25
 11
154
 21
94.25
  0
LINE
  5
18A
100
AcDbEntity
  8
Hidden
  6
ByLayer
 62
  256
370
   -1
100
AcDbLine
 10
150
 20
81.75
 11
154
 21
81.75
  0
LINE
  5
18B
100
AcDbEntity
  8
Hidden
  6
ByLayer
 62
  256
370
   -1
100
AcDbLine
 10
71.75000000000014
 20
-86
 11
71.75000000000014
 21
-90
  0
LINE
  5
18C
100
AcDbEntity
  8
Hidden
  6
ByLayer
 62
  256
370
   -1
100
AcDbLine
 10
84.25
 20
-86
 11
84.25
 21
-90
  0
LINE
  5
18D
100
AcDbEntity
  8
Axis
  6
ByLayer
 62
  256
370
   -1
100
AcDbLine
 10
161.7991240538611
 20
88
 11
141.7991240538611
 21
88
  0
LINE
  5
18E
100
AcDbEntity
  8
Axis
  6
ByLayer
 62
  256
370
   -1
100
AcDbLine
 10
78
 20
-77.89053808541021
 11
78
 21
-97.89053808541021
  0
LEADER
  5
18F
100
AcDbEntity
  8
Annotation
  6
ByLayer
 62
  256
370
   -1
100
AcDbLeader
  3
Standard
 71
    1
 72
    0
 73
    3
 74
    0
 75
    0
 40
1
 41
10
 76
4
 76
4
 10
10.4321190069666
 20
8
 30
0
 10
-14.82459016779465
 20
-14.82459016779465
 30
0
 10
-80.34561831681296
 20
-14.82459016779465
 30
0
 10
-80.16259868511179
 20
-14.82459016779465
 30
0
  0
LINE
  5
190
100
AcDbEntity
  8
Construction
  6
ByLayer
 62
  256
370
   -1
100
AcDbLine
 10
283.5347551768518
 20
-7.757313554007199
 11
483.5347551768518
 21
-7.757313554007199
  0
MTEXT
  5
191
100
AcDbEntity
  8
Annotation
  6
ByLayer
 62
  256
370
   -1
100
AcDbMText
 10
-122.3138749244745
 20
-9.739860950174108
 30
0
 40
3
 41
210.7500070783045
 71
    5
 72
    1
  1
Should be a light line or nothing since there is no edge. But the thickness should be in hidden line.
  7
standard
210
0
220
0
230
1
 50
0
 73
    2
 44
1
  0
DIMENSION
  5
192
100
AcDbEntity
  8
Annotation
  6
ByLayer
 62
  256
370
   -1
100
AcDbDimension
  2
*D4
 10
78
 20
88
 30
0
 11
86.29610304771778
 21
84.47513486475754
 31
0
 70
   36
 71
    5
  3
Standard
 53
0
210
0
220
0
230
1
100
AcDbRadialDimension
 15
90.54176945843513
 25
76.5237628618321
 35
0
 40
0
  0
DIMENSION
  5
193
100
AcDbEntity
  8
Annotation
  6
ByLayer
 62
  256
370
   -1
100
AcDbDimension
  2
*D5
 10
78
 20
88
 30
0
 11
84.68827423687185
 21
95.91247530866137
 31
0
 70
   36
 71
    5
  3
Standard
 53
0
210
0
220
0
230
1
100
AcDbRadialDimension
 15
83.24400148136547
 25
91.40043356991968
 35
0
 40
0
  0
DIMENSION
  5
194
100
AcDbEntity
  8
Dimension
  6
ByLayer
 62
  256
370
   -1
100
AcDbDimension
  2
*D6
 10
45
 20
-45
 30
0
 11
50.36877418867299
 21
-37.56445194876991
 31
0
 70
   36
 71
    5
  3
Standard
 53
0
210
0
220
0
230
1
100
AcDbRadialDimension
 15
49.09196951188704
 25
-42.12671172455896
 35
0
 40
0
  0
DIMENSION
  5
195
100
AcDbEntity
  8
Dimension
  6
ByLayer
 62
  256
370
   -1
100
AcDbDimension
  2
*D7
 10
10
 20
39.37619943805083
 30
0
 11
7.213146020633672
 21
44.49805895366526
 31
0
 70
   36
 71
    5
  3
Standard
 53
0
210
0
220
0
230
1
100
AcDbRadialDimension
 15
1.382397516566199
 25
44.44935697921941
 35
0
 40
0
  0
DIMENSION
  5
196
100
AcDbEntity
  8
Dimension
  6
ByLayer
 62
  256
370
   -1
100
AcDbDimension
  2
*D8
 10
49.61907380465323
 20
-6.854286471513659
 30
0
 11
25
 21
-3.854286471513659
 31
0
 70
   32
 71
    5
 72
    0
  3
Standard
 53
0
210
0
220
0
230
1
100
AcDbAlignedDimension
 13
0
 23
0
 33
0
 14
50
 24
0
 34
0
100
AcDbRotatedDimension
  0
DIMENSION
  5
197
100
AcDbEntity
  8
Dimension
  6
ByLayer
 62
  256
370
   -1
100
AcDbDimension
  2
*D9
 10
-6.683656648831722
 20
43.64034635413653
 30
0
 11
-9.683656648831724
 21
22
 31
0
 70
   32
 71
    5
 72
    0
  3
Standard
 53
0
210
0
220
0
230
1
100
AcDbAlignedDimension
 13
0
 23
0
 33
0
 14
0
 24
44
 34
0
 50
90
100
AcDbRotatedDimension
  0
DIMENSION
  5
198
100
AcDbEntity
  8
Dimension
  6
ByLayer
 62
  256
370
   -1
100
AcDbDimension
  2
*D10
 10
78
 20
-97.67067659763129
 30
0
 11
39
 21
-94.67067659763129
 31
0
 70
   32
 71
    5
  3
Standard
 53
0
210
0
220
0
230
1
100
AcDbAlignedDimension
 13
0
 23
-90
 33
0
 14
78
 24
-90
 34
0
100
AcDbRotatedDimension
  0
DIMENSION
  5
199
100
AcDbEntity
  8
Dimension
  6
ByLayer
 62
  256
370
   -1
100
AcDbDimension
  2
*D11
 10
95
 20
-105.4652709663487
 30
0
 11
47.5
 21
-102.4652709663487
 31
0
 70
   32
 71
    5
  3
Standard
 53
0
210
0
220
0
230
1
100
AcDbAlignedDimension
 13
0
 23
-90
 33
0
 14
95
 24
-90
 34
0
100
AcDbRotatedDimension
  0
DIMENSION
  5
19A
100
AcDbEntity
  8
Dimension
  6
ByLayer
 62
  256
370
   -1
100
AcDbDimension
  2
*D12
 10
134.8894939206409
 20
2.830220729676255e-15
 30
0
 11
131.8894939206409
 21
52.5
 31
0
 70
   32
 71
    5
  3
Standard
 53
0
210
0
220
0
230
1
100
AcDbAlignedDimension
 13
150
 23
105
 33
0
 14
158
 24
0
 34
0
 50
90
100
AcDbRotatedDimension
  0
DIMENSION
  5
19B
100
AcDbEntity
  8
Dimension
  6
ByLayer
 62
  256
370
   -1
100
AcDbDimension
  2
*D13
 10
145.206568836742
 20
88
 30
0
 11
142.206568836742
 21
44
 31
0
 70
   32
 71
    5
  3
Standard
 53
0
210
0
220
0
230
1
100
AcDbAlignedDimension
 13
158
 23
0
 33
0
 14
150
 24
88
 34
0
 50
90
100
AcDbRotatedDimension
  0
DIMENSION
  5
19C
100
AcDbEntity
  8
Dimension
  6
ByLayer
 62
  256
370
   -1
100
AcDbDimension
  2
*D14
 10
207.0313387724303
 20
-8.610906521377451e-16
 30
0
 11
204.0313387724303
 21
2.000000000000001
 31
0
 70
   32
 71
    5
  3
Standard
 53
0
210
0
220
0
230
1
100
AcDbAlignedDimension
 13
200
 23
4
 33
0
 14
200
 24
0
 34
0
 50
90
100
AcDbRotatedDimension
  0
LINE
  5
19D
100
AcDbEntity
  8
Axis
  6
ByLayer
 62
  256
370
   -1
100
AcDbLine
 10
181
 20
-4.999999999999997
 11
181
 21
9.000000000000004
  0
LINE
  5
19E
100
AcDbEntity
  8
Hidden
  6
ByLayer
 62
  256
370
   -1
100
AcDbLine
 10
174.75
 20
0
 11
174.75
 21
4
  0
LINE
  5
19F
100
AcDbEntity
  8
Hidden
  6
ByLayer
 62
  256
370
   -1
100
AcDbLine
 10
187.25
 20
0
 11
187.25
 21
4
  0
DIMENSION
  5
1A0
100
AcDbEntity
  8
Dimension
  6
ByLayer
 62
  256
370
   -1
100
AcDbDimension
  2
*D15
 10
158
 20
8
 30
0
 11
149.6263481008584
 21
7.506983790212484
 31
0
 70
   36
 71
    5
  3
Standard
 53
0
210
0
220
0
230
1
100
AcDbRadialDimension
 15
154.3551139598881
 25
6.352333239214571
 35
0
 40
0
  0
LINE
  5
1A1
100
AcDbEntity
  8
Construction
  6
ByLayer
 62
  256
370
   -1
100
AcDbLine
 10
158
 20
4
 11
138
 21
4
  0
LINE
  5
1A2
100
AcDbEntity
  8
Hidden
  6
ByLayer
 62
  256
370
   -1
100
AcDbLine
 10
0
 20
4
 11
52.15000506296803
 21
4
  0
LINE
  5
1A3
100
AcDbEntity
  8
Edges
  6
ByLayer
 62
  256
370
   13
100
AcDbLine
 10
4.898425415289509e-16
 20
8
 11
54.30001012593607
 21
8
  0
DIMENSION
  5
1A4
100
AcDbEntity
  8
Dimension
  6
ByLayer
 62
  256
370
   -1
100
AcDbDimension
  2
*D16
 10
-6.658986279815544
 20
-57.22566334216483
 30
0
 11
-9.658986279815544
 21
-73.5
 31
0
 70
   32
 71
    5
 72
    0
  3
Standard
 53
0
210
0
220
0
230
1
100
AcDbAlignedDimension
 13
0
 23
-90
 33
0
 14
19
 24
-57
 34
0
 50
90
100
AcDbRotatedDimension
  0
DIMENSION
  5
1A5
100
AcDbEntity
  8
Dimension
  6
ByLayer
 62
  256
370
   -1
100
AcDbDimension
  2
*D17
 10
-15.81509241456192
 20
-90.52059474124255
 30
0
 11
-18.81509241456191
 21
-65
 31
0
 70
   32
 71
    5
 72
    0
  3
Standard
 53
0
210
0
220
0
230
1
100
AcDbAlignedDimension
 13
0
 23
-40
 33
0
 14
0
 24
-90
 34
0
 50
90
100
AcDbRotatedDimension
  0
LINE
  5
1A6
100
AcDbEntity
  8
Edges
  6
ByLayer
 62
  256
370
   -1
100
AcDbLine
 10
6.62667136223445
 20
-302.6179922087067
 11
56.62667136223445
 21
-302.6179922087067
  0
LINE
  5
1A7
100
AcDbEntity
  8
Edges
  6
ByLayer
 62
  256
370
   -1
100
AcDbLine
 10
99.60067820761287
 20
-222.6665398413271
 11
56.62667136223445
 21
-302.6179922087067
  0
ARC
  5
1A8
100
AcDbEntity
  8
Edges
  6
ByLayer
 62
  256
370
   -1
100
AcDbCircle
 10
84.62667136223445
 20
-214.6179922087067
 40
17.00000000000001
100
AcDbArc
 50
331.7419141192639
 51
130.3702404239584
  0
CIRCLE
  5
1A9
100
AcDbEntity
  8
Edges
  6
ByLayer
 62
  256
370
   -1
100
AcDbCircle
 10
84.62667136223445
 20
-214.6179922087067
 40
6.25
  0
LINE
  5
1AA
100
AcDbEntity
  8
Edges
  6
ByLayer
 62
  256
370
   -1
100
AcDbLine
 10
6.62667136223445
 20
-263.2417927706559
 11
6.62667136223445
 21
-302.6179922087067
  0
LINE
  5
1AB
100
AcDbEntity
  8
Edges
  6
ByLayer
 62
  256
370
   -1
100
AcDbLine
 10
73.61535879450243
 20
-201.6661199295454
 11
10.14942867533326
 21
-255.6230443711492
  0
ARC
  5
1AC
100
AcDbEntity
  8
Edges
  6
ByLayer
 62
  256
370
   -1
100
AcDbCircle
 10
16.62667136223445
 20
-263.2417927706559
 40
10
100
AcDbArc
 50
130.3702404239584
 51
180
  0
MTEXT
  5
1AD
100
AcDbEntity
  8
Annotation
  6
ByLayer
 62
  256
370
   -1
100
AcDbMText
 10
26.62667136223445
 20
-272.6179922087067
 30
0
 40
10
 41
24.44444232442295
 71
    7
 72
    1
  1
Side
  7
STANDARD
210
0
220
0
230
1
 50
0
 73
    2
 44
1
  0
LINE
  5
1AE
100
AcDbEntity
  8
Axis
  6
ByLayer
 62
  256
370
   -1
100
AcDbLine
 10
94.62667136223445
 20
-214.6179922087067
 11
74.62667136223445
 21
-214.6179922087067
  0
LINE
  5
1AF
100
AcDbEntity
  8
Axis
  6
ByLayer
 62
  256
370
   -1
100
AcDbLine
 10
84.62667136223445
 20
-204.6179922087067
 11
84.62667136223445
 21
-224.6179922087067
  0
DIMENSION
  5
1B0
100
AcDbEntity
  8
Annotation
  6
ByLayer
 62
  256
370
   -1
100
AcDbDimension
  2
*D18
 10
84.62667136223445
 20
-214.6179922087067
 30
0
 11
92.92277440995223
 21
-218.1428573439492
 31
0
 70
   36
 71
    5
  3
Standard
 53
0
210
0
220
0
230
1
100
AcDbRadialDimension
 15
97.16844082066957
 25
-226.0942293468746
 35
0
 40
0
  0
DIMENSION
  5
1B1
100
AcDbEntity
  8
Annotation
  6
ByLayer
 62
  256
370
   -1
100
AcDbDimension
  2
*D19
 10
84.62667136223445
 20
-214.6179922087067
 30
0
 11
91.3149455991063
 21
-206.7055169000453
 31
0
 70
   36
 71
    5
  3
Standard
 53
0
210
0
220
0
230
1
100
AcDbRadialDimension
 15
89.87067284359992
 25
-211.217558638787
 35
0
 40
0
  0
DIMENSION
  5
1B2
100
AcDbEntity
  8
Dimension
  6
ByLayer
 62
  256
370
   -1
100
AcDbDimension
  2
*D20
 10
16.62667136223445
 20
-263.2417927706559
 30
0
 11
13.83981738286813
 21
-258.1199332550414
 31
0
 70
   36
 71
    5
  3
Standard
 53
0
210
0
220
0
230
1
100
AcDbRadialDimension
 15
8.009068878800649
 25
-258.1686352294873
 35
0
 40
0
  0
DIMENSION
  5
1B3
100
AcDbEntity
  8
Dimension
  6
ByLayer
 62
  256
370
   -1
100
AcDbDimension
  2
*D21
 10
56.24574516688767
 20
-309.4722786802204
 30
0
 11
31.62667136223445
 21
-306.4722786802204
 31
0
 70
   32
 71
    5
 72
    0
  3
Standard
 53
0
210
0
220
0
230
1
100
AcDbAlignedDimension
 13
6.62667136223445
 23
-302.6179922087067
 33
0
 14
56.62667136223445
 24
-302.6179922087067
 34
0
100
AcDbRotatedDimension
  0
DIMENSION
  5
1B4
100
AcDbEntity
  8
Dimension
  6
ByLayer
 62
  256
370
   -1
100
AcDbDimension
  2
*D22
 10
-0.05698528659727131
 20
-258.9776458545702
 30
0
 11
-3.056985286597273
 21
-280.6179922087067
 31
0
 70
   32
 71
    5
 72
    0
  3
Standard
 53
0
210
0
220
0
230
1
100
AcDbAlignedDimension
 13
6.62667136223445
 23
-302.6179922087067
 33
0
 14
6.62667136223445
 24
-258.6179922087067
 34
0
 50
90
100
AcDbRotatedDimension
  0
LINE
  5
1B5
100
AcDbEntity
  8
Hidden
  6
ByLayer
 62
  256
370
   -1
100
AcDbLine
 10
6.62667136223445
 20
-298.6179922087067
 11
58.77667642520248
 21
-298.6179922087067
  0
LINE
  5
1B6
100
AcDbEntity
  8
Edges
  6
ByLayer
 62
  256
370
   13
100
AcDbLine
 10
6.626671362234451
 20
-294.6179922087067
 11
60.92668148817052
 21
-294.6179922087067
  0
LINE
  5
1B7
100
AcDbEntity
  8
Edges
  6
ByLayer
 62
  256
370
   -1
100
AcDbLine
 10
-33.1209114883028
 20
-302.6179922087067
 11
-33.1209114883028
 21
-298.6179922087067
  0
LINE
  5
1B8
100
AcDbEntity
  8
Edges
  6
ByLayer
 62
  256
370
   -1
100
AcDbLine
 10
-79.1209114883028
 20
-197.6179922087067
 11
-83.1209114883028
 21
-197.6179922087067
  0
LINE
  5
1B9
100
AcDbEntity
  8
Edges
  6
ByLayer
 62
  256
370
   -1
100
AcDbLine
 10
-33.1209114883028
 20
-298.6179922087067
 11
-75.1209114883028
 21
-298.6179922087067
  0
LINE
  5
1BA
100
AcDbEntity
  8
Edges
  6
ByLayer
 62
  256
370
   -1
100
AcDbLine
 10
-79.1209114883028
 20
-294.6179922087067
 11
-79.1209114883028
 21
-197.6179922087067
  0
ARC
  5
1BB
100
AcDbEntity
  8
Edges
  6
ByLayer
 62
  256
370
   -1
100
AcDbCircle
 10
-75.1209114883028
 20
-294.6179922087067
 40
4
100
AcDbArc
 50
180
 51
270
  0
LINE
  5
1BC
100
AcDbEntity
  8
Edges
  6
ByLayer
 62
  256
370
   -1
100
AcDbLine
 10
-75.1209114883028
 20
-302.6179922087067
 11
-33.1209114883028
 21
-302.6179922087067
  0
LINE
  5
1BD
100
AcDbEntity
  8
Edges
  6
ByLayer
 62
  256
370
   -1
100
AcDbLine
 10
-83.1209114883028
 20
-197.6179922087067
 11
-83.1209114883028
 21
-294.6179922087067
  0
ARC
  5
1BE
100
AcDbEntity
  8
Edges
  6
ByLayer
 62
  256
370
   -1
100
AcDbCircle
 10
-75.1209114883028
 20
-294.6179922087067
 40
8
100
AcDbArc
 50
180
 51
270
  0
MTEXT
  5
1BF
100
AcDbEntity
  8
Annotation
  6
ByLayer
 62
  256
370
   -1
100
AcDbMText
 10
-63.1209114883028
 20
-262.6179922087067
 30
0
 40
10
 41
20.00000000000047
 71
    7
 72
    1
  1
End
  7
STANDARD
210
0
220
0
230
1
 50
0
 73
    2
 44
1
  0
LINE
  5
1C0
100
AcDbEntity
  8
Hidden
  6
ByLayer
 62
  256
370
   -1
100
AcDbLine
 10
-83.1209114883028
 20
-208.3679922087067
 11
-79.1209114883028
 21
-208.3679922087067
  0
LINE
  5
1C1
100
AcDbEntity
  8
Hidden
  6
ByLayer
 62
  256
370
   -1
100
AcDbLine
 10
-83.1209114883028
 20
-220.8679922087067
 11
-79.1209114883028
 21
-220.8679922087067
  0
LINE
  5
1C2
100
AcDbEntity
  8
Axis
  6
ByLayer
 62
  256
370
   -1
100
AcDbLine
 10
-71.32178743444172
 20
-214.6179922087067
 11
-91.32178743444172
 21
-214.6179922087067
  0
DIMENSION
  5
1C3
100
AcDbEntity
  8
Dimension
  6
ByLayer
 62
  256
370
   -1
100
AcDbDimension
  2
*D23
 10
-98.23141756766188
 20
-302.6179922087067
 30
0
 11
-101.2314175676619
 21
-250.1179922087067
 31
0
 70
   32
 71
    5
  3
Standard
 53
0
210
0
220
0
230
1
100
AcDbAlignedDimension
 13
-83.1209114883028
 23
-197.6179922087067
 33
0
 14
-75.1209114883028
 24
-302.6179922087067
 34
0
 50
90
100
AcDbRotatedDimension
  0
DIMENSION
  5
1C4
100
AcDbEntity
  8
Dimension
  6
ByLayer
 62
  256
370
   -1
100
AcDbDimension
  2
*D24
 10
-87.91434265156079
 20
-214.6179922087067
 30
0
 11
-90.91434265156079
 21
-258.6179922087067
 31
0
 70
   32
 71
    5
  3
Standard
 53
0
210
0
220
0
230
1
100
AcDbAlignedDimension
 13
-75.1209114883028
 23
-302.6179922087067
 33
0
 14
-83.1209114883028
 24
-214.6179922087067
 34
0
 50
90
100
AcDbRotatedDimension
  0
DIMENSION
  5
1C5
100
AcDbEntity
  8
Dimension
  6
ByLayer
 62
  256
370
   -1
100
AcDbDimension
  2
*D25
 10
-26.08957271587249
 20
-302.6179922087067
 30
0
 11
-29.08957271587249
 21
-300.6179922087067
 31
0
 70
   32
 71
    5
  3
Standard
 53
0
210
0
220
0
230
1
100
AcDbAlignedDimension
 13
-33.1209114883028
 23
-298.6179922087067
 33
0
 14
-33.1209114883028
 24
-302.6179922087067
 34
0
 50
90
100
AcDbRotatedDimension
  0
LINE
  5
1C6
100
AcDbEntity
  8
Axis
  6
ByLayer
 62
  256
370
   -1
100
AcDbLine
 10
-52.1209114883028
 20
-307.6179922087067
 11
-52.1209114883028
 21
-293.6179922087067
  0
LINE
  5
1C7
100
AcDbEntity
  8
Hidden
  6
ByLayer
 62
  256
370
   -1
100
AcDbLine
 10
-58.3709114883028
 20
-302.6179922087067
 11
-58.3709114883028
 21
-298.6179922087067
  0
LINE
  5
1C8
100
AcDbEntity
  8
Hidden
  6
ByLayer
 62
  256
370
   -1
100
AcDbLine
 10
-45.8709114883028
 20
-302.6179922087067
 11
-45.8709114883028
 21
-298.6179922087067
  0
DIMENSION
  5
1C9
100
AcDbEntity
  8
Dimension
  6
ByLayer
 62
  256
370
   -1
100
AcDbDimension
  2
*D26
 10
-75.1209114883028
 20
-294.6179922087067
 30
0
 11
-83.49456338744439
 21
-295.1110084184943
 31
0
 70
   36
 71
    5
  3
Standard
 53
0
210
0
220
0
230
1
100
AcDbRadialDimension
 15
-78.76579752841471
 25
-296.2656589694922
 35
0
 40
0
  0
DIMENSION
  5
1CA
100
AcDbEntity
  8
Dimension
  6
ByLayer
 62
  256
370
   -1
100
AcDbDimension
  2
*D27
 10
-52.1209114883028
 20
-310.0387479161668
 30
0
 11
-42.6209114883028
 21
-307.0387479161668
 31
0
 70
   32
 71
    5
  3
Standard
 53
0
210
0
220
0
230
1
100
AcDbAlignedDimension
 13
-33.1209114883028
 23
-302.6179922087067
 33
0
 14
-52.1209114883028
 24
-302.6179922087067
 34
0
100
AcDbRotatedDimension
  0
LINE
  5
1CB
100
AcDbEntity
  8
Edges
  6
ByLayer
 62
  256
370
   -1
100
AcDbLine
 10
101.6266713622344
 20
-366.095610045726
 11
6.62667136223445
 21
-366.095610045726
  0
LINE
  5
1CC
100
AcDbEntity
  8
Edges
  6
ByLayer
 62
  256
370
   -1
100
AcDbLine
 10
101.6266713622344
 20
-362.095610045726
 11
101.6266713622344
 21
-366.095610045726
  0
LINE
  5
1CD
100
AcDbEntity
  8
Edges
  6
ByLayer
 62
  256
370
   -1
100
AcDbLine
 10
6.62667136223445
 20
-366.095610045726
 11
6.62667136223445
 21
-321.095610045726
  0
ARC
  5
1CE
100
AcDbEntity
  8
Edges
  6
ByLayer
 62
  256
370
   -1
100
AcDbCircle
 10
11.62667136223445
 20
-321.095610045726
 40
5
100
AcDbArc
 50
90
 51
180
  0
LINE
  5
1CF
100
AcDbEntity
  8
Edges
  6
ByLayer
 62
  256
370
   -1
100
AcDbLine
 10
11.62667136223445
 20
-316.095610045726
 11
51.62667136223445
 21
-316.095610045726
  0
LINE
  5
1D0
100
AcDbEntity
  8
Edges
  6
ByLayer
 62
  256
370
   -1
100
AcDbLine
 10
56.62667136223445
 20
-321.095610045726
 11
56.62667136223445
 21
-362.095610045726
  0
ARC
  5
1D1
100
AcDbEntity
  8
Edges
  6
ByLayer
 62
  256
370
   -1
100
AcDbCircle
 10
51.62667136223445
 20
-321.095610045726
 40
5
100
AcDbArc
 50
0
 51
90
  0
LINE
  5
1D2
100
AcDbEntity
  8
Edges
  6
ByLayer
 62
  256
370
   -1
100
AcDbLine
 10
56.62667136223445
 20
-358.095610045726
 11
6.626671362234453
 21
-358.095610045726
  0
LINE
  5
1D3
100
AcDbEntity
  8
Edges
  6
ByLayer
 62
  256
370
   -1
100
AcDbLine
 10
6.62667136223445
 20
-362.095610045726
 11
101.6266713622344
 21
-362.095610045726
  0
CIRCLE
  5
1D4
100
AcDbEntity
  8
Edges
  6
ByLayer
 62
  256
370
   -1
100
AcDbCircle
 10
25.62667136223445
 20
-333.095610045726
 40
6.25
  0
POINT
  5
1D5
100
AcDbEntity
  8
Edges
  6
ByLayer
 62
  256
370
   -1
100
AcDbPoint
 10
25.62667136223445
 20
-333.095610045726
  0
DIMENSION
  5
1D6
100
AcDbEntity
  8
Dimension
  6
ByLayer
 62
  256
370
   -1
100
AcDbDimension
  2
*D28
 10
20.49749359686851
 20
-329.5243307999548
 30
0
 11
27.34088540020461
 21
-330.6336047183503
 31
0
 70
   35
  1
12.5
 71
    5
 72
    0
  3
Standard
 53
0
210
0
220
0
230
1
100
AcDbDiametricDimension
 15
30.75584912760039
 25
-336.6668892914972
 35
0
 40
0
  0
MTEXT
  5
1D7
100
AcDbEntity
  8
Annotation
  6
ByLayer
 62
  256
370
   -1
100
AcDbMText
 10
16.62667136223445
 20
-356.095610045726
 30
0
 40
10
 41
21.11111111111111
 71
    7
 72
    1
  1
Top
  7
STANDARD
210
0
220
0
230
1
 50
0
 73
    2
 44
1
  0
LINE
  5
1D8
100
AcDbEntity
  8
Hidden
  6
ByLayer
 62
  256
370
   -1
100
AcDbLine
 10
78.37667136223459
 20
-362.095610045726
 11
78.37667136223459
 21
-366.095610045726
  0
LINE
  5
1D9
100
AcDbEntity
  8
Hidden
  6
ByLayer
 62
  256
370
   -1
100
AcDbLine
 10
90.87667136223445
 20
-362.095610045726
 11
90.87667136223445
 21
-366.095610045726
  0
LINE
  5
1DA
100
AcDbEntity
  8
Axis
  6
ByLayer
 62
  256
370
   -1
100
AcDbLine
 10
84.62667136223445
 20
-353.9861481311362
 11
84.62667136223445
 21
-373.9861481311362
  0
DIMENSION
  5
1DB
100
AcDbEntity
  8
Dimension
  6
ByLayer
 62
  256
370
   -1
100
AcDbDimension
  2
*D29
 10
-0.03231491758109328
 20
-333.3212733878908
 30
0
 11
-3.032314917581094
 21
-349.595610045726
 31
0
 70
   32
 71
    5
 72
    0
  3
Standard
 53
0
210
0
220
0
230
1
100
AcDbAlignedDimension
 13
6.62667136223445
 23
-366.095610045726
 33
0
 14
25.62667136223445
 24
-333.095610045726
 34
0
 50
90
100
AcDbRotatedDimension
  0
DIMENSION
  5
1DC
100
AcDbEntity
  8
Dimension
  6
ByLayer
 62
  256
370
   -1
100
AcDbDimension
  2
*D30
 10
-9.188421052327465
 20
-366.6162047869686
 30
0
 11
-12.18842105232746
 21
-341.095610045726
 31
0
 70
   32
 71
    5
 72
    0
  3
Standard
 53
0
210
0
220
0
230
1
100
AcDbAlignedDimension
 13
6.62667136223445
 23
-316.095610045726
 33
0
 14
6.62667136223445
 24
-366.095610045726
 34
0
 50
90
100
AcDbRotatedDimension
  0
DIMENSION
  5
1DD
100
AcDbEntity
  8
Dimension
  6
ByLayer
 62
  256
370
   -1
100
AcDbDimension
  2
*D31
 10
51.62667136223445
 20
-321.095610045726
 30
0
 11
59.26386981937311
 21
-316.0177846413436
 31
0
 70
   36
 71
    5
  3
Standard
 53
0
210
0
220
0
230
1
100
AcDbRadialDimension
 15
56.46684814938857
 25
-319.8415412002895
 35
0
 40
0
  0
DIMENSION
  5
1DE
100
AcDbEntity
  8
Dimension
  6
ByLayer
 62
  256
370
   -1
100
AcDbDimension
  2
*D32
 10
84.79366264162051
 20
-372.2952295131356
 30
0
 11
45.62667136223445
 21
-369.2952295131356
 31
0
 70
   32
 71
    5
  3
Standard
 53
0
210
0
220
0
230
1
100
AcDbAlignedDimension
 13
6.62667136223445
 23
-366.095610045726
 33
0
 14
84.62667136223445
 24
-366.095610045726
 34
0
100
AcDbRotatedDimension
  0
DIMENSION
  5
1DF
100
AcDbEntity
  8
Dimension
  6
ByLayer
 62
  256
370
   -1
100
AcDbDimension
  2
*D33
 10
101.7274924790073
 20
-378.3963887927823
 30
0
 11
54.12667136223445
 21
-375.3963887927823
 31
0
 70
   32
 71
    5
  3
Standard
 53
0
210
0
220
0
230
1
100
AcDbAlignedDimension
 13
6.62667136223445
 23
-366.095610045726
 33
0
 14
101.6266713622344
 24
-366.095610045726
 34
0
100
AcDbRotatedDimension
  0
LWPOLYLINE
  5
1E0
100
AcDbEntity
  8
Annotation
  6
ByLayer
 62
  256
370
   -1
100
AcDbPolyline
 90
    4
 70
    1
 43
0
 10
-130.2517226911455
 20
-381.8725644830236
 10
146.7482773088545
 20
-381.8725644830236
 10
146.7482773088545
 20
-191.8725644830236
 10
-130.2517226911455
 20
-191.8725644830236
  0
ENDSEC
  0
SECTION
  2
OBJECTS
  0
DICTIONARY
  5
C
330
0
100
AcDbDictionary
281
    1
  3
ACAD_GROUP
350
D
  0
DICTIONARY
  5
D
330
C
100
AcDbDictionary
281
    1
  0
PLOTSETTINGS
  5
1E1
  6
1x1
 40
0
 41
0
 42
0
 43
0
  0
ENDSEC
  0
EOF
