999
dxfrw 0.6.3
  0
SECTION
  2
HEADER
  9
$ACADVER
  1
AC1021
  9
$DWGCODEPAGE
  3
ANSI_1252
  9
$INSBASE
 10
0
 20
0
 30
0
  9
$EXTMIN
 10
-60
 20
-95
 30
0
  9
$EXTMAX
 10
237
 20
115
 30
0
  9
$LIMMIN
 10
0
 20
0
  9
$LIMMAX
 10
420
 20
297
  9
$ORTHOMODE
 70
    0
  9
$REGENMODE
 70
    1
  9
$FILLMODE
 70
    1
  9
$QTEXTMODE
 70
    0
  9
$MIRRTEXT
 70
    0
  9
$LTSCALE
 40
1
  9
$ATTMODE
 70
    0
  9
$TEXTSIZE
 40
2.5
  9
$TRACEWID
 40
15.68
  9
$TEXTSTYLE
  7
STANDARD
  9
$CLAYER
  8
Dimension
  9
$CELTYPE
  6
BYLAYER
  9
$CECOLOR
 62
  256
  9
$CELTSCALE
 40
1
  9
$DISPSILH
 70
    0
  9
$DIMSCALE
 40
1
  9
$DIMASZ
 40
3
  9
$DIMEXO
 40
1.5
  9
$DIMDLI
 40
3.75
  9
$DIMRND
 40
0
  9
$DIMDLE
 40
0
  9
$DIMEXE
 40
1.25
  9
$DIMTP
 40
0
  9
$DIMTM
 40
0
  9
$DIMTXT
 40
2.5
  9
$DIMCEN
 40
2.5
  9
$DIMTSZ
 40
0
  9
$DIMTOL
 70
    0
  9
$DIMLIM
 70
    0
  9
$DIMTIH
 70
    0
  9
$DIMTOH
 70
    0
  9
$DIMSE1
 70
    0
  9
$DIMSE2
 70
    0
  9
$DIMTAD
 70
    1
  9
$DIMZIN
 70
    9
  9
$DIMBLK
  1

  9
$DIMASO
 70
    1
  9
$DIMSHO
 70
    1
  9
$DIMPOST
  1

  9
$DIMAPOST
  1

  9
$DIMALT
 70
    0
  9
$DIMALTD
 70
    3
  9
$DIMALTF
 40
0.03937
  9
$DIMLFAC
 40
1
  9
$DIMTOFL
 70
    1
  9
$DIMTVP
 40
0
  9
$DIMTIX
 70
    0
  9
$DIMSOXD
 70
    0
  9
$DIMSAH
 70
    0
  9
$DIMBLK1
  1

  9
$DIMBLK2
  1

  9
$DIMSTYLE
  2
STANDARD
  9
$DIMCLRD
 70
    0
  9
$DIMCLRE
 70
    0
  9
$DIMCLRT
 70
    0
  9
$DIMTFAC
 40
1
  9
$DIMGAP
 40
1.5
  9
$DIMJUST
 70
    0
  9
$DIMSD1
 70
    0
  9
$DIMSD2
 70
    0
  9
$DIMTOLJ
 70
    0
  9
$DIMTZIN
 70
    8
  9
$DIMALTZ
 70
    0
  9
$DIMALTTZ
 70
    0
  9
$DIMUPT
 70
    0
  9
$DIMDEC
 70
    1
  9
$DIMTDEC
 70
    2
  9
$DIMALTU
 70
    2
  9
$DIMALTTD
 70
    3
  9
$DIMTXSTY
  7
standard
  9
$DIMAUNIT
 70
    0
  9
$DIMADEC
 70
    0
  9
$DIMALTRND
 40
0
  9
$DIMAZIN
 70
    0
  9
$DIMDSEP
 70
    0
  9
$DIMATFIT
 70
    3
  9
$DIMFRAC
 70
    0
  9
$DIMLDRBLK
  1
STANDARD
  9
$DIMLUNIT
 70
    2
  9
$DIMLWD
 70
   -2
  9
$DIMLWE
 70
   -2
  9
$DIMTMOVE
 70
    0
  9
$DIMFXL
 40
1
  9
$DIMFXLON
 70
    0
  9
$DIMJOGANG
 40
0.7854
  9
$DIMTFILL
 70
    0
  9
$DIMTFILLCLR
 70
    0
  9
$DIMARCSYM
 70
    0
  9
$DIMLTYPE
  6

  9
$DIMLTEX1
  6

  9
$DIMLTEX2
  6

  9
$LUNITS
 70
    2
  9
$LUPREC
 70
    4
  9
$SKETCHINC
 40
1
  9
$FILLETRAD
 40
0
  9
$AUNITS
 70
    0
  9
$AUPREC
 70
    2
  9
$MENU
  1
.
  9
$ELEVATION
 40
0
  9
$PELEVATION
 40
0
  9
$THICKNESS
 40
0
  9
$LIMCHECK
 70
    0
  9
$CHAMFERA
 40
0
  9
$CHAMFERB
 40
0
  9
$CHAMFERC
 40
0
  9
$CHAMFERD
 40
0
  9
$SKPOLY
 70
    0
  9
$USRTIMER
 70
    1
  9
$ANGBASE
 50
0
  9
$ANGDIR
 70
    0
  9
$PDMODE
 70
   34
  9
$PDSIZE
 40
0
  9
$PLINEWID
 40
0
  9
$SPLFRAME
 70
    0
  9
$SPLINETYPE
 70
    2
  9
$SPLINESEGS
 70
    8
  9
$HANDSEED
  5
20000
  9
$SURFTAB1
 70
    6
  9
$SURFTAB2
 70
    6
  9
$SURFTYPE
 70
    6
  9
$SURFU
 70
    6
  9
$SURFV
 70
    6
  9
$UCSBASE
  2

  9
$UCSNAME
  2

  9
$UCSORG
 10
0
 20
0
 30
0
  9
$UCSXDIR
 10
1
 20
0
 30
0
  9
$UCSYDIR
 10
0
 20
1
 30
0
  9
$UCSORTHOREF
  2

  9
$UCSORTHOVIEW
 70
    0
  9
$UCSORGTOP
 10
0
 20
0
 30
0
  9
$UCSORGBOTTOM
 10
0
 20
0
 30
0
  9
$UCSORGLEFT
 10
0
 20
0
 30
0
  9
$UCSORGRIGHT
 10
0
 20
0
 30
0
  9
$UCSORGFRONT
 10
0
 20
0
 30
0
  9
$UCSORGBACK
 10
0
 20
0
 30
0
  9
$PUCSBASE
  2

  9
$PUCSNAME
  2

  9
$PUCSORG
 10
0
 20
0
 30
0
  9
$PUCSXDIR
 10
1
 20
0
 30
0
  9
$PUCSYDIR
 10
0
 20
1
 30
0
  9
$PUCSORTHOREF
  2

  9
$PUCSORTHOVIEW
 70
    0
  9
$PUCSORGTOP
 10
0
 20
0
 30
0
  9
$PUCSORGBOTTOM
 10
0
 20
0
 30
0
  9
$PUCSORGLEFT
 10
0
 20
0
 30
0
  9
$PUCSORGRIGHT
 10
0
 20
0
 30
0
  9
$PUCSORGFRONT
 10
0
 20
0
 30
0
  9
$PUCSORGBACK
 10
0
 20
0
 30
0
  9
$USERI1
 70
    0
  9
$USERI2
 70
    0
  9
$USERI3
 70
    0
  9
$USERI4
 70
    0
  9
$USERI5
 70
    0
  9
$USERR1
 40
0
  9
$USERR2
 40
0
  9
$USERR3
 40
0
  9
$USERR4
 40
0
  9
$USERR5
 40
0
  9
$WORLDVIEW
 70
    1
  9
$SHADEDGE
 70
    3
  9
$SHADEDIF
 70
   70
  9
$TILEMODE
 70
    1
  9
$MAXACTVP
 70
   64
  9
$PINSBASE
 10
60
 20
95
 30
0
  9
$PLIMCHECK
 70
    0
  9
$PEXTMIN
 10
0
 20
0
 30
0
  9
$PEXTMAX
 10
0
 20
0
 30
0
  9
$GRIDMODE
 70
    1
  9
$SNAPSTYLE
 70
    0
  9
$GRIDUNIT
 10
0
 20
0
  9
$PLIMMIN
 10
0
 20
0
  9
$PLIMMAX
 10
297
 20
210
  9
$UNITMODE
 70
    0
  9
$VISRETAIN
 70
    1
  9
$PLINEGEN
 70
    0
  9
$PSLTSCALE
 70
    1
  9
$TREEDEPTH
 70
 3020
  9
$CMLSTYLE
  2
Standard
  9
$CMLJUST
 70
    0
  9
$CMLSCALE
 40
20
  9
$PROXYGRAPHICS
 70
    1
  9
$MEASUREMENT
 70
    1
  9
$CELWEIGHT
370
   -1
  9
$ENDCAPS
280
    0
  9
$JOINSTYLE
280
    0
  9
$LWDISPLAY
290
    0
  9
$INSUNITS
 70
    4
  9
$HYPERLINKBASE
  1

  9
$STYLESHEET
  1

  9
$XEDIT
290
    1
  9
$CEPSNTYPE
380
    0
  9
$PSTYLEMODE
290
    1
  9
$EXTNAMES
290
    1
  9
$PSVPSCALE
 40
1
  9
$OLESTARTUP
290
    0
  9
$SORTENTS
280
  127
  9
$INDEXCTL
280
    0
  9
$HIDETEXT
280
    1
  9
$XCLIPFRAME
290
    0
  9
$HALOGAP
280
    0
  9
$OBSCOLOR
 70
  257
  9
$OBSLTYPE
280
    0
  9
$INTERSECTIONDISPLAY
280
    0
  9
$INTERSECTIONCOLOR
 70
  257
  9
$DIMASSOC
280
    1
  9
$PROJECTNAME
  1

  9
$CAMERADISPLAY
290
    0
  9
$LENSLENGTH
 40
50
  9
$CAMERAHEIGHT
 40
0
  9
$STEPSPERSEC
 40
2
  9
$STEPSIZE
 40
50
  9
$3DDWFPREC
 40
2
  9
$PSOLWIDTH
 40
5
  9
$PSOLHEIGHT
 40
80
  9
$LOFTANG1
 40
1.570796326794897
  9
$LOFTANG2
 40
1.570796326794897
  9
$LOFTMAG1
 40
0
  9
$LOFTMAG2
 40
0
  9
$LOFTPARAM
 70
    7
  9
$LOFTNORMALS
280
    1
  9
$LATITUDE
 40
1
  9
$LONGITUDE
 40
1
  9
$NORTHDIRECTION
 40
0
  9
$TIMEZONE
 70
-8000
  9
$LIGHTGLYPHDISPLAY
280
    1
  9
$TILEMODELIGHTSYNCH
280
    1
  9
$SOLIDHIST
280
    1
  9
$SHOWHIST
280
    1
  9
$DWFFRAME
280
    2
  9
$DGNFRAME
280
    0
  9
$REALWORLDSCALE
290
    1
  9
$INTERFERECOLOR
 62
    1
  9
$CSHADOW
280
    0
  9
$SHADOWPLANELOCATION
 40
0
  0
ENDSEC
  0
SECTION
  2
CLASSES
  0
ENDSEC
  0
SECTION
  2
TABLES
  0
TABLE
  2
VPORT
  5
8
330
0
100
AcDbSymbolTable
 70
    1
  0
VPORT
  5
31
330
2
100
AcDbSymbolTableRecord
100
AcDbViewportTableRecord
  2
*ACTIVE
 70
    0
 10
0
 20
0
 11
1
 21
1
 12
128.868501529052
 22
58.65443425076452
 13
0
 23
0
 14
10
 24
10
 15
10
 25
10
 16
0
 26
0
 36
1
 17
0
 27
0
 37
0
 40
214.2813455657492
 41
1.578421578421578
 42
50
 43
0
 44
0
 50
0
 51
0
 71
    0
 72
  100
 73
    1
 74
    3
 75
    0
 76
    1
 77
    0
 78
    0
281
    0
 65
    1
110
0
120
0
130
0
111
1
121
0
131
0
112
0
122
1
132
0
 79
    0
146
0
348
10020
 60
    7
 61
    5
292
1
282
    1
141
0
142
0
 63
  250
421
3358443
  0
ENDTAB
  0
TABLE
  2
LTYPE
  5
5
330
0
100
AcDbSymbolTable
 70
    4
  0
LTYPE
  5
14
330
5
100
AcDbSymbolTableRecord
100
AcDbLinetypeTableRecord
  2
ByBlock
 70
    0
  3

 72
   65
 73
    0
 40
0
  0
LTYPE
  5
15
330
5
100
AcDbSymbolTableRecord
100
AcDbLinetypeTableRecord
  2
ByLayer
 70
    0
  3

 72
   65
 73
    0
 40
0
  0
LTYPE
  5
16
330
5
100
AcDbSymbolTableRecord
100
AcDbLinetypeTableRecord
  2
Continuous
 70
    0
  3
Solid line
 72
   65
 73
    0
 40
0
  0
LTYPE
  5
32
330
5
100
AcDbSymbolTableRecord
100
AcDbLinetypeTableRecord
  2
DOT
 70
    0
  3
Dot . . . . . . . . . . . . . . . . . . . . . .
 72
   65
 73
    2
 40
6.35
 49
0
 74
    0
 49
-6.35
 74
    0
  0
LTYPE
  5
33
330
5
100
AcDbSymbolTableRecord
100
AcDbLinetypeTableRecord
  2
DOTTINY
 70
    0
  3
Dot (.15x) .....................................
 72
   65
 73
    2
 40
0.9525
 49
0
 74
    0
 49
-0.9525
 74
    0
  0
LTYPE
  5
34
330
5
100
AcDbSymbolTableRecord
100
AcDbLinetypeTableRecord
  2
DOT2
 70
    0
  3
Dot (.5x) .....................................
 72
   65
 73
    2
 40
3.175
 49
0
 74
    0
 49
-3.175
 74
    0
  0
LTYPE
  5
35
330
5
100
AcDbSymbolTableRecord
100
AcDbLinetypeTableRecord
  2
DOTX2
 70
    0
  3
Dot (2x) .  .  .  .  .  .  .  .  .  .  .  .  .
 72
   65
 73
    2
 40
12.7
 49
0
 74
    0
 49
-12.7
 74
    0
  0
LTYPE
  5
36
330
5
100
AcDbSymbolTableRecord
100
AcDbLinetypeTableRecord
  2
DASHED
 70
    0
  3
Dashed _ _ _ _ _ _ _ _ _ _ _ _ _ _ _ _ _
 72
   65
 73
    2
 40
19.05
 49
12.7
 74
    0
 49
-6.35
 74
    0
  0
LTYPE
  5
37
330
5
100
AcDbSymbolTableRecord
100
AcDbLinetypeTableRecord
  2
DASHEDTINY
 70
    0
  3
Dashed (.15x) _ _ _ _ _ _ _ _ _ _ _ _ _ _ _ _ _
 72
   65
 73
    2
 40
2.8575
 49
1.905
 74
    0
 49
-0.9525
 74
    0
  0
LTYPE
  5
38
330
5
100
AcDbSymbolTableRecord
100
AcDbLinetypeTableRecord
  2
DASHED2
 70
    0
  3
Dashed (.5x) _ _ _ _ _ _ _ _ _ _ _ _ _ _ _ _ _
 72
   65
 73
    2
 40
9.524999999999999
 49
6.35
 74
    0
 49
-3.175
 74
    0
  0
LTYPE
  5
39
330
5
100
AcDbSymbolTableRecord
100
AcDbLinetypeTableRecord
  2
DASHEDX2
 70
    0
  3
Dashed (2x) ____  ____  ____  ____  ____  ___
 72
   65
 73
    2
 40
38.09999999999999
 49
25.4
 74
    0
 49
-12.7
 74
    0
  0
LTYPE
  5
3A
330
5
100
AcDbSymbolTableRecord
100
AcDbLinetypeTableRecord
  2
DASHDOT
 70
    0
  3
Dash dot __ . __ . __ . __ . __ . __ . __ . __
 72
   65
 73
    4
 40
25.4
 49
12.7
 74
    0
 49
-6.35
 74
    0
 49
0
 74
    0
 49
-6.35
 74
    0
  0
LTYPE
  5
3B
330
5
100
AcDbSymbolTableRecord
100
AcDbLinetypeTableRecord
  2
DASHDOTTINY
 70
    0
  3
Dash dot (.15x) _._._._._._._._._._._._._._._.
 72
   65
 73
    4
 40
3.81
 49
1.905
 74
    0
 49
-0.9525
 74
    0
 49
0
 74
    0
 49
-0.9525
 74
    0
  0
LTYPE
  5
3C
330
5
100
AcDbSymbolTableRecord
100
AcDbLinetypeTableRecord
  2
DASHDOT2
 70
    0
  3
Dash dot (.5x) _._._._._._._._._._._._._._._.
 72
   65
 73
    4
 40
12.7
 49
6.35
 74
    0
 49
-3.175
 74
    0
 49
0
 74
    0
 49
-3.175
 74
    0
  0
LTYPE
  5
3D
330
5
100
AcDbSymbolTableRecord
100
AcDbLinetypeTableRecord
  2
DASHDOTX2
 70
    0
  3
Dash dot (2x) ____  .  ____  .  ____  .  ___
 72
   65
 73
    4
 40
50.8
 49
25.4
 74
    0
 49
-12.7
 74
    0
 49
0
 74
    0
 49
-12.7
 74
    0
  0
LTYPE
  5
3E
330
5
100
AcDbSymbolTableRecord
100
AcDbLinetypeTableRecord
  2
DIVIDE
 70
    0
  3
Divide ____ . . ____ . . ____ . . ____ . . ____
 72
   65
 73
    6
 40
31.75
 49
12.7
 74
    0
 49
-6.35
 74
    0
 49
0
 74
    0
 49
-6.35
 74
    0
 49
0
 74
    0
 49
-6.35
 74
    0
  0
LTYPE
  5
3F
330
5
100
AcDbSymbolTableRecord
100
AcDbLinetypeTableRecord
  2
DIVIDETINY
 70
    0
  3
Divide (.15x) __..__..__..__..__..__..__..__.._
 72
   65
 73
    6
 40
4.7625
 49
1.905
 74
    0
 49
-0.9525
 74
    0
 49
0
 74
    0
 49
-0.9525
 74
    0
 49
0
 74
    0
 49
-0.9525
 74
    0
  0
LTYPE
  5
40
330
5
100
AcDbSymbolTableRecord
100
AcDbLinetypeTableRecord
  2
DIVIDE2
 70
    0
  3
Divide (.5x) __..__..__..__..__..__..__..__.._
 72
   65
 73
    6
 40
15.875
 49
6.35
 74
    0
 49
-3.175
 74
    0
 49
0
 74
    0
 49
-3.175
 74
    0
 49
0
 74
    0
 49
-3.175
 74
    0
  0
LTYPE
  5
41
330
5
100
AcDbSymbolTableRecord
100
AcDbLinetypeTableRecord
  2
DIVIDEX2
 70
    0
  3
Divide (2x) ________  .  .  ________  .  .  _
 72
   65
 73
    6
 40
63.5
 49
25.4
 74
    0
 49
-12.7
 74
    0
 49
0
 74
    0
 49
-12.7
 74
    0
 49
0
 74
    0
 49
-12.7
 74
    0
  0
LTYPE
  5
42
330
5
100
AcDbSymbolTableRecord
100
AcDbLinetypeTableRecord
  2
BORDER
 70
    0
  3
Border __ __ . __ __ . __ __ . __ __ . __ __ .
 72
   65
 73
    6
 40
44.45
 49
12.7
 74
    0
 49
-6.35
 74
    0
 49
12.7
 74
    0
 49
-6.35
 74
    0
 49
0
 74
    0
 49
-6.35
 74
    0
  0
LTYPE
  5
43
330
5
100
AcDbSymbolTableRecord
100
AcDbLinetypeTableRecord
  2
BORDERTINY
 70
    0
  3
Border (.15x) __.__.__.__.__.__.__.__.__.__.__.
 72
   65
 73
    6
 40
6.6675
 49
1.905
 74
    0
 49
-0.9525
 74
    0
 49
1.905
 74
    0
 49
-0.9525
 74
    0
 49
0
 74
    0
 49
-0.9525
 74
    0
  0
LTYPE
  5
44
330
5
100
AcDbSymbolTableRecord
100
AcDbLinetypeTableRecord
  2
BORDER2
 70
    0
  3
Border (.5x) __.__.__.__.__.__.__.__.__.__.__.
 72
   65
 73
    6
 40
22.225
 49
6.35
 74
    0
 49
-3.175
 74
    0
 49
6.35
 74
    0
 49
-3.175
 74
    0
 49
0
 74
    0
 49
-3.175
 74
    0
  0
LTYPE
  5
45
330
5
100
AcDbSymbolTableRecord
100
AcDbLinetypeTableRecord
  2
BORDERX2
 70
    0
  3
Border (2x) ____  ____  .  ____  ____  .  ___
 72
   65
 73
    6
 40
88.89999999999999
 49
25.4
 74
    0
 49
-12.7
 74
    0
 49
25.4
 74
    0
 49
-12.7
 74
    0
 49
0
 74
    0
 49
-12.7
 74
    0
  0
LTYPE
  5
46
330
5
100
AcDbSymbolTableRecord
100
AcDbLinetypeTableRecord
  2
CENTER
 70
    0
  3
Center ____ _ ____ _ ____ _ ____ _ ____ _ ____
 72
   65
 73
    4
 40
50.8
 49
31.75
 74
    0
 49
-6.35
 74
    0
 49
6.35
 74
    0
 49
-6.35
 74
    0
  0
LTYPE
  5
47
330
5
100
AcDbSymbolTableRecord
100
AcDbLinetypeTableRecord
  2
CENTERTINY
 70
    0
  3
Center (.15x) ___ _ ___ _ ___ _ ___ _ ___ _ ___
 72
   65
 73
    4
 40
7.62
 49
4.7625
 74
    0
 49
-0.9525
 74
    0
 49
0.9525
 74
    0
 49
-0.9525
 74
    0
  0
LTYPE
  5
48
330
5
100
AcDbSymbolTableRecord
100
AcDbLinetypeTableRecord
  2
CENTER2
 70
    0
  3
Center (.5x) ___ _ ___ _ ___ _ ___ _ ___ _ ___
 72
   65
 73
    4
 40
28.575
 49
19.05
 74
    0
 49
-3.175
 74
    0
 49
3.175
 74
    0
 49
-3.175
 74
    0
  0
LTYPE
  5
49
330
5
100
AcDbSymbolTableRecord
100
AcDbLinetypeTableRecord
  2
CENTERX2
 70
    0
  3
Center (2x) ________  __  ________  __  _____
 72
   65
 73
    4
 40
101.6
 49
63.5
 74
    0
 49
-12.7
 74
    0
 49
12.7
 74
    0
 49
-12.7
 74
    0
  0
ENDTAB
  0
TABLE
  2
LAYER
  5
2
330
0
100
AcDbSymbolTable
 70
    1
  0
LAYER
  5
10
330
2
100
AcDbSymbolTableRecord
100
AcDbLayerTableRecord
  2
0
 70
    0
 62
    7
  6
CONTINUOUS
370
    0
390
F
  0
LAYER
  5
4A
330
2
100
AcDbSymbolTableRecord
100
AcDbLayerTableRecord
  2
Annotation
 70
    0
 62
    7
  6
CONTINUOUS
370
    0
390
F
  0
LAYER
  5
4B
330
2
100
AcDbSymbolTableRecord
100
AcDbLayerTableRecord
  2
Construction
 70
    1
 62
   96
420
32768
  6
CONTINUOUS
370
   13
390
F
1001
LibreCad
1070
    1
  0
LAYER
  5
4C
330
2
100
AcDbSymbolTableRecord
100
AcDbLayerTableRecord
  2
Cut
 70
    0
 62
    6
  6
CONTINUOUS
370
   25
390
F
  0
LAYER
  5
4D
330
2
100
AcDbSymbolTableRecord
100
AcDbLayerTableRecord
  2
DimAux
 70
    1
 62
    7
  6
CONTINUOUS
370
    0
390
F
  0
LAYER
  5
4E
330
2
100
AcDbSymbolTableRecord
100
AcDbLayerTableRecord
  2
Dimension
 70
    0
 62
    4
  6
CONTINUOUS
370
   25
390
F
  0
LAYER
  5
4F
330
2
100
AcDbSymbolTableRecord
100
AcDbLayerTableRecord
  2
Edges
 70
    0
 62
    7
  6
CONTINUOUS
370
   50
390
F
  0
LAYER
  5
50
330
2
100
AcDbSymbolTableRecord
100
AcDbLayerTableRecord
  2
Frame
 70
    0
 62
    7
  6
CONTINUOUS
370
   25
390
F
  0
LAYER
  5
51
330
2
100
AcDbSymbolTableRecord
100
AcDbLayerTableRecord
  2
Hatches
 70
    0
 62
    8
  6
CONTINUOUS
370
   35
390
F
  0
LAYER
  5
52
330
2
100
AcDbSymbolTableRecord
100
AcDbLayerTableRecord
  2
Symmetry
 70
    0
 62
    1
  6
DASHDOT2
370
   25
390
F
  0
ENDTAB
  0
TABLE
  2
STYLE
  5
3
330
0
100
AcDbSymbolTable
 70
    3
  0
STYLE
  5
53
330
2
100
AcDbSymbolTableRecord
100
AcDbTextStyleTableRecord
  2
standard
 70
    0
 40
0
 41
1
 50
0
 71
    0
 42
1
  3
standard
  4

  0
ENDTAB
  0
TABLE
  2
VIEW
  5
6
330
0
100
AcDbSymbolTable
 70
    0
  0
ENDTAB
  0
TABLE
  2
UCS
  5
7
330
0
100
AcDbSymbolTable
 70
    0
  0
ENDTAB
  0
TABLE
  2
APPID
  5
9
330
0
100
AcDbSymbolTable
 70
    1
  0
APPID
  5
12
330
9
100
AcDbSymbolTableRecord
100
AcDbRegAppTableRecord
  2
ACAD
 70
    0
  0
APPID
  5
54
330
9
100
AcDbSymbolTableRecord
100
AcDbRegAppTableRecord
  2
LibreCad
 70
    0
  0
ENDTAB
  0
TABLE
  2
DIMSTYLE
  5
A
330
0
100
AcDbSymbolTable
 70
    1
100
AcDbDimStyleTable
 71
    1
  0
DIMSTYLE
105
55
330
A
100
AcDbSymbolTableRecord
100
AcDbDimStyleTableRecord
  2
Standard
 70
    0
 40
1
 41
3
 42
1.5
 43
0.38
 44
1.25
 45
0
 46
0
 47
0
 48
0
 49
1
140
2.5
141
0.09
142
0
143
25.4
144
1
145
0
146
1
147
1.5
148
0
 71
    0
 72
    0
 73
    0
 74
    1
 75
    0
 76
    0
 77
    0
 78
    9
 79
    0
170
    0
171
    2
172
    0
173
    0
174
    0
175
    0
176
    0
177
    0
178
    0
179
    0
271
    1
272
    4
273
    2
274
    2
275
    0
276
    0
277
    2
278
    0
279
    0
280
    0
281
    0
282
    0
283
    1
284
    0
285
    0
286
    0
288
    0
289
    3
340
standard
341

371
   -2
372
   -2
  0
ENDTAB
  0
TABLE
  2
BLOCK_RECORD
  5
1
330
0
100
AcDbSymbolTable
 70
    2
  0
BLOCK_RECORD
  5
1F
330
1
100
AcDbSymbolTableRecord
100
AcDbBlockTableRecord
  2
*Model_Space
 70
    0
280
    1
281
    0
  0
BLOCK_RECORD
  5
1E
330
1
100
AcDbSymbolTableRecord
100
AcDbBlockTableRecord
  2
*Paper_Space
 70
    0
280
    1
281
    0
  0
BLOCK_RECORD
  5
56
330
1
100
AcDbSymbolTableRecord
100
AcDbBlockTableRecord
  2
*D25
 70
    0
280
    1
281
    0
  0
BLOCK_RECORD
  5
59
330
1
100
AcDbSymbolTableRecord
100
AcDbBlockTableRecord
  2
*D24
 70
    0
280
    1
281
    0
  0
BLOCK_RECORD
  5
5C
330
1
100
AcDbSymbolTableRecord
100
AcDbBlockTableRecord
  2
*D18
 70
    0
280
    1
281
    0
  0
BLOCK_RECORD
  5
5F
330
1
100
AcDbSymbolTableRecord
100
AcDbBlockTableRecord
  2
*D8
 70
    0
280
    1
281
    0
  0
BLOCK_RECORD
  5
62
330
1
100
AcDbSymbolTableRecord
100
AcDbBlockTableRecord
  2
*D3
 70
    0
280
    1
281
    0
  0
BLOCK_RECORD
  5
65
330
1
100
AcDbSymbolTableRecord
100
AcDbBlockTableRecord
  2
*D1
 70
    0
280
    1
281
    0
  0
BLOCK_RECORD
  5
68
330
1
100
AcDbSymbolTableRecord
100
AcDbBlockTableRecord
  2
*D14
 70
    0
280
    1
281
    0
  0
BLOCK_RECORD
  5
6B
330
1
100
AcDbSymbolTableRecord
100
AcDbBlockTableRecord
  2
*D11
 70
    0
280
    1
281
    0
  0
BLOCK_RECORD
  5
6E
330
1
100
AcDbSymbolTableRecord
100
AcDbBlockTableRecord
  2
*D6
 70
    0
280
    1
281
    0
  0
BLOCK_RECORD
  5
71
330
1
100
AcDbSymbolTableRecord
100
AcDbBlockTableRecord
  2
*D2
 70
    0
280
    1
281
    0
  0
BLOCK_RECORD
  5
74
330
1
100
AcDbSymbolTableRecord
100
AcDbBlockTableRecord
  2
*D9
 70
    0
280
    1
281
    0
  0
BLOCK_RECORD
  5
77
330
1
100
AcDbSymbolTableRecord
100
AcDbBlockTableRecord
  2
*D7
 70
    0
280
    1
281
    0
  0
BLOCK_RECORD
  5
7A
330
1
100
AcDbSymbolTableRecord
100
AcDbBlockTableRecord
  2
*D16
 70
    0
280
    1
281
    0
  0
BLOCK_RECORD
  5
7D
330
1
100
AcDbSymbolTableRecord
100
AcDbBlockTableRecord
  2
*D22
 70
    0
280
    1
281
    0
  0
BLOCK_RECORD
  5
80
330
1
100
AcDbSymbolTableRecord
100
AcDbBlockTableRecord
  2
*D17
 70
    0
280
    1
281
    0
  0
BLOCK_RECORD
  5
83
330
1
100
AcDbSymbolTableRecord
100
AcDbBlockTableRecord
  2
*D12
 70
    0
280
    1
281
    0
  0
BLOCK_RECORD
  5
86
330
1
100
AcDbSymbolTableRecord
100
AcDbBlockTableRecord
  2
*D23
 70
    0
280
    1
281
    0
  0
BLOCK_RECORD
  5
89
330
1
100
AcDbSymbolTableRecord
100
AcDbBlockTableRecord
  2
*D21
 70
    0
280
    1
281
    0
  0
BLOCK_RECORD
  5
8C
330
1
100
AcDbSymbolTableRecord
100
AcDbBlockTableRecord
  2
*D13
 70
    0
280
    1
281
    0
  0
BLOCK_RECORD
  5
8F
330
1
100
AcDbSymbolTableRecord
100
AcDbBlockTableRecord
  2
*D5
 70
    0
280
    1
281
    0
  0
BLOCK_RECORD
  5
92
330
1
100
AcDbSymbolTableRecord
100
AcDbBlockTableRecord
  2
*D19
 70
    0
280
    1
281
    0
  0
BLOCK_RECORD
  5
95
330
1
100
AcDbSymbolTableRecord
100
AcDbBlockTableRecord
  2
*D15
 70
    0
280
    1
281
    0
  0
BLOCK_RECORD
  5
98
330
1
100
AcDbSymbolTableRecord
100
AcDbBlockTableRecord
  2
*D10
 70
    0
280
    1
281
    0
  0
BLOCK_RECORD
  5
9B
330
1
100
AcDbSymbolTableRecord
100
AcDbBlockTableRecord
  2
*D20
 70
    0
280
    1
281
    0
  0
BLOCK_RECORD
  5
9E
330
1
100
AcDbSymbolTableRecord
100
AcDbBlockTableRecord
  2
*D4
 70
    0
280
    1
281
    0
  0
ENDTAB
  0
ENDSEC
  0
SECTION
  2
BLOCKS
  0
BLOCK
  5
20
330
1F
100
AcDbEntity
  8
0
100
AcDbBlockBegin
  2
*Model_Space
 70
    0
 10
0
 20
0
 30
0
  3
*Model_Space
  1

  0
ENDBLK
  5
21
330
1F
100
AcDbEntity
  8
0
100
AcDbBlockEnd
  0
BLOCK
  5
1C
330
1B
100
AcDbEntity
  8
0
100
AcDbBlockBegin
  2
*Paper_Space
 70
    0
 10
0
 20
0
 30
0
  3
*Paper_Space
  1

  0
ENDBLK
  5
1D
330
1F
100
AcDbEntity
  8
0
100
AcDbBlockEnd
  0
BLOCK
  5
57
330
56
100
AcDbEntity
  8
0
100
AcDbBlockBegin
  2
*D25
 70
    1
 10
0
 20
0
  3
*D25
  1

  0
SOLID
  5
A1
100
AcDbEntity
  8
Dimension
  6
ByBlock
 62
    0
370
   -2
100
AcDbTrace
 10
74.41136289877656
 20
93.11704834408691
 30
0
 11
72.27982853619405
 21
95.28640379227832
 31
0
 12
73.09780564418456
 22
95.86005930621894
 32
0
 13
73.09780564418456
 23
95.86005930621894
 33
0
  0
LINE
  5
A2
100
AcDbEntity
  8
Dimension
  6
ByBlock
 62
    0
370
   -2
100
AcDbLine
 10
78
 20
88
 11
68.7333415297296
 21
101.2133559462868
  0
MTEXT
  5
A3
100
AcDbEntity
  8
Dimension
  6
CONTINUOUS
 62
    0
370
   -2
100
AcDbMText
 10
73.82385348565133
 20
98.74420246972515
 30
0
 40
2.5
 41
3.888888888889044
 71
    5
 72
    1
  1
6.2
  7
standard
210
0
220
0
230
1
 50
305.0423627966527
 73
    2
 44
1
  0
ENDBLK
  5
58
330
56
100
AcDbEntity
  8
0
100
AcDbBlockEnd
  0
BLOCK
  5
5A
330
59
100
AcDbEntity
  8
0
100
AcDbBlockBegin
  2
*D24
 70
    1
 10
0
 20
0
  3
*D24
  1

  0
SOLID
  5
A4
100
AcDbEntity
  8
Dimension
  6
ByBlock
 62
    0
370
   -2
100
AcDbTrace
 10
91.68952531649752
 20
98.07952859061245
 30
0
 11
89.56991165663476
 21
95.89852429616667
 31
0
 12
88.97754180583175
 22
96.70305220601855
 32
0
 13
88.97754180583175
 23
96.70305220601855
 33
0
  0
LINE
  5
A5
100
AcDbEntity
  8
Dimension
  6
ByBlock
 62
    0
370
   -2
100
AcDbLine
 10
78
 20
88
 11
91.68952531649752
 21
98.07952859061245
  0
MTEXT
  5
A6
100
AcDbEntity
  8
Dimension
  6
CONTINUOUS
 62
    0
370
   -2
100
AcDbMText
 10
83.21425068035556
 20
95.25424633179847
 30
0
 40
2.5
 41
2.5
 71
    5
 72
    1
  1
17
  7
standard
210
0
220
0
230
1
 50
36.36402893682062
 73
    2
 44
1
  0
ENDBLK
  5
5B
330
59
100
AcDbEntity
  8
0
100
AcDbBlockEnd
  0
BLOCK
  5
5D
330
5C
100
AcDbEntity
  8
0
100
AcDbBlockBegin
  2
*D18
 70
    1
 10
0
 20
0
  3
*D18
  1

  0
LINE
  5
A7
100
AcDbEntity
  8
Dimension
  6
ByBlock
 62
    0
370
   -2
100
AcDbLine
 10
201.5
 20
-85
 11
211.25
 21
-85
  0
LINE
  5
A8
100
AcDbEntity
  8
Dimension
  6
ByBlock
 62
    0
370
   -2
100
AcDbLine
 10
201.5
 20
-62.5
 11
211.25
 21
-62.5
  0
LINE
  5
A9
100
AcDbEntity
  8
Dimension
  6
ByBlock
 62
    0
370
   -2
100
AcDbLine
 10
210
 20
-85
 11
210
 21
-62.5
  0
MTEXT
  5
AA
100
AcDbEntity
  8
Dimension
  6
CONTINUOUS
 62
    0
370
   -2
100
AcDbMText
 10
207.25
 20
-73.75
 30
0
 40
2.5
 41
5.833333333333488
 71
    5
 72
    1
  1
22.5
  7
standard
210
0
220
0
230
1
 50
90
 73
    2
 44
1
  0
SOLID
  5
AB
100
AcDbEntity
  8
Dimension
  6
ByBlock
 62
    0
370
   -2
100
AcDbTrace
 10
210
 20
-85
 30
0
 11
209.5004584106726
 21
-82
 31
0
 12
210.4995415893274
 22
-82
 32
0
 13
210.4995415893274
 23
-82
 33
0
  0
SOLID
  5
AC
100
AcDbEntity
  8
Dimension
  6
ByBlock
 62
    0
370
   -2
100
AcDbTrace
 10
210
 20
-62.5
 30
0
 11
210.4995415893274
 21
-65.5
 31
0
 12
209.5004584106726
 22
-65.5
 32
0
 13
209.5004584106726
 23
-65.5
 33
0
  0
ENDBLK
  5
5E
330
5C
100
AcDbEntity
  8
0
100
AcDbBlockEnd
  0
BLOCK
  5
60
330
5F
100
AcDbEntity
  8
0
100
AcDbBlockBegin
  2
*D8
 70
    1
 10
0
 20
0
  3
*D8
  1

  0
LINE
  5
AD
100
AcDbEntity
  8
Dimension
  6
ByBlock
 62
    0
370
   -2
100
AcDbLine
 10
0
 20
88
 11
71.75
 21
88
  0
MTEXT
  5
AE
100
AcDbEntity
  8
Dimension
  6
CONTINUOUS
 62
    0
370
   -2
100
AcDbMText
 10
35.875
 20
90.75
 30
0
 40
2.5
 41
5.277777777777779
 71
    5
 72
    1
  1
71.8
  7
standard
210
0
220
0
230
1
 50
0
 73
    2
 44
1
  0
SOLID
  5
AF
100
AcDbEntity
  8
Dimension
  6
ByBlock
 62
    0
370
   -2
100
AcDbTrace
 10
0
 20
88
 30
0
 11
3
 21
88.49954158932741
 31
0
 12
3
 22
87.50045841067259
 32
0
 13
3
 23
87.50045841067259
 33
0
  0
SOLID
  5
B0
100
AcDbEntity
  8
Dimension
  6
ByBlock
 62
    0
370
   -2
100
AcDbTrace
 10
71.75
 20
88
 30
0
 11
68.75
 21
87.50045841067259
 31
0
 12
68.75
 22
88.49954158932741
 32
0
 13
68.75
 23
88.49954158932741
 33
0
  0
LINE
  5
B1
100
AcDbEntity
  8
Dimension
  6
ByBlock
 62
    0
370
   -2
100
AcDbLine
 10
9.184547653667829e-017
 20
40.87619943805083
 11
7.653789711389858e-017
 21
89.25
  0
LINE
  5
B2
100
AcDbEntity
  8
Dimension
  6
ByBlock
 62
    0
370
   -2
100
AcDbLine
 10
71.75
 20
89.5
 11
71.75
 21
89.25
  0
ENDBLK
  5
61
330
5F
100
AcDbEntity
  8
0
100
AcDbBlockEnd
  0
BLOCK
  5
63
330
62
100
AcDbEntity
  8
0
100
AcDbBlockBegin
  2
*D3
 70
    1
 10
0
 20
0
  3
*D3
  1

  0
LINE
  5
B3
100
AcDbEntity
  8
Dimension
  6
ByBlock
 62
    0
370
   -2
100
AcDbLine
 10
100
 20
0
 11
100
 21
83.72073308121148
  0
MTEXT
  5
B4
100
AcDbEntity
  8
Dimension
  6
CONTINUOUS
 62
    0
370
   -2
100
AcDbMText
 10
97.25
 20
41.86036654060574
 30
0
 40
2.5
 41
5.833333333333489
 71
    5
 72
    1
  1
83.7
  7
standard
210
0
220
0
230
1
 50
90
 73
    2
 44
1
  0
SOLID
  5
B5
100
AcDbEntity
  8
Dimension
  6
ByBlock
 62
    0
370
   -2
100
AcDbTrace
 10
100
 20
0
 30
0
 11
99.50045841067259
 21
3
 31
0
 12
100.4995415893274
 22
3
 32
0
 13
100.4995415893274
 23
3
 33
0
  0
SOLID
  5
B6
100
AcDbEntity
  8
Dimension
  6
ByBlock
 62
    0
370
   -2
100
AcDbTrace
 10
100
 20
83.72073308121148
 30
0
 11
100.4995415893274
 21
80.72073308121148
 31
0
 12
99.50045841067259
 22
80.72073308121148
 32
0
 13
99.50045841067259
 23
80.72073308121148
 33
0
  0
LINE
  5
B7
100
AcDbEntity
  8
Dimension
  6
ByBlock
 62
    0
370
   -2
100
AcDbLine
 10
96.5
 20
0
 11
101.25
 21
0
  0
LINE
  5
B8
100
AcDbEntity
  8
Dimension
  6
ByBlock
 62
    0
370
   -2
100
AcDbLine
 10
96.5
 20
83.72073308121148
 11
101.25
 21
83.72073308121148
  0
ENDBLK
  5
64
330
62
100
AcDbEntity
  8
0
100
AcDbBlockEnd
  0
BLOCK
  5
66
330
65
100
AcDbEntity
  8
0
100
AcDbBlockBegin
  2
*D1
 70
    1
 10
0
 20
0
  3
*D1
  1

  0
LINE
  5
B9
100
AcDbEntity
  8
Dimension
  6
ByBlock
 62
    0
370
   -2
100
AcDbLine
 10
-10
 20
0
 11
-10
 21
44
  0
MTEXT
  5
BA
100
AcDbEntity
  8
Dimension
  6
CONTINUOUS
 62
    0
370
   -2
100
AcDbMText
 10
-12.75
 20
22
 30
0
 40
2.5
 41
3.611111111111112
 71
    5
 72
    1
  1
44
  7
standard
210
0
220
0
230
1
 50
90
 73
    2
 44
1
  0
SOLID
  5
BB
100
AcDbEntity
  8
Dimension
  6
ByBlock
 62
    0
370
   -2
100
AcDbTrace
 10
-10
 20
0
 30
0
 11
-10.49954158932741
 21
3
 31
0
 12
-9.500458410672593
 22
3
 32
0
 13
-9.500458410672593
 23
3
 33
0
  0
SOLID
  5
BC
100
AcDbEntity
  8
Dimension
  6
ByBlock
 62
    0
370
   -2
100
AcDbTrace
 10
-10
 20
44
 30
0
 11
-9.500458410672591
 21
41
 31
0
 12
-10.49954158932741
 22
41
 32
0
 13
-10.49954158932741
 23
41
 33
0
  0
LINE
  5
BD
100
AcDbEntity
  8
Dimension
  6
ByBlock
 62
    0
370
   -2
100
AcDbLine
 10
-1.5
 20
1.836909530733566e-016
 11
-11.25
 21
1.530757942277972e-016
  0
LINE
  5
BE
100
AcDbEntity
  8
Dimension
  6
ByBlock
 62
    0
370
   -2
100
AcDbLine
 10
-1.5
 20
44
 11
-11.25
 21
44
  0
ENDBLK
  5
67
330
65
100
AcDbEntity
  8
0
100
AcDbBlockEnd
  0
BLOCK
  5
69
330
68
100
AcDbEntity
  8
0
100
AcDbBlockBegin
  2
*D14
 70
    1
 10
0
 20
0
  3
*D14
  1

  0
SOLID
  5
BF
100
AcDbEntity
  8
Dimension
  6
ByBlock
 62
    0
370
   -2
100
AcDbTrace
 10
48.53553390593274
 20
-36.46446609406726
 30
0
 11
50.30362500419427
 21
-33.98991650520951
 31
0
 12
51.0100834947905
 22
-34.69637499580573
 32
0
 13
51.0100834947905
 23
-34.69637499580573
 33
0
  0
LINE
  5
C0
100
AcDbEntity
  8
Dimension
  6
ByBlock
 62
    0
370
   -2
100
AcDbLine
 10
45
 20
-40
 11
53.56384879437052
 21
-31.43615120562948
  0
MTEXT
  5
C1
100
AcDbEntity
  8
Dimension
  6
CONTINUOUS
 62
    0
370
   -2
100
AcDbMText
 10
49.10514770188862
 20
-32.00576500158537
 30
0
 40
2.5
 41
1.111111111111266
 71
    5
 72
    1
  1
5
  7
standard
210
0
220
0
230
1
 50
45
 73
    2
 44
1
  0
ENDBLK
  5
6A
330
68
100
AcDbEntity
  8
0
100
AcDbBlockEnd
  0
BLOCK
  5
6C
330
6B
100
AcDbEntity
  8
0
100
AcDbBlockBegin
  2
*D11
 70
    1
 10
0
 20
0
  3
*D11
  1

  0
LINE
  5
C2
100
AcDbEntity
  8
Dimension
  6
ByBlock
 62
    0
370
   -2
100
AcDbLine
 10
-17.5
 20
-85
 11
-17.5
 21
-51.99999999999999
  0
MTEXT
  5
C3
100
AcDbEntity
  8
Dimension
  6
CONTINUOUS
 62
    0
370
   -2
100
AcDbMText
 10
-20.25
 20
-68.5
 30
0
 40
2.5
 41
3.055555555555866
 71
    5
 72
    1
  1
33
  7
standard
210
0
220
0
230
1
 50
90
 73
    2
 44
1
  0
SOLID
  5
C4
100
AcDbEntity
  8
Dimension
  6
ByBlock
 62
    0
370
   -2
100
AcDbTrace
 10
-17.5
 20
-85
 30
0
 11
-17.99954158932741
 21
-82
 31
0
 12
-17.00045841067259
 22
-82
 32
0
 13
-17.00045841067259
 23
-82
 33
0
  0
SOLID
  5
C5
100
AcDbEntity
  8
Dimension
  6
ByBlock
 62
    0
370
   -2
100
AcDbTrace
 10
-17.5
 20
-51.99999999999999
 30
0
 11
-17.00045841067259
 21
-54.99999999999999
 31
0
 12
-17.9995415893274
 22
-54.99999999999999
 32
0
 13
-17.9995415893274
 23
-54.99999999999999
 33
0
  0
LINE
  5
C6
100
AcDbEntity
  8
Dimension
  6
ByBlock
 62
    0
370
   -2
100
AcDbLine
 10
-1.5
 20
-85
 11
-18.75
 21
-85
  0
LINE
  5
C7
100
AcDbEntity
  8
Dimension
  6
ByBlock
 62
    0
370
   -2
100
AcDbLine
 10
17.5
 20
-52
 11
-18.75
 21
-51.99999999999999
  0
ENDBLK
  5
6D
330
6B
100
AcDbEntity
  8
0
100
AcDbBlockEnd
  0
BLOCK
  5
6F
330
6E
100
AcDbEntity
  8
0
100
AcDbBlockBegin
  2
*D6
 70
    1
 10
0
 20
0
  3
*D6
  1

  0
LINE
  5
C8
100
AcDbEntity
  8
Dimension
  6
ByBlock
 62
    0
370
   -2
100
AcDbLine
 10
-17.5
 20
1.243449787580175e-015
 11
-17.49999999999999
 21
88
  0
MTEXT
  5
C9
100
AcDbEntity
  8
Dimension
  6
CONTINUOUS
 62
    0
370
   -2
100
AcDbMText
 10
-20.25
 20
44
 30
0
 40
2.5
 41
3.055555555555556
 71
    5
 72
    1
  1
88
  7
standard
210
0
220
0
230
1
 50
90
 73
    2
 44
1
  0
SOLID
  5
CA
100
AcDbEntity
  8
Dimension
  6
ByBlock
 62
    0
370
   -2
100
AcDbTrace
 10
-17.5
 20
1.243449787580175e-015
 30
0
 11
-17.99954158932741
 21
3.000000000000001
 31
0
 12
-17.00045841067259
 22
3.000000000000001
 32
0
 13
-17.00045841067259
 23
3.000000000000001
 33
0
  0
SOLID
  5
CB
100
AcDbEntity
  8
Dimension
  6
ByBlock
 62
    0
370
   -2
100
AcDbTrace
 10
-17.49999999999999
 20
88
 30
0
 11
-17.00045841067259
 21
85
 31
0
 12
-17.9995415893274
 22
85
 32
0
 13
-17.9995415893274
 23
85
 33
0
  0
LINE
  5
CC
100
AcDbEntity
  8
Dimension
  6
ByBlock
 62
    0
370
   -2
100
AcDbLine
 10
-1.5
 20
1.836909530733566e-016
 11
-18.75
 21
1.396525581807972e-015
  0
LINE
  5
CD
100
AcDbEntity
  8
Dimension
  6
ByBlock
 62
    0
370
   -2
100
AcDbLine
 10
76.5
 20
88
 11
-18.74999999999999
 21
88
  0
ENDBLK
  5
70
330
6E
100
AcDbEntity
  8
0
100
AcDbBlockEnd
  0
BLOCK
  5
72
330
71
100
AcDbEntity
  8
0
100
AcDbBlockBegin
  2
*D2
 70
    1
 10
0
 20
0
  3
*D2
  1

  0
LINE
  5
CE
100
AcDbEntity
  8
Dimension
  6
ByBlock
 62
    0
370
   -2
100
AcDbLine
 10
0
 20
-10
 11
50
 21
-10
  0
MTEXT
  5
CF
100
AcDbEntity
  8
Dimension
  6
CONTINUOUS
 62
    0
370
   -2
100
AcDbMText
 10
25
 20
-7.25
 30
0
 40
2.5
 41
3.055555555555711
 71
    5
 72
    1
  1
50
  7
standard
210
0
220
0
230
1
 50
0
 73
    2
 44
1
  0
SOLID
  5
D0
100
AcDbEntity
  8
Dimension
  6
ByBlock
 62
    0
370
   -2
100
AcDbTrace
 10
0
 20
-10
 30
0
 11
3
 21
-9.500458410672591
 31
0
 12
3
 22
-10.49954158932741
 32
0
 13
3
 23
-10.49954158932741
 33
0
  0
SOLID
  5
D1
100
AcDbEntity
  8
Dimension
  6
ByBlock
 62
    0
370
   -2
100
AcDbTrace
 10
50
 20
-10
 30
0
 11
47
 21
-10.49954158932741
 31
0
 12
47
 22
-9.500458410672591
 32
0
 13
47
 23
-9.500458410672591
 33
0
  0
LINE
  5
D2
100
AcDbEntity
  8
Dimension
  6
ByBlock
 62
    0
370
   -2
100
AcDbLine
 10
-2.755364296100349e-016
 20
-1.5
 11
-2.296136913416957e-016
 21
-11.25
  0
LINE
  5
D3
100
AcDbEntity
  8
Dimension
  6
ByBlock
 62
    0
370
   -2
100
AcDbLine
 10
50
 20
-1.5
 11
50
 21
-11.25
  0
ENDBLK
  5
73
330
71
100
AcDbEntity
  8
0
100
AcDbBlockEnd
  0
BLOCK
  5
75
330
74
100
AcDbEntity
  8
0
100
AcDbBlockBegin
  2
*D9
 70
    1
 10
0
 20
0
  3
*D9
  1

  0
SOLID
  5
D4
100
AcDbEntity
  8
Dimension
  6
ByBlock
 62
    0
370
   -2
100
AcDbTrace
 10
1.307903267328452
 20
44.32063614913134
 30
0
 11
4.162527464428111
 21
43.27151151744982
 31
0
 12
3.668537109831722
 22
42.40309875416455
 32
0
 13
3.668537109831722
 23
42.40309875416455
 33
0
  0
LINE
  5
D5
100
AcDbEntity
  8
Dimension
  6
ByBlock
 62
    0
370
   -2
100
AcDbLine
 10
10
 20
39.37619943805083
 11
1.307903267328452
 21
44.32063614913134
  0
MTEXT
  5
D6
100
AcDbEntity
  8
Dimension
  6
CONTINUOUS
 62
    0
370
   -2
100
AcDbMText
 10
7.013671729211366
 20
44.23874439507576
 30
0
 40
2.5
 41
2.5
 71
    5
 72
    1
  1
10
  7
standard
210
0
220
0
230
1
 50
330.3669279295502
 73
    2
 44
1
  0
ENDBLK
  5
76
330
74
100
AcDbEntity
  8
0
100
AcDbBlockEnd
  0
BLOCK
  5
78
330
77
100
AcDbEntity
  8
0
100
AcDbBlockBegin
  2
*D7
 70
    1
 10
0
 20
0
  3
*D7
  1

  0
LINE
  5
D7
100
AcDbEntity
  8
Dimension
  6
ByBlock
 62
    0
370
   -2
100
AcDbLine
 10
-25
 20
1.77635683940025e-015
 11
-24.99999999999999
 21
105
  0
MTEXT
  5
D8
100
AcDbEntity
  8
Dimension
  6
CONTINUOUS
 62
    0
370
   -2
100
AcDbMText
 10
-27.75
 20
52.5
 30
0
 40
2.5
 41
4.444444444444599
 71
    5
 72
    1
  1
105
  7
standard
210
0
220
0
230
1
 50
90
 73
    2
 44
1
  0
SOLID
  5
D9
100
AcDbEntity
  8
Dimension
  6
ByBlock
 62
    0
370
   -2
100
AcDbTrace
 10
-25
 20
1.77635683940025e-015
 30
0
 11
-25.49954158932741
 21
3.000000000000002
 31
0
 12
-24.50045841067259
 22
3.000000000000002
 32
0
 13
-24.50045841067259
 23
3.000000000000002
 33
0
  0
SOLID
  5
DA
100
AcDbEntity
  8
Dimension
  6
ByBlock
 62
    0
370
   -2
100
AcDbTrace
 10
-24.99999999999999
 20
105
 30
0
 11
-24.50045841067259
 21
102
 31
0
 12
-25.4995415893274
 22
102
 32
0
 13
-25.4995415893274
 23
102
 33
0
  0
LINE
  5
DB
100
AcDbEntity
  8
Dimension
  6
ByBlock
 62
    0
370
   -2
100
AcDbLine
 10
-1.5
 20
1.836909530733566e-016
 11
-26.25
 21
1.929432633628048e-015
  0
LINE
  5
DC
100
AcDbEntity
  8
Dimension
  6
ByBlock
 62
    0
370
   -2
100
AcDbLine
 10
-1.5
 20
105
 11
-26.24999999999999
 21
105
  0
ENDBLK
  5
79
330
77
100
AcDbEntity
  8
0
100
AcDbBlockEnd
  0
BLOCK
  5
7B
330
7A
100
AcDbEntity
  8
0
100
AcDbBlockBegin
  2
*D16
 70
    1
 10
0
 20
0
  3
*D16
  1

  0
LINE
  5
DD
100
AcDbEntity
  8
Dimension
  6
ByBlock
 62
    0
370
   -2
100
AcDbLine
 10
109.3291796067501
 20
-83.65835921350012
 11
104.9688470506255
 21
-74.93769410125095
  0
LINE
  5
DE
100
AcDbEntity
  8
Dimension
  6
ByBlock
 62
    0
370
   -2
100
AcDbLine
 10
154.3291796067501
 20
-61.15835921350013
 11
149.9688470506255
 21
-52.43769410125096
  0
LINE
  5
DF
100
AcDbEntity
  8
Dimension
  6
ByBlock
 62
    0
370
   -2
100
AcDbLine
 10
105.5278640450004
 20
-76.05572809000085
 11
150.5278640450004
 21
-53.55572809000085
  0
MTEXT
  5
E0
100
AcDbEntity
  8
Dimension
  6
CONTINUOUS
 62
    0
370
   -2
100
AcDbMText
 10
126.7980266573755
 20
-62.3460533147511
 30
0
 40
2.5
 41
5.833333333333643
 71
    5
 72
    1
  1
50.3
  7
standard
210
0
220
0
230
1
 50
26.56505117707799
 73
    2
 44
1
  0
SOLID
  5
E1
100
AcDbEntity
  8
Dimension
  6
ByBlock
 62
    0
370
   -2
100
AcDbTrace
 10
105.5278640450004
 20
-76.05572809000085
 30
0
 11
107.9877438277353
 21
-74.26728372297123
 31
0
 12
108.434547408265
 22
-75.16089088403074
 32
0
 13
108.434547408265
 23
-75.16089088403074
 33
0
  0
SOLID
  5
E2
100
AcDbEntity
  8
Dimension
  6
ByBlock
 62
    0
370
   -2
100
AcDbTrace
 10
150.5278640450004
 20
-53.55572809000085
 30
0
 11
148.0679842622656
 21
-55.34417245703047
 31
0
 12
147.6211806817358
 22
-54.45056529597098
 32
0
 13
147.6211806817358
 23
-54.45056529597098
 33
0
  0
ENDBLK
  5
7C
330
7A
100
AcDbEntity
  8
0
100
AcDbBlockEnd
  0
BLOCK
  5
7E
330
7D
100
AcDbEntity
  8
0
100
AcDbBlockBegin
  2
*D22
 70
    1
 10
0
 20
0
  3
*D22
  1

  0
SOLID
  5
E3
100
AcDbEntity
  8
Dimension
  6
ByBlock
 62
    0
370
   -2
100
AcDbTrace
 10
158.0000018738194
 20
4.000000000000439
 30
0
 11
158.4995448685113
 21
1.000000234013448
 31
0
 12
157.5004616898566
 22
0.9999997659880875
 32
0
 13
157.5004616898566
 23
0.9999997659880875
 33
0
  0
LINE
  5
E4
100
AcDbEntity
  8
Dimension
  6
ByBlock
 62
    0
370
   -2
100
AcDbLine
 10
158
 20
8
 11
158.0000053351802
 21
-3.388888888887641
  0
MTEXT
  5
E5
100
AcDbEntity
  8
Dimension
  6
CONTINUOUS
 62
    0
370
   -2
100
AcDbMText
 10
155.9056918762926
 20
-1.739312992534704
 30
0
 40
2.5
 41
1.388888888888889
 71
    5
 72
    1
  1
4
  7
standard
210
0
220
0
230
1
 50
90.0000268404858
 73
    2
 44
1
  0
ENDBLK
  5
7F
330
7D
100
AcDbEntity
  8
0
100
AcDbBlockEnd
  0
BLOCK
  5
81
330
80
100
AcDbEntity
  8
0
100
AcDbBlockBegin
  2
*D17
 70
    1
 10
0
 20
0
  3
*D17
  1

  0
LINE
  5
E6
100
AcDbEntity
  8
Dimension
  6
ByBlock
 62
    0
370
   -2
100
AcDbLine
 10
154.3291796067501
 20
-61.15835921350013
 11
149.9688470506255
 21
-52.43769410125095
  0
LINE
  5
E7
100
AcDbEntity
  8
Dimension
  6
ByBlock
 62
    0
370
   -2
100
AcDbLine
 10
199.3291796067501
 20
-38.65835921350013
 11
194.9688470506255
 21
-29.93769410125095
  0
LINE
  5
E8
100
AcDbEntity
  8
Dimension
  6
ByBlock
 62
    0
370
   -2
100
AcDbLine
 10
150.5278640450004
 20
-53.55572809000085
 11
195.5278640450004
 21
-31.05572809000085
  0
MTEXT
  5
E9
100
AcDbEntity
  8
Dimension
  6
CONTINUOUS
 62
    0
370
   -2
100
AcDbMText
 10
171.7980266573755
 20
-39.8460533147511
 30
0
 40
2.5
 41
5.833333333333643
 71
    5
 72
    1
  1
50.3
  7
standard
210
0
220
0
230
1
 50
26.56505117707799
 73
    2
 44
1
  0
SOLID
  5
EA
100
AcDbEntity
  8
Dimension
  6
ByBlock
 62
    0
370
   -2
100
AcDbTrace
 10
150.5278640450004
 20
-53.55572809000085
 30
0
 11
152.9877438277353
 21
-51.76728372297123
 31
0
 12
153.434547408265
 22
-52.66089088403072
 32
0
 13
153.434547408265
 23
-52.66089088403072
 33
0
  0
SOLID
  5
EB
100
AcDbEntity
  8
Dimension
  6
ByBlock
 62
    0
370
   -2
100
AcDbTrace
 10
195.5278640450004
 20
-31.05572809000085
 30
0
 11
193.0679842622656
 21
-32.84417245703047
 31
0
 12
192.6211806817358
 22
-31.95056529597097
 32
0
 13
192.6211806817358
 23
-31.95056529597097
 33
0
  0
ENDBLK
  5
82
330
80
100
AcDbEntity
  8
0
100
AcDbBlockEnd
  0
BLOCK
  5
84
330
83
100
AcDbEntity
  8
0
100
AcDbBlockBegin
  2
*D12
 70
    1
 10
0
 20
0
  3
*D12
  1

  0
LINE
  5
EC
100
AcDbEntity
  8
Dimension
  6
ByBlock
 62
    0
370
   -2
100
AcDbLine
 10
-25
 20
-35
 11
-25
 21
-85
  0
MTEXT
  5
ED
100
AcDbEntity
  8
Dimension
  6
CONTINUOUS
 62
    0
370
   -2
100
AcDbMText
 10
-27.75
 20
-60
 30
0
 40
2.5
 41
3.055555555555711
 71
    5
 72
    1
  1
50
  7
standard
210
0
220
0
230
1
 50
90
 73
    2
 44
1
  0
SOLID
  5
EE
100
AcDbEntity
  8
Dimension
  6
ByBlock
 62
    0
370
   -2
100
AcDbTrace
 10
-25
 20
-35
 30
0
 11
-24.50045841067259
 21
-38
 31
0
 12
-25.4995415893274
 22
-38
 32
0
 13
-25.4995415893274
 23
-38
 33
0
  0
SOLID
  5
EF
100
AcDbEntity
  8
Dimension
  6
ByBlock
 62
    0
370
   -2
100
AcDbTrace
 10
-25
 20
-85
 30
0
 11
-25.49954158932741
 21
-82
 31
0
 12
-24.50045841067259
 22
-82
 32
0
 13
-24.50045841067259
 23
-82
 33
0
  0
LINE
  5
F0
100
AcDbEntity
  8
Dimension
  6
ByBlock
 62
    0
370
   -2
100
AcDbLine
 10
-1.5
 20
-35
 11
-26.25
 21
-35
  0
LINE
  5
F1
100
AcDbEntity
  8
Dimension
  6
ByBlock
 62
    0
370
   -2
100
AcDbLine
 10
-1.5
 20
-85
 11
-26.25
 21
-85
  0
ENDBLK
  5
85
330
83
100
AcDbEntity
  8
0
100
AcDbBlockEnd
  0
BLOCK
  5
87
330
86
100
AcDbEntity
  8
0
100
AcDbBlockBegin
  2
*D23
 70
    1
 10
0
 20
0
  3
*D23
  1

  0
SOLID
  5
F2
100
AcDbEntity
  8
Dimension
  6
ByBlock
 62
    0
370
   -2
100
AcDbTrace
 10
150.0000000000004
 20
7.999997401091396
 30
0
 11
152.9999998377174
 21
8.499539965009504
 31
0
 12
153.0000001622831
 22
7.500456786354739
 32
0
 13
153.0000001622831
 23
7.500456786354739
 33
0
  0
LINE
  5
F3
100
AcDbEntity
  8
Dimension
  6
ByBlock
 62
    0
370
   -2
100
AcDbLine
 10
158
 20
8
 11
150.0000000000004
 21
7.9999974010914
  0
MTEXT
  5
F4
100
AcDbEntity
  8
Dimension
  6
CONTINUOUS
 62
    0
370
   -2
100
AcDbMText
 10
156.5381693281234
 20
10.51493763668708
 30
0
 40
2.5
 41
1.111111111111111
 71
    5
 72
    1
  1
8
  7
standard
210
0
220
0
230
1
 50
1.861331177373054e-005
 73
    2
 44
1
  0
ENDBLK
  5
88
330
86
100
AcDbEntity
  8
0
100
AcDbBlockEnd
  0
BLOCK
  5
8A
330
89
100
AcDbEntity
  8
0
100
AcDbBlockBegin
  2
*D21
 70
    1
 10
0
 20
0
  3
*D21
  1

  0
LINE
  5
F5
100
AcDbEntity
  8
Dimension
  6
ByBlock
 62
    0
370
   -2
100
AcDbLine
 10
13.87082223463406
 20
-48.42872075422886
 11
24.12917776536594
 21
-55.57127924577114
  0
MTEXT
  5
F6
100
AcDbEntity
  8
Dimension
  6
CONTINUOUS
 62
    0
370
   -2
100
AcDbMText
 10
27.94797402771461
 20
-56.44634579339296
 30
0
 40
2.5
 41
5.277777777777933
 71
    5
 72
    1
  1
12.5
  7
standard
210
0
220
0
230
1
 50
325.1517634888296
 73
    2
 44
1
  0
SOLID
  5
F7
100
AcDbEntity
  8
Dimension
  6
ByBlock
 62
    0
370
   -2
100
AcDbTrace
 10
13.87082223463406
 20
-48.42872075422886
 30
0
 11
16.61826796366803
 21
-49.73297677414241
 31
0
 12
16.04738716035139
 22
-50.5528928102556
 32
0
 13
16.04738716035139
 23
-50.5528928102556
 33
0
  0
SOLID
  5
F8
100
AcDbEntity
  8
Dimension
  6
ByBlock
 62
    0
370
   -2
100
AcDbTrace
 10
24.12917776536594
 20
-55.57127924577114
 30
0
 11
21.38173203633197
 21
-54.26702322585759
 31
0
 12
21.95261283964861
 22
-53.4471071897444
 32
0
 13
21.95261283964861
 23
-53.4471071897444
 33
0
  0
ENDBLK
  5
8B
330
89
100
AcDbEntity
  8
0
100
AcDbBlockEnd
  0
BLOCK
  5
8D
330
8C
100
AcDbEntity
  8
0
100
AcDbBlockBegin
  2
*D13
 70
    1
 10
0
 20
0
  3
*D13
  1

  0
LINE
  5
F9
100
AcDbEntity
  8
Dimension
  6
ByBlock
 62
    0
370
   -2
100
AcDbLine
 10
0
 20
-52
 11
19
 21
-52
  0
MTEXT
  5
FA
100
AcDbEntity
  8
Dimension
  6
CONTINUOUS
 62
    0
370
   -2
100
AcDbMText
 10
9.5
 20
-49.25
 30
0
 40
2.5
 41
2.5
 71
    5
 72
    1
  1
19
  7
standard
210
0
220
0
230
1
 50
0
 73
    2
 44
1
  0
SOLID
  5
FB
100
AcDbEntity
  8
Dimension
  6
ByBlock
 62
    0
370
   -2
100
AcDbTrace
 10
0
 20
-52
 30
0
 11
3
 21
-51.50045841067259
 31
0
 12
3
 22
-52.49954158932741
 32
0
 13
3
 23
-52.49954158932741
 33
0
  0
SOLID
  5
FC
100
AcDbEntity
  8
Dimension
  6
ByBlock
 62
    0
370
   -2
100
AcDbTrace
 10
19
 20
-52
 30
0
 11
16
 21
-52.49954158932741
 31
0
 12
16
 22
-51.50045841067259
 32
0
 13
16
 23
-51.50045841067259
 33
0
  0
LINE
  5
FD
100
AcDbEntity
  8
Dimension
  6
ByBlock
 62
    0
370
   -2
100
AcDbLine
 10
-2.755364296100349e-016
 20
-36.5
 11
-2.296136913416957e-016
 21
-53.25
  0
LINE
  5
FE
100
AcDbEntity
  8
Dimension
  6
ByBlock
 62
    0
370
   -2
100
AcDbLine
 10
19
 20
-53.5
 11
19
 21
-53.25
  0
ENDBLK
  5
8E
330
8C
100
AcDbEntity
  8
0
100
AcDbBlockEnd
  0
BLOCK
  5
90
330
8F
100
AcDbEntity
  8
0
100
AcDbBlockBegin
  2
*D5
 70
    1
 10
0
 20
0
  3
*D5
  1

  0
LINE
  5
FF
100
AcDbEntity
  8
Dimension
  6
ByBlock
 62
    0
370
   -2
100
AcDbLine
 10
0
 20
-25
 11
95
 21
-25
  0
MTEXT
  5
100
100
AcDbEntity
  8
Dimension
  6
CONTINUOUS
 62
    0
370
   -2
100
AcDbMText
 10
47.5
 20
-22.25
 30
0
 40
2.5
 41
3.055555555555866
 71
    5
 72
    1
  1
95
  7
standard
210
0
220
0
230
1
 50
0
 73
    2
 44
1
  0
SOLID
  5
101
100
AcDbEntity
  8
Dimension
  6
ByBlock
 62
    0
370
   -2
100
AcDbTrace
 10
0
 20
-25
 30
0
 11
3
 21
-24.50045841067259
 31
0
 12
3
 22
-25.49954158932741
 32
0
 13
3
 23
-25.49954158932741
 33
0
  0
SOLID
  5
102
100
AcDbEntity
  8
Dimension
  6
ByBlock
 62
    0
370
   -2
100
AcDbTrace
 10
95
 20
-25
 30
0
 11
92
 21
-25.49954158932741
 31
0
 12
92
 22
-24.50045841067259
 32
0
 13
92
 23
-24.50045841067259
 33
0
  0
LINE
  5
103
100
AcDbEntity
  8
Dimension
  6
ByBlock
 62
    0
370
   -2
100
AcDbLine
 10
-2.755364296100349e-016
 20
-1.5
 11
-2.296136913416957e-016
 21
-26.25
  0
LINE
  5
104
100
AcDbEntity
  8
Dimension
  6
ByBlock
 62
    0
370
   -2
100
AcDbLine
 10
95
 20
-1.5
 11
95
 21
-26.25
  0
ENDBLK
  5
91
330
8F
100
AcDbEntity
  8
0
100
AcDbBlockEnd
  0
BLOCK
  5
93
330
92
100
AcDbEntity
  8
0
100
AcDbBlockBegin
  2
*D19
 70
    1
 10
0
 20
0
  3
*D19
  1

  0
LINE
  5
105
100
AcDbEntity
  8
Dimension
  6
ByBlock
 62
    0
370
   -2
100
AcDbLine
 10
201.5
 20
-62.5
 11
211.25
 21
-62.5
  0
LINE
  5
106
100
AcDbEntity
  8
Dimension
  6
ByBlock
 62
    0
370
   -2
100
AcDbLine
 10
201.5
 20
-40
 11
211.25
 21
-40
  0
LINE
  5
107
100
AcDbEntity
  8
Dimension
  6
ByBlock
 62
    0
370
   -2
100
AcDbLine
 10
210
 20
-62.5
 11
210
 21
-40
  0
MTEXT
  5
108
100
AcDbEntity
  8
Dimension
  6
CONTINUOUS
 62
    0
370
   -2
100
AcDbMText
 10
207.25
 20
-51.25
 30
0
 40
2.5
 41
5.833333333333488
 71
    5
 72
    1
  1
22.5
  7
standard
210
0
220
0
230
1
 50
90
 73
    2
 44
1
  0
SOLID
  5
109
100
AcDbEntity
  8
Dimension
  6
ByBlock
 62
    0
370
   -2
100
AcDbTrace
 10
210
 20
-62.5
 30
0
 11
209.5004584106726
 21
-59.5
 31
0
 12
210.4995415893274
 22
-59.5
 32
0
 13
210.4995415893274
 23
-59.5
 33
0
  0
SOLID
  5
10A
100
AcDbEntity
  8
Dimension
  6
ByBlock
 62
    0
370
   -2
100
AcDbTrace
 10
210
 20
-40
 30
0
 11
210.4995415893274
 21
-43
 31
0
 12
209.5004584106726
 22
-43
 32
0
 13
209.5004584106726
 23
-43
 33
0
  0
ENDBLK
  5
94
330
92
100
AcDbEntity
  8
0
100
AcDbBlockEnd
  0
BLOCK
  5
96
330
95
100
AcDbEntity
  8
0
100
AcDbBlockBegin
  2
*D15
 70
    1
 10
0
 20
0
  3
*D15
  1

  0
LINE
  5
10B
100
AcDbEntity
  8
Dimension
  6
ByBlock
 62
    0
370
   -2
100
AcDbLine
 10
109.3291796067501
 20
-83.65835921350012
 11
101.6154691006825
 21
-68.23093820136489
  0
LINE
  5
10C
100
AcDbEntity
  8
Dimension
  6
ByBlock
 62
    0
370
   -2
100
AcDbLine
 10
199.3291796067501
 20
-38.65835921350013
 11
191.6154691006824
 21
-23.23093820136489
  0
LINE
  5
10D
100
AcDbEntity
  8
Dimension
  6
ByBlock
 62
    0
370
   -2
100
AcDbLine
 10
102.1744860950574
 20
-69.34897219011479
 11
192.1744860950574
 21
-24.34897219011479
  0
MTEXT
  5
10E
100
AcDbEntity
  8
Dimension
  6
CONTINUOUS
 62
    0
370
   -2
100
AcDbMText
 10
145.9446487074325
 20
-44.38929741486503
 30
0
 40
2.5
 41
7.222222222222378
 71
    5
 72
    1
  1
100.6
  7
standard
210
0
220
0
230
1
 50
26.565051177078
 73
    2
 44
1
  0
SOLID
  5
10F
100
AcDbEntity
  8
Dimension
  6
ByBlock
 62
    0
370
   -2
100
AcDbTrace
 10
102.1744860950574
 20
-69.34897219011479
 30
0
 11
104.6343658777923
 21
-67.56052782308517
 31
0
 12
105.081169458322
 22
-68.45413498414467
 32
0
 13
105.081169458322
 23
-68.45413498414467
 33
0
  0
SOLID
  5
110
100
AcDbEntity
  8
Dimension
  6
ByBlock
 62
    0
370
   -2
100
AcDbTrace
 10
192.1744860950574
 20
-24.34897219011479
 30
0
 11
189.7146063123225
 21
-26.13741655714441
 31
0
 12
189.2678027317928
 22
-25.24380939608491
 32
0
 13
189.2678027317928
 23
-25.24380939608491
 33
0
  0
ENDBLK
  5
97
330
95
100
AcDbEntity
  8
0
100
AcDbBlockEnd
  0
BLOCK
  5
99
330
98
100
AcDbEntity
  8
0
100
AcDbBlockBegin
  2
*D10
 70
    1
 10
0
 20
0
  3
*D10
  1

  0
LINE
  5
111
100
AcDbEntity
  8
Dimension
  6
ByBlock
 62
    0
370
   -2
100
AcDbLine
 10
-10
 20
-91
 11
-9.999999999999998
 21
-75
  0
MTEXT
  5
112
100
AcDbEntity
  8
Dimension
  6
CONTINUOUS
 62
    0
370
   -2
100
AcDbMText
 10
-12.75
 20
-83
 30
0
 40
2.5
 41
1.388888888888889
 71
    5
 72
    1
  1
4
  7
standard
210
0
220
0
230
1
 50
90
 73
    2
 44
1
  0
SOLID
  5
113
100
AcDbEntity
  8
Dimension
  6
ByBlock
 62
    0
370
   -2
100
AcDbTrace
 10
-10
 20
-85
 30
0
 11
-9.500458410672591
 21
-88
 31
0
 12
-10.49954158932741
 22
-88
 32
0
 13
-10.49954158932741
 23
-88
 33
0
  0
SOLID
  5
114
100
AcDbEntity
  8
Dimension
  6
ByBlock
 62
    0
370
   -2
100
AcDbTrace
 10
-10
 20
-81
 30
0
 11
-10.49954158932741
 21
-78
 31
0
 12
-9.500458410672591
 22
-78
 32
0
 13
-9.500458410672591
 23
-78
 33
0
  0
LINE
  5
115
100
AcDbEntity
  8
Dimension
  6
ByBlock
 62
    0
370
   -2
100
AcDbLine
 10
-1.5
 20
-85
 11
-11.25
 21
-85
  0
LINE
  5
116
100
AcDbEntity
  8
Dimension
  6
ByBlock
 62
    0
370
   -2
100
AcDbLine
 10
-1.5
 20
-81
 11
-11.25
 21
-81
  0
ENDBLK
  5
9A
330
98
100
AcDbEntity
  8
0
100
AcDbBlockEnd
  0
BLOCK
  5
9C
330
9B
100
AcDbEntity
  8
0
100
AcDbBlockBegin
  2
*D20
 70
    1
 10
0
 20
0
  3
*D20
  1

  0
LINE
  5
117
100
AcDbEntity
  8
Dimension
  6
ByBlock
 62
    0
370
   -2
100
AcDbLine
 10
201.5
 20
-85
 11
218.75
 21
-85
  0
LINE
  5
118
100
AcDbEntity
  8
Dimension
  6
ByBlock
 62
    0
370
   -2
100
AcDbLine
 10
201.5
 20
-40
 11
218.75
 21
-40
  0
LINE
  5
119
100
AcDbEntity
  8
Dimension
  6
ByBlock
 62
    0
370
   -2
100
AcDbLine
 10
217.5
 20
-85
 11
217.5
 21
-40
  0
MTEXT
  5
11A
100
AcDbEntity
  8
Dimension
  6
CONTINUOUS
 62
    0
370
   -2
100
AcDbMText
 10
214.75
 20
-62.5
 30
0
 40
2.5
 41
3.333333333333488
 71
    5
 72
    1
  1
45
  7
standard
210
0
220
0
230
1
 50
90
 73
    2
 44
1
  0
SOLID
  5
11B
100
AcDbEntity
  8
Dimension
  6
ByBlock
 62
    0
370
   -2
100
AcDbTrace
 10
217.5
 20
-85
 30
0
 11
217.0004584106726
 21
-82
 31
0
 12
217.9995415893274
 22
-82
 32
0
 13
217.9995415893274
 23
-82
 33
0
  0
SOLID
  5
11C
100
AcDbEntity
  8
Dimension
  6
ByBlock
 62
    0
370
   -2
100
AcDbTrace
 10
217.5
 20
-40
 30
0
 11
217.9995415893274
 21
-43
 31
0
 12
217.0004584106726
 22
-43
 32
0
 13
217.0004584106726
 23
-43
 33
0
  0
ENDBLK
  5
9D
330
9B
100
AcDbEntity
  8
0
100
AcDbBlockEnd
  0
BLOCK
  5
9F
330
9E
100
AcDbEntity
  8
0
100
AcDbBlockBegin
  2
*D4
 70
    1
 10
0
 20
0
  3
*D4
  1

  0
LINE
  5
11D
100
AcDbEntity
  8
Dimension
  6
ByBlock
 62
    0
370
   -2
100
AcDbLine
 10
-6.713032512426973e-015
 20
-17.5
 11
78
 21
-17.5
  0
MTEXT
  5
11E
100
AcDbEntity
  8
Dimension
  6
CONTINUOUS
 62
    0
370
   -2
100
AcDbMText
 10
39
 20
-14.75
 30
0
 40
2.5
 41
3.055555555555556
 71
    5
 72
    1
  1
78
  7
standard
210
0
220
0
230
1
 50
0
 73
    2
 44
1
  0
SOLID
  5
11F
100
AcDbEntity
  8
Dimension
  6
ByBlock
 62
    0
370
   -2
100
AcDbTrace
 10
-6.713032512426973e-015
 20
-17.5
 30
0
 11
2.999999999999993
 21
-17.00045841067259
 31
0
 12
2.999999999999993
 22
-17.99954158932741
 32
0
 13
2.999999999999993
 23
-17.99954158932741
 33
0
  0
SOLID
  5
120
100
AcDbEntity
  8
Dimension
  6
ByBlock
 62
    0
370
   -2
100
AcDbTrace
 10
78
 20
-17.5
 30
0
 11
75
 21
-17.99954158932741
 31
0
 12
75
 22
-17.00045841067259
 32
0
 13
75
 23
-17.00045841067259
 33
0
  0
LINE
  5
121
100
AcDbEntity
  8
Dimension
  6
ByBlock
 62
    0
370
   -2
100
AcDbLine
 10
-6.988568942037007e-015
 20
-1.5
 11
-6.942646203768669e-015
 21
-18.75
  0
LINE
  5
122
100
AcDbEntity
  8
Dimension
  6
ByBlock
 62
    0
370
   -2
100
AcDbLine
 10
78
 20
86.5
 11
78
 21
-18.75
  0
ENDBLK
  5
A0
330
9E
100
AcDbEntity
  8
0
100
AcDbBlockEnd
  0
ENDSEC
  0
SECTION
  2
ENTITIES
  0
LINE
  5
123
100
AcDbEntity
  8
Construction
  6
ByLayer
 62
  256
370
   -1
100
AcDbLine
 10
10
 20
0
 11
210
 21
0
  0
CIRCLE
  5
124
100
AcDbEntity
  8
Construction
  6
ByLayer
 62
  256
370
   -1
100
AcDbCircle
 10
78
 20
88
 40
17
  0
LINE
  5
125
100
AcDbEntity
  8
Construction
  6
ByLayer
 62
  256
370
   -1
100
AcDbLine
 10
95
 20
88
 11
95.00000000000001
 21
288
  0
LINE
  5
126
100
AcDbEntity
  8
Construction
  6
ByLayer
 62
  256
370
   -1
100
AcDbLine
 10
95
 20
105
 11
295
 21
105
  0
LINE
  5
127
100
AcDbEntity
  8
Edges
  6
ByLayer
 62
  256
370
   -1
100
AcDbLine
 10
0
 20
0
 11
50
 21
0
  0
LINE
  5
128
100
AcDbEntity
  8
Edges
  6
ByLayer
 62
  256
370
   -1
100
AcDbLine
 10
92.97400684537843
 20
79.95145236737959
 11
50
 21
0
  0
ARC
  5
129
100
AcDbEntity
  8
Edges
  6
ByLayer
 62
  256
370
   -1
100
AcDbCircle
 10
78
 20
88
 40
17.00000000000001
100
AcDbArc
 50
331.7419141192639
 51
130.3702404239584
  0
CIRCLE
  5
12A
100
AcDbEntity
  8
Edges
  6
ByLayer
 62
  256
370
   -1
100
AcDbCircle
 10
78
 20
88
 40
6.25
  0
LINE
  5
12B
100
AcDbEntity
  8
Construction
  6
ByLayer
 62
  256
370
   -1
100
AcDbLine
 10
66.98868743226798
 20
100.9518722791613
 11
0
 21
44
  0
LINE
  5
12C
100
AcDbEntity
  8
Construction
  6
ByLayer
 62
  256
370
   -1
100
AcDbLine
 10
92.97400684537843
 20
79.95145236737959
 11
50
 21
0
  0
LINE
  5
12D
100
AcDbEntity
  8
Edges
  6
ByLayer
 62
  256
370
   -1
100
AcDbLine
 10
0
 20
39.37619943805083
 11
0
 21
0
  0
LINE
  5
12E
100
AcDbEntity
  8
Edges
  6
ByLayer
 62
  256
370
   -1
100
AcDbLine
 10
66.98868743226798
 20
100.9518722791613
 11
3.522757313098808
 21
46.99494783755748
  0
ARC
  5
12F
100
AcDbEntity
  8
Edges
  6
ByLayer
 62
  256
370
   -1
100
AcDbCircle
 10
10
 20
39.37619943805083
 40
10
100
AcDbArc
 50
130.3702404239584
 51
180
  0
LINE
  5
130
100
AcDbEntity
  8
Construction
  6
ByLayer
 62
  256
370
   -1
100
AcDbLine
 10
-6.713032512426972e-015
 20
-100
 11
-6.713032512426972e-015
 21
-50
  0
LINE
  5
131
100
AcDbEntity
  8
Construction
  6
ByLayer
 62
  256
370
   -1
100
AcDbLine
 10
50
 20
-50
 11
95
 21
4
  0
POINT
  5
132
100
AcDbEntity
  8
Construction
  6
ByLayer
 62
  256
370
   -1
100
AcDbPoint
 10
78
 20
88
  0
LINE
  5
133
100
AcDbEntity
  8
Edges
  6
ByLayer
 62
  256
370
   -1
100
AcDbLine
 10
200
 20
0
 11
200
 21
4
  0
LINE
  5
134
100
AcDbEntity
  8
Edges
  6
ByLayer
 62
  256
370
   -1
100
AcDbLine
 10
154
 20
105
 11
150
 21
105
  0
LINE
  5
135
100
AcDbEntity
  8
Edges
  6
ByLayer
 62
  256
370
   -1
100
AcDbLine
 10
154
 20
8
 11
154
 21
105
  0
ARC
  5
136
100
AcDbEntity
  8
Edges
  6
ByLayer
 62
  256
370
   -1
100
AcDbCircle
 10
158
 20
8
 40
4
100
AcDbArc
 50
180
 51
270
  0
LINE
  5
137
100
AcDbEntity
  8
Edges
  6
ByLayer
 62
  256
370
   -1
100
AcDbLine
 10
158
 20
0
 11
200
 21
0
  0
LINE
  5
138
100
AcDbEntity
  8
Edges
  6
ByLayer
 62
  256
370
   -1
100
AcDbLine
 10
150
 20
105
 11
150
 21
8
  0
ARC
  5
139
100
AcDbEntity
  8
Edges
  6
ByLayer
 62
  256
370
   -1
100
AcDbCircle
 10
158
 20
8
 40
8
100
AcDbArc
 50
180
 51
270
  0
DIMENSION
  5
13A
100
AcDbEntity
  8
Dimension
  6
ByLayer
 62
  256
370
   -1
100
AcDbDimension
  2
*D1
 10
-10
 20
44
 30
0
 11
-12.75
 21
22
 31
0
 70
   32
 71
    5
 72
    0
  3
Standard
 53
0
210
0
220
0
230
1
100
AcDbAlignedDimension
 13
0
 23
0
 33
0
 14
0
 24
44
 34
0
 50
90
100
AcDbRotatedDimension
  0
DIMENSION
  5
13B
100
AcDbEntity
  8
Dimension
  6
ByLayer
 62
  256
370
   -1
100
AcDbDimension
  2
*D2
 10
50
 20
-10
 30
0
 11
25
 21
-7.25
 31
0
 70
   32
 71
    5
 72
    0
  3
Standard
 53
0
210
0
220
0
230
1
100
AcDbAlignedDimension
 13
0
 23
0
 33
0
 14
50
 24
0
 34
0
100
AcDbRotatedDimension
  0
DIMENSION
  5
13C
100
AcDbEntity
  8
Dimension
  6
ByLayer
 62
  256
370
   -1
100
AcDbDimension
  2
*D3
 10
100
 20
83.72073308121148
 30
0
 11
97.25
 21
41.86036654060574
 31
0
 70
   32
  1
83.7
 71
    5
 72
    0
  3
Standard
 53
0
210
0
220
0
230
1
100
AcDbAlignedDimension
 13
95
 23
0
 33
0
 14
95
 24
83.72073308121148
 34
0
 50
90
100
AcDbRotatedDimension
  0
DIMENSION
  5
13D
100
AcDbEntity
  8
Dimension
  6
ByLayer
 62
  256
370
   -1
100
AcDbDimension
  2
*D4
 10
0
 20
-17.5
 30
0
 11
39
 21
-14.75
 31
0
 70
   32
 71
    5
 72
    0
  3
Standard
 53
0
210
0
220
0
230
1
100
AcDbAlignedDimension
 13
-6.713032512426972e-015
 23
0
 33
0
 14
78
 24
88
 34
0
100
AcDbRotatedDimension
  0
DIMENSION
  5
13E
100
AcDbEntity
  8
Dimension
  6
ByLayer
 62
  256
370
   -1
100
AcDbDimension
  2
*D5
 10
0
 20
-25
 30
0
 11
47.5
 21
-22.25
 31
0
 70
   32
 71
    5
 72
    0
  3
Standard
 53
0
210
0
220
0
230
1
100
AcDbAlignedDimension
 13
0
 23
0
 33
0
 14
95
 24
0
 34
0
100
AcDbRotatedDimension
  0
MTEXT
  5
13F
100
AcDbEntity
  8
Annotation
  6
ByLayer
 62
  256
370
   -1
100
AcDbMText
 10
20
 20
30
 30
0
 40
5
 41
12.22222116221148
 71
    7
 72
    1
  1
Side
  7
standard
210
0
220
0
230
1
 50
0
 73
    2
 44
1
  0
MTEXT
  5
140
100
AcDbEntity
  8
Annotation
  6
ByLayer
 62
  256
370
   -1
100
AcDbMText
 10
170
 20
29.99999999999977
 30
0
 40
5
 41
10.00000000000023
 71
    7
 72
    1
  1
End
  7
standard
210
0
220
0
230
1
 50
0
 73
    2
 44
1
  0
LINE
  5
141
100
AcDbEntity
  8
Edges
  6
ByLayer
 62
  256
370
   -1
100
AcDbLine
 10
200
 20
4
 11
158
 21
4
  0
LINE
  5
142
100
AcDbEntity
  8
Edges
  6
ByLayer
 62
  256
370
   -1
100
AcDbLine
 10
52.15000506296803
 20
4
 11
0
 21
4
  0
CIRCLE
  5
143
100
AcDbEntity
  8
DimAux
  6
ByLayer
 62
  256
370
   -1
100
AcDbCircle
 10
0
 20
0
 40
10
  0
CIRCLE
  5
144
100
AcDbEntity
  8
DimAux
  6
ByLayer
 62
  256
370
   -1
100
AcDbCircle
 10
0
 20
0
 40
17.5
  0
CIRCLE
  5
145
100
AcDbEntity
  8
DimAux
  6
ByLayer
 62
  256
370
   -1
100
AcDbCircle
 10
0
 20
0
 40
25
  0
CIRCLE
  5
146
100
AcDbEntity
  8
DimAux
  6
ByLayer
 62
  256
370
   -1
100
AcDbCircle
 10
0
 20
0
 40
32.5
  0
DIMENSION
  5
147
100
AcDbEntity
  8
Dimension
  6
ByLayer
 62
  256
370
   -1
100
AcDbDimension
  2
*D6
 10
-17.5
 20
0
 30
0
 11
-20.25
 21
44
 31
0
 70
   32
 71
    5
 72
    0
  3
Standard
 53
0
210
0
220
0
230
1
100
AcDbAlignedDimension
 13
0
 23
0
 33
0
 14
78
 24
88
 34
0
 50
90
100
AcDbRotatedDimension
  0
DIMENSION
  5
148
100
AcDbEntity
  8
Dimension
  6
ByLayer
 62
  256
370
   -1
100
AcDbDimension
  2
*D7
 10
-25
 20
0
 30
0
 11
-27.75
 21
52.5
 31
0
 70
   32
 71
    5
 72
    0
  3
Standard
 53
0
210
0
220
0
230
1
100
AcDbAlignedDimension
 13
0
 23
0
 33
0
 14
0
 24
105
 34
0
 50
90
100
AcDbRotatedDimension
  0
DIMENSION
  5
149
100
AcDbEntity
  8
Dimension
  6
ByLayer
 62
  256
370
   -1
100
AcDbDimension
  2
*D8
 10
71.75
 20
88
 30
0
 11
35.875
 21
90.75
 31
0
 70
   32
 71
    5
  3
Standard
 53
0
210
0
220
0
230
1
100
AcDbAlignedDimension
 13
0
 23
39.37619943805083
 33
0
 14
71.75
 24
88
 34
0
100
AcDbRotatedDimension
  0
LINE
  5
14A
100
AcDbEntity
  8
Edges
  6
DASHED2
 62
  256
370
   25
100
AcDbLine
 10
4.89843e-016
 20
8
 11
54.3
 21
8
  0
DIMENSION
  5
14B
100
AcDbEntity
  8
Dimension
  6
ByLayer
 62
  256
370
   -1
100
AcDbDimension
  2
*D9
 10
10
 20
39.37619943805083
 30
0
 11
7.013671729211366
 21
44.23874439507576
 31
0
 70
   36
 71
    5
 72
    0
  3
Standard
 53
0
210
0
220
0
230
1
100
AcDbRadialDimension
 15
1.307903267328452
 25
44.32063614913134
 35
0
 40
0
  0
LINE
  5
14C
100
AcDbEntity
  8
Edges
  6
ByLayer
 62
  256
370
   -1
100
AcDbLine
 10
95
 20
-85
 11
0
 21
-85
  0
LINE
  5
14D
100
AcDbEntity
  8
Edges
  6
ByLayer
 62
  256
370
   -1
100
AcDbLine
 10
95
 20
-81
 11
95
 21
-85
  0
LINE
  5
14E
100
AcDbEntity
  8
Edges
  6
ByLayer
 62
  256
370
   -1
100
AcDbLine
 10
0
 20
-85
 11
0
 21
-40
  0
ARC
  5
14F
100
AcDbEntity
  8
Edges
  6
ByLayer
 62
  256
370
   -1
100
AcDbCircle
 10
5
 20
-40
 40
5
100
AcDbArc
 50
90
 51
180
  0
LINE
  5
150
100
AcDbEntity
  8
Edges
  6
ByLayer
 62
  256
370
   -1
100
AcDbLine
 10
5
 20
-35
 11
45
 21
-35
  0
LINE
  5
151
100
AcDbEntity
  8
Edges
  6
ByLayer
 62
  256
370
   -1
100
AcDbLine
 10
50
 20
-40
 11
50
 21
-81
  0
ARC
  5
152
100
AcDbEntity
  8
Edges
  6
ByLayer
 62
  256
370
   -1
100
AcDbCircle
 10
45
 20
-40
 40
5
100
AcDbArc
 50
0
 51
90
  0
LINE
  5
153
100
AcDbEntity
  8
Edges
  6
ByLayer
 62
  256
370
   -1
100
AcDbLine
 10
0
 20
-81
 11
95
 21
-81
  0
CIRCLE
  5
154
100
AcDbEntity
  8
Edges
  6
ByLayer
 62
  256
370
   -1
100
AcDbCircle
 10
19
 20
-52
 40
6.25
  0
POINT
  5
155
100
AcDbEntity
  8
Edges
  6
ByLayer
 62
  256
370
   -1
100
AcDbPoint
 10
19
 20
-52
  0
DIMENSION
  5
156
100
AcDbEntity
  8
Dimension
  6
ByLayer
 62
  256
370
   -1
100
AcDbDimension
  2
*D10
 10
-10
 20
-81
 30
0
 11
-12.75
 21
-83
 31
0
 70
   32
 71
    5
 72
    0
  3
Standard
 53
0
210
0
220
0
230
1
100
AcDbAlignedDimension
 13
0
 23
-85
 33
0
 14
0
 24
-81
 34
0
 50
90
100
AcDbRotatedDimension
  0
MTEXT
  5
157
100
AcDbEntity
  8
Annotation
  6
ByLayer
 62
  256
370
   -1
100
AcDbMText
 10
20
 20
-71.66666666666667
 30
0
 40
5
 41
10.55555555555556
 71
    7
 72
    1
  1
Top
  7
standard
210
0
220
0
230
1
 50
0
 73
    2
 44
1
  0
LWPOLYLINE
  5
158
100
AcDbEntity
  8
Frame
  6
ByLayer
 62
  256
370
   -1
100
AcDbPolyline
 90
    5
 70
    1
 43
0
 10
-60
 20
-95
 10
237
 20
-95
 10
237
 20
115
 10
-60
 20
115
 10
-60
 20
115
  0
DIMENSION
  5
159
100
AcDbEntity
  8
Dimension
  6
ByLayer
 62
  256
370
   -1
100
AcDbDimension
  2
*D11
 10
-17.5
 20
-85
 30
0
 11
-20.25
 21
-68.5
 31
0
 70
   32
 71
    5
 72
    0
  3
Standard
 53
0
210
0
220
0
230
1
100
AcDbAlignedDimension
 13
0
 23
-85
 33
0
 14
19
 24
-52
 34
0
 50
90
100
AcDbRotatedDimension
  0
DIMENSION
  5
15A
100
AcDbEntity
  8
Dimension
  6
ByLayer
 62
  256
370
   -1
100
AcDbDimension
  2
*D12
 10
-25
 20
-85
 30
0
 11
-27.75
 21
-60
 31
0
 70
   32
 71
    5
 72
    0
  3
Standard
 53
0
210
0
220
0
230
1
100
AcDbAlignedDimension
 13
0
 23
-35
 33
0
 14
0
 24
-85
 34
0
 50
90
100
AcDbRotatedDimension
  0
LINE
  5
15B
100
AcDbEntity
  8
Edges
  6
DASHED2
 62
  256
370
   25
100
AcDbLine
 10
50
 20
-77
 11
2.44921e-015
 21
-77
  0
DIMENSION
  5
15C
100
AcDbEntity
  8
Dimension
  6
ByLayer
 62
  256
370
   -1
100
AcDbDimension
  2
*D13
 10
19
 20
-52
 30
0
 11
9.5
 21
-49.25
 31
0
 70
   32
 71
    5
 72
    0
  3
Standard
 53
0
210
0
220
0
230
1
100
AcDbAlignedDimension
 13
0
 23
-35
 33
0
 14
19
 24
-52
 34
0
100
AcDbRotatedDimension
  0
DIMENSION
  5
15D
100
AcDbEntity
  8
Dimension
  6
ByLayer
 62
  256
370
   -1
100
AcDbDimension
  2
*D14
 10
45
 20
-40
 30
0
 11
49.10514770188862
 21
-32.00576500158537
 31
0
 70
   36
 71
    5
 72
    0
  3
Standard
 53
0
210
0
220
0
230
1
100
AcDbRadialDimension
 15
48.53553390593274
 25
-36.46446609406726
 35
0
 40
0
  0
LINE
  5
15E
100
AcDbEntity
  8
Edges
  6
ByLayer
 62
  256
370
   -1
100
AcDbLine
 10
200
 20
-40
 11
110
 21
-85
  0
LINE
  5
15F
100
AcDbEntity
  8
Edges
  6
ByLayer
 62
  256
370
   -1
100
AcDbLine
 10
110
 20
-85
 11
200
 21
-85
  0
LINE
  5
160
100
AcDbEntity
  8
Edges
  6
ByLayer
 62
  256
370
   -1
100
AcDbLine
 10
200
 20
-85
 11
200
 21
-40
  0
CIRCLE
  5
161
100
AcDbEntity
  8
DimAux
  6
ByLayer
 62
  256
370
   -1
100
AcDbCircle
 10
200
 20
-40
 40
10
  0
CIRCLE
  5
162
100
AcDbEntity
  8
DimAux
  6
ByLayer
 62
  256
370
   -1
100
AcDbCircle
 10
200
 20
-40
 40
17.5
  0
CIRCLE
  5
163
100
AcDbEntity
  8
DimAux
  6
ByLayer
 62
  256
370
   -1
100
AcDbCircle
 10
200
 20
-40
 40
25
  0
CIRCLE
  5
164
100
AcDbEntity
  8
DimAux
  6
ByLayer
 62
  256
370
   -1
100
AcDbCircle
 10
200
 20
-40
 40
32.5
  0
DIMENSION
  5
165
100
AcDbEntity
  8
Dimension
  6
ByLayer
 62
  256
370
   -1
100
AcDbDimension
  2
*D15
 10
192.1744860950574
 20
-24.34897219011479
 30
0
 11
145.9446487074325
 21
-44.38929741486503
 31
0
 70
   33
 71
    5
 72
    0
  3
Standard
 53
0
210
0
220
0
230
1
100
AcDbAlignedDimension
 13
110
 23
-85
 33
0
 14
200
 24
-40
 34
0
  0
DIMENSION
  5
166
100
AcDbEntity
  8
Dimension
  6
ByLayer
 62
  256
370
   -1
100
AcDbDimension
  2
*D16
 10
150.5278640450004
 20
-53.55572809000085
 30
0
 11
126.7980266573755
 21
-62.3460533147511
 31
0
 70
   33
 71
    5
 72
    0
  3
Standard
 53
0
210
0
220
0
230
1
100
AcDbAlignedDimension
 13
110
 23
-85
 33
0
 14
155
 24
-62.5
 34
0
  0
DIMENSION
  5
167
100
AcDbEntity
  8
Dimension
  6
ByLayer
 62
  256
370
   -1
100
AcDbDimension
  2
*D17
 10
195.5278640450004
 20
-31.05572809000084
 30
0
 11
171.7980266573755
 21
-39.8460533147511
 31
0
 70
   33
 71
    5
 72
    0
  3
Standard
 53
0
210
0
220
0
230
1
100
AcDbAlignedDimension
 13
155
 23
-62.5
 33
0
 14
200
 24
-40
 34
0
  0
DIMENSION
  5
168
100
AcDbEntity
  8
Dimension
  6
ByLayer
 62
  256
370
   -1
100
AcDbDimension
  2
*D18
 10
210
 20
-62.5
 30
0
 11
207.25
 21
-73.75
 31
0
 70
   33
 71
    5
 72
    0
  3
Standard
 53
0
210
0
220
0
230
1
100
AcDbAlignedDimension
 13
200
 23
-85
 33
0
 14
200
 24
-62.5
 34
0
  0
DIMENSION
  5
169
100
AcDbEntity
  8
Dimension
  6
ByLayer
 62
  256
370
   -1
100
AcDbDimension
  2
*D19
 10
210
 20
-40
 30
0
 11
207.25
 21
-51.25
 31
0
 70
   33
 71
    5
 72
    0
  3
Standard
 53
0
210
0
220
0
230
1
100
AcDbAlignedDimension
 13
200
 23
-62.5
 33
0
 14
200
 24
-40
 34
0
  0
DIMENSION
  5
16A
100
AcDbEntity
  8
Dimension
  6
ByLayer
 62
  256
370
   -1
100
AcDbDimension
  2
*D20
 10
217.5
 20
-40
 30
0
 11
214.75
 21
-62.5
 31
0
 70
   33
 71
    5
 72
    0
  3
Standard
 53
0
210
0
220
0
230
1
100
AcDbAlignedDimension
 13
200
 23
-85
 33
0
 14
200
 24
-40
 34
0
  0
DIMENSION
  5
16B
100
AcDbEntity
  8
Dimension
  6
ByLayer
 62
  256
370
   -1
100
AcDbDimension
  2
*D21
 10
13.87082223463406
 20
-48.42872075422886
 30
0
 11
27.94797402771461
 21
-56.44634579339296
 31
0
 70
   35
  1
12.5
 71
    5
 72
    0
  3
Standard
 53
0
210
0
220
0
230
1
100
AcDbDiametricDimension
 15
24.12917776536594
 25
-55.57127924577114
 35
0
 40
0
  0
DIMENSION
  5
16C
100
AcDbEntity
  8
Dimension
  6
ByLayer
 62
  256
370
   -1
100
AcDbDimension
  2
*D22
 10
158
 20
8
 30
0
 11
155.9056918762926
 21
-1.739312992534704
 31
0
 70
   36
 71
    5
 72
    0
  3
Standard
 53
0
210
0
220
0
230
1
100
AcDbRadialDimension
 15
158.0000018738194
 25
4.000000000000439
 35
0
 40
0
  0
DIMENSION
  5
16D
100
AcDbEntity
  8
Dimension
  6
ByLayer
 62
  256
370
   -1
100
AcDbDimension
  2
*D23
 10
158
 20
8
 30
0
 11
156.5381693281234
 21
10.51493763668708
 31
0
 70
   36
 71
    5
 72
    0
  3
Standard
 53
0
210
0
220
0
230
1
100
AcDbRadialDimension
 15
150.0000000000004
 25
7.999997401091396
 35
0
 40
0
  0
LINE
  5
16E
100
AcDbEntity
  8
Symmetry
  6
ByLayer
 62
  256
370
   -1
100
AcDbLine
 10
78
 20
79.98840225938795
 11
78
 21
96.01159774061205
  0
LINE
  5
16F
100
AcDbEntity
  8
Symmetry
  6
ByLayer
 62
  256
370
   -1
100
AcDbLine
 10
86.01159774061205
 20
88
 11
69.98840225938795
 21
88
  0
DIMENSION
  5
170
100
AcDbEntity
  8
Dimension
  6
ByLayer
 62
  256
370
   -1
100
AcDbDimension
  2
*D24
 10
78
 20
88
 30
0
 11
83.21425068035556
 21
95.25424633179847
 31
0
 70
   36
 71
    5
  3
Standard
 53
0
210
0
220
0
230
1
100
AcDbRadialDimension
 15
91.68952531649752
 25
98.07952859061245
 35
0
 40
0
  0
DIMENSION
  5
171
100
AcDbEntity
  8
Dimension
  6
ByLayer
 62
  256
370
   -1
100
AcDbDimension
  2
*D25
 10
78
 20
88
 30
0
 11
73.82385348565133
 21
98.74420246972515
 31
0
 70
   36
 71
    5
  3
Standard
 53
0
210
0
220
0
230
1
100
AcDbRadialDimension
 15
74.41136289877656
 25
93.11704834408691
 35
0
 40
0
  0
ENDSEC
  0
SECTION
  2
OBJECTS
  0
DICTIONARY
  5
C
330
0
100
AcDbDictionary
281
    1
  3
ACAD_GROUP
350
D
  0
DICTIONARY
  5
D
330
C
100
AcDbDictionary
281
    1
  0
PLOTSETTINGS
  5
172
  6
1x1
 40
0
 41
0
 42
0
 43
0
  0
ENDSEC
  0
EOF
