999
dxfrw 0.6.3
  0
SECTION
  2
HEADER
  9
$ACADVER
  1
AC1021
  9
$DWGCODEPAGE
  3
ANSI_1252
  9
$INSBASE
 10
0
 20
0
 30
0
  9
$EXTMIN
 10
10000000000
 20
10000000000
 30
0
  9
$EXTMAX
 10
-10000000000
 20
-10000000000
 30
0
  9
$LIMMIN
 10
0
 20
0
  9
$LIMMAX
 10
297
 20
210
  9
$ORTHOMODE
 70
    0
  9
$REGENMODE
 70
    1
  9
$FILLMODE
 70
    1
  9
$QTEXTMODE
 70
    0
  9
$MIRRTEXT
 70
    1
  9
$LTSCALE
 40
0.7070707070707071
  9
$ATTMODE
 70
    1
  9
$TEXTSIZE
 40
1.767676767676768
  9
$TRACEWID
 40
1
  9
$TEXTSTYLE
  7
STANDARD
  9
$CLAYER
  8
0
  9
$CELTYPE
  6
BYLAYER
  9
$CECOLOR
 62
  256
  9
$CELTSCALE
 40
1
  9
$DISPSILH
 70
    0
  9
$DIMSCALE
 40
1
  9
$DIMASZ
 40
10
  9
$DIMEXO
 40
1
  9
$DIMDLI
 40
10
  9
$DIMRND
 40
0
  9
$DIMDLE
 40
0
  9
$DIMEXE
 40
5
  9
$DIMTP
 40
0
  9
$DIMTM
 40
0
  9
$DIMTXT
 40
20
  9
$DIMCEN
 40
5
  9
$DIMTSZ
 40
0
  9
$DIMTOL
 70
    0
  9
$DIMLIM
 70
    0
  9
$DIMTIH
 70
    0
  9
$DIMTOH
 70
    0
  9
$DIMSE1
 70
    1
  9
$DIMSE2
 70
    0
  9
$DIMTAD
 70
    3
  9
$DIMZIN
 70
    8
  9
$DIMBLK
  1

  9
$DIMASO
 70
    1
  9
$DIMSHO
 70
    1
  9
$DIMPOST
  1

  9
$DIMAPOST
  1

  9
$DIMALT
 70
    0
  9
$DIMALTD
 70
    4
  9
$DIMALTF
 40
0.0394
  9
$DIMLFAC
 40
1
  9
$DIMTOFL
 70
    1
  9
$DIMTVP
 40
0
  9
$DIMTIX
 70
    0
  9
$DIMSOXD
 70
    0
  9
$DIMSAH
 70
    0
  9
$DIMBLK1
  1

  9
$DIMBLK2
  1

  9
$DIMSTYLE
  2
RB
  9
$DIMCLRD
 70
    5
  9
$DIMCLRE
 70
    5
  9
$DIMCLRT
 70
    5
  9
$DIMTFAC
 40
1
  9
$DIMGAP
 40
2
  9
$DIMJUST
 70
    0
  9
$DIMSD1
 70
    0
  9
$DIMSD2
 70
    0
  9
$DIMTOLJ
 70
    1
  9
$DIMTZIN
 70
    0
  9
$DIMALTZ
 70
    0
  9
$DIMALTTZ
 70
    0
  9
$DIMUPT
 70
    0
  9
$DIMDEC
 70
    2
  9
$DIMTDEC
 70
    2
  9
$DIMALTU
 70
    8
  9
$DIMALTTD
 70
    4
  9
$DIMTXSTY
  7
standard
  9
$DIMAUNIT
 70
    0
  9
$DIMADEC
 70
    2
  9
$DIMALTRND
 40
0
  9
$DIMAZIN
 70
    0
  9
$DIMDSEP
 70
    0
  9
$DIMATFIT
 70
    3
  9
$DIMFRAC
 70
    0
  9
$DIMLDRBLK
  1

  9
$DIMLUNIT
 70
    2
  9
$DIMLWD
 70
   -2
  9
$DIMLWE
 70
   -2
  9
$DIMTMOVE
 70
    1
  9
$DIMFXL
 40
1
  9
$DIMFXLON
 70
    0
  9
$DIMJOGANG
 40
0.7853981633974483
  9
$DIMTFILL
 70
    0
  9
$DIMTFILLCLR
 70
    0
  9
$DIMARCSYM
 70
    0
  9
$DIMLTYPE
  6

  9
$DIMLTEX1
  6

  9
$DIMLTEX2
  6

  9
$LUNITS
 70
    2
  9
$LUPREC
 70
    2
  9
$SKETCHINC
 40
1
  9
$FILLETRAD
 40
30
  9
$AUNITS
 70
    0
  9
$AUPREC
 70
    0
  9
$MENU
  1
.
  9
$ELEVATION
 40
0
  9
$PELEVATION
 40
0
  9
$THICKNESS
 40
250
  9
$LIMCHECK
 70
    0
  9
$CHAMFERA
 40
7.070707070707071
  9
$CHAMFERB
 40
7.070707070707071
  9
$CHAMFERC
 40
14.14141414141414
  9
$CHAMFERD
 40
0
  9
$SKPOLY
 70
    1
  9
$USRTIMER
 70
    1
  9
$ANGBASE
 50
0
  9
$ANGDIR
 70
    0
  9
$PDMODE
 70
    0
  9
$PDSIZE
 40
0
  9
$PLINEWID
 40
0
  9
$SPLFRAME
 70
    0
  9
$SPLINETYPE
 70
    6
  9
$SPLINESEGS
 70
    8
  9
$HANDSEED
  5
20000
  9
$SURFTAB1
 70
    6
  9
$SURFTAB2
 70
    6
  9
$SURFTYPE
 70
    6
  9
$SURFU
 70
    6
  9
$SURFV
 70
    6
  9
$UCSBASE
  2

  9
$UCSNAME
  2

  9
$UCSORG
 10
0
 20
0
 30
0
  9
$UCSXDIR
 10
1
 20
0
 30
0
  9
$UCSYDIR
 10
0
 20
1
 30
0
  9
$UCSORTHOREF
  2

  9
$UCSORTHOVIEW
 70
    0
  9
$UCSORGTOP
 10
0
 20
0
 30
0
  9
$UCSORGBOTTOM
 10
0
 20
0
 30
0
  9
$UCSORGLEFT
 10
0
 20
0
 30
0
  9
$UCSORGRIGHT
 10
0
 20
0
 30
0
  9
$UCSORGFRONT
 10
0
 20
0
 30
0
  9
$UCSORGBACK
 10
0
 20
0
 30
0
  9
$PUCSBASE
  2

  9
$PUCSNAME
  2

  9
$PUCSORG
 10
0
 20
0
 30
0
  9
$PUCSXDIR
 10
1
 20
0
 30
0
  9
$PUCSYDIR
 10
0
 20
1
 30
0
  9
$PUCSORTHOREF
  2

  9
$PUCSORTHOVIEW
 70
    0
  9
$PUCSORGTOP
 10
0
 20
0
 30
0
  9
$PUCSORGBOTTOM
 10
0
 20
0
 30
0
  9
$PUCSORGLEFT
 10
0
 20
0
 30
0
  9
$PUCSORGRIGHT
 10
0
 20
0
 30
0
  9
$PUCSORGFRONT
 10
0
 20
0
 30
0
  9
$PUCSORGBACK
 10
0
 20
0
 30
0
  9
$USERI1
 70
    0
  9
$USERI2
 70
    0
  9
$USERI3
 70
    0
  9
$USERI4
 70
    0
  9
$USERI5
 70
    0
  9
$USERR1
 40
0
  9
$USERR2
 40
0
  9
$USERR3
 40
0
  9
$USERR4
 40
0
  9
$USERR5
 40
0
  9
$WORLDVIEW
 70
    1
  9
$SHADEDGE
 70
    3
  9
$SHADEDIF
 70
   70
  9
$TILEMODE
 70
    1
  9
$MAXACTVP
 70
   48
  9
$PINSBASE
 10
2.714159321689088
 20
2.09748771375596
 30
0
  9
$PLIMCHECK
 70
    0
  9
$PEXTMIN
 10
0
 20
0
 30
0
  9
$PEXTMAX
 10
11
 20
8.5
 30
0
  9
$GRIDMODE
 70
    0
  9
$SNAPSTYLE
 70
    0
  9
$GRIDUNIT
 10
0
 20
0
  9
$PLIMMIN
 10
0
 20
0
  9
$PLIMMAX
 10
29.7
 20
21
  9
$UNITMODE
 70
    0
  9
$VISRETAIN
 70
    1
  9
$PLINEGEN
 70
    0
  9
$PSLTSCALE
 70
    1
  9
$TREEDEPTH
 70
 3020
  9
$CMLSTYLE
  2
STANDARD
  9
$CMLJUST
 70
    0
  9
$CMLSCALE
 40
1
  9
$PROXYGRAPHICS
 70
    1
  9
$MEASUREMENT
 70
    0
  9
$CELWEIGHT
370
   -1
  9
$ENDCAPS
280
    0
  9
$JOINSTYLE
280
    0
  9
$LWDISPLAY
290
    0
  9
$INSUNITS
 70
    5
  9
$HYPERLINKBASE
  1

  9
$STYLESHEET
  1

  9
$XEDIT
290
    1
  9
$CEPSNTYPE
380
    0
  9
$PSTYLEMODE
290
    1
  9
$EXTNAMES
290
    1
  9
$PSVPSCALE
 40
0.003307906558255543
  9
$OLESTARTUP
290
    0
  9
$SORTENTS
280
   96
  9
$INDEXCTL
280
    0
  9
$HIDETEXT
280
    1
  9
$XCLIPFRAME
290
    2
  9
$HALOGAP
280
    0
  9
$OBSCOLOR
 70
  257
  9
$OBSLTYPE
280
    0
  9
$INTERSECTIONDISPLAY
280
    0
  9
$INTERSECTIONCOLOR
 70
  257
  9
$DIMASSOC
280
    2
  9
$PROJECTNAME
  1

  9
$CAMERADISPLAY
290
    0
  9
$LENSLENGTH
 40
50
  9
$CAMERAHEIGHT
 40
0
  9
$STEPSPERSEC
 40
2
  9
$STEPSIZE
 40
6
  9
$3DDWFPREC
 40
2
  9
$PSOLWIDTH
 40
0.25
  9
$PSOLHEIGHT
 40
4
  9
$LOFTANG1
 40
1.570796326794897
  9
$LOFTANG2
 40
1.570796326794897
  9
$LOFTMAG1
 40
0
  9
$LOFTMAG2
 40
0
  9
$LOFTPARAM
 70
    7
  9
$LOFTNORMALS
280
    1
  9
$LATITUDE
 40
37.795
  9
$LONGITUDE
 40
-122.394
  9
$NORTHDIRECTION
 40
0
  9
$TIMEZONE
 70
-8000
  9
$LIGHTGLYPHDISPLAY
280
    1
  9
$TILEMODELIGHTSYNCH
280
    1
  9
$SOLIDHIST
280
    1
  9
$SHOWHIST
280
    1
  9
$DWFFRAME
280
    2
  9
$DGNFRAME
280
    2
  9
$REALWORLDSCALE
290
    1
  9
$INTERFERECOLOR
 62
  256
  9
$CSHADOW
280
    0
  9
$SHADOWPLANELOCATION
 40
0
  0
ENDSEC
  0
SECTION
  2
CLASSES
  0
ENDSEC
  0
SECTION
  2
TABLES
  0
TABLE
  2
VPORT
  5
8
330
0
100
AcDbSymbolTable
 70
    1
  0
VPORT
  5
31
330
2
100
AcDbSymbolTableRecord
100
AcDbViewportTableRecord
  2
*ACTIVE
 70
    0
 10
0
 20
0
 11
1
 21
1
 12
1990.8115242922
 22
1565.278233922546
 13
0
 23
0
 14
10
 24
10
 15
10
 25
10
 16
0
 26
0
 36
1
 17
0
 27
0
 37
0
 40
3656.592595638735
 41
1.695906432748538
 42
50
 43
0
 44
0
 50
0
 51
0
 71
    0
 72
  100
 73
    1
 74
    3
 75
    0
 76
    0
 77
    0
 78
    0
281
    0
 65
    1
110
0
120
0
130
0
111
1
121
0
131
0
112
0
122
1
132
0
 79
    0
146
0
348
10020
 60
    7
 61
    5
292
1
282
    1
141
0
142
0
 63
  250
421
3358443
  0
ENDTAB
  0
TABLE
  2
LTYPE
  5
5
330
0
100
AcDbSymbolTable
 70
    4
  0
LTYPE
  5
14
330
5
100
AcDbSymbolTableRecord
100
AcDbLinetypeTableRecord
  2
ByBlock
 70
    0
  3

 72
   65
 73
    0
 40
0
  0
LTYPE
  5
15
330
5
100
AcDbSymbolTableRecord
100
AcDbLinetypeTableRecord
  2
ByLayer
 70
    0
  3

 72
   65
 73
    0
 40
0
  0
LTYPE
  5
16
330
5
100
AcDbSymbolTableRecord
100
AcDbLinetypeTableRecord
  2
Continuous
 70
    0
  3
Solid line
 72
   65
 73
    0
 40
0
  0
LTYPE
  5
32
330
5
100
AcDbSymbolTableRecord
100
AcDbLinetypeTableRecord
  2
DOT
 70
    0
  3
Dot . . . . . . . . . . . . . . . . . . . . . .
 72
   65
 73
    2
 40
6.35
 49
0
 74
    0
 49
-6.35
 74
    0
  0
LTYPE
  5
33
330
5
100
AcDbSymbolTableRecord
100
AcDbLinetypeTableRecord
  2
DOTTINY
 70
    0
  3
Dot (.15x) .....................................
 72
   65
 73
    2
 40
0.9525
 49
0
 74
    0
 49
-0.9525
 74
    0
  0
LTYPE
  5
34
330
5
100
AcDbSymbolTableRecord
100
AcDbLinetypeTableRecord
  2
DOT2
 70
    0
  3
Dot (.5x) .....................................
 72
   65
 73
    2
 40
3.175
 49
0
 74
    0
 49
-3.175
 74
    0
  0
LTYPE
  5
35
330
5
100
AcDbSymbolTableRecord
100
AcDbLinetypeTableRecord
  2
DOTX2
 70
    0
  3
Dot (2x) .  .  .  .  .  .  .  .  .  .  .  .  .
 72
   65
 73
    2
 40
12.7
 49
0
 74
    0
 49
-12.7
 74
    0
  0
LTYPE
  5
36
330
5
100
AcDbSymbolTableRecord
100
AcDbLinetypeTableRecord
  2
DASHED
 70
    0
  3
Dashed _ _ _ _ _ _ _ _ _ _ _ _ _ _ _ _ _
 72
   65
 73
    2
 40
19.05
 49
12.7
 74
    0
 49
-6.35
 74
    0
  0
LTYPE
  5
37
330
5
100
AcDbSymbolTableRecord
100
AcDbLinetypeTableRecord
  2
DASHEDTINY
 70
    0
  3
Dashed (.15x) _ _ _ _ _ _ _ _ _ _ _ _ _ _ _ _ _
 72
   65
 73
    2
 40
2.8575
 49
1.905
 74
    0
 49
-0.9525
 74
    0
  0
LTYPE
  5
38
330
5
100
AcDbSymbolTableRecord
100
AcDbLinetypeTableRecord
  2
DASHED2
 70
    0
  3
Dashed (.5x) _ _ _ _ _ _ _ _ _ _ _ _ _ _ _ _ _
 72
   65
 73
    2
 40
9.524999999999999
 49
6.35
 74
    0
 49
-3.175
 74
    0
  0
LTYPE
  5
39
330
5
100
AcDbSymbolTableRecord
100
AcDbLinetypeTableRecord
  2
DASHEDX2
 70
    0
  3
Dashed (2x) ____  ____  ____  ____  ____  ___
 72
   65
 73
    2
 40
38.09999999999999
 49
25.4
 74
    0
 49
-12.7
 74
    0
  0
LTYPE
  5
3A
330
5
100
AcDbSymbolTableRecord
100
AcDbLinetypeTableRecord
  2
DASHDOT
 70
    0
  3
Dash dot __ . __ . __ . __ . __ . __ . __ . __
 72
   65
 73
    4
 40
25.4
 49
12.7
 74
    0
 49
-6.35
 74
    0
 49
0
 74
    0
 49
-6.35
 74
    0
  0
LTYPE
  5
3B
330
5
100
AcDbSymbolTableRecord
100
AcDbLinetypeTableRecord
  2
DASHDOTTINY
 70
    0
  3
Dash dot (.15x) _._._._._._._._._._._._._._._.
 72
   65
 73
    4
 40
3.81
 49
1.905
 74
    0
 49
-0.9525
 74
    0
 49
0
 74
    0
 49
-0.9525
 74
    0
  0
LTYPE
  5
3C
330
5
100
AcDbSymbolTableRecord
100
AcDbLinetypeTableRecord
  2
DASHDOT2
 70
    0
  3
Dash dot (.5x) _._._._._._._._._._._._._._._.
 72
   65
 73
    4
 40
12.7
 49
6.35
 74
    0
 49
-3.175
 74
    0
 49
0
 74
    0
 49
-3.175
 74
    0
  0
LTYPE
  5
3D
330
5
100
AcDbSymbolTableRecord
100
AcDbLinetypeTableRecord
  2
DASHDOTX2
 70
    0
  3
Dash dot (2x) ____  .  ____  .  ____  .  ___
 72
   65
 73
    4
 40
50.8
 49
25.4
 74
    0
 49
-12.7
 74
    0
 49
0
 74
    0
 49
-12.7
 74
    0
  0
LTYPE
  5
3E
330
5
100
AcDbSymbolTableRecord
100
AcDbLinetypeTableRecord
  2
DIVIDE
 70
    0
  3
Divide ____ . . ____ . . ____ . . ____ . . ____
 72
   65
 73
    6
 40
31.75
 49
12.7
 74
    0
 49
-6.35
 74
    0
 49
0
 74
    0
 49
-6.35
 74
    0
 49
0
 74
    0
 49
-6.35
 74
    0
  0
LTYPE
  5
3F
330
5
100
AcDbSymbolTableRecord
100
AcDbLinetypeTableRecord
  2
DIVIDETINY
 70
    0
  3
Divide (.15x) __..__..__..__..__..__..__..__.._
 72
   65
 73
    6
 40
4.7625
 49
1.905
 74
    0
 49
-0.9525
 74
    0
 49
0
 74
    0
 49
-0.9525
 74
    0
 49
0
 74
    0
 49
-0.9525
 74
    0
  0
LTYPE
  5
40
330
5
100
AcDbSymbolTableRecord
100
AcDbLinetypeTableRecord
  2
DIVIDE2
 70
    0
  3
Divide (.5x) __..__..__..__..__..__..__..__.._
 72
   65
 73
    6
 40
15.875
 49
6.35
 74
    0
 49
-3.175
 74
    0
 49
0
 74
    0
 49
-3.175
 74
    0
 49
0
 74
    0
 49
-3.175
 74
    0
  0
LTYPE
  5
41
330
5
100
AcDbSymbolTableRecord
100
AcDbLinetypeTableRecord
  2
DIVIDEX2
 70
    0
  3
Divide (2x) ________  .  .  ________  .  .  _
 72
   65
 73
    6
 40
63.5
 49
25.4
 74
    0
 49
-12.7
 74
    0
 49
0
 74
    0
 49
-12.7
 74
    0
 49
0
 74
    0
 49
-12.7
 74
    0
  0
LTYPE
  5
42
330
5
100
AcDbSymbolTableRecord
100
AcDbLinetypeTableRecord
  2
BORDER
 70
    0
  3
Border __ __ . __ __ . __ __ . __ __ . __ __ .
 72
   65
 73
    6
 40
44.45
 49
12.7
 74
    0
 49
-6.35
 74
    0
 49
12.7
 74
    0
 49
-6.35
 74
    0
 49
0
 74
    0
 49
-6.35
 74
    0
  0
LTYPE
  5
43
330
5
100
AcDbSymbolTableRecord
100
AcDbLinetypeTableRecord
  2
BORDERTINY
 70
    0
  3
Border (.15x) __.__.__.__.__.__.__.__.__.__.__.
 72
   65
 73
    6
 40
6.6675
 49
1.905
 74
    0
 49
-0.9525
 74
    0
 49
1.905
 74
    0
 49
-0.9525
 74
    0
 49
0
 74
    0
 49
-0.9525
 74
    0
  0
LTYPE
  5
44
330
5
100
AcDbSymbolTableRecord
100
AcDbLinetypeTableRecord
  2
BORDER2
 70
    0
  3
Border (.5x) __.__.__.__.__.__.__.__.__.__.__.
 72
   65
 73
    6
 40
22.225
 49
6.35
 74
    0
 49
-3.175
 74
    0
 49
6.35
 74
    0
 49
-3.175
 74
    0
 49
0
 74
    0
 49
-3.175
 74
    0
  0
LTYPE
  5
45
330
5
100
AcDbSymbolTableRecord
100
AcDbLinetypeTableRecord
  2
BORDERX2
 70
    0
  3
Border (2x) ____  ____  .  ____  ____  .  ___
 72
   65
 73
    6
 40
88.89999999999999
 49
25.4
 74
    0
 49
-12.7
 74
    0
 49
25.4
 74
    0
 49
-12.7
 74
    0
 49
0
 74
    0
 49
-12.7
 74
    0
  0
LTYPE
  5
46
330
5
100
AcDbSymbolTableRecord
100
AcDbLinetypeTableRecord
  2
CENTER
 70
    0
  3
Center ____ _ ____ _ ____ _ ____ _ ____ _ ____
 72
   65
 73
    4
 40
50.8
 49
31.75
 74
    0
 49
-6.35
 74
    0
 49
6.35
 74
    0
 49
-6.35
 74
    0
  0
LTYPE
  5
47
330
5
100
AcDbSymbolTableRecord
100
AcDbLinetypeTableRecord
  2
CENTERTINY
 70
    0
  3
Center (.15x) ___ _ ___ _ ___ _ ___ _ ___ _ ___
 72
   65
 73
    4
 40
7.619999999999999
 49
4.7625
 74
    0
 49
-0.9525
 74
    0
 49
0.9525
 74
    0
 49
-0.9525
 74
    0
  0
LTYPE
  5
48
330
5
100
AcDbSymbolTableRecord
100
AcDbLinetypeTableRecord
  2
CENTER2
 70
    0
  3
Center (.5x) ___ _ ___ _ ___ _ ___ _ ___ _ ___
 72
   65
 73
    4
 40
28.575
 49
19.05
 74
    0
 49
-3.175
 74
    0
 49
3.175
 74
    0
 49
-3.175
 74
    0
  0
LTYPE
  5
49
330
5
100
AcDbSymbolTableRecord
100
AcDbLinetypeTableRecord
  2
CENTERX2
 70
    0
  3
Center (2x) ________  __  ________  __  _____
 72
   65
 73
    4
 40
101.6
 49
63.5
 74
    0
 49
-12.7
 74
    0
 49
12.7
 74
    0
 49
-12.7
 74
    0
  0
ENDTAB
  0
TABLE
  2
LAYER
  5
2
330
0
100
AcDbSymbolTable
 70
    1
  0
LAYER
  5
10
330
2
100
AcDbSymbolTableRecord
100
AcDbLayerTableRecord
  2
0
 70
    0
 62
    7
  6
CONTINUOUS
370
   -3
390
F
  0
LAYER
  5
4A
330
2
100
AcDbSymbolTableRecord
100
AcDbLayerTableRecord
  2
COTATION
 70
    0
 62
    7
  6
CONTINUOUS
370
   30
390
F
  0
LAYER
  5
4B
330
2
100
AcDbSymbolTableRecord
100
AcDbLayerTableRecord
  2
DEFPOINTS
 70
    0
 62
    7
  6
CONTINUOUS
290
0
370
   -3
390
F
  0
LAYER
  5
4C
330
2
100
AcDbSymbolTableRecord
100
AcDbLayerTableRecord
  2
FAÇADES
 70
    0
 62
    7
  6
CONTINUOUS
370
   -3
390
F
  0
LAYER
  5
4D
330
2
100
AcDbSymbolTableRecord
100
AcDbLayerTableRecord
  2
RDC
 70
    0
 62
    7
  6
CONTINUOUS
370
   -3
390
F
  0
LAYER
  5
4E
330
2
100
AcDbSymbolTableRecord
100
AcDbLayerTableRecord
  2
charpente
 70
    1
 62
   16
420
8388608
  6
CONTINUOUS
370
    0
390
F
  0
LAYER
  5
4F
330
2
100
AcDbSymbolTableRecord
100
AcDbLayerTableRecord
  2
esquisse
 70
    1
 62
    1
  6
DOT
370
    0
390
F
  0
LAYER
  5
50
330
2
100
AcDbSymbolTableRecord
100
AcDbLayerTableRecord
  2
hachures
 70
    0
 62
    7
  6
CONTINUOUS
370
   -3
390
F
  0
LAYER
  5
51
330
2
100
AcDbSymbolTableRecord
100
AcDbLayerTableRecord
  2
panneauxphotovoltaique
 70
    1
 62
    6
  6
CONTINUOUS
370
    0
390
F
  0
LAYER
  5
52
330
2
100
AcDbSymbolTableRecord
100
AcDbLayerTableRecord
  2
réseauxsolaire
 70
    0
 62
  176
420
  128
  6
CONTINUOUS
370
    0
390
F
  0
LAYER
  5
53
330
2
100
AcDbSymbolTableRecord
100
AcDbLayerTableRecord
  2
terrasseBuanderie
 70
    0
 62
  216
420
8388736
  6
CONTINUOUS
370
   40
390
F
  0
LAYER
  5
54
330
2
100
AcDbSymbolTableRecord
100
AcDbLayerTableRecord
  2
terrasseBucher
 70
    0
 62
   56
420
8421376
  6
CONTINUOUS
370
   40
390
F
  0
LAYER
  5
55
330
2
100
AcDbSymbolTableRecord
100
AcDbLayerTableRecord
  2
terrasseSéjour
 70
    0
 62
   56
420
8421376
  6
CONTINUOUS
370
   40
390
F
  0
ENDTAB
  0
TABLE
  2
STYLE
  5
3
330
0
100
AcDbSymbolTable
 70
    3
  0
STYLE
  5
56
330
2
100
AcDbSymbolTableRecord
100
AcDbTextStyleTableRecord
  2
standard
 70
    0
 40
0
 41
1
 50
0
 71
    0
 42
1
  3
standard
  4

  0
ENDTAB
  0
TABLE
  2
VIEW
  5
6
330
0
100
AcDbSymbolTable
 70
    0
  0
ENDTAB
  0
TABLE
  2
UCS
  5
7
330
0
100
AcDbSymbolTable
 70
    0
  0
ENDTAB
  0
TABLE
  2
APPID
  5
9
330
0
100
AcDbSymbolTable
 70
    1
  0
APPID
  5
12
330
9
100
AcDbSymbolTableRecord
100
AcDbRegAppTableRecord
  2
ACAD
 70
    0
  0
APPID
  5
57
330
9
100
AcDbSymbolTableRecord
100
AcDbRegAppTableRecord
  2
LibreCad
 70
    0
  0
ENDTAB
  0
TABLE
  2
DIMSTYLE
  5
A
330
0
100
AcDbSymbolTable
 70
    1
100
AcDbDimStyleTable
 71
    1
  0
DIMSTYLE
105
58
330
A
100
AcDbSymbolTableRecord
100
AcDbDimStyleTableRecord
  2
Standard
 70
    0
 40
1
 41
10
 42
1
 43
0.38
 44
5
 45
0
 46
0
 47
0
 48
0
 49
1
140
20
141
0.09
142
0
143
25.4
144
1
145
0
146
1
147
2
148
0
 71
    0
 72
    0
 73
    0
 74
    1
 75
    0
 76
    0
 77
    0
 78
    8
 79
    0
170
    0
171
    2
172
    0
173
    0
174
    0
175
    0
176
    5
177
    5
178
    5
179
    2
271
    2
272
    4
273
    2
274
    2
275
    0
276
    0
277
    2
278
    0
279
    0
280
    0
281
    0
282
    0
283
    1
284
    0
285
    0
286
    0
288
    0
289
    3
340
standard
341

371
   -2
372
   -2
  0
ENDTAB
  0
TABLE
  2
BLOCK_RECORD
  5
1
330
0
100
AcDbSymbolTable
 70
    2
  0
BLOCK_RECORD
  5
1F
330
1
100
AcDbSymbolTableRecord
100
AcDbBlockTableRecord
  2
*Model_Space
 70
    0
280
    1
281
    0
  0
BLOCK_RECORD
  5
1E
330
1
100
AcDbSymbolTableRecord
100
AcDbBlockTableRecord
  2
*Paper_Space
 70
    0
280
    1
281
    0
  0
BLOCK_RECORD
  5
59
330
1
100
AcDbSymbolTableRecord
100
AcDbBlockTableRecord
  2
*D11
 70
    0
280
    1
281
    0
  0
BLOCK_RECORD
  5
5C
330
1
100
AcDbSymbolTableRecord
100
AcDbBlockTableRecord
  2
*D6
 70
    0
280
    1
281
    0
  0
BLOCK_RECORD
  5
5F
330
1
100
AcDbSymbolTableRecord
100
AcDbBlockTableRecord
  2
*D8
 70
    0
280
    1
281
    0
  0
BLOCK_RECORD
  5
62
330
1
100
AcDbSymbolTableRecord
100
AcDbBlockTableRecord
  2
*D1
 70
    0
280
    1
281
    0
  0
BLOCK_RECORD
  5
65
330
1
100
AcDbSymbolTableRecord
100
AcDbBlockTableRecord
  2
*D10
 70
    0
280
    1
281
    0
  0
BLOCK_RECORD
  5
68
330
1
100
AcDbSymbolTableRecord
100
AcDbBlockTableRecord
  2
*D3
 70
    0
280
    1
281
    0
  0
BLOCK_RECORD
  5
6B
330
1
100
AcDbSymbolTableRecord
100
AcDbBlockTableRecord
  2
*D5
 70
    0
280
    1
281
    0
  0
BLOCK_RECORD
  5
6E
330
1
100
AcDbSymbolTableRecord
100
AcDbBlockTableRecord
  2
*D2
 70
    0
280
    1
281
    0
  0
BLOCK_RECORD
  5
71
330
1
100
AcDbSymbolTableRecord
100
AcDbBlockTableRecord
  2
*D7
 70
    0
280
    1
281
    0
  0
BLOCK_RECORD
  5
74
330
1
100
AcDbSymbolTableRecord
100
AcDbBlockTableRecord
  2
*D9
 70
    0
280
    1
281
    0
  0
BLOCK_RECORD
  5
77
330
1
100
AcDbSymbolTableRecord
100
AcDbBlockTableRecord
  2
*D12
 70
    0
280
    1
281
    0
  0
BLOCK_RECORD
  5
7A
330
1
100
AcDbSymbolTableRecord
100
AcDbBlockTableRecord
  2
*D4
 70
    0
280
    1
281
    0
  0
BLOCK_RECORD
  5
7D
330
1
100
AcDbSymbolTableRecord
100
AcDbBlockTableRecord
  2
*D14
 70
    0
280
    1
281
    0
  0
BLOCK_RECORD
  5
80
330
1
100
AcDbSymbolTableRecord
100
AcDbBlockTableRecord
  2
*D13
 70
    0
280
    1
281
    0
  0
BLOCK_RECORD
  5
83
330
1
100
AcDbSymbolTableRecord
100
AcDbBlockTableRecord
  2
TOILETTES_HAUT
 70
    0
280
    1
281
    0
  0
BLOCK_RECORD
  5
86
330
1
100
AcDbSymbolTableRecord
100
AcDbBlockTableRecord
  2
A$C13D77FA0
 70
    0
280
    1
281
    0
  0
BLOCK_RECORD
  5
89
330
1
100
AcDbSymbolTableRecord
100
AcDbBlockTableRecord
  2
PORTE83X204
 70
    0
280
    1
281
    0
  0
BLOCK_RECORD
  5
8C
330
1
100
AcDbSymbolTableRecord
100
AcDbBlockTableRecord
  2
A$C5F556693
 70
    0
280
    1
281
    0
  0
BLOCK_RECORD
  5
8F
330
1
100
AcDbSymbolTableRecord
100
AcDbBlockTableRecord
  2
A$C7E235789
 70
    0
280
    1
281
    0
  0
BLOCK_RECORD
  5
92
330
1
100
AcDbSymbolTableRecord
100
AcDbBlockTableRecord
  2
CANAPÉ_CONFORT_152CM
 70
    0
280
    1
281
    0
  0
BLOCK_RECORD
  5
95
330
1
100
AcDbSymbolTableRecord
100
AcDbBlockTableRecord
  2
CANAPÉ_DOS_ROND_213CM
 70
    0
280
    1
281
    0
  0
BLOCK_RECORD
  5
98
330
1
100
AcDbSymbolTableRecord
100
AcDbBlockTableRecord
  2
TABLE_RECTANG_BOIS_76X152CM
 70
    0
280
    1
281
    0
  0
BLOCK_RECORD
  5
9B
330
1
100
AcDbSymbolTableRecord
100
AcDbBlockTableRecord
  2
CHAISE
 70
    0
280
    1
281
    0
  0
BLOCK_RECORD
  5
9E
330
1
100
AcDbSymbolTableRecord
100
AcDbBlockTableRecord
  2
TABLESM
 70
    0
280
    1
281
    0
  0
BLOCK_RECORD
  5
A1
330
1
100
AcDbSymbolTableRecord
100
AcDbBlockTableRecord
  2
A$C77A03A5E
 70
    0
280
    1
281
    0
  0
BLOCK_RECORD
  5
A4
330
1
100
AcDbSymbolTableRecord
100
AcDbBlockTableRecord
  2
MEUBLESAM1
 70
    0
280
    1
281
    0
  0
BLOCK_RECORD
  5
A7
330
1
100
AcDbSymbolTableRecord
100
AcDbBlockTableRecord
  2
A$C3AA550BC
 70
    0
280
    1
281
    0
  0
BLOCK_RECORD
  5
AA
330
1
100
AcDbSymbolTableRecord
100
AcDbBlockTableRecord
  2
MEUBLESAM2
 70
    0
280
    1
281
    0
  0
BLOCK_RECORD
  5
AD
330
1
100
AcDbSymbolTableRecord
100
AcDbBlockTableRecord
  2
A$C38647797
 70
    0
280
    1
281
    0
  0
BLOCK_RECORD
  5
B0
330
1
100
AcDbSymbolTableRecord
100
AcDbBlockTableRecord
  2
COMMODE
 70
    0
280
    1
281
    0
  0
BLOCK_RECORD
  5
B3
330
1
100
AcDbSymbolTableRecord
100
AcDbBlockTableRecord
  2
PIANO
 70
    0
280
    1
281
    0
  0
BLOCK_RECORD
  5
B6
330
1
100
AcDbSymbolTableRecord
100
AcDbBlockTableRecord
  2
PIANODROIT
 70
    0
280
    1
281
    0
  0
BLOCK_RECORD
  5
B9
330
1
100
AcDbSymbolTableRecord
100
AcDbBlockTableRecord
  2
A$C2019473F
 70
    0
280
    1
281
    0
  0
BLOCK_RECORD
  5
BC
330
1
100
AcDbSymbolTableRecord
100
AcDbBlockTableRecord
  2
CHAISE_BASCULE
 70
    0
280
    1
281
    0
  0
BLOCK_RECORD
  5
BF
330
1
100
AcDbSymbolTableRecord
100
AcDbBlockTableRecord
  2
A$C26BA6372
 70
    0
280
    1
281
    0
  0
BLOCK_RECORD
  5
C2
330
1
100
AcDbSymbolTableRecord
100
AcDbBlockTableRecord
  2
LITPARENTS
 70
    0
280
    1
281
    0
  0
BLOCK_RECORD
  5
C5
330
1
100
AcDbSymbolTableRecord
100
AcDbBlockTableRecord
  2
A$C4E04558A
 70
    0
280
    1
281
    0
  0
BLOCK_RECORD
  5
C8
330
1
100
AcDbSymbolTableRecord
100
AcDbBlockTableRecord
  2
LAVABO_OVALE_HAUT
 70
    0
280
    1
281
    0
  0
BLOCK_RECORD
  5
CB
330
1
100
AcDbSymbolTableRecord
100
AcDbBlockTableRecord
  2
A$C5CA847D2
 70
    0
280
    1
281
    0
  0
BLOCK_RECORD
  5
CE
330
1
100
AcDbSymbolTableRecord
100
AcDbBlockTableRecord
  2
TABLE6PLACES
 70
    0
280
    1
281
    0
  0
BLOCK_RECORD
  5
D1
330
1
100
AcDbSymbolTableRecord
100
AcDbBlockTableRecord
  2
FENETRE120X135MONOMUR30
 70
    0
280
    1
281
    0
  0
BLOCK_RECORD
  5
D4
330
1
100
AcDbSymbolTableRecord
100
AcDbBlockTableRecord
  2
FENETRE60X75MONOMUR30
 70
    0
280
    1
281
    0
  0
BLOCK_RECORD
  5
D7
330
1
100
AcDbSymbolTableRecord
100
AcDbBlockTableRecord
  2
A$C40CB4706
 70
    0
280
    1
281
    0
  0
BLOCK_RECORD
  5
DA
330
1
100
AcDbSymbolTableRecord
100
AcDbBlockTableRecord
  2
FENETRE120
 70
    0
280
    1
281
    0
  0
BLOCK_RECORD
  5
DD
330
1
100
AcDbSymbolTableRecord
100
AcDbBlockTableRecord
  2
FENETRE300
 70
    0
280
    1
281
    0
  0
BLOCK_RECORD
  5
E0
330
1
100
AcDbSymbolTableRecord
100
AcDbBlockTableRecord
  2
A$C5AD30E31
 70
    0
280
    1
281
    0
  0
BLOCK_RECORD
  5
E3
330
1
100
AcDbSymbolTableRecord
100
AcDbBlockTableRecord
  2
COUVERTUREPAVATEX
 70
    0
280
    1
281
    0
  0
BLOCK_RECORD
  5
E6
330
1
100
AcDbSymbolTableRecord
100
AcDbBlockTableRecord
  2
A$C52380543
 70
    0
280
    1
281
    0
  0
BLOCK_RECORD
  5
E9
330
1
100
AcDbSymbolTableRecord
100
AcDbBlockTableRecord
  2
A$C42CC0257
 70
    0
280
    1
281
    0
  0
BLOCK_RECORD
  5
EC
330
1
100
AcDbSymbolTableRecord
100
AcDbBlockTableRecord
  2
A$C417F0E19
 70
    0
280
    1
281
    0
  0
BLOCK_RECORD
  5
EF
330
1
100
AcDbSymbolTableRecord
100
AcDbBlockTableRecord
  2
A$C16E379BD
 70
    0
280
    1
281
    0
  0
BLOCK_RECORD
  5
F2
330
1
100
AcDbSymbolTableRecord
100
AcDbBlockTableRecord
  2
A$C5B2835FF
 70
    0
280
    1
281
    0
  0
BLOCK_RECORD
  5
F5
330
1
100
AcDbSymbolTableRecord
100
AcDbBlockTableRecord
  2
A$C15701794
 70
    0
280
    1
281
    0
  0
BLOCK_RECORD
  5
F8
330
1
100
AcDbSymbolTableRecord
100
AcDbBlockTableRecord
  2
A$C52B459E0
 70
    0
280
    1
281
    0
  0
BLOCK_RECORD
  5
FB
330
1
100
AcDbSymbolTableRecord
100
AcDbBlockTableRecord
  2
A$C76023D9C
 70
    0
280
    1
281
    0
  0
BLOCK_RECORD
  5
FE
330
1
100
AcDbSymbolTableRecord
100
AcDbBlockTableRecord
  2
ENTREE
 70
    0
280
    1
281
    0
  0
BLOCK_RECORD
  5
101
330
1
100
AcDbSymbolTableRecord
100
AcDbBlockTableRecord
  2
A$C55080D3C
 70
    0
280
    1
281
    0
  0
BLOCK_RECORD
  5
104
330
1
100
AcDbSymbolTableRecord
100
AcDbBlockTableRecord
  2
A$C76023D9C-0
 70
    0
280
    1
281
    0
  0
ENDTAB
  0
ENDSEC
  0
SECTION
  2
BLOCKS
  0
BLOCK
  5
20
330
1F
100
AcDbEntity
  8
0
100
AcDbBlockBegin
  2
*Model_Space
 70
    0
 10
0
 20
0
 30
0
  3
*Model_Space
  1

  0
ENDBLK
  5
21
330
1F
100
AcDbEntity
  8
0
100
AcDbBlockEnd
  0
BLOCK
  5
1C
330
1B
100
AcDbEntity
  8
0
100
AcDbBlockBegin
  2
*Paper_Space
 70
    0
 10
0
 20
0
 30
0
  3
*Paper_Space
  1

  0
ENDBLK
  5
1D
330
1F
100
AcDbEntity
  8
0
100
AcDbBlockEnd
  0
BLOCK
  5
5A
330
59
100
AcDbEntity
  8
0
100
AcDbBlockBegin
  2
*D11
 70
    1
 10
0
 20
0
  3
*D11
  1

  0
LINE
  5
107
100
AcDbEntity
  8
COTATION
  6
ByBlock
 62
    5
370
   -2
100
AcDbLine
 10
-420.6247601726681
 20
790
 11
-420.6247601726681
 21
0
  0
SOLID
  5
108
100
AcDbEntity
  8
COTATION
  6
ByBlock
 62
    5
370
   -2
100
AcDbTrace
 10
-420.6247601726681
 20
790
 30
0
 11
-418.9596215415768
 21
780
 31
0
 12
-422.2898988037595
 22
780
 32
0
 13
-422.2898988037595
 23
780
 33
0
  0
SOLID
  5
109
100
AcDbEntity
  8
COTATION
  6
ByBlock
 62
    5
370
   -2
100
AcDbTrace
 10
-420.6247601726681
 20
0
 30
0
 11
-422.2898988037595
 21
10
 31
0
 12
-418.9596215415768
 22
10
 32
0
 13
-418.9596215415768
 23
10
 33
0
  0
MTEXT
  5
10A
100
AcDbEntity
  8
COTATION
  6
CONTINUOUS
 62
    5
370
   -2
100
AcDbMText
 10
-432.6247601726681
 20
395
 30
0
 40
20
 41
40
 71
    5
 72
    1
  1
790
  7
standard
210
0
220
0
230
1
 50
90
 73
    2
 44
1
  0
LINE
  5
10B
100
AcDbEntity
  8
COTATION
  6
ByBlock
 62
    5
370
   -2
100
AcDbLine
 10
-351
 20
790
 11
-425.6247601726681
 21
790
  0
LINE
  5
10C
100
AcDbEntity
  8
COTATION
  6
ByBlock
 62
    5
370
   -2
100
AcDbLine
 10
-351
 20
1.224646799147353e-16
 11
-425.6247601726681
 21
6.123233995736766e-16
  0
ENDBLK
  5
5B
330
59
100
AcDbEntity
  8
0
100
AcDbBlockEnd
  0
BLOCK
  5
5D
330
5C
100
AcDbEntity
  8
0
100
AcDbBlockBegin
  2
*D6
 70
    1
 10
0
 20
0
  3
*D6
  1

  0
LINE
  5
10D
100
AcDbEntity
  8
COTATION
  6
ByBlock
 62
    5
370
   -2
100
AcDbLine
 10
-420.3817211408468
 20
890
 11
-420.3817211408468
 21
1040
  0
SOLID
  5
10E
100
AcDbEntity
  8
COTATION
  6
ByBlock
 62
    5
370
   -2
100
AcDbTrace
 10
-420.3817211408468
 20
890
 30
0
 11
-422.0468597719382
 21
900
 31
0
 12
-418.7165825097555
 22
900
 32
0
 13
-418.7165825097555
 23
900
 33
0
  0
SOLID
  5
10F
100
AcDbEntity
  8
COTATION
  6
ByBlock
 62
    5
370
   -2
100
AcDbTrace
 10
-420.3817211408468
 20
1040
 30
0
 11
-418.7165825097555
 21
1030
 31
0
 12
-422.0468597719382
 22
1030
 32
0
 13
-422.0468597719382
 23
1030
 33
0
  0
MTEXT
  5
110
100
AcDbEntity
  8
COTATION
  6
CONTINUOUS
 62
    5
370
   -2
100
AcDbMText
 10
-432.3817211408468
 20
965
 30
0
 40
20
 41
35.55555555555679
 71
    5
 72
    1
  1
150
  7
standard
210
0
220
0
230
1
 50
90
 73
    2
 44
1
  0
LINE
  5
111
100
AcDbEntity
  8
COTATION
  6
ByBlock
 62
    5
370
   -2
100
AcDbLine
 10
-151
 20
890
 11
-425.3817211408468
 21
890
  0
LINE
  5
112
100
AcDbEntity
  8
COTATION
  6
ByBlock
 62
    5
370
   -2
100
AcDbLine
 10
-151
 20
1040
 11
-425.3817211408468
 21
1040
  0
ENDBLK
  5
5E
330
5C
100
AcDbEntity
  8
0
100
AcDbBlockEnd
  0
BLOCK
  5
60
330
5F
100
AcDbEntity
  8
0
100
AcDbBlockBegin
  2
*D8
 70
    1
 10
0
 20
0
  3
*D8
  1

  0
LINE
  5
113
100
AcDbEntity
  8
COTATION
  6
ByBlock
 62
    5
370
   -2
100
AcDbLine
 10
1626.339858104708
 20
1053.378468533098
 11
1945
 21
1053.378468533098
  0
SOLID
  5
114
100
AcDbEntity
  8
COTATION
  6
ByBlock
 62
    5
370
   -2
100
AcDbTrace
 10
1626.339858104708
 20
1053.378468533098
 30
0
 11
1636.339858104708
 21
1055.043607164189
 31
0
 12
1636.339858104708
 22
1051.713329902007
 32
0
 13
1636.339858104708
 23
1051.713329902007
 33
0
  0
SOLID
  5
115
100
AcDbEntity
  8
COTATION
  6
ByBlock
 62
    5
370
   -2
100
AcDbTrace
 10
1945
 20
1053.378468533098
 30
0
 11
1935
 21
1051.713329902007
 31
0
 12
1935
 22
1055.043607164189
 32
0
 13
1935
 23
1055.043607164189
 33
0
  0
MTEXT
  5
116
100
AcDbEntity
  8
COTATION
  6
CONTINUOUS
 62
    5
370
   -2
100
AcDbMText
 10
1785.669929052354
 20
1065.378468533098
 30
0
 40
20
 41
73.33333333333707
 71
    5
 72
    1
  1
318.66
  7
standard
210
0
220
0
230
1
 50
0
 73
    2
 44
1
  0
LINE
  5
117
100
AcDbEntity
  8
COTATION
  6
ByBlock
 62
    5
370
   -2
100
AcDbLine
 10
1626.339858104708
 20
895.337814617045
 11
1626.339858104708
 21
1058.378468533098
  0
LINE
  5
118
100
AcDbEntity
  8
COTATION
  6
ByBlock
 62
    5
370
   -2
100
AcDbLine
 10
1945
 20
895
 11
1945
 21
1058.378468533098
  0
ENDBLK
  5
61
330
5F
100
AcDbEntity
  8
0
100
AcDbBlockEnd
  0
BLOCK
  5
63
330
62
100
AcDbEntity
  8
0
100
AcDbBlockBegin
  2
*D1
 70
    1
 10
0
 20
0
  3
*D1
  1

  0
LINE
  5
119
100
AcDbEntity
  8
FAÇADES
  6
ByBlock
 62
    5
370
   -2
100
AcDbLine
 10
-432.48956489392
 20
2803.27653390101
 11
-432.48956489392
 21
2579.172291616913
  0
SOLID
  5
11A
100
AcDbEntity
  8
FAÇADES
  6
ByBlock
 62
    5
370
   -2
100
AcDbTrace
 10
-432.48956489392
 20
2803.27653390101
 30
0
 11
-430.8244262628286
 21
2793.27653390101
 31
0
 12
-434.1547035250113
 22
2793.27653390101
 32
0
 13
-434.1547035250113
 23
2793.27653390101
 33
0
  0
SOLID
  5
11B
100
AcDbEntity
  8
FAÇADES
  6
ByBlock
 62
    5
370
   -2
100
AcDbTrace
 10
-432.48956489392
 20
2579.172291616913
 30
0
 11
-434.1547035250113
 21
2589.172291616913
 31
0
 12
-430.8244262628286
 22
2589.172291616913
 32
0
 13
-430.8244262628286
 23
2589.172291616913
 33
0
  0
MTEXT
  5
11C
100
AcDbEntity
  8
FAÇADES
  6
CONTINUOUS
 62
    5
370
   -2
100
AcDbMText
 10
-444.48956489392
 20
2691.224412758962
 30
0
 40
20
 41
40.00000000000124
 71
    5
 72
    1
  1
230
  7
standard
210
0
220
0
230
1
 50
90
 73
    2
 44
1
  0
LINE
  5
11D
100
AcDbEntity
  8
FAÇADES
  6
ByBlock
 62
    5
370
   -2
100
AcDbLine
 10
186.2029366949428
 20
2803.27653390101
 11
-437.48956489392
 21
2803.27653390101
  0
LINE
  5
11E
100
AcDbEntity
  8
FAÇADES
  6
ByBlock
 62
    5
370
   -2
100
AcDbLine
 10
604.7167959623921
 20
2579.172291616913
 11
-437.48956489392
 21
2579.172291616913
  0
ENDBLK
  5
64
330
62
100
AcDbEntity
  8
0
100
AcDbBlockEnd
  0
BLOCK
  5
66
330
65
100
AcDbEntity
  8
0
100
AcDbBlockBegin
  2
*D10
 70
    1
 10
0
 20
0
  3
*D10
  1

  0
LINE
  5
11F
100
AcDbEntity
  8
COTATION
  6
ByBlock
 62
    5
370
   -2
100
AcDbLine
 10
1982.434822602869
 20
774
 11
1982.434822602869
 21
894
  0
SOLID
  5
120
100
AcDbEntity
  8
COTATION
  6
ByBlock
 62
    5
370
   -2
100
AcDbTrace
 10
1982.434822602869
 20
774
 30
0
 11
1980.769683971778
 21
784
 31
0
 12
1984.09996123396
 22
784
 32
0
 13
1984.09996123396
 23
784
 33
0
  0
SOLID
  5
121
100
AcDbEntity
  8
COTATION
  6
ByBlock
 62
    5
370
   -2
100
AcDbTrace
 10
1982.434822602869
 20
894
 30
0
 11
1984.09996123396
 21
884
 31
0
 12
1980.769683971778
 22
884
 32
0
 13
1980.769683971778
 23
884
 33
0
  0
MTEXT
  5
122
100
AcDbEntity
  8
COTATION
  6
CONTINUOUS
 62
    5
370
   -2
100
AcDbMText
 10
1970.434822602869
 20
834
 30
0
 40
20
 41
35.55555555555556
 71
    5
 72
    1
  1
120
  7
standard
210
0
220
0
230
1
 50
90
 73
    2
 44
1
  0
LINE
  5
123
100
AcDbEntity
  8
COTATION
  6
ByBlock
 62
    5
370
   -2
100
AcDbLine
 10
1946
 20
774
 11
1987.434822602869
 21
774
  0
LINE
  5
124
100
AcDbEntity
  8
COTATION
  6
ByBlock
 62
    5
370
   -2
100
AcDbLine
 10
1946
 20
894
 11
1987.434822602869
 21
894
  0
ENDBLK
  5
67
330
65
100
AcDbEntity
  8
0
100
AcDbBlockEnd
  0
BLOCK
  5
69
330
68
100
AcDbEntity
  8
0
100
AcDbBlockBegin
  2
*D3
 70
    1
 10
0
 20
0
  3
*D3
  1

  0
LINE
  5
125
100
AcDbEntity
  8
FAÇADES
  6
ByBlock
 62
    5
370
   -2
100
AcDbLine
 10
-563.5690794019974
 20
2803.27653390101
 11
-563.5690794019974
 21
2003.959299693963
  0
SOLID
  5
126
100
AcDbEntity
  8
FAÇADES
  6
ByBlock
 62
    5
370
   -2
100
AcDbTrace
 10
-563.5690794019974
 20
2803.27653390101
 30
0
 11
-561.903940770906
 21
2793.27653390101
 31
0
 12
-565.2342180330888
 22
2793.27653390101
 32
0
 13
-565.2342180330888
 23
2793.27653390101
 33
0
  0
SOLID
  5
127
100
AcDbEntity
  8
FAÇADES
  6
ByBlock
 62
    5
370
   -2
100
AcDbTrace
 10
-563.5690794019974
 20
2003.959299693963
 30
0
 11
-565.2342180330888
 21
2013.959299693963
 31
0
 12
-561.903940770906
 22
2013.959299693963
 32
0
 13
-561.903940770906
 23
2013.959299693963
 33
0
  0
MTEXT
  5
128
100
AcDbEntity
  8
FAÇADES
  6
CONTINUOUS
 62
    5
370
   -2
100
AcDbMText
 10
-575.5690794019974
 20
2403.617916797486
 30
0
 40
20
 41
40.00000000000125
 71
    5
 72
    1
  1
805
  7
standard
210
0
220
0
230
1
 50
90
 73
    2
 44
1
  0
LINE
  5
129
100
AcDbEntity
  8
FAÇADES
  6
ByBlock
 62
    5
370
   -2
100
AcDbLine
 10
-433.48956489392
 20
2803.27653390101
 11
-568.5690794019974
 21
2803.27653390101
  0
LINE
  5
12A
100
AcDbEntity
  8
FAÇADES
  6
ByBlock
 62
    5
370
   -2
100
AcDbLine
 10
-401
 20
2003.959299693963
 11
-568.5690794019974
 21
2003.959299693963
  0
ENDBLK
  5
6A
330
68
100
AcDbEntity
  8
0
100
AcDbBlockEnd
  0
BLOCK
  5
6C
330
6B
100
AcDbEntity
  8
0
100
AcDbBlockBegin
  2
*D5
 70
    1
 10
0
 20
0
  3
*D5
  1

  0
LINE
  5
12B
100
AcDbEntity
  8
COTATION
  6
ByBlock
 62
    5
370
   -2
100
AcDbLine
 10
-419.5004177422286
 20
790
 11
-419.5004177422286
 21
890
  0
SOLID
  5
12C
100
AcDbEntity
  8
COTATION
  6
ByBlock
 62
    5
370
   -2
100
AcDbTrace
 10
-419.5004177422286
 20
790
 30
0
 11
-421.1655563733199
 21
800
 31
0
 12
-417.8352791111373
 22
800
 32
0
 13
-417.8352791111373
 23
800
 33
0
  0
SOLID
  5
12D
100
AcDbEntity
  8
COTATION
  6
ByBlock
 62
    5
370
   -2
100
AcDbTrace
 10
-419.5004177422286
 20
890
 30
0
 11
-417.8352791111373
 21
880
 31
0
 12
-421.1655563733199
 22
880
 32
0
 13
-421.1655563733199
 23
880
 33
0
  0
MTEXT
  5
12E
100
AcDbEntity
  8
COTATION
  6
CONTINUOUS
 62
    5
370
   -2
100
AcDbMText
 10
-431.5004177422286
 20
840
 30
0
 40
20
 41
35.55555555555556
 71
    5
 72
    1
  1
100
  7
standard
210
0
220
0
230
1
 50
90
 73
    2
 44
1
  0
LINE
  5
12F
100
AcDbEntity
  8
COTATION
  6
ByBlock
 62
    5
370
   -2
100
AcDbLine
 10
-151
 20
790
 11
-424.5004177422286
 21
790
  0
LINE
  5
130
100
AcDbEntity
  8
COTATION
  6
ByBlock
 62
    5
370
   -2
100
AcDbLine
 10
-151
 20
890
 11
-424.5004177422286
 21
890
  0
ENDBLK
  5
6D
330
6B
100
AcDbEntity
  8
0
100
AcDbBlockEnd
  0
BLOCK
  5
6F
330
6E
100
AcDbEntity
  8
0
100
AcDbBlockBegin
  2
*D2
 70
    1
 10
0
 20
0
  3
*D2
  1

  0
LINE
  5
131
100
AcDbEntity
  8
FAÇADES
  6
ByBlock
 62
    5
370
   -2
100
AcDbLine
 10
-432.48956489392
 20
2579.172291616913
 11
-432.48956489392
 21
2003.959299693965
  0
SOLID
  5
132
100
AcDbEntity
  8
FAÇADES
  6
ByBlock
 62
    5
370
   -2
100
AcDbTrace
 10
-432.48956489392
 20
2579.172291616913
 30
0
 11
-430.8244262628286
 21
2569.172291616913
 31
0
 12
-434.1547035250113
 22
2569.172291616913
 32
0
 13
-434.1547035250113
 23
2569.172291616913
 33
0
  0
SOLID
  5
133
100
AcDbEntity
  8
FAÇADES
  6
ByBlock
 62
    5
370
   -2
100
AcDbTrace
 10
-432.48956489392
 20
2003.959299693965
 30
0
 11
-434.1547035250113
 21
2013.959299693965
 31
0
 12
-430.8244262628286
 22
2013.959299693965
 32
0
 13
-430.8244262628286
 23
2013.959299693965
 33
0
  0
MTEXT
  5
134
100
AcDbEntity
  8
FAÇADES
  6
CONTINUOUS
 62
    5
370
   -2
100
AcDbMText
 10
-444.48956489392
 20
2291.565795655439
 30
0
 40
20
 41
73.33333333333582
 71
    5
 72
    1
  1
575.21
  7
standard
210
0
220
0
230
1
 50
90
 73
    2
 44
1
  0
LINE
  5
135
100
AcDbEntity
  8
FAÇADES
  6
ByBlock
 62
    5
370
   -2
100
AcDbLine
 10
604.7167959623921
 20
2579.172291616913
 11
-437.48956489392
 21
2579.172291616913
  0
LINE
  5
136
100
AcDbEntity
  8
FAÇADES
  6
ByBlock
 62
    5
370
   -2
100
AcDbLine
 10
-220.2832040376088
 20
2003.959299693965
 11
-437.48956489392
 21
2003.959299693965
  0
ENDBLK
  5
70
330
6E
100
AcDbEntity
  8
0
100
AcDbBlockEnd
  0
BLOCK
  5
72
330
71
100
AcDbEntity
  8
0
100
AcDbBlockBegin
  2
*D7
 70
    1
 10
0
 20
0
  3
*D7
  1

  0
LINE
  5
137
100
AcDbEntity
  8
COTATION
  6
ByBlock
 62
    5
370
   -2
100
AcDbLine
 10
775.0000000000011
 20
1006.088088761269
 11
1235
 21
1006.088088761269
  0
SOLID
  5
138
100
AcDbEntity
  8
COTATION
  6
ByBlock
 62
    5
370
   -2
100
AcDbTrace
 10
775.0000000000011
 20
1006.088088761269
 30
0
 11
785.0000000000011
 21
1007.75322739236
 31
0
 12
785.0000000000011
 22
1004.422950130178
 32
0
 13
785.0000000000011
 23
1004.422950130178
 33
0
  0
SOLID
  5
139
100
AcDbEntity
  8
COTATION
  6
ByBlock
 62
    5
370
   -2
100
AcDbTrace
 10
1235
 20
1006.088088761269
 30
0
 11
1225
 21
1004.422950130178
 31
0
 12
1225
 22
1007.75322739236
 32
0
 13
1225
 23
1007.75322739236
 33
0
  0
MTEXT
  5
13A
100
AcDbEntity
  8
COTATION
  6
CONTINUOUS
 62
    5
370
   -2
100
AcDbMText
 10
1005.000000000001
 20
1018.088088761269
 30
0
 40
20
 41
42.22222222222346
 71
    5
 72
    1
  1
460
  7
standard
210
0
220
0
230
1
 50
0
 73
    2
 44
1
  0
LINE
  5
13B
100
AcDbEntity
  8
COTATION
  6
ByBlock
 62
    5
370
   -2
100
AcDbLine
 10
775.0000000000011
 20
961
 11
775.0000000000011
 21
1011.088088761269
  0
LINE
  5
13C
100
AcDbEntity
  8
COTATION
  6
ByBlock
 62
    5
370
   -2
100
AcDbLine
 10
1235
 20
961
 11
1235
 21
1011.088088761269
  0
ENDBLK
  5
73
330
71
100
AcDbEntity
  8
0
100
AcDbBlockEnd
  0
BLOCK
  5
75
330
74
100
AcDbEntity
  8
0
100
AcDbBlockBegin
  2
*D9
 70
    1
 10
0
 20
0
  3
*D9
  1

  0
LINE
  5
13D
100
AcDbEntity
  8
COTATION
  6
ByBlock
 62
    5
370
   -2
100
AcDbLine
 10
-350
 20
-100.1558258571823
 11
0
 21
-100.1558258571823
  0
SOLID
  5
13E
100
AcDbEntity
  8
COTATION
  6
ByBlock
 62
    5
370
   -2
100
AcDbTrace
 10
-350
 20
-100.1558258571823
 30
0
 11
-340
 21
-98.49068722609093
 31
0
 12
-340
 22
-101.8209644882737
 32
0
 13
-340
 23
-101.8209644882737
 33
0
  0
SOLID
  5
13F
100
AcDbEntity
  8
COTATION
  6
ByBlock
 62
    5
370
   -2
100
AcDbTrace
 10
0
 20
-100.1558258571823
 30
0
 11
-10
 21
-101.8209644882737
 31
0
 12
-10
 22
-98.49068722609093
 32
0
 13
-10
 23
-98.49068722609093
 33
0
  0
MTEXT
  5
140
100
AcDbEntity
  8
COTATION
  6
CONTINUOUS
 62
    5
370
   -2
100
AcDbMText
 10
-175
 20
-88.15582585718229
 30
0
 40
20
 41
40.00000000000249
 71
    5
 72
    1
  1
350
  7
standard
210
0
220
0
230
1
 50
0
 73
    2
 44
1
  0
LINE
  5
141
100
AcDbEntity
  8
COTATION
  6
ByBlock
 62
    5
370
   -2
100
AcDbLine
 10
-350
 20
-1
 11
-350
 21
-105.1558258571823
  0
LINE
  5
142
100
AcDbEntity
  8
COTATION
  6
ByBlock
 62
    5
370
   -2
100
AcDbLine
 10
-1.83697019872103e-16
 20
-1
 11
-9.184850993605148e-16
 21
-105.1558258571823
  0
ENDBLK
  5
76
330
74
100
AcDbEntity
  8
0
100
AcDbBlockEnd
  0
BLOCK
  5
78
330
77
100
AcDbEntity
  8
0
100
AcDbBlockBegin
  2
*D12
 70
    1
 10
0
 20
0
  3
*D12
  1

  0
LINE
  5
143
100
AcDbEntity
  8
COTATION
  6
ByBlock
 62
    5
370
   -2
100
AcDbLine
 10
1655
 20
847.3749946682829
 11
1735
 21
847.3749946682829
  0
SOLID
  5
144
100
AcDbEntity
  8
COTATION
  6
ByBlock
 62
    5
370
   -2
100
AcDbTrace
 10
1655
 20
847.3749946682829
 30
0
 11
1665
 21
849.0401332993742
 31
0
 12
1665
 22
845.7098560371915
 32
0
 13
1665
 23
845.7098560371915
 33
0
  0
SOLID
  5
145
100
AcDbEntity
  8
COTATION
  6
ByBlock
 62
    5
370
   -2
100
AcDbTrace
 10
1735
 20
847.3749946682829
 30
0
 11
1725
 21
845.7098560371915
 31
0
 12
1725
 22
849.0401332993742
 32
0
 13
1725
 23
849.0401332993742
 33
0
  0
MTEXT
  5
146
100
AcDbEntity
  8
COTATION
  6
CONTINUOUS
 62
    5
370
   -2
100
AcDbMText
 10
1695
 20
859.3749946682829
 30
0
 40
20
 41
24.44444444444445
 71
    5
 72
    1
  1
80
  7
standard
210
0
220
0
230
1
 50
0
 73
    2
 44
1
  0
LINE
  5
147
100
AcDbEntity
  8
COTATION
  6
ByBlock
 62
    5
370
   -2
100
AcDbLine
 10
1655
 20
873
 11
1655
 21
842.3749946682829
  0
LINE
  5
148
100
AcDbEntity
  8
COTATION
  6
ByBlock
 62
    5
370
   -2
100
AcDbLine
 10
1735
 20
873
 11
1735
 21
842.3749946682829
  0
ENDBLK
  5
79
330
77
100
AcDbEntity
  8
0
100
AcDbBlockEnd
  0
BLOCK
  5
7B
330
7A
100
AcDbEntity
  8
0
100
AcDbBlockBegin
  2
*D4
 70
    1
 10
0
 20
0
  3
*D4
  1

  0
LINE
  5
149
100
AcDbEntity
  8
COTATION
  6
ByBlock
 62
    5
370
   -2
100
AcDbLine
 10
-150
 20
1132.474867224294
 11
-7.888609052210118e-31
 21
1132.474867224294
  0
SOLID
  5
14A
100
AcDbEntity
  8
COTATION
  6
ByBlock
 62
    5
370
   -2
100
AcDbTrace
 10
-150
 20
1132.474867224294
 30
0
 11
-140
 21
1134.140005855385
 31
0
 12
-140
 22
1130.809728593203
 32
0
 13
-140
 23
1130.809728593203
 33
0
  0
SOLID
  5
14B
100
AcDbEntity
  8
COTATION
  6
ByBlock
 62
    5
370
   -2
100
AcDbTrace
 10
-7.888609052210118e-31
 20
1132.474867224294
 30
0
 11
-10
 21
1130.809728593203
 31
0
 12
-10
 22
1134.140005855385
 32
0
 13
-10
 23
1134.140005855385
 33
0
  0
MTEXT
  5
14C
100
AcDbEntity
  8
COTATION
  6
CONTINUOUS
 62
    5
370
   -2
100
AcDbMText
 10
-75
 20
1144.474867224294
 30
0
 40
20
 41
35.55555555555679
 71
    5
 72
    1
  1
150
  7
standard
210
0
220
0
230
1
 50
0
 73
    2
 44
1
  0
LINE
  5
14D
100
AcDbEntity
  8
COTATION
  6
ByBlock
 62
    5
370
   -2
100
AcDbLine
 10
-150
 20
1041
 11
-150
 21
1137.474867224294
  0
LINE
  5
14E
100
AcDbEntity
  8
COTATION
  6
ByBlock
 62
    5
370
   -2
100
AcDbLine
 10
6.123233995736766e-17
 20
1041
 11
3.061616997868375e-16
 21
1137.474867224294
  0
ENDBLK
  5
7C
330
7A
100
AcDbEntity
  8
0
100
AcDbBlockEnd
  0
BLOCK
  5
7E
330
7D
100
AcDbEntity
  8
0
100
AcDbBlockBegin
  2
*D14
 70
    1
 10
0
 20
0
  3
*D14
  1

  0
LINE
  5
14F
100
AcDbEntity
  8
COTATION
  6
ByBlock
 62
    5
370
   -2
100
AcDbLine
 10
735.0798550781972
 20
710
 11
735.0798550781972
 21
960
  0
SOLID
  5
150
100
AcDbEntity
  8
COTATION
  6
ByBlock
 62
    5
370
   -2
100
AcDbTrace
 10
735.0798550781972
 20
710
 30
0
 11
733.4147164471058
 21
720
 31
0
 12
736.7449937092886
 22
720
 32
0
 13
736.7449937092886
 23
720
 33
0
  0
SOLID
  5
151
100
AcDbEntity
  8
COTATION
  6
ByBlock
 62
    5
370
   -2
100
AcDbTrace
 10
735.0798550781972
 20
960
 30
0
 11
736.7449937092886
 21
950
 31
0
 12
733.4147164471058
 22
950
 32
0
 13
733.4147164471058
 23
950
 33
0
  0
MTEXT
  5
152
100
AcDbEntity
  8
COTATION
  6
CONTINUOUS
 62
    5
370
   -2
100
AcDbMText
 10
723.0798550781972
 20
835
 30
0
 40
20
 41
40.00000000000124
 71
    5
 72
    1
  1
250
  7
standard
210
0
220
0
230
1
 50
90
 73
    2
 44
1
  0
LINE
  5
153
100
AcDbEntity
  8
COTATION
  6
ByBlock
 62
    5
370
   -2
100
AcDbLine
 10
789.0000000000011
 20
710
 11
730.0798550781972
 21
710
  0
LINE
  5
154
100
AcDbEntity
  8
COTATION
  6
ByBlock
 62
    5
370
   -2
100
AcDbLine
 10
789.0000000000011
 20
960
 11
730.0798550781972
 21
960
  0
ENDBLK
  5
7F
330
7D
100
AcDbEntity
  8
0
100
AcDbBlockEnd
  0
BLOCK
  5
81
330
80
100
AcDbEntity
  8
0
100
AcDbBlockBegin
  2
*D13
 70
    1
 10
0
 20
0
  3
*D13
  1

  0
LINE
  5
155
100
AcDbEntity
  8
COTATION
  6
ByBlock
 62
    5
370
   -2
100
AcDbLine
 10
1679.752201820313
 20
874
 11
1679.752201820313
 21
784
  0
SOLID
  5
156
100
AcDbEntity
  8
COTATION
  6
ByBlock
 62
    5
370
   -2
100
AcDbTrace
 10
1679.752201820313
 20
874
 30
0
 11
1681.417340451404
 21
864
 31
0
 12
1678.087063189222
 22
864
 32
0
 13
1678.087063189222
 23
864
 33
0
  0
SOLID
  5
157
100
AcDbEntity
  8
COTATION
  6
ByBlock
 62
    5
370
   -2
100
AcDbTrace
 10
1679.752201820313
 20
784
 30
0
 11
1678.087063189222
 21
794
 31
0
 12
1681.417340451404
 22
794
 32
0
 13
1681.417340451404
 23
794
 33
0
  0
MTEXT
  5
158
100
AcDbEntity
  8
COTATION
  6
CONTINUOUS
 62
    5
370
   -2
100
AcDbMText
 10
1667.752201820313
 20
829
 30
0
 40
20
 41
24.44444444444569
 71
    5
 72
    1
  1
90
  7
standard
210
0
220
0
230
1
 50
90
 73
    2
 44
1
  0
LINE
  5
159
100
AcDbEntity
  8
COTATION
  6
ByBlock
 62
    5
370
   -2
100
AcDbLine
 10
1656
 20
874
 11
1684.752201820313
 21
874
  0
LINE
  5
15A
100
AcDbEntity
  8
COTATION
  6
ByBlock
 62
    5
370
   -2
100
AcDbLine
 10
1656
 20
784
 11
1684.752201820313
 21
784
  0
ENDBLK
  5
82
330
80
100
AcDbEntity
  8
0
100
AcDbBlockEnd
  0
BLOCK
  5
84
330
83
100
AcDbEntity
  8
0
100
AcDbBlockBegin
  2
TOILETTES_HAUT
 70
    0
 10
0
 20
0
  3
TOILETTES_HAUT
  1

  0
LWPOLYLINE
  5
15B
100
AcDbEntity
  8
0
  6
ByLayer
 62
  256
370
   -1
100
AcDbPolyline
 90
    2
 70
    0
 43
0
 10
212.4999999999999
 20
-25
 10
-212.5000000000001
 20
-25
  0
LINE
  5
15C
100
AcDbEntity
  8
0
  6
ByLayer
 62
  256
370
   -1
100
AcDbLine
 10
-250.0000000000001
 20
-212.5
 11
-200.0000000000001
 21
-212.5
  0
LINE
  5
15D
100
AcDbEntity
  8
0
  6
ByLayer
 62
  256
370
   -1
100
AcDbLine
 10
-175.0000000000001
 20
-237.5
 11
-250.0000000000001
 21
-237.5
  0
ARC
  5
15E
100
AcDbEntity
  8
0
  6
ByLayer
 62
  256
370
   -1
100
AcDbCircle
 10
0.9349999999997305
 20
-496.8274999999977
 40
178.174075
100
AcDbArc
 50
124.50543
 51
269.6999999999999
  0
LWPOLYLINE
  5
15F
100
AcDbEntity
  8
0
  6
ByLayer
 62
  256
370
   -1
100
AcDbPolyline
 90
    2
 70
    0
 43
0
 10
-212.5000000000001
 20
-175
 10
212.4999999999999
 20
-175
  0
LWPOLYLINE
  5
160
100
AcDbEntity
  8
0
  6
ByLayer
 62
  256
370
   -1
100
AcDbPolyline
 90
    4
 70
    1
 43
0
 10
262.4999999999999
 20
-200
 10
262.4999999999999
 20
0
 10
-262.5000000000001
 20
0
 10
-262.5000000000001
 20
-200
  0
ARC
  5
161
100
AcDbEntity
  8
0
  6
ByLayer
 62
  256
370
   -1
100
AcDbCircle
 10
-11.93000000000031
 20
-497.969999999998
 40
202.38125
100
AcDbArc
 50
133.01722
 51
273.38
  0
ARC
  5
162
100
AcDbEntity
  8
0
  6
ByLayer
 62
  256
370
   -1
100
AcDbCircle
 10
-215.6250000000001
 20
-46.875
 40
22.0970875
100
AcDbArc
 50
81.8699
 51
188.1301
  0
LWPOLYLINE
  5
163
100
AcDbEntity
  8
0
  6
ByLayer
 62
  256
370
   -1
100
AcDbPolyline
 90
    2
 70
    0
 43
0
 10
-237.5000000000001
 20
-50
 10
-237.5000000000001
 20
-150
  0
ARC
  5
164
100
AcDbEntity
  8
0
  6
ByLayer
 62
  256
370
   -1
100
AcDbCircle
 10
-215.6250000000001
 20
-153.125
 40
22.0970875
100
AcDbArc
 50
171.869898
 51
278.1301
  0
LINE
  5
165
100
AcDbEntity
  8
0
  6
ByLayer
 62
  256
370
   -1
100
AcDbLine
 10
-250.0000000000001
 20
-237.5
 11
-250.0000000000001
 21
-212.5
  0
LINE
  5
166
100
AcDbEntity
  8
0
  6
ByLayer
 62
  256
370
   -1
100
AcDbLine
 10
99.99999999999996
 20
-200
 11
149.9999999999999
 21
-350
  0
LINE
  5
167
100
AcDbEntity
  8
0
  6
ByLayer
 62
  256
370
   -1
100
AcDbLine
 10
-100
 20
-200
 11
-150.0000000000001
 21
-350
  0
ARC
  5
168
100
AcDbEntity
  8
0
  6
ByLayer
 62
  256
370
   -1
100
AcDbCircle
 10
-0.9324999999997363
 20
-496.8274999999977
 40
178.174075
100
AcDbArc
 50
270.3000000000001
 51
55.49460000000001
  0
ARC
  5
169
100
AcDbEntity
  8
0
  6
ByLayer
 62
  256
370
   -1
100
AcDbCircle
 10
11.93249999999959
 20
-497.969999999998
 40
202.38125
100
AcDbArc
 50
266.62
 51
46.98280000000001
  0
LINE
  5
16A
100
AcDbEntity
  8
0
  6
ByLayer
 62
  256
370
   -1
100
AcDbLine
 10
99.99999999999996
 20
-350
 11
-100
 21
-350
  0
LINE
  5
16B
100
AcDbEntity
  8
0
  6
ByLayer
 62
  256
370
   -1
100
AcDbLine
 10
-175.0000000000001
 20
-200
 11
-175.0000000000001
 21
-237.5
  0
LINE
  5
16C
100
AcDbEntity
  8
0
  6
ByLayer
 62
  256
370
   -1
100
AcDbLine
 10
-200.0000000000001
 20
-212.5
 11
-200.0000000000001
 21
-200
  0
ARC
  5
16D
100
AcDbEntity
  8
0
  6
ByLayer
 62
  256
370
   -1
100
AcDbCircle
 10
215.6249999999999
 20
-46.875
 40
22.0970875
100
AcDbArc
 50
351.8699
 51
98.13009999999998
  0
ARC
  5
16E
100
AcDbEntity
  8
0
  6
ByLayer
 62
  256
370
   -1
100
AcDbCircle
 10
215.6249999999999
 20
-153.125
 40
22.0970875
100
AcDbArc
 50
261.8699
 51
8.130099999999993
  0
LINE
  5
16F
100
AcDbEntity
  8
0
  6
ByLayer
 62
  256
370
   -1
100
AcDbLine
 10
237.4999999999999
 20
-150
 11
237.4999999999999
 21
-50
  0
ENDBLK
  5
85
330
83
100
AcDbEntity
  8
0
100
AcDbBlockEnd
  0
BLOCK
  5
87
330
86
100
AcDbEntity
  8
0
100
AcDbBlockBegin
  2
A$C13D77FA0
 70
    0
 10
0
 20
0
  3
A$C13D77FA0
  1

  0
INSERT
  5
170
100
AcDbEntity
  8
RDC
  6
ByLayer
 62
  256
370
   -1
100
AcDbBlockReference
  2
TOILETTES_HAUT
 10
26.25002152923571
 20
69.99990101347157
 30
0
 41
-0.1
 42
0.1
 43
0
 50
0
 70
    1
 71
    1
 44
0
 45
0
  0
ENDBLK
  5
88
330
86
100
AcDbEntity
  8
0
100
AcDbBlockEnd
  0
BLOCK
  5
8A
330
89
100
AcDbEntity
  8
0
100
AcDbBlockBegin
  2
PORTE83X204
 70
    0
 10
0
 20
0
  3
PORTE83X204
  1

  0
ARC
  5
171
100
AcDbEntity
  8
0
  6
ByLayer
 62
  256
370
   -1
100
AcDbCircle
 10
5
 20
0
 40
83
100
AcDbArc
 50
0
 51
90.00000000001185
  0
LWPOLYLINE
  5
172
100
AcDbEntity
  8
0
  6
ByLayer
 62
  256
370
   -1
100
AcDbPolyline
 90
    4
 70
    1
 43
0
 10
5
 20
0
 10
9
 20
0
 10
9
 20
83
 10
5
 20
83
  0
LWPOLYLINE
  5
173
100
AcDbEntity
  8
0
  6
ByLayer
 62
  256
370
   -1
100
AcDbPolyline
 90
    4
 70
    1
 43
0
 10
5
 20
0
 10
0
 20
0
 10
0
 20
-10
 10
5
 20
-10
  0
LWPOLYLINE
  5
174
100
AcDbEntity
  8
0
  6
ByLayer
 62
  256
370
   -1
100
AcDbPolyline
 90
    4
 70
    1
 43
0
 10
93
 20
0
 10
88
 20
0
 10
88
 20
-10
 10
93
 20
-10
  0
ENDBLK
  5
8B
330
89
100
AcDbEntity
  8
0
100
AcDbBlockEnd
  0
BLOCK
  5
8D
330
8C
100
AcDbEntity
  8
0
100
AcDbBlockBegin
  2
A$C5F556693
 70
    0
 10
0
 20
0
  3
A$C5F556693
  1

  0
INSERT
  5
175
100
AcDbEntity
  8
0
  6
ByLayer
 62
  256
370
   -1
100
AcDbBlockReference
  2
PORTE83X204
 10
82.99996529766213
 20
1.42084015806e-05
 30
0
 41
1
 42
1
 43
0
 50
90
 70
    1
 71
    1
 44
0
 45
0
  0
ENDBLK
  5
8E
330
8C
100
AcDbEntity
  8
0
100
AcDbBlockEnd
  0
BLOCK
  5
90
330
8F
100
AcDbEntity
  8
0
100
AcDbBlockBegin
  2
A$C7E235789
 70
    0
 10
0
 20
0
  3
A$C7E235789
  1

  0
LINE
  5
176
100
AcDbEntity
  8
RDC
  6
ByLayer
 62
  256
370
   -1
100
AcDbLine
 10
98.99496601284773
 20
54.49749279604634
 11
49.49749132978968
 21
103.9949674791047
  0
LWPOLYLINE
  5
177
100
AcDbEntity
  8
RDC
  6
ByLayer
 62
  256
370
   -1
100
AcDbPolyline
 90
    4
 70
    1
 43
0
 10
49.49749132978968
 20
96.92389966723897
 10
7.071084458596943
 20
54.49749279604669
 10
49.49749132978968
 20
12.07108592485361
 10
91.92389820098242
 20
54.497492796046
  0
LINE
  5
178
100
AcDbEntity
  8
RDC
  6
ByLayer
 62
  256
370
   -1
100
AcDbLine
 10
44.49749132978968
 20
1.81129879593e-05
 11
103.9949660128477
 21
59.49749279604623
  0
CIRCLE
  5
179
100
AcDbEntity
  8
RDC
  6
ByLayer
 62
  256
370
   -1
100
AcDbCircle
 10
36.7064333862445
 20
70.84373802368418
 40
3.524766113525402
  0
LINE
  5
17A
100
AcDbEntity
  8
RDC
  6
ByLayer
 62
  256
370
   -1
100
AcDbLine
 10
49.49749132978968
 20
103.9949674791047
 11
1.66467311828e-05
 21
54.49749279604646
  0
LINE
  5
17B
100
AcDbEntity
  8
RDC
  6
ByLayer
 62
  256
370
   -1
100
AcDbLine
 10
44.49749132978923
 20
10.00001811298807
 11
1.66467311828e-05
 21
10.00001811298807
  0
LINE
  5
17C
100
AcDbEntity
  8
RDC
  6
ByLayer
 62
  256
370
   -1
100
AcDbLine
 10
1.66467311828e-05
 20
54.49749279604646
 11
49.49749132978968
 21
5.000018112988073
  0
LINE
  5
17D
100
AcDbEntity
  8
RDC
  6
ByLayer
 62
  256
370
   -1
100
AcDbLine
 10
103.9949660128477
 20
103.9949674791047
 11
103.9949660128477
 21
59.49749279604623
  0
LINE
  5
17E
100
AcDbEntity
  8
RDC
  6
ByLayer
 62
  256
370
   -1
100
AcDbLine
 10
93.99496601284773
 20
103.9949674791047
 11
93.99496601284773
 21
59.49749279604646
  0
LWPOLYLINE
  5
17F
100
AcDbEntity
  8
RDC
  6
ByLayer
 62
  256
370
   -1
100
AcDbPolyline
 90
    4
 70
    1
 43
0
 10
98.13887275168418
 20
52.68997949645768
 10
98.99496601284773
 20
54.49749279604634
 10
67.36348327004634
 20
69.47912486641326
 10
66.50739000888234
 20
67.67161156682459
  0
LWPOLYLINE
  5
180
100
AcDbEntity
  8
RDC
  6
ByLayer
 62
  256
370
   -1
100
AcDbPolyline
 90
    4
 70
    1
 43
0
 10
66.50739000888234
 20
67.67161156682482
 10
64.72665114317988
 20
66.76113416887529
 10
80.66000560729935
 20
35.59820401908462
 10
82.44074447300136
 20
36.50868141703404
  0
LINE
  5
181
100
AcDbEntity
  8
RDC
  6
ByLayer
 62
  256
370
   -1
100
AcDbLine
 10
44.49749132978968
 20
1.81129879593e-05
 11
1.66467311828e-05
 21
1.81129879593e-05
  0
ENDBLK
  5
91
330
8F
100
AcDbEntity
  8
0
100
AcDbBlockEnd
  0
BLOCK
  5
93
330
92
100
AcDbEntity
  8
0
100
AcDbBlockBegin
  2
CANAPÉ_CONFORT_152CM
 70
    0
 10
0
 20
0
  3
CANAPÉ_CONFORT_152CM
  1

  0
LINE
  5
182
100
AcDbEntity
  8
0
  6
CONTINUOUS
 62
  256
370
   -1
100
AcDbLine
 10
0
 20
-811.0495000000615
 11
0
 21
-149.9995000000612
  0
LWPOLYLINE
  5
183
100
AcDbEntity
  8
0
  6
CONTINUOUS
 62
  256
370
   -1
100
AcDbPolyline
 90
    3
 70
    0
 43
0
 10
-599.9999999999997
 20
-849.9995000000613
 10
-749.9999999999997
 20
-849.9995000000613
 10
-749.9999999999997
 20
-199.9995000000612
  0
LINE
  5
184
100
AcDbEntity
  8
0
  6
CONTINUOUS
 62
  256
370
   -1
100
AcDbLine
 10
-599.9999999999997
 20
-849.9995000000613
 11
-599.9999999999997
 21
-286.7395000000608
  0
LINE
  5
185
100
AcDbEntity
  8
0
  6
CONTINUOUS
 62
  256
370
   -1
100
AcDbLine
 10
-599.9999999999997
 20
-811.0495000000615
 11
600.0010000000003
 21
-811.0495000000615
  0
LINE
  5
186
100
AcDbEntity
  8
0
  6
CONTINUOUS
 62
  256
370
   -1
100
AcDbLine
 10
-599.9949999999994
 20
-334.5445000000612
 11
599.9965
 21
-334.5445000000612
  0
ARC
  5
187
100
AcDbEntity
  8
0
  6
CONTINUOUS
 62
  256
370
   -1
100
AcDbCircle
 10
0
 20
-1534.609500000061
 40
1384.611000000181
100
AcDbArc
 50
64.32083000000306
 51
115.6791999999996
  0
ARC
  5
188
100
AcDbEntity
  8
0
  6
CONTINUOUS
 62
  256
370
   -1
100
AcDbCircle
 10
0
 20
-1506.249500000061
 40
1506.249500000061
100
AcDbArc
 50
60.13715000000121
 51
119.862800000004
  0
LWPOLYLINE
  5
189
100
AcDbEntity
  8
0
  6
CONTINUOUS
 62
  256
370
   -1
100
AcDbPolyline
 90
    3
 70
    0
 43
0
 10
750.0010000000003
 20
-199.9995000000612
 10
750.0010000000003
 20
-849.9995000000613
 10
600.0010000000003
 20
-849.9995000000613
  0
LINE
  5
18A
100
AcDbEntity
  8
0
  6
CONTINUOUS
 62
  256
370
   -1
100
AcDbLine
 10
600.0010000000003
 20
-849.9995000000613
 11
600.0010000000003
 21
-286.7395000000608
  0
ENDBLK
  5
94
330
92
100
AcDbEntity
  8
0
100
AcDbBlockEnd
  0
BLOCK
  5
96
330
95
100
AcDbEntity
  8
0
100
AcDbBlockBegin
  2
CANAPÉ_DOS_ROND_213CM
 70
    0
 10
0
 20
0
  3
CANAPÉ_DOS_ROND_213CM
  1

  0
LINE
  5
18B
100
AcDbEntity
  8
0
  6
CONTINUOUS
 62
  256
370
   -1
100
AcDbLine
 10
299.99925
 20
-811.0525000000981
 11
299.9994999999998
 21
-164.9275000000975
  0
LWPOLYLINE
  5
18C
100
AcDbEntity
  8
0
  6
CONTINUOUS
 62
  256
370
   -1
100
AcDbPolyline
 90
    3
 70
    0
 43
0
 10
1049.9995
 20
-200.0000000000986
 10
1049.9995
 20
-850.0000000000986
 10
899.9994999999999
 20
-850.0000000000986
  0
LINE
  5
18D
100
AcDbEntity
  8
0
  6
CONTINUOUS
 62
  256
370
   -1
100
AcDbLine
 10
899.9994999999999
 20
-850.0000000000986
 11
899.9994999999999
 21
-286.7400000000989
  0
LINE
  5
18E
100
AcDbEntity
  8
0
  6
CONTINUOUS
 62
  256
370
   -1
100
AcDbLine
 10
-300.0005000000002
 20
-811.0525000000981
 11
-300.00075
 21
-164.9275000000975
  0
LWPOLYLINE
  5
18F
100
AcDbEntity
  8
0
  6
CONTINUOUS
 62
  256
370
   -1
100
AcDbPolyline
 90
    3
 70
    0
 43
0
 10
-900.0006750000001
 20
-850.0000000000986
 10
-1050.000675
 20
-850.0000000000986
 10
-1050.000675
 20
-200.0000000000986
  0
LINE
  5
190
100
AcDbEntity
  8
0
  6
CONTINUOUS
 62
  256
370
   -1
100
AcDbLine
 10
-900.0006750000001
 20
-850.0000000000986
 11
-900.0006750000001
 21
-286.7400000000989
  0
LINE
  5
191
100
AcDbEntity
  8
0
  6
CONTINUOUS
 62
  256
370
   -1
100
AcDbLine
 10
-900.0006750000001
 20
-811.0525000000981
 11
899.9994999999999
 21
-811.0525000000981
  0
LINE
  5
192
100
AcDbEntity
  8
0
  6
CONTINUOUS
 62
  256
370
   -1
100
AcDbLine
 10
-899.9960999999998
 20
-334.5475000000993
 11
899.9949999999999
 21
-334.5475000000993
  0
ARC
  5
193
100
AcDbEntity
  8
0
  6
CONTINUOUS
 62
  256
370
   -1
100
AcDbCircle
 10
-0.0002500000000794
 20
-3179.920000000099
 40
3029.919999999933
100
AcDbArc
 50
72.72032999999948
 51
107.2797000000005
  0
ARC
  5
194
100
AcDbEntity
  8
0
  6
CONTINUOUS
 62
  256
370
   -1
100
AcDbCircle
 10
0
 20
-2856.250000000099
 40
2856.250000000099
100
AcDbArc
 50
68.43141000000074
 51
111.5686000000006
  0
ENDBLK
  5
97
330
95
100
AcDbEntity
  8
0
100
AcDbBlockEnd
  0
BLOCK
  5
99
330
98
100
AcDbEntity
  8
0
100
AcDbBlockBegin
  2
TABLE_RECTANG_BOIS_76X152CM
 70
    0
 10
0
 20
0
  3
TABLE_RECTANG_BOIS_76X152CM
  1

  0
LINE
  5
195
100
AcDbEntity
  8
0
  6
CONTINUOUS
 62
  256
370
   -1
100
AcDbLine
 10
0
 20
0
 11
0
 21
-750
  0
LWPOLYLINE
  5
196
100
AcDbEntity
  8
0
  6
CONTINUOUS
 62
  256
370
   -1
100
AcDbPolyline
 90
   81
 70
    0
 43
0
 10
0
 20
-229.9999999999997
 10
164.3974999999998
 20
-227.1450000000002
 10
298.4624999999994
 20
-225.9124999999997
 10
406.3175000000001
 20
-226.0450000000006
 10
492.0824999999994
 20
-227.2925000000001
 10
559.8799999999997
 20
-229.3975000000003
 10
613.8274999999993
 20
-232.1100000000001
 10
658.0500000000001
 20
-235.1725000000002
 10
696.6650000000002
 20
-238.3324999999999
 10
733.1024999999997
 20
-241.3825000000003
 10
768.0075000000002
 20
-244.2975000000004
 10
801.3300000000002
 20
-247.0924999999994
 10
833.0199999999991
 20
-249.7924999999995
 10
863.0324999999999
 20
-252.4124999999998
 10
891.3150000000002
 20
-254.9750000000003
 10
917.8200000000004
 20
-257.4974999999995
 10
942.4999999999998
 20
-259.9999999999994
 10
965.3224999999992
 20
-262.4899999999997
 10
986.3275000000001
 20
-264.9225000000001
 10
1005.575
 20
-267.2375000000002
 10
1023.125
 20
-269.3749999999994
 10
1039.0325
 20
-271.2800000000001
 10
1053.359999999999
 20
-272.8899999999996
 10
1066.1625
 20
-274.1500000000002
 10
1077.499999999999
 20
-275
 10
1087.439999999999
 20
-275.3950000000003
 10
1096.0925
 20
-275.3399999999999
 10
1103.574999999999
 20
-274.8549999999994
 10
1110
 20
-273.9575000000002
 10
1115.4875
 20
-272.6725000000002
 10
1120.155
 20
-271.0149999999999
 10
1124.119999999999
 20
-269.0075000000007
 10
1127.499999999999
 20
-266.6674999999998
 10
1130.387499999999
 20
-263.9949999999999
 10
1132.785
 20
-260.9125000000006
 10
1134.677499999999
 20
-257.3224999999994
 10
1136.04
 20
-253.125
 10
1136.857499999999
 20
-248.2249999999993
 10
1137.11
 20
-242.5274999999999
 10
1136.772499999999
 20
-235.9274999999997
 10
1135.832499999999
 20
-228.3325000000005
 10
1134.29
 20
-219.7074999999998
 10
1132.24
 20
-210.2599999999995
 10
1129.797499999999
 20
-200.2674999999996
 10
1127.082499999999
 20
-190.0000000000006
 10
1124.2125
 20
-179.7325000000001
 10
1121.3025
 20
-169.7400000000002
 10
1118.469999999999
 20
-160.2924999999999
 10
1115.832499999999
 20
-151.6675000000006
 10
1113.499999999999
 20
-144.0700000000007
 10
1111.534999999999
 20
-137.4475000000004
 10
1110.0025
 20
-131.6874999999996
 10
1108.9575
 20
-126.6675000000006
 10
1108.46
 20
-122.2724999999997
 10
1108.567499999999
 20
-118.3850000000007
 10
1109.34
 20
-114.8899999999998
 10
1110.832499999999
 20
-111.6675000000001
 10
1113.09
 20
-108.6325000000002
 10
1116.0675
 20
-105.8324999999996
 10
1119.709999999999
 20
-103.3474999999996
 10
1123.957499999999
 20
-101.2500000000003
 10
1128.7525
 20
-99.62249999999955
 10
1134.035
 20
-98.54250000000064
 10
1139.749999999999
 20
-98.08500000000038
 10
1145.832499999999
 20
-98.33249999999936
 10
1152.2875
 20
-99.37249999999977
 10
1159.335
 20
-101.3275000000007
 10
1167.265
 20
-104.3400000000005
 10
1176.355
 20
-108.5425000000001
 10
1186.89
 20
-114.0725000000003
 10
1199.1525
 20
-121.0674999999995
 10
1213.43
 20
-129.665
 10
1230
 20
-140.0000000000006
 10
1249.19
 20
-152.1100000000004
 10
1271.485
 20
-165.625
 10
1297.4125
 20
-180.0775000000002
 10
1327.499999999999
 20
-195.0000000000003
 10
1362.275
 20
-209.9225000000004
 10
1402.265
 20
-224.3750000000006
 10
1447.997499999999
 20
-237.8900000000002
 10
1500
 20
-250
  0
LINE
  5
197
100
AcDbEntity
  8
0
  6
CONTINUOUS
 62
  256
370
   -1
100
AcDbLine
 10
1500
 20
0
 11
0
 21
0
  0
LINE
  5
198
100
AcDbEntity
  8
0
  6
CONTINUOUS
 62
  256
370
   -1
100
AcDbLine
 10
1500
 20
-750
 11
1500
 21
0
  0
LWPOLYLINE
  5
199
100
AcDbEntity
  8
0
  6
CONTINUOUS
 62
  256
370
   -1
100
AcDbPolyline
 90
   73
 70
    0
 43
0
 10
0
 20
-59.99999999999943
 10
120.3874999999996
 20
-60.45000000000016
 10
225.7549999999995
 20
-61.71999999999969
 10
317.7250000000001
 20
-63.69250000000051
 10
397.9174999999998
 20
-66.24999999999943
 10
467.9524999999998
 20
-69.27749999999975
 10
529.4524999999993
 20
-72.65749999999969
 10
584.0400000000002
 20
-76.26999999999953
 10
633.3324999999988
 20
-79.99999999999972
 10
678.6924999999997
 20
-83.73749999999944
 10
720.4300000000003
 20
-87.39499999999936
 10
758.5925000000003
 20
-90.9000000000006
 10
793.2275000000004
 20
-94.16750000000036
 10
824.3899999999996
 20
-97.1225000000004
 10
852.1225000000002
 20
-99.68750000000028
 10
876.4749999999992
 20
-101.7849999999996
 10
897.4999999999994
 20
-103.3349999999999
 10
915.2850000000001
 20
-104.2775000000006
 10
930.1024999999995
 20
-104.6350000000004
 10
942.2650000000004
 20
-104.4475000000006
 10
952.0824999999988
 20
-103.7499999999994
 10
959.8699999999994
 20
-102.5850000000005
 10
965.9374999999998
 20
-100.9900000000002
 10
970.5974999999995
 20
-99.00500000000108
 10
974.1649999999993
 20
-96.66749999999951
 10
976.9099999999994
 20
-94.02000000000044
 10
978.9324999999991
 20
-91.11999999999938
 10
980.2899999999994
 20
-88.02500000000038
 10
981.0400000000002
 20
-84.79250000000036
 10
981.2449999999999
 20
-81.4824999999999
 10
980.9624999999996
 20
-78.1525000000002
 10
980.2499999999995
 20
-74.85999999999962
 10
979.1650000000004
 20
-71.66749999999951
 10
977.7749999999997
 20
-68.61750000000058
 10
976.1700000000005
 20
-65.70250000000044
 10
974.4500000000003
 20
-62.90750000000003
 10
972.7075
 20
-60.20749999999992
 10
971.0449999999994
 20
-57.58749999999964
 10
969.5574999999991
 20
-55.02500000000055
 10
968.3425
 20
-52.50249999999994
 10
967.4999999999998
 20
-50
 10
967.1099999999996
 20
-47.50750000000039
 10
967.1875
 20
-45.0524999999999
 10
967.7350000000004
 20
-42.67499999999984
 10
968.75
 20
-40.41749999999951
 10
970.2349999999996
 20
-38.31500000000005
 10
972.1874999999998
 20
-36.40749999999997
 10
974.6099999999999
 20
-34.73249999999979
 10
977.4999999999991
 20
-33.33250000000021
 10
980.8774999999997
 20
-32.24000000000018
 10
984.8424999999992
 20
-31.45750000000049
 10
989.51
 20
-30.9899999999999
 10
995.0000000000002
 20
-30.83249999999964
 10
1001.425
 20
-30.9899999999999
 10
1008.905
 20
-31.45750000000049
 10
1017.557499999999
 20
-32.24000000000018
 10
1027.499999999999
 20
-33.33250000000021
 10
1038.867499999999
 20
-34.73749999999995
 10
1051.887499999999
 20
-36.43249999999938
 10
1066.8025
 20
-38.40249999999941
 10
1083.855
 20
-40.625
 10
1103.29
 20
-43.08249999999987
 10
1125.35
 20
-45.75499999999977
 10
1150.284999999999
 20
-48.62250000000046
 10
1178.332499999999
 20
-51.66750000000064
 10
1209.654999999999
 20
-54.86750000000029
 10
1244.0625
 20
-58.20250000000016
 10
1281.2825
 20
-61.65749999999974
 10
1321.039999999999
 20
-65.20749999999964
 10
1363.065
 20
-68.83749999999935
 10
1407.0825
 20
-72.52749999999963
 10
1452.817500000001
 20
-76.25249999999966
 10
1500
 20
-79.99999999999972
  0
LINE
  5
19A
100
AcDbEntity
  8
0
  6
CONTINUOUS
 62
  256
370
   -1
100
AcDbLine
 10
0
 20
-750
 11
1500
 21
-750
  0
LWPOLYLINE
  5
19B
100
AcDbEntity
  8
0
  6
CONTINUOUS
 62
  256
370
   -1
100
AcDbPolyline
 90
   33
 70
    0
 43
0
 10
0
 20
-720.0000000000002
 10
142.1674999999993
 20
-716.7024999999995
 10
261.2499999999997
 20
-714.2449999999997
 10
360.1749999999996
 20
-712.5299999999995
 10
441.8750000000003
 20
-711.4599999999996
 10
509.2775000000003
 20
-710.9350000000006
 10
565.3125000000002
 20
-710.8599999999996
 10
612.9099999999994
 20
-711.1374999999996
 10
654.9999999999998
 20
-711.6675
 10
694.05
 20
-712.3675000000005
 10
730.6899999999998
 20
-713.2024999999999
 10
765.0824999999998
 20
-714.1575000000003
 10
797.3950000000002
 20
-715.2100000000005
 10
827.7950000000004
 20
-716.3375000000002
 10
856.4449999999994
 20
-717.5274999999999
 10
883.5124999999991
 20
-718.7524999999994
 10
909.1650000000002
 20
-720.0000000000002
 10
933.6074999999994
 20
-721.2424999999996
 10
957.2000000000003
 20
-722.4350000000002
 10
980.3425000000004
 20
-723.5299999999995
 10
1003.4375
 20
-724.4800000000012
 10
1026.882500000001
 20
-725.2324999999998
 10
1051.08
 20
-725.7424999999998
 10
1076.429999999999
 20
-725.9600000000006
 10
1103.332499999999
 20
-725.8325
 10
1132.339999999999
 20
-725.2849999999995
 10
1164.6075
 20
-724.1024999999993
 10
1201.4475
 20
-722.0399999999997
 10
1244.165
 20
-718.8550000000007
 10
1294.0725
 20
-714.3024999999994
 10
1352.4725
 20
-708.1374999999994
 10
1420.68
 20
-700.1199999999997
 10
1500
 20
-690.0000000000006
  0
LWPOLYLINE
  5
19C
100
AcDbEntity
  8
0
  6
CONTINUOUS
 62
  256
370
   -1
100
AcDbPolyline
 90
   33
 70
    0
 43
0
 10
0
 20
-629.9999999999998
 10
215.8874999999995
 20
-626.2600000000007
 10
392.5650000000005
 20
-622.5774999999999
 10
535.1224999999999
 20
-619.0150000000003
 10
648.6449999999991
 20
-615.625
 10
738.2249999999999
 20
-612.4700000000005
 10
808.9449999999999
 20
-609.6100000000007
 10
865.8974999999998
 20
-607.0999999999998
 10
914.1674999999992
 20
-604.9999999999998
 10
958.0325000000003
 20
-603.3524999999997
 10
998.5424999999992
 20
-602.1349999999998
 10
1035.925
 20
-601.3075000000001
 10
1070.417499999999
 20
-600.8325
 10
1102.2525
 20
-600.6699999999995
 10
1131.6675
 20
-600.7824999999997
 10
1158.8925
 20
-601.1274999999998
 10
1184.1675
 20
-601.6675000000007
 10
1207.724999999999
 20
-602.3674999999997
 10
1229.819999999999
 20
-603.2174999999995
 10
1250.709999999999
 20
-604.2000000000002
 10
1270.649999999999
 20
-605.3124999999994
 10
1289.897499999999
 20
-606.5425000000005
 10
1308.7075
 20
-607.8775000000007
 10
1327.3375
 20
-609.3125
 10
1346.0425
 20
-610.8350000000002
 10
1365.022499999999
 20
-612.4250000000004
 10
1384.247499999999
 20
-614.0249999999994
 10
1403.635
 20
-615.5649999999994
 10
1423.0975
 20
-616.9800000000009
 10
1442.552499999999
 20
-618.1974999999994
 10
1461.91
 20
-619.1550000000007
 10
1481.0875
 20
-619.7775000000007
 10
1500
 20
-620.0000000000002
  0
LWPOLYLINE
  5
19D
100
AcDbEntity
  8
0
  6
CONTINUOUS
 62
  256
370
   -1
100
AcDbPolyline
 90
   49
 70
    0
 43
0
 10
0
 20
-559.9999999999994
 10
200.2449999999996
 20
-556.2524999999994
 10
360.2350000000001
 20
-552.5274999999993
 10
485.4199999999992
 20
-548.8375000000005
 10
581.25
 20
-545.2074999999993
 10
653.1724999999994
 20
-541.6574999999995
 10
706.6400000000001
 20
-538.2024999999999
 10
747.1000000000004
 20
-534.8675000000001
 10
779.9999999999998
 20
-531.6675000000004
 10
809.9175000000002
 20
-528.6199999999994
 10
837.9300000000001
 20
-525.73
 10
864.2425000000003
 20
-522.9950000000002
 10
889.0625
 20
-520.4175000000007
 10
912.5924999999995
 20
-517.9950000000006
 10
935.0374999999999
 20
-515.7300000000007
 10
956.6050000000005
 20
-513.6200000000002
 10
977.4999999999991
 20
-511.6675000000001
 10
997.9100000000003
 20
-509.8775000000003
 10
1017.9675
 20
-508.2825
 10
1037.7925
 20
-506.9199999999995
 10
1057.5
 20
-505.8324999999996
 10
1077.2075
 20
-505.0600000000003
 10
1097.03
 20
-504.6350000000004
 10
1117.09
 20
-504.6025
 10
1137.5
 20
-504.9999999999997
 10
1158.319999999999
 20
-505.8499999999995
 10
1179.367499999999
 20
-507.1100000000001
 10
1200.4075
 20
-508.7199999999996
 10
1221.1975
 20
-510.6250000000003
 10
1241.499999999999
 20
-512.7650000000003
 10
1261.0725
 20
-515.0774999999996
 10
1279.680000000001
 20
-517.51
 10
1297.082499999999
 20
-520.0000000000002
 10
1313.114999999999
 20
-522.4975000000001
 10
1327.915
 20
-524.9875000000003
 10
1341.702499999999
 20
-527.4574999999999
 10
1354.6875
 20
-529.8950000000004
 10
1367.085
 20
-532.2974999999999
 10
1379.115
 20
-534.6474999999998
 10
1390.984999999999
 20
-536.9425000000007
 10
1402.9175
 20
-539.1675000000007
 10
1415.07
 20
-541.2874999999999
 10
1427.402499999999
 20
-543.1650000000004
 10
1439.8225
 20
-544.6300000000008
 10
1452.24
 20
-545.5200000000004
 10
1464.557499999999
 20
-545.6699999999998
 10
1476.684999999999
 20
-544.9100000000001
 10
1488.53
 20
-543.0750000000003
 10
1500
 20
-540.0000000000006
  0
LWPOLYLINE
  5
19E
100
AcDbEntity
  8
0
  6
CONTINUOUS
 62
  256
370
   -1
100
AcDbPolyline
 90
   57
 70
    0
 43
0
 10
0
 20
-450
 10
128.0999999999992
 20
-443.1825000000003
 10
241.5224999999992
 20
-437.6424999999998
 10
341.7625000000001
 20
-433.2575000000006
 10
430.3124999999994
 20
-429.8950000000005
 10
508.6675
 20
-427.4325000000005
 10
578.3199999999994
 20
-425.7424999999998
 10
640.7674999999997
 20
-424.6949999999998
 10
697.4999999999994
 20
-424.1675000000001
 10
749.8199999999997
 20
-424.0425000000002
 10
798.2550000000003
 20
-424.2575000000002
 10
843.1349999999995
 20
-424.7675000000001
 10
884.7925000000004
 20
-425.5200000000002
 10
923.5574999999997
 20
-426.4700000000005
 10
959.7650000000001
 20
-427.5649999999999
 10
993.7474999999993
 20
-428.7575000000004
 10
1025.8325
 20
-429.9999999999997
 10
1056.297499999999
 20
-431.2399999999997
 10
1085.182499999999
 20
-432.4224999999998
 10
1112.465
 20
-433.4874999999997
 10
1138.125
 20
-434.375
 10
1162.145
 20
-435.0300000000004
 10
1184.505
 20
-435.3899999999996
 10
1205.185
 20
-435.3999999999999
 10
1224.1675
 20
-434.9999999999994
 10
1241.4575
 20
-434.1549999999998
 10
1257.18
 20
-432.9175000000006
 10
1271.487499999999
 20
-431.3675000000003
 10
1284.53
 20
-429.5824999999994
 10
1296.46
 20
-427.6425000000003
 10
1307.4275
 20
-425.6249999999994
 10
1317.585
 20
-423.6075
 10
1327.082499999999
 20
-421.6674999999995
 10
1336.075
 20
-419.8774999999998
 10
1344.725
 20
-418.2824999999994
 10
1353.2
 20
-416.9200000000004
 10
1361.664999999999
 20
-415.8349999999999
 10
1370.287499999999
 20
-415.0599999999997
 10
1379.232499999999
 20
-414.6349999999998
 10
1388.662499999999
 20
-414.6024999999995
 10
1398.75
 20
-415.0000000000006
 10
1409.569999999999
 20
-415.8424999999994
 10
1420.864999999999
 20
-417.0574999999999
 10
1432.2875
 20
-418.5450000000003
 10
1443.49
 20
-420.2100000000002
 10
1454.124999999999
 20
-421.9499999999996
 10
1463.8475
 20
-423.6725000000007
 10
1472.31
 20
-425.2775
 10
1479.165
 20
-426.6675000000006
 10
1484.197499999999
 20
-427.7675000000002
 10
1487.694999999999
 20
-428.595
 10
1490.08
 20
-429.1875000000005
 10
1491.77
 20
-429.5824999999994
 10
1493.187499999999
 20
-429.8249999999996
 10
1494.7525
 20
-429.9475000000001
 10
1496.882500000001
 20
-429.9949999999995
 10
1500
 20
-429.9999999999997
  0
LWPOLYLINE
  5
19F
100
AcDbEntity
  8
0
  6
CONTINUOUS
 62
  256
370
   -1
100
AcDbPolyline
 90
   65
 70
    0
 43
0
 10
0
 20
-320.0000000000003
 10
129.6174999999991
 20
-323.3049999999992
 10
240.5325000000005
 20
-325.8075000000005
 10
334.9074999999999
 20
-327.6475000000005
 10
414.8949999999999
 20
-328.9574999999999
 10
482.6575000000005
 20
-329.88
 10
540.3499999999995
 20
-330.5475000000001
 10
590.1349999999993
 20
-331.0974999999999
 10
634.1650000000002
 20
-331.6675000000004
 10
674.3200000000002
 20
-332.3674999999994
 10
711.3275000000001
 20
-333.2025000000002
 10
745.6400000000002
 20
-334.1575000000006
 10
777.7074999999996
 20
-335.2074999999999
 10
807.9774999999997
 20
-336.3375000000005
 10
836.9
 20
-337.5249999999994
 10
864.9249999999995
 20
-338.7524999999997
 10
892.4999999999998
 20
-340.0000000000006
 10
919.9600000000004
 20
-341.2424999999999
 10
947.1874999999998
 20
-342.4475000000001
 10
973.944999999999
 20
-343.5749999999999
 10
1000
 20
-344.5824999999999
 10
1025.1175
 20
-345.4350000000005
 10
1049.0625
 20
-346.0949999999997
 10
1071.599999999999
 20
-346.5175000000002
 10
1092.5
 20
-346.6674999999995
 10
1111.5775
 20
-346.5100000000007
 10
1128.879999999999
 20
-346.0425000000001
 10
1144.5025
 20
-345.2600000000004
 10
1158.539999999999
 20
-344.1675000000004
 10
1171.097500000001
 20
-342.7599999999998
 10
1182.265
 20
-341.0425000000004
 10
1192.144999999999
 20
-339.0100000000004
 10
1200.8325
 20
-336.6675000000001
 10
1208.4375
 20
-334.0199999999996
 10
1215.105
 20
-331.1199999999999
 10
1220.99
 20
-328.0249999999995
 10
1226.25
 20
-324.7924999999995
 10
1231.0425
 20
-321.4825000000005
 10
1235.52
 20
-318.1524999999993
 10
1239.8425
 20
-314.8600000000002
 10
1244.1675
 20
-311.6675000000001
 10
1248.63
 20
-308.6275000000001
 10
1253.3075
 20
-305.7824999999994
 10
1258.257500000001
 20
-303.1700000000001
 10
1263.54
 20
-300.8324999999999
 10
1269.215
 20
-298.8100000000003
 10
1275.337499999999
 20
-297.1350000000001
 10
1281.97
 20
-295.8524999999995
 10
1289.165
 20
-295.0000000000003
 10
1296.962499999999
 20
-294.6074999999993
 10
1305.29
 20
-294.6624999999997
 10
1314.05
 20
-295.1475000000002
 10
1323.15
 20
-296.0425000000001
 10
1332.495
 20
-297.3275000000001
 10
1341.9875
 20
-298.9850000000004
 10
1351.535
 20
-300.9924999999996
 10
1361.04
 20
-303.3325000000005
 10
1370.5575
 20
-306.0024999999996
 10
1380.732499999999
 20
-309.0625000000003
 10
1392.354999999999
 20
-312.5924999999995
 10
1406.2225
 20
-316.6674999999998
 10
1423.1275
 20
-321.3674999999995
 10
1443.8625
 20
-326.7700000000005
 10
1469.222499999999
 20
-332.9549999999998
 10
1500
 20
-340.0000000000006
  0
ENDBLK
  5
9A
330
98
100
AcDbEntity
  8
0
100
AcDbBlockEnd
  0
BLOCK
  5
9C
330
9B
100
AcDbEntity
  8
0
100
AcDbBlockBegin
  2
CHAISE
 70
    0
 10
0
 20
0
  3
CHAISE
  1

  0
ARC
  5
1A0
100
AcDbEntity
  8
RDC
  6
DASHED
 62
  256
370
   -1
100
AcDbCircle
 10
0
 20
0
 40
0.275
100
AcDbArc
 50
14.96181667177518
 51
158.6162613723686
  0
LINE
  5
1A1
100
AcDbEntity
  8
RDC
  6
DASHED
 62
  256
370
   -1
100
AcDbLine
 10
-0.2095108505281189
 20
0.0820378175659187
 11
-0.2560688173121548
 21
0.1002684436916752
  0
LINE
  5
1A2
100
AcDbEntity
  8
RDC
  6
DASHED
 62
  256
370
   -1
100
AcDbLine
 10
0.2173720714225738
 20
0.0580894359196407
 11
0.2656769761831299
 21
0.0709981994573354
  0
CIRCLE
  5
1A3
100
AcDbEntity
  8
RDC
  6
DASHED
 62
  256
370
   -1
100
AcDbCircle
 10
0
 20
0
 40
0.225
  0
ENDBLK
  5
9D
330
9B
100
AcDbEntity
  8
0
100
AcDbBlockEnd
  0
BLOCK
  5
9F
330
9E
100
AcDbEntity
  8
0
100
AcDbBlockBegin
  2
TABLESM
 70
    0
 10
0
 20
0
  3
TABLESM
  1

  0
ENDBLK
  5
A0
330
9E
100
AcDbEntity
  8
0
100
AcDbBlockEnd
  0
BLOCK
  5
A2
330
A1
100
AcDbEntity
  8
0
100
AcDbBlockBegin
  2
A$C77A03A5E
 70
    0
 10
0
 20
0
  3
A$C77A03A5E
  1

  0
ENDBLK
  5
A3
330
A1
100
AcDbEntity
  8
0
100
AcDbBlockEnd
  0
BLOCK
  5
A5
330
A4
100
AcDbEntity
  8
0
100
AcDbBlockBegin
  2
MEUBLESAM1
 70
    0
 10
0
 20
0
  3
MEUBLESAM1
  1

  0
LWPOLYLINE
  5
1A4
100
AcDbEntity
  8
RDC
  6
ByLayer
 62
  256
370
   -1
100
AcDbPolyline
 90
    4
 70
    1
 43
0
 10
42.5
 20
0
 10
87.5
 20
0
 10
87.5
 20
-45
 10
42.5
 20
-45
  0
LWPOLYLINE
  5
1A5
100
AcDbEntity
  8
RDC
  6
ByLayer
 62
  256
370
   -1
100
AcDbPolyline
 90
    4
 70
    1
 43
0
 10
-87.5
 20
0
 10
87.5
 20
0
 10
87.5
 20
-45
 10
-87.5
 20
-45
  0
LWPOLYLINE
  5
1A6
100
AcDbEntity
  8
RDC
  6
ByLayer
 62
  256
370
   -1
100
AcDbPolyline
 90
    4
 70
    1
 43
0
 10
-87.5
 20
0
 10
-42.5
 20
0
 10
-42.5
 20
-45
 10
-87.5
 20
-45
  0
LINE
  5
1A7
100
AcDbEntity
  8
RDC
  6
ByLayer
 62
  256
370
   -1
100
AcDbLine
 10
-42.55408213820101
 20
-5.17052615745888
 11
42.52762969758351
 21
-5.17052615745888
  0
ENDBLK
  5
A6
330
A4
100
AcDbEntity
  8
0
100
AcDbBlockEnd
  0
BLOCK
  5
A8
330
A7
100
AcDbEntity
  8
0
100
AcDbBlockBegin
  2
A$C3AA550BC
 70
    0
 10
0
 20
0
  3
A$C3AA550BC
  1

  0
ENDBLK
  5
A9
330
A7
100
AcDbEntity
  8
0
100
AcDbBlockEnd
  0
BLOCK
  5
AB
330
AA
100
AcDbEntity
  8
0
100
AcDbBlockBegin
  2
MEUBLESAM2
 70
    0
 10
0
 20
0
  3
MEUBLESAM2
  1

  0
LINE
  5
1A8
100
AcDbEntity
  8
RDC
  6
ByLayer
 62
  256
370
   -1
100
AcDbLine
 10
-65
 20
-3.407279465565807
 11
64.90970787886999
 21
-3.407279465565807
  0
LWPOLYLINE
  5
1A9
100
AcDbEntity
  8
RDC
  6
ByLayer
 62
  256
370
   -1
100
AcDbPolyline
 90
    4
 70
    1
 43
0
 10
30
 20
0
 10
65
 20
0
 10
65
 20
-45
 10
30
 20
-45
  0
LWPOLYLINE
  5
1AA
100
AcDbEntity
  8
RDC
  6
ByLayer
 62
  256
370
   -1
100
AcDbPolyline
 90
    4
 70
    1
 43
0
 10
-65
 20
-45
 10
65
 20
-45
 10
65
 20
0
 10
-65
 20
0
  0
LWPOLYLINE
  5
1AB
100
AcDbEntity
  8
RDC
  6
ByLayer
 62
  256
370
   -1
100
AcDbPolyline
 90
    4
 70
    1
 43
0
 10
-65
 20
0
 10
-30
 20
0
 10
-30
 20
-45
 10
-65
 20
-45
  0
ENDBLK
  5
AC
330
AA
100
AcDbEntity
  8
0
100
AcDbBlockEnd
  0
BLOCK
  5
AE
330
AD
100
AcDbEntity
  8
0
100
AcDbBlockBegin
  2
A$C38647797
 70
    0
 10
0
 20
0
  3
A$C38647797
  1

  0
INSERT
  5
1AC
100
AcDbEntity
  8
RDC
  6
ByLayer
 62
  256
370
   -1
100
AcDbBlockReference
  2
MEUBLESAM2
 10
65.00001174518184
 20
8.117868674199999e-06
 30
0
 41
1
 42
1
 43
0
 50
180
 70
    1
 71
    1
 44
0
 45
0
  0
ENDBLK
  5
AF
330
AD
100
AcDbEntity
  8
0
100
AcDbBlockEnd
  0
BLOCK
  5
B1
330
B0
100
AcDbEntity
  8
0
100
AcDbBlockBegin
  2
COMMODE
 70
    0
 10
0
 20
0
  3
COMMODE
  1

  0
LWPOLYLINE
  5
1AD
100
AcDbEntity
  8
RDC
  6
ByLayer
 62
  256
370
   -1
100
AcDbPolyline
 90
    4
 70
    1
 43
0
 10
-45
 20
0
 10
45
 20
0
 10
45
 20
-50
 10
-45
 20
-50
  0
LWPOLYLINE
  5
1AE
100
AcDbEntity
  8
RDC
  6
ByLayer
 62
  256
370
   -1
100
AcDbPolyline
 90
    4
 70
    1
 43
0
 10
-41.3405727003601
 20
-48.44866655483656
 10
40.99656478653014
 20
-48.44866655483656
 10
40.99656478653014
 20
-55.76167010476365
 10
-41.3405727003601
 20
-55.76167010476365
  0
LWPOLYLINE
  5
1AF
100
AcDbEntity
  8
RDC
  6
ByLayer
 62
  256
370
   -1
100
AcDbPolyline
 90
    4
 70
    1
 43
0
 10
-41.3405727003601
 20
-48.44866655483656
 10
-1.340572700360099
 20
-48.44866655483656
 10
-1.340572700360099
 20
-53.44866655483656
 10
-41.3405727003601
 20
-53.44866655483656
  0
LWPOLYLINE
  5
1B0
100
AcDbEntity
  8
RDC
  6
ByLayer
 62
  256
370
   -1
100
AcDbPolyline
 90
    4
 70
    1
 43
0
 10
1.657709692904973
 20
-48.44866655483656
 10
41.65770969290497
 20
-48.44866655483656
 10
41.65770969290497
 20
-53.44866655483656
 10
1.657709692904973
 20
-53.44866655483656
  0
ENDBLK
  5
B2
330
B0
100
AcDbEntity
  8
0
100
AcDbBlockEnd
  0
BLOCK
  5
B4
330
B3
100
AcDbEntity
  8
0
100
AcDbBlockBegin
  2
PIANO
 70
    0
 10
0
 20
0
  3
PIANO
  1

  0
LWPOLYLINE
  5
1B1
100
AcDbEntity
  8
RDC
  6
ByLayer
 62
  256
370
   -1
100
AcDbPolyline
 90
    4
 70
    1
 43
0
 10
-75
 20
0
 10
75
 20
0
 10
75
 20
-25
 10
-75
 20
-25
  0
LWPOLYLINE
  5
1B2
100
AcDbEntity
  8
RDC
  6
ByLayer
 62
  256
370
   -1
100
AcDbPolyline
 90
    4
 70
    1
 43
0
 10
-75
 20
-42
 10
75
 20
-42
 10
75
 20
0
 10
-75
 20
0
  0
ENDBLK
  5
B5
330
B3
100
AcDbEntity
  8
0
100
AcDbBlockEnd
  0
BLOCK
  5
B7
330
B6
100
AcDbEntity
  8
0
100
AcDbBlockBegin
  2
PIANODROIT
 70
    0
 10
0
 20
0
  3
PIANODROIT
  1

  0
INSERT
  5
1B3
100
AcDbEntity
  8
RDC
  6
ByLayer
 62
  256
370
   -1
100
AcDbBlockReference
  2
PIANO
 10
0
 20
0
 30
0
 41
1
 42
1
 43
0
 50
0
 70
    1
 71
    1
 44
0
 45
0
  0
LWPOLYLINE
  5
1B4
100
AcDbEntity
  8
RDC
  6
ByLayer
 62
  256
370
   -1
100
AcDbPolyline
 90
    4
 70
    1
 43
0
 10
-27.5
 20
-60
 10
27.5
 20
-60
 10
27.5
 20
-92
 10
-27.5
 20
-92
  0
LINE
  5
1B5
100
AcDbEntity
  8
RDC
  6
ByLayer
 62
  256
370
   -1
100
AcDbLine
 10
-51.55647936701735
 20
-27.68086965040129
 11
-51.55647936701735
 21
-39.82160402439331
  0
LINE
  5
1B6
100
AcDbEntity
  8
RDC
  6
ByLayer
 62
  256
370
   -1
100
AcDbLine
 10
-53.55647936701735
 20
-27.68086965040129
 11
-53.55647936701735
 21
-39.82160402439331
  0
LINE
  5
1B7
100
AcDbEntity
  8
RDC
  6
ByLayer
 62
  256
370
   -1
100
AcDbLine
 10
-55.55647936701735
 20
-27.68086965040129
 11
-55.55647936701735
 21
-39.82160402439331
  0
LINE
  5
1B8
100
AcDbEntity
  8
RDC
  6
ByLayer
 62
  256
370
   -1
100
AcDbLine
 10
-57.55647936701735
 20
-27.68086965040129
 11
-57.55647936701735
 21
-39.82160402439331
  0
LINE
  5
1B9
100
AcDbEntity
  8
RDC
  6
ByLayer
 62
  256
370
   -1
100
AcDbLine
 10
-59.55647936701735
 20
-27.68086965040129
 11
-59.55647936701735
 21
-39.82160402439331
  0
LINE
  5
1BA
100
AcDbEntity
  8
RDC
  6
ByLayer
 62
  256
370
   -1
100
AcDbLine
 10
-61.55647936701735
 20
-27.68086965040129
 11
-61.55647936701735
 21
-39.82160402439331
  0
LINE
  5
1BB
100
AcDbEntity
  8
RDC
  6
ByLayer
 62
  256
370
   -1
100
AcDbLine
 10
-63.55647936701735
 20
-27.68086965040129
 11
-63.55647936701735
 21
-39.82160402439331
  0
LINE
  5
1BC
100
AcDbEntity
  8
RDC
  6
ByLayer
 62
  256
370
   -1
100
AcDbLine
 10
-65.55647936701735
 20
-27.68086965040129
 11
-65.55647936701735
 21
-39.82160402439331
  0
LINE
  5
1BD
100
AcDbEntity
  8
RDC
  6
ByLayer
 62
  256
370
   -1
100
AcDbLine
 10
-67.55647936701735
 20
-27.68086965040129
 11
-67.55647936701735
 21
-39.82160402439331
  0
LINE
  5
1BE
100
AcDbEntity
  8
RDC
  6
ByLayer
 62
  256
370
   -1
100
AcDbLine
 10
-26.71363845570067
 20
-27.68086965040129
 11
-26.71363845570067
 21
-39.82160402439331
  0
LINE
  5
1BF
100
AcDbEntity
  8
RDC
  6
ByLayer
 62
  256
370
   -1
100
AcDbLine
 10
-24.71363845570067
 20
-27.68086965040129
 11
-24.71363845570067
 21
-39.82160402439331
  0
LINE
  5
1C0
100
AcDbEntity
  8
RDC
  6
ByLayer
 62
  256
370
   -1
100
AcDbLine
 10
-44.71363845570067
 20
-27.68086965040129
 11
-44.71363845570067
 21
-39.82160402439331
  0
LINE
  5
1C1
100
AcDbEntity
  8
RDC
  6
ByLayer
 62
  256
370
   -1
100
AcDbLine
 10
-42.71363845570067
 20
-27.68086965040129
 11
-42.71363845570067
 21
-39.82160402439331
  0
LINE
  5
1C2
100
AcDbEntity
  8
RDC
  6
ByLayer
 62
  256
370
   -1
100
AcDbLine
 10
-40.71363845570067
 20
-27.68086965040129
 11
-40.71363845570067
 21
-39.82160402439331
  0
LINE
  5
1C3
100
AcDbEntity
  8
RDC
  6
ByLayer
 62
  256
370
   -1
100
AcDbLine
 10
-38.71363845570067
 20
-27.68086965040129
 11
-38.71363845570067
 21
-39.82160402439331
  0
LINE
  5
1C4
100
AcDbEntity
  8
RDC
  6
ByLayer
 62
  256
370
   -1
100
AcDbLine
 10
-36.71363845570067
 20
-27.68086965040129
 11
-36.71363845570067
 21
-39.82160402439331
  0
LINE
  5
1C5
100
AcDbEntity
  8
RDC
  6
ByLayer
 62
  256
370
   -1
100
AcDbLine
 10
-34.71363845570067
 20
-27.68086965040129
 11
-34.71363845570067
 21
-39.82160402439331
  0
LINE
  5
1C6
100
AcDbEntity
  8
RDC
  6
ByLayer
 62
  256
370
   -1
100
AcDbLine
 10
-32.71363845570067
 20
-27.68086965040129
 11
-32.71363845570067
 21
-39.82160402439331
  0
LINE
  5
1C7
100
AcDbEntity
  8
RDC
  6
ByLayer
 62
  256
370
   -1
100
AcDbLine
 10
-30.71363845570067
 20
-27.68086965040129
 11
-30.71363845570067
 21
-39.82160402439331
  0
LINE
  5
1C8
100
AcDbEntity
  8
RDC
  6
ByLayer
 62
  256
370
   -1
100
AcDbLine
 10
-28.71363845570067
 20
-27.68086965040129
 11
-28.71363845570067
 21
-39.82160402439331
  0
LINE
  5
1C9
100
AcDbEntity
  8
RDC
  6
ByLayer
 62
  256
370
   -1
100
AcDbLine
 10
-47.55647936701735
 20
-27.68086965040129
 11
-47.55647936701735
 21
-39.82160402439331
  0
LINE
  5
1CA
100
AcDbEntity
  8
RDC
  6
ByLayer
 62
  256
370
   -1
100
AcDbLine
 10
-49.55647936701735
 20
-27.68086965040129
 11
-49.55647936701735
 21
-39.82160402439331
  0
LINE
  5
1CB
100
AcDbEntity
  8
RDC
  6
ByLayer
 62
  256
370
   -1
100
AcDbLine
 10
0.9720356186016943
 20
-27.68086965040129
 11
0.9720356186016943
 21
-39.82160402439331
  0
LINE
  5
1CC
100
AcDbEntity
  8
RDC
  6
ByLayer
 62
  256
370
   -1
100
AcDbLine
 10
2.972035618601694
 20
-27.68086965040129
 11
2.972035618601694
 21
-39.82160402439331
  0
LINE
  5
1CD
100
AcDbEntity
  8
RDC
  6
ByLayer
 62
  256
370
   -1
100
AcDbLine
 10
4.972035618601694
 20
-27.68086965040129
 11
4.972035618601694
 21
-39.82160402439331
  0
LINE
  5
1CE
100
AcDbEntity
  8
RDC
  6
ByLayer
 62
  256
370
   -1
100
AcDbLine
 10
6.972035618601694
 20
-27.68086965040129
 11
6.972035618601694
 21
-39.82160402439331
  0
LINE
  5
1CF
100
AcDbEntity
  8
RDC
  6
ByLayer
 62
  256
370
   -1
100
AcDbLine
 10
-5.384783609248188
 20
-27.68086965040129
 11
-5.384783609248188
 21
-39.82160402439331
  0
LINE
  5
1D0
100
AcDbEntity
  8
RDC
  6
ByLayer
 62
  256
370
   -1
100
AcDbLine
 10
-7.384783609248188
 20
-27.68086965040129
 11
-7.384783609248188
 21
-39.82160402439331
  0
LINE
  5
1D1
100
AcDbEntity
  8
RDC
  6
ByLayer
 62
  256
370
   -1
100
AcDbLine
 10
-9.384783609248188
 20
-27.68086965040129
 11
-9.384783609248188
 21
-39.82160402439331
  0
LINE
  5
1D2
100
AcDbEntity
  8
RDC
  6
ByLayer
 62
  256
370
   -1
100
AcDbLine
 10
-11.38478360924819
 20
-27.68086965040129
 11
-11.38478360924819
 21
-39.82160402439331
  0
LINE
  5
1D3
100
AcDbEntity
  8
RDC
  6
ByLayer
 62
  256
370
   -1
100
AcDbLine
 10
-13.38478360924819
 20
-27.68086965040129
 11
-13.38478360924819
 21
-39.82160402439331
  0
LINE
  5
1D4
100
AcDbEntity
  8
RDC
  6
ByLayer
 62
  256
370
   -1
100
AcDbLine
 10
-15.38478360924819
 20
-27.68086965040129
 11
-15.38478360924819
 21
-39.82160402439331
  0
LINE
  5
1D5
100
AcDbEntity
  8
RDC
  6
ByLayer
 62
  256
370
   -1
100
AcDbLine
 10
-17.38478360924819
 20
-27.68086965040129
 11
-17.38478360924819
 21
-39.82160402439331
  0
LINE
  5
1D6
100
AcDbEntity
  8
RDC
  6
ByLayer
 62
  256
370
   -1
100
AcDbLine
 10
-19.38478360924819
 20
-27.68086965040129
 11
-19.38478360924819
 21
-39.82160402439331
  0
LINE
  5
1D7
100
AcDbEntity
  8
RDC
  6
ByLayer
 62
  256
370
   -1
100
AcDbLine
 10
-21.38478360924819
 20
-27.68086965040129
 11
-21.38478360924819
 21
-39.82160402439331
  0
LINE
  5
1D8
100
AcDbEntity
  8
RDC
  6
ByLayer
 62
  256
370
   -1
100
AcDbLine
 10
-1.384783609248188
 20
-27.68086965040129
 11
-1.384783609248188
 21
-39.82160402439331
  0
LINE
  5
1D9
100
AcDbEntity
  8
RDC
  6
ByLayer
 62
  256
370
   -1
100
AcDbLine
 10
-3.384783609248188
 20
-27.68086965040129
 11
-3.384783609248188
 21
-39.82160402439331
  0
LINE
  5
1DA
100
AcDbEntity
  8
RDC
  6
ByLayer
 62
  256
370
   -1
100
AcDbLine
 10
18.97203561860169
 20
-27.68086965040129
 11
18.97203561860169
 21
-39.82160402439331
  0
LINE
  5
1DB
100
AcDbEntity
  8
RDC
  6
ByLayer
 62
  256
370
   -1
100
AcDbLine
 10
20.97203561860169
 20
-27.68086965040129
 11
20.97203561860169
 21
-39.82160402439331
  0
LINE
  5
1DC
100
AcDbEntity
  8
RDC
  6
ByLayer
 62
  256
370
   -1
100
AcDbLine
 10
35.81487652991837
 20
-27.68086965040129
 11
35.81487652991837
 21
-39.82160402439331
  0
LINE
  5
1DD
100
AcDbEntity
  8
RDC
  6
ByLayer
 62
  256
370
   -1
100
AcDbLine
 10
33.81487652991837
 20
-27.68086965040129
 11
33.81487652991837
 21
-39.82160402439331
  0
LINE
  5
1DE
100
AcDbEntity
  8
RDC
  6
ByLayer
 62
  256
370
   -1
100
AcDbLine
 10
31.81487652991837
 20
-27.68086965040129
 11
31.81487652991837
 21
-39.82160402439331
  0
LINE
  5
1DF
100
AcDbEntity
  8
RDC
  6
ByLayer
 62
  256
370
   -1
100
AcDbLine
 10
29.81487652991837
 20
-27.68086965040129
 11
29.81487652991837
 21
-39.82160402439331
  0
LINE
  5
1E0
100
AcDbEntity
  8
RDC
  6
ByLayer
 62
  256
370
   -1
100
AcDbLine
 10
27.81487652991837
 20
-27.68086965040129
 11
27.81487652991837
 21
-39.82160402439331
  0
LINE
  5
1E1
100
AcDbEntity
  8
RDC
  6
ByLayer
 62
  256
370
   -1
100
AcDbLine
 10
25.81487652991837
 20
-27.68086965040129
 11
25.81487652991837
 21
-39.82160402439331
  0
LINE
  5
1E2
100
AcDbEntity
  8
RDC
  6
ByLayer
 62
  256
370
   -1
100
AcDbLine
 10
23.81487652991837
 20
-27.68086965040129
 11
23.81487652991837
 21
-39.82160402439331
  0
LINE
  5
1E3
100
AcDbEntity
  8
RDC
  6
ByLayer
 62
  256
370
   -1
100
AcDbLine
 10
8.972035618601694
 20
-27.68086965040129
 11
8.972035618601694
 21
-39.82160402439331
  0
LINE
  5
1E4
100
AcDbEntity
  8
RDC
  6
ByLayer
 62
  256
370
   -1
100
AcDbLine
 10
10.97203561860169
 20
-27.68086965040129
 11
10.97203561860169
 21
-39.82160402439331
  0
LINE
  5
1E5
100
AcDbEntity
  8
RDC
  6
ByLayer
 62
  256
370
   -1
100
AcDbLine
 10
12.97203561860169
 20
-27.68086965040129
 11
12.97203561860169
 21
-39.82160402439331
  0
LINE
  5
1E6
100
AcDbEntity
  8
RDC
  6
ByLayer
 62
  256
370
   -1
100
AcDbLine
 10
14.97203561860169
 20
-27.68086965040129
 11
14.97203561860169
 21
-39.82160402439331
  0
LINE
  5
1E7
100
AcDbEntity
  8
RDC
  6
ByLayer
 62
  256
370
   -1
100
AcDbLine
 10
16.97203561860169
 20
-27.68086965040129
 11
16.97203561860169
 21
-39.82160402439331
  0
LINE
  5
1E8
100
AcDbEntity
  8
RDC
  6
ByLayer
 62
  256
370
   -1
100
AcDbLine
 10
65.14373137637085
 20
-27.68086965040129
 11
65.14373137637085
 21
-39.82160402439331
  0
LINE
  5
1E9
100
AcDbEntity
  8
RDC
  6
ByLayer
 62
  256
370
   -1
100
AcDbLine
 10
47.14373137637085
 20
-27.68086965040129
 11
47.14373137637085
 21
-39.82160402439331
  0
LINE
  5
1EA
100
AcDbEntity
  8
RDC
  6
ByLayer
 62
  256
370
   -1
100
AcDbLine
 10
49.14373137637085
 20
-27.68086965040129
 11
49.14373137637085
 21
-39.82160402439331
  0
LINE
  5
1EB
100
AcDbEntity
  8
RDC
  6
ByLayer
 62
  256
370
   -1
100
AcDbLine
 10
51.14373137637085
 20
-27.68086965040129
 11
51.14373137637085
 21
-39.82160402439331
  0
LINE
  5
1EC
100
AcDbEntity
  8
RDC
  6
ByLayer
 62
  256
370
   -1
100
AcDbLine
 10
53.14373137637085
 20
-27.68086965040129
 11
53.14373137637085
 21
-39.82160402439331
  0
LINE
  5
1ED
100
AcDbEntity
  8
RDC
  6
ByLayer
 62
  256
370
   -1
100
AcDbLine
 10
55.14373137637085
 20
-27.68086965040129
 11
55.14373137637085
 21
-39.82160402439331
  0
LINE
  5
1EE
100
AcDbEntity
  8
RDC
  6
ByLayer
 62
  256
370
   -1
100
AcDbLine
 10
57.14373137637085
 20
-27.68086965040129
 11
57.14373137637085
 21
-39.82160402439331
  0
LINE
  5
1EF
100
AcDbEntity
  8
RDC
  6
ByLayer
 62
  256
370
   -1
100
AcDbLine
 10
59.14373137637085
 20
-27.68086965040129
 11
59.14373137637085
 21
-39.82160402439331
  0
LINE
  5
1F0
100
AcDbEntity
  8
RDC
  6
ByLayer
 62
  256
370
   -1
100
AcDbLine
 10
61.14373137637085
 20
-27.68086965040129
 11
61.14373137637085
 21
-39.82160402439331
  0
LINE
  5
1F1
100
AcDbEntity
  8
RDC
  6
ByLayer
 62
  256
370
   -1
100
AcDbLine
 10
63.14373137637085
 20
-27.68086965040129
 11
63.14373137637085
 21
-39.82160402439331
  0
LINE
  5
1F2
100
AcDbEntity
  8
RDC
  6
ByLayer
 62
  256
370
   -1
100
AcDbLine
 10
39.81487652991837
 20
-27.68086965040129
 11
39.81487652991837
 21
-39.82160402439331
  0
LINE
  5
1F3
100
AcDbEntity
  8
RDC
  6
ByLayer
 62
  256
370
   -1
100
AcDbLine
 10
37.81487652991837
 20
-27.68086965040129
 11
37.81487652991837
 21
-39.82160402439331
  0
LINE
  5
1F4
100
AcDbEntity
  8
RDC
  6
ByLayer
 62
  256
370
   -1
100
AcDbLine
 10
43.81487652991837
 20
-27.68086965040129
 11
43.81487652991837
 21
-39.82160402439331
  0
LINE
  5
1F5
100
AcDbEntity
  8
RDC
  6
ByLayer
 62
  256
370
   -1
100
AcDbLine
 10
41.81487652991837
 20
-27.68086965040129
 11
41.81487652991837
 21
-39.82160402439331
  0
LINE
  5
1F6
100
AcDbEntity
  8
RDC
  6
ByLayer
 62
  256
370
   -1
100
AcDbLine
 10
67.14373137637085
 20
-27.68086965040129
 11
67.14373137637085
 21
-39.82160402439331
  0
ENDBLK
  5
B8
330
B6
100
AcDbEntity
  8
0
100
AcDbBlockEnd
  0
BLOCK
  5
BA
330
B9
100
AcDbEntity
  8
0
100
AcDbBlockBegin
  2
A$C2019473F
 70
    0
 10
0
 20
0
  3
A$C2019473F
  1

  0
ENDBLK
  5
BB
330
B9
100
AcDbEntity
  8
0
100
AcDbBlockEnd
  0
BLOCK
  5
BD
330
BC
100
AcDbEntity
  8
0
100
AcDbBlockBegin
  2
CHAISE_BASCULE
 70
    0
 10
0
 20
0
  3
CHAISE_BASCULE
  1

  0
LINE
  5
1F7
100
AcDbEntity
  8
0
  6
CONTINUOUS
 62
  256
370
   -1
100
AcDbLine
 10
112.5
 20
-174.9999999999892
 11
124.1902500000002
 21
-104.8592499999893
  0
LINE
  5
1F8
100
AcDbEntity
  8
0
  6
CONTINUOUS
 62
  256
370
   -1
100
AcDbLine
 10
-100
 20
-174.9999999999892
 11
-110.1330000000001
 21
-104.0679999999894
  0
ARC
  5
1F9
100
AcDbEntity
  8
0
  6
CONTINUOUS
 62
  256
370
   -1
100
AcDbCircle
 10
0
 20
-1706.250999999989
 40
1606.249999999997
100
AcDbArc
 50
93.92211000000039
 51
97.15266999999992
  0
ARC
  5
1FA
100
AcDbEntity
  8
0
  6
CONTINUOUS
 62
  256
370
   -1
100
AcDbCircle
 10
0
 20
-1706.250999999989
 40
1606.249999999991
100
AcDbArc
 50
82.84733000000008
 51
93.92211000000039
  0
LINE
  5
1FB
100
AcDbEntity
  8
0
  6
CONTINUOUS
 62
  256
370
   -1
100
AcDbLine
 10
-112.5
 20
-174.9999999999892
 11
-124.1685
 21
-104.9877499999891
  0
LINE
  5
1FC
100
AcDbEntity
  8
0
  6
CONTINUOUS
 62
  256
370
   -1
100
AcDbLine
 10
37.5
 20
-101.2529999999893
 11
37.5
 21
-174.9999999999892
  0
LINE
  5
1FD
100
AcDbEntity
  8
0
  6
CONTINUOUS
 62
  256
370
   -1
100
AcDbLine
 10
-25
 20
-174.9999999999892
 11
-25
 21
-101.2529999999893
  0
LINE
  5
1FE
100
AcDbEntity
  8
0
  6
CONTINUOUS
 62
  256
370
   -1
100
AcDbLine
 10
-37.5
 20
-101.2529999999893
 11
-37.5
 21
-174.9999999999892
  0
LINE
  5
1FF
100
AcDbEntity
  8
0
  6
CONTINUOUS
 62
  256
370
   -1
100
AcDbLine
 10
207.76775
 20
-187.2134999999892
 11
205.8622500000002
 21
-175.0182499999893
  0
LINE
  5
200
100
AcDbEntity
  8
0
  6
CONTINUOUS
 62
  256
370
   -1
100
AcDbLine
 10
262.5
 20
-537.499749999989
 11
258.9375000000001
 21
-514.6994999999893
  0
LINE
  5
201
100
AcDbEntity
  8
0
  6
CONTINUOUS
 62
  256
370
   -1
100
AcDbLine
 10
-259.1609999999999
 20
-516.1307499999891
 11
-262.5
 21
-537.499749999989
  0
LINE
  5
202
100
AcDbEntity
  8
0
  6
CONTINUOUS
 62
  256
370
   -1
100
AcDbLine
 10
-205.857
 20
-174.9847499999891
 11
-207.7324999999998
 21
-186.9894999999893
  0
LINE
  5
203
100
AcDbEntity
  8
0
  6
CONTINUOUS
 62
  256
370
   -1
100
AcDbLine
 10
-162.5
 20
-174.9999999999892
 11
-175.55625
 21
-110.7499999999892
  0
LINE
  5
204
100
AcDbEntity
  8
0
  6
CONTINUOUS
 62
  256
370
   -1
100
AcDbLine
 10
100
 20
-174.9999999999892
 11
110.0467500000001
 21
-104.6734999999892
  0
LINE
  5
205
100
AcDbEntity
  8
0
  6
CONTINUOUS
 62
  256
370
   -1
100
AcDbLine
 10
25
 20
-174.9999999999892
 11
25
 21
-101.1637499999891
  0
LINE
  5
206
100
AcDbEntity
  8
0
  6
CONTINUOUS
 62
  256
370
   -1
100
AcDbLine
 10
162.5
 20
-174.9999999999892
 11
175
 21
-110.1424999999891
  0
ARC
  5
207
100
AcDbEntity
  8
0
  6
CONTINUOUS
 62
  256
370
   -1
100
AcDbCircle
 10
0
 20
-852.0832499999892
 40
852.0832499999892
100
AcDbArc
 50
72.93847000000062
 51
107.0614999999995
  0
LINE
  5
208
100
AcDbEntity
  8
0
  6
CONTINUOUS
 62
  256
370
   -1
100
AcDbLine
 10
200
 20
-112.4999999999892
 11
250
 21
-37.49999999998916
  0
LINE
  5
209
100
AcDbEntity
  8
0
  6
CONTINUOUS
 62
  256
370
   -1
100
AcDbLine
 10
-200
 20
-112.4999999999892
 11
-250
 21
-37.49999999998916
  0
LINE
  5
20A
100
AcDbEntity
  8
0
  6
CONTINUOUS
 62
  256
370
   -1
100
AcDbLine
 10
187.5
 20
-112.4999999999892
 11
175
 21
-174.9999999999892
  0
LINE
  5
20B
100
AcDbEntity
  8
0
  6
CONTINUOUS
 62
  256
370
   -1
100
AcDbLine
 10
-187.5
 20
-112.4999999999892
 11
-175
 21
-174.9999999999892
  0
LINE
  5
20C
100
AcDbEntity
  8
0
  6
CONTINUOUS
 62
  256
370
   -1
100
AcDbLine
 10
200
 20
-662.499749999989
 11
187.5
 21
-562.499749999989
  0
LINE
  5
20D
100
AcDbEntity
  8
0
  6
CONTINUOUS
 62
  256
370
   -1
100
AcDbLine
 10
237.5
 20
-662.499749999989
 11
200
 21
-662.499749999989
  0
LINE
  5
20E
100
AcDbEntity
  8
0
  6
CONTINUOUS
 62
  256
370
   -1
100
AcDbLine
 10
225
 20
-562.499749999989
 11
237.5
 21
-662.499749999989
  0
LINE
  5
20F
100
AcDbEntity
  8
0
  6
CONTINUOUS
 62
  256
370
   -1
100
AcDbLine
 10
-200
 20
-662.499749999989
 11
-187.5
 21
-562.499749999989
  0
LINE
  5
210
100
AcDbEntity
  8
0
  6
CONTINUOUS
 62
  256
370
   -1
100
AcDbLine
 10
-237.5
 20
-662.499749999989
 11
-200
 21
-662.499749999989
  0
LINE
  5
211
100
AcDbEntity
  8
0
  6
CONTINUOUS
 62
  256
370
   -1
100
AcDbLine
 10
-225
 20
-562.499749999989
 11
-237.5
 21
-662.499749999989
  0
ARC
  5
212
100
AcDbEntity
  8
0
  6
CONTINUOUS
 62
  256
370
   -1
100
AcDbCircle
 10
262.5
 20
-474.9997499999891
 40
39.52847499999874
100
AcDbArc
 50
161.5650999999865
 51
18.43495000000615
  0
ARC
  5
213
100
AcDbEntity
  8
0
  6
CONTINUOUS
 62
  256
370
   -1
100
AcDbCircle
 10
-262.5
 20
-474.9997499999891
 40
39.52847499999891
100
AcDbArc
 50
161.5650999999866
 51
18.43495000000615
  0
LINE
  5
214
100
AcDbEntity
  8
0
  6
CONTINUOUS
 62
  256
370
   -1
100
AcDbLine
 10
175
 20
-187.4999999999892
 11
225
 21
-187.4999999999892
  0
LINE
  5
215
100
AcDbEntity
  8
0
  6
CONTINUOUS
 62
  256
370
   -1
100
AcDbLine
 10
225
 20
-462.4997499999891
 11
175
 21
-187.4999999999892
  0
LINE
  5
216
100
AcDbEntity
  8
0
  6
CONTINUOUS
 62
  256
370
   -1
100
AcDbLine
 10
225
 20
-187.4999999999892
 11
300
 21
-462.4997499999891
  0
LINE
  5
217
100
AcDbEntity
  8
0
  6
CONTINUOUS
 62
  256
370
   -1
100
AcDbLine
 10
-175
 20
-187.4999999999892
 11
-225
 21
-187.4999999999892
  0
LINE
  5
218
100
AcDbEntity
  8
0
  6
CONTINUOUS
 62
  256
370
   -1
100
AcDbLine
 10
-225
 20
-462.4997499999891
 11
-175
 21
-187.4999999999892
  0
LINE
  5
219
100
AcDbEntity
  8
0
  6
CONTINUOUS
 62
  256
370
   -1
100
AcDbLine
 10
-225
 20
-187.4999999999892
 11
-300
 21
-462.4997499999891
  0
ARC
  5
21A
100
AcDbEntity
  8
0
  6
CONTINUOUS
 62
  256
370
   -1
100
AcDbCircle
 10
237.5
 20
-537.499749999989
 40
25
100
AcDbArc
 50
270
 51
0
  0
ARC
  5
21B
100
AcDbEntity
  8
0
  6
CONTINUOUS
 62
  256
370
   -1
100
AcDbCircle
 10
-237.5
 20
-537.499749999989
 40
25
100
AcDbArc
 50
180
 51
270
  0
LINE
  5
21C
100
AcDbEntity
  8
0
  6
CONTINUOUS
 62
  256
370
   -1
100
AcDbLine
 10
0
 20
-562.499749999989
 11
-237.5
 21
-562.499749999989
  0
LINE
  5
21D
100
AcDbEntity
  8
0
  6
CONTINUOUS
 62
  256
370
   -1
100
AcDbLine
 10
0
 20
-562.499749999989
 11
237.5
 21
-562.499749999989
  0
LINE
  5
21E
100
AcDbEntity
  8
0
  6
CONTINUOUS
 62
  256
370
   -1
100
AcDbLine
 10
-205.7602499999998
 20
-174.9999999999892
 11
205.9787500000002
 21
-174.9999999999892
  0
ENDBLK
  5
BE
330
BC
100
AcDbEntity
  8
0
100
AcDbBlockEnd
  0
BLOCK
  5
C0
330
BF
100
AcDbEntity
  8
0
100
AcDbBlockBegin
  2
A$C26BA6372
 70
    0
 10
0
 20
0
  3
A$C26BA6372
  1

  0
ENDBLK
  5
C1
330
BF
100
AcDbEntity
  8
0
100
AcDbBlockEnd
  0
BLOCK
  5
C3
330
C2
100
AcDbEntity
  8
0
100
AcDbBlockBegin
  2
LITPARENTS
 70
    0
 10
0
 20
0
  3
LITPARENTS
  1

  0
ENDBLK
  5
C4
330
C2
100
AcDbEntity
  8
0
100
AcDbBlockEnd
  0
BLOCK
  5
C6
330
C5
100
AcDbEntity
  8
0
100
AcDbBlockBegin
  2
A$C4E04558A
 70
    0
 10
0
 20
0
  3
A$C4E04558A
  1

  0
ENDBLK
  5
C7
330
C5
100
AcDbEntity
  8
0
100
AcDbBlockEnd
  0
BLOCK
  5
C9
330
C8
100
AcDbEntity
  8
0
100
AcDbBlockBegin
  2
LAVABO_OVALE_HAUT
 70
    0
 10
0
 20
0
  3
LAVABO_OVALE_HAUT
  1

  0
LWPOLYLINE
  5
21F
100
AcDbEntity
  8
0
  6
CONTINUOUS
 62
  256
370
   -1
100
AcDbPolyline
 90
   16
 70
    1
 43
0
 10
-237.4038250602991
 20
7.649559760714371
 42
0.117634256588326
 10
-222.4778078756962
 20
-65.24065351832779
 42
0.1044692796670929
 10
-172.2982957887814
 20
-132.0274656006846
 42
0.09001578960148483
 10
-98.63444953844242
 20
-176.0544839241305
 42
0.08191994915921867
 10
-6.262761617965815
 20
-194.3645922189524
 42
0.08191994915920928
 10
87.0960599837653
 20
-182.0390405403423
 42
0.09001578960147991
 10
163.4414133707437
 20
-142.8455767604731
 42
0.1044692796670922
 10
217.8163449463863
 20
-79.42768876702333
 42
0.117634256588334
 10
237.4038250603011
 20
-7.649559760715122
 42
0.1176342565883056
 10
222.4778078757026
 20
65.24065351832161
 42
0.1044692796670849
 10
172.2982957887808
 20
132.0274656006854
 42
0.09001578960148841
 10
98.63444953843521
 20
176.054483924134
 42
0.08191994915920571
 10
6.262761617964342
 20
194.3645922189521
 42
0.08191994915920682
 10
-87.09605998376452
 20
182.0390405403431
 42
0.09001578960148013
 10
-163.4414133707452
 20
142.8455767604718
 42
0.1044692796670949
 10
-217.8163449463823
 20
79.42768876702661
 42
0.1176342565883403
  0
LWPOLYLINE
  5
220
100
AcDbEntity
  8
0
  6
CONTINUOUS
 62
  256
370
   -1
100
AcDbPolyline
 90
   16
 70
    1
 43
0
 10
-219.0181133399712
 20
3.086664464851366
 42
0.118621700186414
 10
-204.0683745845978
 20
-63.1298675979228
 42
0.1046781721811096
 10
-156.6389600194912
 20
-123.3934067191394
 42
0.08956206646917401
 10
-88.05720997381695
 20
-162.366911661122
 42
0.08118469889121739
 10
-2.502828315611447
 20
-177.5912937544773
 42
0.08118469889122745
 10
83.44660988294659
 20
-164.7839480343466
 42
0.08956206646917983
 10
153.0994262712621
 20
-127.7586094678264
 42
0.1046781721811047
 10
202.2082779244352
 20
-68.85560273039209
 42
0.1186217001864013
 10
219.0181133399712
 20
-3.086664464849723
 42
0.1186217001863941
 10
204.0683745845994
 20
63.12986759792142
 42
0.1046781721811066
 10
156.63896001949
 20
123.3934067191402
 42
0.08956206646917558
 10
88.05720997381204
 20
162.3669116611245
 42
0.08118469889121604
 10
2.502828315610385
 20
177.5912937544783
 42
0.08118469889121405
 10
-83.44660988294159
 20
164.78394803435
 42
0.08956206646917469
 10
-153.099426271263
 20
127.7586094678257
 42
0.1046781721811048
 10
-202.2082779244357
 20
68.85560273039184
 42
0.1186217001863943
  0
LWPOLYLINE
  5
221
100
AcDbEntity
  8
0
  6
CONTINUOUS
 62
  256
370
   -1
100
AcDbPolyline
 90
   16
 70
    1
 43
0
 10
-143.9990414300167
 20
1.610433633834945
 42
0.1182825673856772
 10
-134.0364109815256
 20
-42.06116514912437
 42
0.1046074595377271
 10
-102.7491123696491
 20
-81.69774998892355
 42
0.08971796362609967
 10
-57.56893666243305
 20
-107.2770565945062
 42
0.08143608252771137
 10
-1.31014680493874
 20
-117.1484996835383
 42
0.08143608252772233
 10
55.15534155310433
 20
-108.5377244932994
 42
0.08971796362613078
 10
100.896284989404
 20
-83.9752470751949
 42
0.1046074595376878
 10
133.0622099615725
 20
-45.04830033034989
 42
0.1182825673856713
 10
143.9990414300189
 20
-1.610433633835285
 42
0.118282567385696
 10
134.0364109815256
 20
42.06116514912715
 42
0.1046074595377134
 10
102.7491123696485
 20
81.69774998892413
 42
0.08971796362612654
 10
57.56893666243427
 20
107.2770565945019
 42
0.08143608252774244
 10
1.310146804937539
 20
117.1484996835383
 42
0.08143608252772255
 10
-55.15534155310689
 20
108.5377244932991
 42
0.08971796362612115
 10
-100.8962849894051
 20
83.97524707519406
 42
0.1046074595377049
 10
-133.0622099615702
 20
45.04830033034921
 42
0.1182825673856713
  0
LINE
  5
222
100
AcDbEntity
  8
0
  6
ByLayer
 62
  256
370
   -1
100
AcDbLine
 10
-19.40569575553646
 20
0
 11
19.40569575553646
 21
0
  0
CIRCLE
  5
223
100
AcDbEntity
  8
0
  6
ByLayer
 62
  256
370
   -1
100
AcDbCircle
 10
0
 20
0
 40
29.1085436333048
  0
CIRCLE
  5
224
100
AcDbEntity
  8
0
  6
ByLayer
 62
  256
370
   -1
100
AcDbCircle
 10
0
 20
0
 40
19.40569575553653
  0
LINE
  5
225
100
AcDbEntity
  8
0
  6
ByLayer
 62
  256
370
   -1
100
AcDbLine
 10
0
 20
19.40569575553646
 11
0
 21
-19.40569575553646
  0
ENDBLK
  5
CA
330
C8
100
AcDbEntity
  8
0
100
AcDbBlockEnd
  0
BLOCK
  5
CC
330
CB
100
AcDbEntity
  8
0
100
AcDbBlockBegin
  2
A$C5CA847D2
 70
    0
 10
0
 20
0
  3
A$C5CA847D2
  1

  0
ENDBLK
  5
CD
330
CB
100
AcDbEntity
  8
0
100
AcDbBlockEnd
  0
BLOCK
  5
CF
330
CE
100
AcDbEntity
  8
0
100
AcDbBlockBegin
  2
TABLE6PLACES
 70
    0
 10
0
 20
0
  3
TABLE6PLACES
  1

  0
ENDBLK
  5
D0
330
CE
100
AcDbEntity
  8
0
100
AcDbBlockEnd
  0
BLOCK
  5
D2
330
D1
100
AcDbEntity
  8
0
100
AcDbBlockBegin
  2
FENETRE120X135MONOMUR30
 70
    0
 10
0
 20
0
  3
FENETRE120X135MONOMUR30
  1

  0
LINE
  5
226
100
AcDbEntity
  8
RDC
  6
ByLayer
 62
  256
370
   -1
100
AcDbLine
 10
0
 20
-30
 11
0
 21
0
  0
LINE
  5
227
100
AcDbEntity
  8
RDC
  6
ByLayer
 62
  256
370
   -1
100
AcDbLine
 10
0
 20
0
 11
120
 21
0
  0
LINE
  5
228
100
AcDbEntity
  8
RDC
  6
ByLayer
 62
  256
370
   -1
100
AcDbLine
 10
120
 20
0
 11
120
 21
-30
  0
LINE
  5
229
100
AcDbEntity
  8
RDC
  6
ByLayer
 62
  256
370
   -1
100
AcDbLine
 10
60
 20
0
 11
60
 21
-21.81464646329368
  0
LINE
  5
22A
100
AcDbEntity
  8
RDC
  6
ByLayer
 62
  256
370
   -1
100
AcDbLine
 10
10
 20
-5
 11
55
 21
-5
  0
LINE
  5
22B
100
AcDbEntity
  8
RDC
  6
ByLayer
 62
  256
370
   -1
100
AcDbLine
 10
65
 20
-5
 11
110
 21
-5
  0
LINE
  5
22C
100
AcDbEntity
  8
RDC
  6
ByLayer
 62
  256
370
   -1
100
AcDbLine
 10
10
 20
-4
 11
55
 21
-4
  0
LINE
  5
22D
100
AcDbEntity
  8
RDC
  6
ByLayer
 62
  256
370
   -1
100
AcDbLine
 10
10
 20
-6
 11
55
 21
-6
  0
LINE
  5
22E
100
AcDbEntity
  8
RDC
  6
ByLayer
 62
  256
370
   -1
100
AcDbLine
 10
65
 20
-4
 11
110
 21
-4
  0
LINE
  5
22F
100
AcDbEntity
  8
RDC
  6
ByLayer
 62
  256
370
   -1
100
AcDbLine
 10
65
 20
-6
 11
110
 21
-6
  0
LINE
  5
230
100
AcDbEntity
  8
RDC
  6
ByLayer
 62
  256
370
   -1
100
AcDbLine
 10
-10
 20
-30
 11
0
 21
-30
  0
LINE
  5
231
100
AcDbEntity
  8
RDC
  6
ByLayer
 62
  256
370
   -1
100
AcDbLine
 10
120
 20
-30
 11
130
 21
-30
  0
LWPOLYLINE
  5
232
100
AcDbEntity
  8
RDC
  6
ByLayer
 62
  256
370
   -1
100
AcDbPolyline
 90
    4
 70
    1
 43
0
 10
0
 20
0
 10
120
 20
0
 10
120
 20
-10
 10
0
 20
-10
  0
LINE
  5
233
100
AcDbEntity
  8
RDC
  6
ByLayer
 62
  256
370
   -1
100
AcDbLine
 10
130
 20
-40
 11
-10
 21
-40
  0
LWPOLYLINE
  5
234
100
AcDbEntity
  8
RDC
  6
ByLayer
 62
  256
370
   -1
100
AcDbPolyline
 90
    4
 70
    1
 43
0
 10
0
 20
0
 10
5
 20
0
 10
5
 20
-10
 10
0
 20
-10
  0
LWPOLYLINE
  5
235
100
AcDbEntity
  8
RDC
  6
ByLayer
 62
  256
370
   -1
100
AcDbPolyline
 90
    4
 70
    1
 43
0
 10
55
 20
0
 10
60
 20
0
 10
60
 20
-10
 10
55
 20
-10
  0
LWPOLYLINE
  5
236
100
AcDbEntity
  8
RDC
  6
ByLayer
 62
  256
370
   -1
100
AcDbPolyline
 90
    4
 70
    1
 43
0
 10
5
 20
0
 10
10
 20
0
 10
10
 20
-10
 10
5
 20
-10
  0
LWPOLYLINE
  5
237
100
AcDbEntity
  8
RDC
  6
ByLayer
 62
  256
370
   -1
100
AcDbPolyline
 90
    4
 70
    1
 43
0
 10
60
 20
0
 10
65
 20
0
 10
65
 20
-10
 10
60
 20
-10
  0
LINE
  5
238
100
AcDbEntity
  8
RDC
  6
ByLayer
 62
  256
370
   -1
100
AcDbLine
 10
-10
 20
-40
 11
-10
 21
-30
  0
LWPOLYLINE
  5
239
100
AcDbEntity
  8
RDC
  6
ByLayer
 62
  256
370
   -1
100
AcDbPolyline
 90
    4
 70
    1
 43
0
 10
115
 20
0
 10
120
 20
0
 10
120
 20
-10
 10
115
 20
-10
  0
LWPOLYLINE
  5
23A
100
AcDbEntity
  8
RDC
  6
ByLayer
 62
  256
370
   -1
100
AcDbPolyline
 90
    4
 70
    1
 43
0
 10
110
 20
0
 10
115
 20
0
 10
115
 20
-10
 10
110
 20
-10
  0
LINE
  5
23B
100
AcDbEntity
  8
RDC
  6
ByLayer
 62
  256
370
   -1
100
AcDbLine
 10
130
 20
-30
 11
130
 21
-40
  0
ENDBLK
  5
D3
330
D1
100
AcDbEntity
  8
0
100
AcDbBlockEnd
  0
BLOCK
  5
D5
330
D4
100
AcDbEntity
  8
0
100
AcDbBlockBegin
  2
FENETRE60X75MONOMUR30
 70
    0
 10
0
 20
0
  3
FENETRE60X75MONOMUR30
  1

  0
LINE
  5
23C
100
AcDbEntity
  8
RDC
  6
ByLayer
 62
  256
370
   -1
100
AcDbLine
 10
0
 20
-10
 11
60
 21
-10
  0
LINE
  5
23D
100
AcDbEntity
  8
RDC
  6
ByLayer
 62
  256
370
   -1
100
AcDbLine
 10
7.5
 20
-5
 11
52.5
 21
-5
  0
LINE
  5
23E
100
AcDbEntity
  8
RDC
  6
ByLayer
 62
  256
370
   -1
100
AcDbLine
 10
7.5
 20
-4
 11
52.5
 21
-4
  0
LINE
  5
23F
100
AcDbEntity
  8
RDC
  6
ByLayer
 62
  256
370
   -1
100
AcDbLine
 10
7.5
 20
-6
 11
52.5
 21
-6
  0
LINE
  5
240
100
AcDbEntity
  8
RDC
  6
ByLayer
 62
  256
370
   -1
100
AcDbLine
 10
0
 20
0
 11
60
 21
0
  0
LINE
  5
241
100
AcDbEntity
  8
RDC
  6
ByLayer
 62
  256
370
   -1
100
AcDbLine
 10
60
 20
0
 11
60
 21
-30
  0
LINE
  5
242
100
AcDbEntity
  8
RDC
  6
ByLayer
 62
  256
370
   -1
100
AcDbLine
 10
60
 20
-30
 11
70
 21
-30
  0
LINE
  5
243
100
AcDbEntity
  8
RDC
  6
ByLayer
 62
  256
370
   -1
100
AcDbLine
 10
-10
 20
-30
 11
0
 21
-30
  0
LINE
  5
244
100
AcDbEntity
  8
RDC
  6
ByLayer
 62
  256
370
   -1
100
AcDbLine
 10
0
 20
-30
 11
0
 21
0
  0
LWPOLYLINE
  5
245
100
AcDbEntity
  8
RDC
  6
ByLayer
 62
  256
370
   -1
100
AcDbPolyline
 90
    4
 70
    1
 43
0
 10
52.5
 20
0
 10
57.5
 20
0
 10
57.5
 20
-10
 10
52.5
 20
-10
  0
LWPOLYLINE
  5
246
100
AcDbEntity
  8
RDC
  6
ByLayer
 62
  256
370
   -1
100
AcDbPolyline
 90
    4
 70
    1
 43
0
 10
2.5
 20
0
 10
7.5
 20
0
 10
7.5
 20
-10
 10
2.5
 20
-10
  0
LINE
  5
247
100
AcDbEntity
  8
RDC
  6
ByLayer
 62
  256
370
   -1
100
AcDbLine
 10
70
 20
-30
 11
70
 21
-40
  0
LINE
  5
248
100
AcDbEntity
  8
RDC
  6
ByLayer
 62
  256
370
   -1
100
AcDbLine
 10
70
 20
-40
 11
-10
 21
-40
  0
LINE
  5
249
100
AcDbEntity
  8
RDC
  6
ByLayer
 62
  256
370
   -1
100
AcDbLine
 10
-10
 20
-40
 11
-10
 21
-30
  0
ENDBLK
  5
D6
330
D4
100
AcDbEntity
  8
0
100
AcDbBlockEnd
  0
BLOCK
  5
D8
330
D7
100
AcDbEntity
  8
0
100
AcDbBlockBegin
  2
A$C40CB4706
 70
    0
 10
0
 20
0
  3
A$C40CB4706
  1

  0
MTEXT
  5
24A
100
AcDbEntity
  8
0
  6
CONTINUOUS
 62
    1
370
   -1
100
AcDbMText
 10
1459.808932985754
 20
754.2096079786388
 30
0
 40
80
 41
1124.444444444457
 71
    1
 72
    5
  1
\fArial|b1|i0|c0|p34;Nord
  7
standard
210
0
220
0
230
1
 50
0
 73
    1
 44
1
  0
LINE
  5
24B
100
AcDbEntity
  8
0
  6
CONTINUOUS
 62
    1
370
   -1
100
AcDbLine
 10
919.1140267697556
 20
817.7393069752279
 11
1052.761418914983
 21
-7.5612178989e-06
  0
ARC
  5
24C
100
AcDbEntity
  8
0
  6
CONTINUOUS
 62
    1
370
   -1
100
AcDbCircle
 10
985.9377228423691
 20
408.869649707005
 40
292.2949110239742
100
AcDbArc
 50
323.9235798795602
 51
54.64058660751017
  0
ARC
  5
24D
100
AcDbEntity
  8
0
  6
CONTINUOUS
 62
    1
370
   -1
100
AcDbCircle
 10
985.9377228423691
 20
408.869649707005
 40
340.0775225506932
100
AcDbArc
 50
99.28208324353514
 51
279.2820832435352
  0
LINE
  5
24E
100
AcDbEntity
  8
0
  6
CONTINUOUS
 62
    1
370
   -1
100
AcDbLine
 10
1396.469343121053
 20
475.9649690441993
 11
1119.818502499107
 21
96.25381808179554
  0
LINE
  5
24F
100
AcDbEntity
  8
0
  6
CONTINUOUS
 62
    1
370
   -1
100
AcDbLine
 10
1396.469343121053
 20
475.9649690441993
 11
1013.325970084989
 21
747.8425177321528
  0
ARC
  5
250
100
AcDbEntity
  8
0
  6
CONTINUOUS
 62
    1
370
   -1
100
AcDbCircle
 10
985.9377228423691
 20
408.869649707005
 40
292.2949110239742
100
AcDbArc
 50
99.28208324353514
 51
279.2820832435352
  0
LINE
  5
251
100
AcDbEntity
  8
0
  6
CONTINUOUS
 62
    1
370
   -1
100
AcDbLine
 10
-2.25884359679e-05
 20
247.7327126024593
 11
1971.875468273175
 21
570.0065868115507
  0
ENDBLK
  5
D9
330
D7
100
AcDbEntity
  8
0
100
AcDbBlockEnd
  0
BLOCK
  5
DB
330
DA
100
AcDbEntity
  8
0
100
AcDbBlockBegin
  2
FENETRE120
 70
    0
 10
0
 20
0
  3
FENETRE120
  1

  0
LINE
  5
252
100
AcDbEntity
  8
RDC
  6
ByLayer
 62
  256
370
   -1
100
AcDbLine
 10
0
 20
0
 11
120
 21
0
  0
LINE
  5
253
100
AcDbEntity
  8
RDC
  6
ByLayer
 62
  256
370
   -1
100
AcDbLine
 10
60
 20
0
 11
60
 21
-21.81464646329368
  0
LINE
  5
254
100
AcDbEntity
  8
RDC
  6
ByLayer
 62
  256
370
   -1
100
AcDbLine
 10
10
 20
-5
 11
55
 21
-5
  0
LINE
  5
255
100
AcDbEntity
  8
RDC
  6
ByLayer
 62
  256
370
   -1
100
AcDbLine
 10
65
 20
-5
 11
110
 21
-5
  0
LINE
  5
256
100
AcDbEntity
  8
RDC
  6
ByLayer
 62
  256
370
   -1
100
AcDbLine
 10
10
 20
-4
 11
55
 21
-4
  0
LINE
  5
257
100
AcDbEntity
  8
RDC
  6
ByLayer
 62
  256
370
   -1
100
AcDbLine
 10
10
 20
-6
 11
55
 21
-6
  0
LINE
  5
258
100
AcDbEntity
  8
RDC
  6
ByLayer
 62
  256
370
   -1
100
AcDbLine
 10
65
 20
-4
 11
110
 21
-4
  0
LINE
  5
259
100
AcDbEntity
  8
RDC
  6
ByLayer
 62
  256
370
   -1
100
AcDbLine
 10
65
 20
-6
 11
110
 21
-6
  0
LINE
  5
25A
100
AcDbEntity
  8
RDC
  6
ByLayer
 62
  256
370
   -1
100
AcDbLine
 10
120
 20
-33
 11
130
 21
-33
  0
LINE
  5
25B
100
AcDbEntity
  8
RDC
  6
ByLayer
 62
  256
370
   -1
100
AcDbLine
 10
-10
 20
-33
 11
0
 21
-33
  0
LINE
  5
25C
100
AcDbEntity
  8
RDC
  6
ByLayer
 62
  256
370
   -1
100
AcDbLine
 10
120
 20
0
 11
120
 21
-33
  0
LINE
  5
25D
100
AcDbEntity
  8
RDC
  6
ByLayer
 62
  256
370
   -1
100
AcDbLine
 10
0
 20
-33
 11
0
 21
0
  0
LWPOLYLINE
  5
25E
100
AcDbEntity
  8
RDC
  6
ByLayer
 62
  256
370
   -1
100
AcDbPolyline
 90
    4
 70
    1
 43
0
 10
0
 20
0
 10
120
 20
0
 10
120
 20
-10
 10
0
 20
-10
  0
LWPOLYLINE
  5
25F
100
AcDbEntity
  8
RDC
  6
ByLayer
 62
  256
370
   -1
100
AcDbPolyline
 90
    4
 70
    1
 43
0
 10
60
 20
0
 10
65
 20
0
 10
65
 20
-10
 10
60
 20
-10
  0
LINE
  5
260
100
AcDbEntity
  8
RDC
  6
ByLayer
 62
  256
370
   -1
100
AcDbLine
 10
130
 20
-43
 11
-10
 21
-43
  0
LINE
  5
261
100
AcDbEntity
  8
RDC
  6
ByLayer
 62
  256
370
   -1
100
AcDbLine
 10
-10
 20
-43
 11
-10
 21
-33
  0
LWPOLYLINE
  5
262
100
AcDbEntity
  8
RDC
  6
ByLayer
 62
  256
370
   -1
100
AcDbPolyline
 90
    4
 70
    1
 43
0
 10
0
 20
0
 10
5
 20
0
 10
5
 20
-10
 10
0
 20
-10
  0
LWPOLYLINE
  5
263
100
AcDbEntity
  8
RDC
  6
ByLayer
 62
  256
370
   -1
100
AcDbPolyline
 90
    4
 70
    1
 43
0
 10
55
 20
0
 10
60
 20
0
 10
60
 20
-10
 10
55
 20
-10
  0
LWPOLYLINE
  5
264
100
AcDbEntity
  8
RDC
  6
ByLayer
 62
  256
370
   -1
100
AcDbPolyline
 90
    4
 70
    1
 43
0
 10
5
 20
0
 10
10
 20
0
 10
10
 20
-10
 10
5
 20
-10
  0
LINE
  5
265
100
AcDbEntity
  8
RDC
  6
ByLayer
 62
  256
370
   -1
100
AcDbLine
 10
130
 20
-33
 11
130
 21
-43
  0
LWPOLYLINE
  5
266
100
AcDbEntity
  8
RDC
  6
ByLayer
 62
  256
370
   -1
100
AcDbPolyline
 90
    4
 70
    1
 43
0
 10
115
 20
0
 10
120
 20
0
 10
120
 20
-10
 10
115
 20
-10
  0
LWPOLYLINE
  5
267
100
AcDbEntity
  8
RDC
  6
ByLayer
 62
  256
370
   -1
100
AcDbPolyline
 90
    4
 70
    1
 43
0
 10
110
 20
0
 10
115
 20
0
 10
115
 20
-10
 10
110
 20
-10
  0
ENDBLK
  5
DC
330
DA
100
AcDbEntity
  8
0
100
AcDbBlockEnd
  0
BLOCK
  5
DE
330
DD
100
AcDbEntity
  8
0
100
AcDbBlockBegin
  2
FENETRE300
 70
    0
 10
0
 20
0
  3
FENETRE300
  1

  0
LINE
  5
268
100
AcDbEntity
  8
RDC
  6
ByLayer
 62
  256
370
   -1
100
AcDbLine
 10
-12.5
 20
-205
 11
-12.5
 21
-295
  0
LINE
  5
269
100
AcDbEntity
  8
RDC
  6
ByLayer
 62
  256
370
   -1
100
AcDbLine
 10
-2.5
 20
-10
 11
-2.5
 21
-100
  0
LINE
  5
26A
100
AcDbEntity
  8
RDC
  6
ByLayer
 62
  256
370
   -1
100
AcDbLine
 10
-7.5
 20
-105
 11
-7.5
 21
-195
  0
LWPOLYLINE
  5
26B
100
AcDbEntity
  8
RDC
  6
ByLayer
 62
  256
370
   -1
100
AcDbPolyline
 90
    4
 70
    1
 43
0
 10
-30
 20
0
 10
0
 20
0
 10
0
 20
-300
 10
-30
 20
-300
  0
LWPOLYLINE
  5
26C
100
AcDbEntity
  8
RDC
  6
ByLayer
 62
  256
370
   -1
100
AcDbPolyline
 90
    4
 70
    1
 43
0
 10
-10
 20
-100
 10
-5
 20
-100
 10
-5
 20
-200
 10
-10
 20
-200
  0
LWPOLYLINE
  5
26D
100
AcDbEntity
  8
RDC
  6
ByLayer
 62
  256
370
   -1
100
AcDbPolyline
 90
    4
 70
    1
 43
0
 10
-15
 20
-200
 10
-10
 20
-200
 10
-10
 20
-300
 10
-15
 20
-300
  0
LWPOLYLINE
  5
26E
100
AcDbEntity
  8
RDC
  6
ByLayer
 62
  256
370
   -1
100
AcDbPolyline
 90
    4
 70
    1
 43
0
 10
-15
 20
-200
 10
-10
 20
-200
 10
-10
 20
-205
 10
-15
 20
-205
  0
LWPOLYLINE
  5
26F
100
AcDbEntity
  8
RDC
  6
ByLayer
 62
  256
370
   -1
100
AcDbPolyline
 90
    4
 70
    1
 43
0
 10
-15
 20
-295
 10
-10
 20
-295
 10
-10
 20
-300
 10
-15
 20
-300
  0
LWPOLYLINE
  5
270
100
AcDbEntity
  8
RDC
  6
ByLayer
 62
  256
370
   -1
100
AcDbPolyline
 90
    4
 70
    1
 43
0
 10
-10
 20
-195
 10
-5
 20
-195
 10
-5
 20
-200
 10
-10
 20
-200
  0
LWPOLYLINE
  5
271
100
AcDbEntity
  8
RDC
  6
ByLayer
 62
  256
370
   -1
100
AcDbPolyline
 90
    4
 70
    1
 43
0
 10
0
 20
-295
 10
-15
 20
-295
 10
-15
 20
-300
 10
0
 20
-300
  0
LWPOLYLINE
  5
272
100
AcDbEntity
  8
RDC
  6
ByLayer
 62
  256
370
   -1
100
AcDbPolyline
 90
    4
 70
    1
 43
0
 10
0
 20
0
 10
-15
 20
0
 10
-15
 20
-5
 10
0
 20
-5
  0
LWPOLYLINE
  5
273
100
AcDbEntity
  8
RDC
  6
ByLayer
 62
  256
370
   -1
100
AcDbPolyline
 90
    4
 70
    1
 43
0
 10
-5
 20
-100
 10
0
 20
-100
 10
0
 20
-105
 10
-5
 20
-105
  0
LWPOLYLINE
  5
274
100
AcDbEntity
  8
RDC
  6
ByLayer
 62
  256
370
   -1
100
AcDbPolyline
 90
    4
 70
    1
 43
0
 10
-5
 20
-5
 10
0
 20
-5
 10
0
 20
-10
 10
-5
 20
-10
  0
LWPOLYLINE
  5
275
100
AcDbEntity
  8
RDC
  6
ByLayer
 62
  256
370
   -1
100
AcDbPolyline
 90
    4
 70
    1
 43
0
 10
-5
 20
-5
 10
0
 20
-5
 10
0
 20
-105
 10
-5
 20
-105
  0
LWPOLYLINE
  5
276
100
AcDbEntity
  8
RDC
  6
ByLayer
 62
  256
370
   -1
100
AcDbPolyline
 90
    4
 70
    1
 43
0
 10
-10
 20
-100
 10
-5
 20
-100
 10
-5
 20
-105
 10
-10
 20
-105
  0
ENDBLK
  5
DF
330
DD
100
AcDbEntity
  8
0
100
AcDbBlockEnd
  0
BLOCK
  5
E1
330
E0
100
AcDbEntity
  8
0
100
AcDbBlockBegin
  2
A$C5AD30E31
 70
    0
 10
0
 20
0
  3
A$C5AD30E31
  1

  0
ENDBLK
  5
E2
330
E0
100
AcDbEntity
  8
0
100
AcDbBlockEnd
  0
BLOCK
  5
E4
330
E3
100
AcDbEntity
  8
0
100
AcDbBlockBegin
  2
COUVERTUREPAVATEX
 70
    0
 10
0
 20
0
  3
COUVERTUREPAVATEX
  1

  0
ENDBLK
  5
E5
330
E3
100
AcDbEntity
  8
0
100
AcDbBlockEnd
  0
BLOCK
  5
E7
330
E6
100
AcDbEntity
  8
0
100
AcDbBlockBegin
  2
A$C52380543
 70
    0
 10
0
 20
0
  3
A$C52380543
  1

  0
ENDBLK
  5
E8
330
E6
100
AcDbEntity
  8
0
100
AcDbBlockEnd
  0
BLOCK
  5
EA
330
E9
100
AcDbEntity
  8
0
100
AcDbBlockBegin
  2
A$C42CC0257
 70
    0
 10
0
 20
0
  3
A$C42CC0257
  1

  0
ENDBLK
  5
EB
330
E9
100
AcDbEntity
  8
0
100
AcDbBlockEnd
  0
BLOCK
  5
ED
330
EC
100
AcDbEntity
  8
0
100
AcDbBlockBegin
  2
A$C417F0E19
 70
    0
 10
0
 20
0
  3
A$C417F0E19
  1

  0
ENDBLK
  5
EE
330
EC
100
AcDbEntity
  8
0
100
AcDbBlockEnd
  0
BLOCK
  5
F0
330
EF
100
AcDbEntity
  8
0
100
AcDbBlockBegin
  2
A$C16E379BD
 70
    0
 10
0
 20
0
  3
A$C16E379BD
  1

  0
LINE
  5
277
100
AcDbEntity
  8
0
  6
ByLayer
 62
  256
370
   -1
100
AcDbLine
 10
137.8089661434824
 20
340.8580752035414
 11
190.1486655281115
 21
21.11355864645429
  0
LINE
  5
278
100
AcDbEntity
  8
0
  6
ByLayer
 62
  256
370
   -1
100
AcDbLine
 10
-2.7238165785e-06
 20
439.8968963785264
 11
71.72477050697125
 21
1.728484800297338
  0
LINE
  5
279
100
AcDbEntity
  8
0
  6
ByLayer
 62
  256
370
   -1
100
AcDbLine
 10
22.96815875406537
 20
423.3904261826965
 11
91.46208634382492
 21
4.959330441321981
  0
LINE
  5
27A
100
AcDbEntity
  8
0
  6
ByLayer
 62
  256
370
   -1
100
AcDbLine
 10
96.24424282379186
 20
718.5798680344587
 11
213.8701969711547
 21
8.2796368588e-06
  0
LINE
  5
27B
100
AcDbEntity
  8
0
  6
ByLayer
 62
  256
370
   -1
100
AcDbLine
 10
76.47945538777276
 20
715.5215715136974
 11
118.4238922973236
 21
459.2819702246852
  0
ENDBLK
  5
F1
330
EF
100
AcDbEntity
  8
0
100
AcDbBlockEnd
  0
BLOCK
  5
F3
330
F2
100
AcDbEntity
  8
0
100
AcDbBlockBegin
  2
A$C5B2835FF
 70
    0
 10
0
 20
0
  3
A$C5B2835FF
  1

  0
ENDBLK
  5
F4
330
F2
100
AcDbEntity
  8
0
100
AcDbBlockEnd
  0
BLOCK
  5
F6
330
F5
100
AcDbEntity
  8
0
100
AcDbBlockBegin
  2
A$C15701794
 70
    0
 10
0
 20
0
  3
A$C15701794
  1

  0
ENDBLK
  5
F7
330
F5
100
AcDbEntity
  8
0
100
AcDbBlockEnd
  0
BLOCK
  5
F9
330
F8
100
AcDbEntity
  8
0
100
AcDbBlockBegin
  2
A$C52B459E0
 70
    0
 10
0
 20
0
  3
A$C52B459E0
  1

  0
MTEXT
  5
27C
100
AcDbEntity
  8
0
  6
ByLayer
 62
  256
370
   -1
100
AcDbMText
 10
12.73234030945787
 20
52.49643322869514
 30
0
 40
30
 41
1027.500002708504
 71
    1
 72
    5
  1
\fComic Sans MS|b0|i0|c0|p66;Détail appui de fenêtre
  7
standard
210
0
220
0
230
1
 50
0
 73
    1
 44
1
  0
DIMENSION
  5
27D
100
AcDbEntity
  8
0
  6
ByLayer
 62
  256
370
   -1
100
AcDbDimension
 10
457.323020764901
 20
161.7256714452085
 30
0
 11
294.823020764901
 21
173.7256714452085
 31
0
 70
   32
 71
    5
  3
RB
 53
0
210
0
220
0
230
1
100
AcDbAlignedDimension
 13
132.323020764901
 23
341.5625345684034
 33
0
 14
457.323020764901
 24
431.5625345684034
 34
0
100
AcDbRotatedDimension
  0
DIMENSION
  5
27E
100
AcDbEntity
  8
0
  6
ByLayer
 62
  256
370
   -1
100
AcDbDimension
 10
367.323020764901
 20
601.8513150423116
 30
0
 11
224.823020764901
 21
613.8513150423116
 31
0
 70
   32
 71
    5
  3
RB
 53
0
210
0
220
0
230
1
100
AcDbAlignedDimension
 13
82.323020764901
 23
341.5625345684034
 33
0
 14
367.323020764901
 24
341.0647450099049
 34
0
100
AcDbRotatedDimension
  0
MTEXT
  5
27F
100
AcDbEntity
  8
0
  6
ByLayer
 62
  256
370
   -1
100
AcDbMText
 10
225.3871101166816
 20
144.011636425265
 30
0
 40
10
 41
287.5000009028341
 71
    1
 72
    5
  1
\fComic Sans MS|b0|i0|c0|p66;Brique monomur
  7
standard
210
0
220
0
230
1
 50
0
 73
    1
 44
1
  0
HATCH
  5
280
100
AcDbEntity
  8
0
  6
ByLayer
 62
  256
370
   -1
100
AcDbHatch
 10
0
 20
0
 30
0
210
0
220
0
230
1
  2
AR-CONC
 70
    0
 71
    0
 91
    1
 92
    0
 93
    4
 72
    1
 10
367.323020764901
 20
341.5625345684034
 11
147.323020764901
 21
341.5625345684034
 72
    1
 10
147.323020764901
 20
341.5625345684034
 11
147.323020764901
 21
321.5625345684034
 72
    1
 10
147.323020764901
 20
321.5625345684034
 11
367.323020764901
 21
321.5625345684034
 72
    1
 10
367.323020764901
 20
321.5625345684034
 11
367.323020764901
 21
341.5625345684034
 97
    0
 75
    0
 76
    1
 52
0
 41
0.1
 77
    0
 78
    0
 98
    0
  0
HATCH
  5
281
100
AcDbEntity
  8
0
  6
ByLayer
 62
  256
370
   -1
100
AcDbHatch
 10
0
 20
0
 30
0
210
0
220
0
230
1
  2
SOLID
 70
    1
 71
    0
 91
    1
 92
    0
 93
   10
 72
    2
 10
362.323020764901
 20
426.5625345684034
 40
5
 50
0
 51
90
 73
    1
 72
    1
 10
362.323020764901
 20
431.5625345684034
 11
338.0570497607289
 21
431.5625345684034
 72
    2
 10
310.540362892895
 20
438.1029095422302
 40
28.28329119781994
 50
13.37039221618852
 51
85.97273910430668
 73
    0
 72
    1
 10
312.5267295230252
 20
409.8894569248814
 11
89.68926526033607
 21
386.8805415940916
 72
    2
 10
90.20280622701614
 20
381.9069839463367
 40
5.00000000000001
 50
95.89514176240822
 51
175.9349725761935
 73
    1
 72
    1
 10
85.21538503601006
 20
382.261426979141
 11
82.323020764901
 21
341.5625345684034
 72
    1
 10
82.323020764901
 20
341.5625345684034
 11
86.76132445310522
 21
341.5625345684034
 72
    2
 10
91.65473614115058
 20
341.1894188212858
 40
4.907615847786588
 50
184.3602855154708
 51
355.6397144845292
 73
    0
 72
    1
 10
96.54814782919594
 20
341.5625345684034
 11
367.3230207649011
 21
341.5625345684034
 72
    1
 10
367.3230207649011
 20
341.5625345684034
 11
367.323020764901
 21
426.5625345684034
 97
    0
 75
    0
 76
    1
 98
    0
  0
HATCH
  5
282
100
AcDbEntity
  8
0
  6
ByLayer
 62
  256
370
   -1
100
AcDbHatch
 10
0
 20
0
 30
0
210
0
220
0
230
1
  2
HEX
 70
    0
 71
    0
 91
    1
 92
    0
 93
    4
 72
    1
 10
447.323020764901
 20
321.5625345684034
 11
147.323020764901
 21
321.5625345684034
 72
    1
 10
147.323020764901
 20
321.5625345684034
 11
147.323020764901
 21
171.3937341519695
 72
    1
 10
147.323020764901
 20
171.3937341519695
 11
447.323020764901
 21
256.8212589237326
 72
    1
 10
447.323020764901
 20
256.8212589237326
 11
447.323020764901
 21
321.5625345684034
 97
    0
 75
    0
 76
    1
 52
0
 41
1
 77
    0
 78
    0
 98
    0
  0
LINE
  5
283
100
AcDbEntity
  8
0
  6
ByLayer
 62
  256
370
   -1
100
AcDbLine
 10
147.323020764901
 20
321.5625345684034
 11
447.323020764901
 21
321.5625345684034
  0
LINE
  5
284
100
AcDbEntity
  8
0
  6
ByLayer
 62
  256
370
   -1
100
AcDbLine
 10
338.0570497607289
 20
431.5625345684034
 11
163.8104679580507
 21
402.7694406185208
  0
LWPOLYLINE
  5
285
100
AcDbEntity
  8
0
  6
ByLayer
 62
  256
370
   -1
100
AcDbPolyline
 90
    5
 70
    0
 43
0
 10
96.54814782919594
 20
341.5625345684034
 10
367.323020764901
 20
341.5625345684034
 10
367.323020764901
 20
426.5625345684034
 42
0.414213562373095
 10
362.323020764901
 20
431.5625345684034
 10
338.0570497607289
 20
431.5625345684034
  0
LWPOLYLINE
  5
286
100
AcDbEntity
  8
0
  6
ByLayer
 62
  256
370
   -1
100
AcDbPolyline
 90
    4
 70
    0
 43
0
 10
82.323020764901
 20
341.5625345684034
 10
85.21538503601005
 20
382.261426979141
 42
-0.3641670647681474
 10
89.68926526033607
 20
386.8805415940916
 10
314.3607606512428
 20
410.0788284342136
  0
DIMENSION
  5
287
100
AcDbEntity
  8
0
  6
ByLayer
 62
  256
370
   -1
100
AcDbDimension
 10
132.323020764901
 20
268.6911916147627
 30
0
 11
107.323020764901
 21
280.6911916147627
 31
0
 70
   32
 71
    5
  3
RB
 53
0
210
0
220
0
230
1
100
AcDbAlignedDimension
 13
82.323020764901
 23
341.5625345684034
 33
0
 14
132.323020764901
 24
341.5625345684034
 34
0
100
AcDbRotatedDimension
  0
LINE
  5
288
100
AcDbEntity
  8
0
  6
ByLayer
 62
  256
370
   -1
100
AcDbLine
 10
132.323020764901
 20
341.5625345684034
 11
132.323020764901
 21
127.6602187390787
  0
LINE
  5
289
100
AcDbEntity
  8
0
  6
ByLayer
 62
  256
370
   -1
100
AcDbLine
 10
147.323020764901
 20
341.5625345684034
 11
147.323020764901
 21
127.6602187390787
  0
MTEXT
  5
28A
100
AcDbEntity
  8
0
  6
ByLayer
 62
  256
370
   -1
100
AcDbMText
 10
20.22899547264308
 20
144.6929450921436
 30
0
 40
10
 41
307.2222231250579
 71
    1
 72
    5
  1
\fComic Sans MS|b0|i0|c0|p66;enduit chaux 15mm
  7
standard
210
0
220
0
230
1
 50
0
 73
    1
 44
1
  0
ARC
  5
28B
100
AcDbEntity
  8
0
  6
ByLayer
 62
  256
370
   -1
100
AcDbCircle
 10
91.65473614115058
 20
341.1894188212858
 40
4.907615847786583
100
AcDbArc
 50
4.360285515470791
 51
175.6397144845292
  0
LWPOLYLINE
  5
28C
100
AcDbEntity
  8
0
  6
ByLayer
 62
  256
370
   -1
100
AcDbPolyline
 90
    2
 70
    0
 43
0
 10
82.323020764901
 20
341.5625345684034
 10
86.76132445310522
 20
341.5625345684034
  0
LINE
  5
28D
100
AcDbEntity
  8
0
  6
ByLayer
 62
  256
370
   -1
100
AcDbLine
 10
132.323020764901
 20
431.5625345684034
 11
132.323020764901
 21
391.2826580599375
  0
LINE
  5
28E
100
AcDbEntity
  8
0
  6
ByLayer
 62
  256
370
   -1
100
AcDbLine
 10
160.2776355723036
 20
400.3051301504811
 11
156.5766073630636
 21
393.7869439633494
  0
ARC
  5
28F
100
AcDbEntity
  8
0
  6
ByLayer
 62
  256
370
   -1
100
AcDbCircle
 10
164.6256306433837
 20
397.8363371535162
 40
5
100
AcDbArc
 50
99.38295957339564
 51
150.4120757554026
  0
LINE
  5
290
100
AcDbEntity
  8
0
  6
ByLayer
 62
  256
370
   -1
100
AcDbLine
 10
457.323020764901
 20
431.5625345684034
 11
457.323020764901
 21
127.6602187390787
  0
LINE
  5
291
100
AcDbEntity
  8
0
  6
ByLayer
 62
  256
370
   -1
100
AcDbLine
 10
447.323020764901
 20
431.5625345684034
 11
447.323020764901
 21
127.6602187390787
  0
MTEXT
  5
292
100
AcDbEntity
  8
0
  6
ByLayer
 62
  256
370
   -1
100
AcDbMText
 10
498.0224783768978
 20
144.011636425265
 30
0
 40
10
 41
318.0555564583901
 71
    1
 72
    5
  1
\fComic Sans MS|b0|i0|c0|p66;enduit plâtre 10 mm
  7
standard
210
0
220
0
230
1
 50
0
 73
    1
 44
1
  0
LINE
  5
293
100
AcDbEntity
  8
0
  6
ByLayer
 62
  256
370
   -1
100
AcDbLine
 10
560.7286125943452
 20
582.093352638718
 11
316.0383694550686
 21
582.093352638718
  0
LINE
  5
294
100
AcDbEntity
  8
0
  6
ByLayer
 62
  256
370
   -1
100
AcDbLine
 10
541.6441370521994
 20
548.7092092909738
 11
427.1372827729359
 21
548.7092092909738
  0
MTEXT
  5
295
100
AcDbEntity
  8
0
  6
ByLayer
 62
  256
370
   -1
100
AcDbMText
 10
438.0426969285674
 20
561.6540808767387
 30
0
 40
10
 41
288.6111120139443
 71
    1
 72
    5
  1
\fComic Sans MS|b0|i0|c0|p66;Brique platrière
  7
standard
210
0
220
0
230
1
 50
0
 73
    1
 44
1
  0
MTEXT
  5
296
100
AcDbEntity
  8
0
  6
ByLayer
 62
  256
370
   -1
100
AcDbMText
 10
439.4058743395136
 20
600.4886963255402
 30
0
 40
10
 41
311.6666727123733
 71
    1
 72
    5
  1
\fComic Sans MS|b0|i0|c0|p66;appuis préfa béton
  7
standard
210
0
220
0
230
1
 50
0
 73
    1
 44
1
  0
DIMENSION
  5
297
100
AcDbEntity
  8
0
  6
ByLayer
 62
  256
370
   -1
100
AcDbDimension
 10
457.323020764901
 20
493.523176847493
 30
0
 11
397.6900352628149
 21
506.3350848312548
 31
0
 70
   32
  1
\fComic Sans MS|b0|i0|c0|p66;\C5;120
 71
    5
  3
RB
 53
0
210
0
220
0
230
1
100
AcDbAlignedDimension
 13
338.0570497607289
 23
431.5625345684034
 33
0
 14
457.323020764901
 24
431.5625345684034
 34
0
100
AcDbRotatedDimension
  0
LINE
  5
298
100
AcDbEntity
  8
0
  6
ByLayer
 62
  256
370
   -1
100
AcDbLine
 10
316.0383694550686
 20
582.093352638718
 11
316.0383694550686
 21
389.9642013953462
  0
LINE
  5
299
100
AcDbEntity
  8
0
  6
ByLayer
 62
  256
370
   -1
100
AcDbLine
 10
386.2419768667513
 20
565.7419356440387
 11
386.2419768667513
 21
423.3483447430904
  0
LINE
  5
29A
100
AcDbEntity
  8
0
  6
ByLayer
 62
  256
370
   -1
100
AcDbLine
 10
427.1372827729359
 20
548.7092092909738
 11
427.1372827729359
 21
421.3044173594403
  0
HATCH
  5
29B
100
AcDbEntity
  8
0
  6
ByLayer
 62
  256
370
   -1
100
AcDbHatch
 10
0
 20
0
 30
0
210
0
220
0
230
1
  2
BRICK
 70
    0
 71
    0
 91
    1
 92
    0
 93
    4
 72
    1
 10
447.323020764901
 20
431.5625345684034
 11
397.323020764901
 21
431.5625345684034
 72
    1
 10
397.323020764901
 20
431.5625345684034
 11
397.3230207649011
 21
321.5625345684034
 72
    1
 10
397.3230207649011
 20
321.5625345684034
 11
447.323020764901
 21
321.5625345684034
 72
    1
 10
447.323020764901
 20
321.5625345684034
 11
447.323020764901
 21
431.5625345684034
 97
    0
 75
    0
 76
    1
 52
0
 41
1
 77
    0
 78
    0
 98
    0
  0
LINE
  5
29C
100
AcDbEntity
  8
0
  6
ByLayer
 62
  256
370
   -1
100
AcDbLine
 10
362.3230207649
 20
431.5625345684034
 11
457.323020764901
 21
431.5625345684034
  0
LINE
  5
29D
100
AcDbEntity
  8
0
  6
ByLayer
 62
  256
370
   -1
100
AcDbLine
 10
397.323020764901
 20
431.5625345684034
 11
397.3230207649011
 21
321.5625345684034
  0
ARC
  5
29E
100
AcDbEntity
  8
0
  6
ByLayer
 62
  256
370
   -1
100
AcDbCircle
 10
310.5403628928951
 20
438.1029095422302
 40
28.28329119781997
100
AcDbArc
 50
274.0272608956942
 51
346.6296077838114
  0
LINE
  5
29F
100
AcDbEntity
  8
0
  6
ByLayer
 62
  256
370
   -1
100
AcDbLine
 10
367.323020764901
 20
341.5625345684034
 11
367.323020764901
 21
321.5625345684034
  0
LINE
  5
2A0
100
AcDbEntity
  8
0
  6
ByLayer
 62
  256
370
   -1
100
AcDbLine
 10
479.6195910270311
 20
565.7419356440387
 11
386.2419768667513
 21
565.7419356440387
  0
MTEXT
  5
2A1
100
AcDbEntity
  8
0
  6
ByLayer
 62
  256
370
   -1
100
AcDbMText
 10
437.361108736288
 20
580.0494252550679
 30
0
 40
10
 41
225.5555616012612
 71
    1
 72
    5
  1
\fComic Sans MS|b0|i0|c0|p66;isolant
  7
standard
210
0
220
0
230
1
 50
0
 73
    1
 44
1
  0
ENDBLK
  5
FA
330
F8
100
AcDbEntity
  8
0
100
AcDbBlockEnd
  0
BLOCK
  5
FC
330
FB
100
AcDbEntity
  8
0
100
AcDbBlockBegin
  2
A$C76023D9C
 70
    0
 10
0
 20
0
  3
A$C76023D9C
  1

  0
ENDBLK
  5
FD
330
FB
100
AcDbEntity
  8
0
100
AcDbBlockEnd
  0
BLOCK
  5
FF
330
FE
100
AcDbEntity
  8
0
100
AcDbBlockBegin
  2
ENTREE
 70
    0
 10
0
 20
0
  3
ENTREE
  1

  0
ENDBLK
  5
100
330
FE
100
AcDbEntity
  8
0
100
AcDbBlockEnd
  0
BLOCK
  5
102
330
101
100
AcDbEntity
  8
0
100
AcDbBlockBegin
  2
A$C55080D3C
 70
    0
 10
0
 20
0
  3
A$C55080D3C
  1

  0
LINE
  5
2A2
100
AcDbEntity
  8
RDC
  6
ByLayer
 62
    0
370
   -1
100
AcDbLine
 10
390.5000137065581
 20
595.3127367378074
 11
1114.500013706558
 21
1319.312736737807
  0
LINE
  5
2A3
100
AcDbEntity
  8
RDC
  6
ByLayer
 62
    0
370
   -1
100
AcDbLine
 10
390.5000137065581
 20
1319.312736737807
 11
1114.500013706558
 21
595.3127367378074
  0
DIMENSION
  5
2A4
100
AcDbEntity
  8
RDC
  6
ByLayer
 62
    0
370
   -1
100
AcDbDimension
 10
792.5056628303291
 20
1472.485755170266
 30
0
 11
970.0028382684436
 21
1487.485755170266
 31
0
 70
   32
 71
    5
  3
RB
 53
0
210
0
220
0
230
1
100
AcDbAlignedDimension
 13
1147.500013706558
 23
1352.312736737807
 33
0
 14
792.5056628303291
 24
1352.312736737807
 34
0
100
AcDbRotatedDimension
  0
INSERT
  5
2A5
100
AcDbEntity
  8
RDC
  6
ByLayer
 62
  256
370
   -1
100
AcDbBlockReference
  2
A$C52380543
 10
837.677702980712
 20
1003.558214401033
 30
0
 41
1
 42
1
 43
0
 50
0
 70
    1
 71
    1
 44
0
 45
0
  0
MTEXT
  5
2A6
100
AcDbEntity
  8
RDC
  6
ByLayer
 62
  256
370
   -1
100
AcDbMText
 10
276.8647763964457
 20
91.02582939111016
 30
0
 40
50
 41
1905.555606984292
 71
    1
 72
    5
  1
\fArial|b0|i0|c0|p34;Rez de chaussée     Plan       1/100                                         
  7
standard
210
0
220
0
230
1
 50
0
 73
    1
 44
1
  0
DIMENSION
  5
2A7
100
AcDbEntity
  8
COTATION
  6
ByLayer
 62
  256
370
   -1
100
AcDbDimension
 10
2002.500013706558
 20
335.4283740889841
 30
0
 11
1180.000013706558
 21
350.4283740889841
 31
0
 70
   32
 71
    5
  3
RB
 53
0
210
0
220
0
230
1
100
AcDbAlignedDimension
 13
357.5000137065581
 23
562.3127367378074
 33
0
 14
2002.500013706558
 24
572.3127367378074
 34
0
100
AcDbRotatedDimension
  0
DIMENSION
  5
2A8
100
AcDbEntity
  8
COTATION
  6
ByLayer
 62
  256
370
   -1
100
AcDbDimension
 10
1147.500013706558
 20
414.363072021235
 30
0
 11
752.5000137065581
 21
429.363072021235
 31
0
 70
   32
 71
    5
  3
RB
 53
0
210
0
220
0
230
1
100
AcDbAlignedDimension
 13
357.5000137065581
 23
562.3127367378074
 33
0
 14
1147.500013706558
 24
562.3127367378074
 34
0
100
AcDbRotatedDimension
  0
DIMENSION
  5
2A9
100
AcDbEntity
  8
COTATION
  6
ByLayer
 62
  256
370
   -1
100
AcDbDimension
 10
927.5761321523046
 20
493.2977699534786
 30
0
 11
867.5761321523046
 21
508.2997384574155
 31
0
 70
   32
 71
    5
  3
RB
 53
0
210
0
220
0
230
1
100
AcDbAlignedDimension
 13
807.5761321523046
 23
562.3127367378074
 33
0
 14
927.5761321523046
 24
562.3127367378074
 34
0
100
AcDbRotatedDimension
  0
DIMENSION
  5
2AA
100
AcDbEntity
  8
COTATION
  6
ByLayer
 62
  256
370
   -1
100
AcDbDimension
 10
1147.500013706558
 20
1512.06735472527
 30
0
 11
752.5000137065581
 21
1527.06735472527
 31
0
 70
   32
 71
    5
  3
RB
 53
0
210
0
220
0
230
1
100
AcDbAlignedDimension
 13
357.5000137065581
 23
1352.312736737807
 33
0
 14
1147.500013706558
 24
1352.312736737807
 34
0
100
AcDbRotatedDimension
  0
DIMENSION
  5
2AB
100
AcDbEntity
  8
COTATION
  6
ByLayer
 62
  256
370
   -1
100
AcDbDimension
 10
2002.500013706558
 20
1605.802318210266
 30
0
 11
1180.000013706558
 21
1621.013777964699
 31
0
 70
   32
  1
\fArial|b1|i0|c0|p34;16.45
 71
    5
  3
RB
 53
0
210
0
220
0
230
1
100
AcDbAlignedDimension
 13
357.5000137065581
 23
1443.580976376743
 33
0
 14
2002.500013706558
 24
1433.580976376743
 34
0
100
AcDbRotatedDimension
  0
DIMENSION
  5
2AC
100
AcDbEntity
  8
COTATION
  6
ByLayer
 62
  256
370
   -1
100
AcDbDimension
 10
912.5056628303291
 20
1420.799115086334
 30
0
 11
852.5056628303291
 21
1435.801083590271
 31
0
 70
   32
 71
    5
  3
RB
 53
0
210
0
220
0
230
1
100
AcDbAlignedDimension
 13
792.5056628303291
 23
1351.837412597633
 33
0
 14
912.5056628303291
 24
1351.837412597633
 34
0
100
AcDbRotatedDimension
  0
LWPOLYLINE
  5
2AD
100
AcDbEntity
  8
RDC
  6
ByLayer
 62
  256
370
   -1
100
AcDbPolyline
 90
    4
 70
    0
 43
0
 10
390.5000137065581
 20
1162.312736737806
 10
390.5000137065581
 20
1319.312736737807
 10
1114.500013706558
 20
1319.312736737807
 10
1114.500013706558
 20
1108.0447976143
  0
INSERT
  5
2AE
100
AcDbEntity
  8
RDC
  6
ByLayer
 62
  256
370
   -1
100
AcDbBlockReference
  2
FENETRE120
 10
912.5056628303291
 20
1319.312736737807
 30
0
 41
1
 42
1
 43
0
 50
180
 70
    1
 71
    1
 44
0
 45
0
  0
LINE
  5
2AF
100
AcDbEntity
  8
RDC
  6
ByLayer
 62
  256
370
   -1
100
AcDbLine
 10
937.5761321523046
 20
552.3127367378074
 11
797.5761321523046
 21
552.3127367378074
  0
LWPOLYLINE
  5
2B0
100
AcDbEntity
  8
RDC
  6
ByLayer
 62
  256
370
   -1
100
AcDbPolyline
 90
    4
 70
    1
 43
0
 10
807.5761321523046
 20
595.3127367378074
 10
927.5761321523046
 20
595.3127367378074
 10
927.5761321523046
 20
585.3127367378074
 10
807.5761321523046
 20
585.3127367378074
  0
LINE
  5
2B1
100
AcDbEntity
  8
RDC
  6
ByLayer
 62
  256
370
   -1
100
AcDbLine
 10
817.5761321523046
 20
589.3127367378074
 11
862.5761321523046
 21
589.3127367378074
  0
LINE
  5
2B2
100
AcDbEntity
  8
RDC
  6
ByLayer
 62
  256
370
   -1
100
AcDbLine
 10
817.5761321523046
 20
591.3127367378074
 11
862.5761321523046
 21
591.3127367378074
  0
LINE
  5
2B3
100
AcDbEntity
  8
RDC
  6
ByLayer
 62
  256
370
   -1
100
AcDbLine
 10
817.5761321523046
 20
590.3127367378074
 11
862.5761321523046
 21
590.3127367378074
  0
LINE
  5
2B4
100
AcDbEntity
  8
RDC
  6
ByLayer
 62
  256
370
   -1
100
AcDbLine
 10
807.5761321523046
 20
595.3127367378074
 11
927.5761321523046
 21
595.3127367378074
  0
LWPOLYLINE
  5
2B5
100
AcDbEntity
  8
RDC
  6
ByLayer
 62
  256
370
   -1
100
AcDbPolyline
 90
    3
 70
    0
 43
0
 10
1114.500013706558
 20
675.3127367378074
 10
1114.500013706558
 20
595.3127367378074
 10
764.0000137065583
 20
595.3127367378074
  0
LINE
  5
2B6
100
AcDbEntity
  8
RDC
  6
ByLayer
 62
    0
370
   -1
100
AcDbLine
 10
752.5000137065581
 20
957.3127367378074
 11
752.5000137065581
 21
1608.050059552232
  0
HATCH
  5
2B7
100
AcDbEntity
  8
RDC
  6
ByLayer
 62
  256
370
   -1
100
AcDbHatch
 10
0
 20
0
 30
0
210
0
220
0
230
1
  2
AR-CONC
 70
    0
 71
    0
 91
    9
 92
    0
 93
   20
 72
    1
 10
7.500013706558093
 20
667.8127367378074
 11
7.500013706558093
 21
419.8127367378074
 72
    2
 10
7.500013706558092
 20
412.3127367378074
 40
7.499999999999997
 50
270
 51
360
 73
    0
 72
    1
 10
15.00001370655809
 20
412.3127367378074
 11
285.0000137065581
 21
412.3127367378074
 72
    2
 10
292.5000137065581
 20
412.3127367378074
 40
7.5
 50
180
 51
360
 73
    0
 72
    1
 10
300.0000137065581
 20
412.3127367378074
 11
570.0000137065581
 21
412.3127367378074
 72
    2
 10
577.5000137065581
 20
412.3127367378074
 40
7.5
 50
180
 51
270
 73
    0
 72
    1
 10
577.5000137065581
 20
419.8127367378074
 11
577.5000137065579
 21
562.3127367378092
 72
    1
 10
577.5000137065579
 20
562.3127367378092
 11
557.5000137065583
 21
562.3127367378092
 72
    1
 10
557.5000137065583
 20
562.3127367378092
 11
557.5000137065583
 21
552.3127367378074
 72
    1
 10
557.5000137065583
 20
552.3127367378074
 11
417.5000137065583
 21
552.3127367378074
 72
    1
 10
417.5000137065583
 20
552.3127367378074
 11
417.5000137065583
 21
562.3127367378074
 72
    1
 10
417.5000137065583
 20
562.3127367378074
 11
357.5000137065581
 21
562.3127367378074
 72
    1
 10
357.5000137065581
 20
562.3127367378074
 11
357.5000137065579
 21
1129.387223293215
 72
    1
 10
357.5000137065579
 20
1129.387223293215
 11
7.500013706558093
 21
1129.387223293214
 72
    1
 10
7.500013706558093
 20
1129.387223293214
 11
7.500013706558093
 21
946.8127367378074
 72
    2
 10
7.500013706558092
 20
939.3127367378074
 40
7.499999999999997
 50
270
 51
360
 73
    0
 72
    2
 10
7.500013706558093
 20
939.3127367378074
 40
7.499999999999997
 50
360
 51
90
 73
    0
 72
    1
 10
7.500013706558093
 20
931.8127367378074
 11
7.500013706558093
 21
682.8127367378074
 72
    2
 10
7.500013706558092
 20
675.3127367378074
 40
7.499999999999997
 50
270
 51
360
 73
    0
 72
    2
 10
7.500013706558093
 20
675.3127367378074
 40
7.499999999999997
 50
360
 51
90
 73
    0
 97
    0
 92
    0
 93
    5
 72
    2
 10
7.500013706558093
 20
1202.312736737807
 40
7.499999999999997
 50
360
 51
90
 73
    0
 72
    1
 10
7.500013706558093
 20
1194.812736737807
 11
7.500013706558207
 21
1132.086804477538
 72
    1
 10
7.500013706558207
 20
1132.086804477538
 11
357.5000137065581
 21
1132.086804477538
 72
    1
 10
357.5000137065581
 20
1132.086804477538
 11
357.5000137065581
 21
1202.312736737807
 72
    1
 10
357.5000137065581
 20
1202.312736737807
 11
15.00001370655809
 21
1202.312736737807
 97
    0
 92
    0
 93
    4
 72
    1
 10
245.621574517332
 20
989.3048627220578
 11
245.621574517332
 21
1035.320610753553
 72
    1
 10
245.621574517332
 20
1035.320610753553
 11
275.621574517332
 21
1035.320610753553
 72
    1
 10
275.621574517332
 20
1035.320610753553
 11
275.621574517332
 21
989.3048627220578
 72
    1
 10
275.621574517332
 20
989.3048627220578
 11
245.621574517332
 21
989.3048627220578
 97
    0
 92
    0
 93
    4
 72
    1
 10
245.621574517332
 20
689.3048627220596
 11
245.621574517332
 21
735.3206107535552
 72
    1
 10
245.621574517332
 20
735.3206107535552
 11
275.621574517332
 21
735.3206107535552
 72
    1
 10
275.621574517332
 20
735.3206107535552
 11
275.621574517332
 21
689.3048627220596
 72
    1
 10
275.621574517332
 20
689.3048627220596
 11
245.621574517332
 21
689.3048627220596
 97
    0
 92
    0
 93
    4
 72
    1
 10
154.3152736265547
 20
934.2699194171164
 11
154.3152736265547
 21
980.3555540584985
 72
    1
 10
154.3152736265547
 20
980.3555540584985
 11
184.3152736265547
 21
980.3555540584985
 72
    1
 10
184.3152736265547
 20
980.3555540584985
 11
184.3152736265547
 21
934.2699194171164
 72
    1
 10
184.3152736265547
 20
934.2699194171164
 11
154.3152736265547
 21
934.2699194171164
 97
    0
 92
    0
 93
    4
 72
    1
 10
376.4921396908101
 20
523.2977699534786
 11
408.5078877223061
 21
523.2977699534786
 72
    1
 10
408.5078877223061
 20
523.2977699534786
 11
408.5078877223061
 21
493.2977699534786
 72
    1
 10
408.5078877223061
 20
493.2977699534786
 11
376.4921396908101
 21
493.2977699534786
 72
    1
 10
376.4921396908101
 20
493.2977699534786
 11
376.4921396908101
 21
523.2977699534786
 97
    0
 92
    0
 93
    4
 72
    1
 10
466.4921396908103
 20
523.3017069613525
 11
508.5078877223064
 21
523.3017069613525
 72
    1
 10
508.5078877223064
 20
523.3017069613525
 11
508.5078877223064
 21
493.2977699534786
 72
    1
 10
508.5078877223064
 20
493.2977699534786
 11
466.4921396908103
 21
493.2977699534786
 72
    1
 10
466.4921396908103
 20
493.2977699534786
 11
466.4921396908103
 21
523.3017069613525
 97
    0
 92
    0
 93
    4
 72
    1
 10
159.4921396908101
 20
818.2203785485653
 11
205.5078877223061
 21
818.2203785485653
 72
    1
 10
205.5078877223061
 20
818.2203785485653
 11
205.5078877223061
 21
788.2203785485653
 72
    1
 10
205.5078877223061
 20
788.2203785485653
 11
159.4921396908101
 21
788.2203785485653
 72
    1
 10
159.4921396908101
 20
788.2203785485653
 11
159.4921396908101
 21
818.2203785485653
 97
    0
 92
    0
 93
    4
 72
    1
 10
61.50622364999435
 20
784.2699194171164
 11
61.50622364999435
 21
830.3555540584985
 72
    1
 10
61.50622364999435
 20
830.3555540584985
 11
91.50622364999435
 21
830.3555540584985
 72
    1
 10
91.50622364999435
 20
830.3555540584985
 11
91.50622364999435
 21
784.2699194171164
 72
    1
 10
91.50622364999435
 20
784.2699194171164
 11
61.50622364999435
 21
784.2699194171164
 97
    0
 75
    0
 76
    1
 52
0
 41
10
 77
    0
 78
    0
 98
    0
  0
DIMENSION
  5
2B8
100
AcDbEntity
  8
COTATION
  6
ByLayer
 62
  256
370
   -1
100
AcDbDimension
 10
91.50622364999435
 20
412.3127367378074
 30
0
 11
76.50622364999435
 21
807.3127367378074
 31
0
 70
   32
 71
    5
  3
RB
 53
0
210
0
220
0
230
1
100
AcDbAlignedDimension
 13
7.500013706558093
 23
1202.312736737807
 33
0
 14
7.500013706558093
 24
412.3127367378074
 34
0
 50
90
100
AcDbRotatedDimension
  0
LINE
  5
2B9
100
AcDbEntity
  8
RDC
  6
ByLayer
 62
  256
370
   -1
100
AcDbLine
 10
7.500013706558093
 20
412.3127367378074
 11
7.500013706558093
 21
1202.312736737807
  0
LINE
  5
2BA
100
AcDbEntity
  8
RDC
  6
ByLayer
 62
  256
370
   -1
100
AcDbLine
 10
375.5000137065581
 20
1157.312736737806
 11
375.5000137065581
 21
867.3127367378056
  0
LINE
  5
2BB
100
AcDbEntity
  8
RDC
  6
ByLayer
 62
  256
370
   -1
100
AcDbLine
 10
390.5000137065581
 20
1162.312736737806
 11
390.5000137065581
 21
862.3127367378056
  0
LWPOLYLINE
  5
2BC
100
AcDbEntity
  8
RDC
  6
ByLayer
 62
  256
370
   -1
100
AcDbPolyline
 90
    4
 70
    1
 43
0
 10
385.5000137065581
 20
1157.312736737806
 10
390.5000137065581
 20
1157.312736737806
 10
390.5000137065581
 20
1057.312736737806
 10
385.5000137065581
 20
1057.312736737806
  0
LINE
  5
2BD
100
AcDbEntity
  8
RDC
  6
ByLayer
 62
  256
370
   -1
100
AcDbLine
 10
388.0000137065581
 20
1152.312736737806
 11
388.0000137065581
 21
1062.312736737806
  0
DIMENSION
  5
2BE
100
AcDbEntity
  8
COTATION
  6
ByLayer
 62
  256
370
   -1
100
AcDbDimension
 10
184.3152736265547
 20
562.3127367378074
 30
0
 11
169.3152736265547
 21
957.3127367378074
 31
0
 70
   32
 71
    5
  3
RB
 53
0
210
0
220
0
230
1
100
AcDbAlignedDimension
 13
357.5000137065581
 23
1352.312736737807
 33
0
 14
357.5000137065581
 24
562.3127367378074
 34
0
 50
90
100
AcDbRotatedDimension
  0
DIMENSION
  5
2BF
100
AcDbEntity
  8
COTATION
  6
ByLayer
 62
  256
370
   -1
100
AcDbDimension
 10
275.621574517332
 20
862.3127367378056
 30
0
 11
260.621574517332
 21
1012.312736737806
 31
0
 70
   32
 71
    5
  3
RB
 53
0
210
0
220
0
230
1
100
AcDbAlignedDimension
 13
357.5000137065581
 23
1162.312736737806
 33
0
 14
357.5000137065581
 24
862.3127367378056
 34
0
 50
90
100
AcDbRotatedDimension
  0
LWPOLYLINE
  5
2C0
100
AcDbEntity
  8
RDC
  6
ByLayer
 62
  256
370
   -1
100
AcDbPolyline
 90
    2
 70
    0
 43
0
 10
357.5000137065581
 20
562.3127367378074
 10
357.5000137065581
 20
1352.312736737807
  0
LINE
  5
2C1
100
AcDbEntity
  8
RDC
  6
ByLayer
 62
    0
370
   -1
100
AcDbLine
 10
752.5000137065581
 20
957.3127367378074
 11
752.5000137065581
 21
348.3980380107459
  0
CIRCLE
  5
2C2
100
AcDbEntity
  8
RDC
  6
ByLayer
 62
  256
370
   -1
100
AcDbCircle
 10
292.5000137065581
 20
412.3127367378074
 40
7.5
  0
CIRCLE
  5
2C3
100
AcDbEntity
  8
RDC
  6
ByLayer
 62
  256
370
   -1
100
AcDbCircle
 10
7.500013706558093
 20
675.3127367378074
 40
7.5
  0
CIRCLE
  5
2C4
100
AcDbEntity
  8
RDC
  6
ByLayer
 62
  256
370
   -1
100
AcDbCircle
 10
7.500013706558093
 20
939.3127367378074
 40
7.5
  0
CIRCLE
  5
2C5
100
AcDbEntity
  8
RDC
  6
ByLayer
 62
  256
370
   -1
100
AcDbCircle
 10
577.5000137065581
 20
412.3127367378074
 40
7.5
  0
CIRCLE
  5
2C6
100
AcDbEntity
  8
RDC
  6
ByLayer
 62
  256
370
   -1
100
AcDbCircle
 10
7.500013706558093
 20
412.3127367378074
 40
7.5
  0
LINE
  5
2C7
100
AcDbEntity
  8
RDC
  6
ByLayer
 62
  256
370
   -1
100
AcDbLine
 10
577.5000137065581
 20
412.3127367378074
 11
7.500013706558093
 21
412.3127367378074
  0
LINE
  5
2C8
100
AcDbEntity
  8
RDC
  6
ByLayer
 62
  256
370
   -1
100
AcDbLine
 10
577.5000137065581
 20
562.3127367378074
 11
577.5000137065581
 21
412.3127367378074
  0
LINE
  5
2C9
100
AcDbEntity
  8
RDC
  6
ByLayer
 62
  256
370
   -1
100
AcDbLine
 10
383.0000137065581
 20
1057.312736737806
 11
383.0000137065581
 21
967.3127367378056
  0
LINE
  5
2CA
100
AcDbEntity
  8
RDC
  6
ByLayer
 62
  256
370
   -1
100
AcDbLine
 10
378.0000137065581
 20
957.3127367378056
 11
378.0000137065581
 21
867.3127367378056
  0
LINE
  5
2CB
100
AcDbEntity
  8
RDC
  6
ByLayer
 62
  256
370
   -1
100
AcDbLine
 10
390.5000137065581
 20
862.3127367378056
 11
357.5000137065581
 21
862.3127367378056
  0
LINE
  5
2CC
100
AcDbEntity
  8
RDC
  6
ByLayer
 62
  256
370
   -1
100
AcDbLine
 10
547.5000137065583
 20
562.3127367378074
 11
807.5761321523046
 21
562.3127367378074
  0
LINE
  5
2CD
100
AcDbEntity
  8
RDC
  6
ByLayer
 62
  256
370
   -1
100
AcDbLine
 10
357.5000137065581
 20
562.3127367378074
 11
427.5000137065583
 21
562.3127367378074
  0
INSERT
  5
2CE
100
AcDbEntity
  8
RDC
  6
ByLayer
 62
  256
370
   -1
100
AcDbBlockReference
  2
FENETRE120
 10
427.5000137065583
 20
595.3127367378074
 30
0
 41
1
 42
1
 43
0
 50
0
 70
    1
 71
    1
 44
0
 45
0
  0
LINE
  5
2CF
100
AcDbEntity
  8
RDC
  6
ByLayer
 62
  256
370
   -1
100
AcDbLine
 10
797.5761321523046
 20
562.3127367378074
 11
807.5761321523046
 21
562.3127367378074
  0
LINE
  5
2D0
100
AcDbEntity
  8
RDC
  6
ByLayer
 62
  256
370
   -1
100
AcDbLine
 10
807.5761321523046
 20
562.3127367378074
 11
807.5761321523046
 21
595.3127367378074
  0
DIMENSION
  5
2D1
100
AcDbEntity
  8
COTATION
  6
ByLayer
 62
  256
370
   -1
100
AcDbDimension
 10
7.500013706558093
 20
362.9956083980505
 30
0
 11
292.5000137065581
 21
377.9956083980505
 31
0
 70
   32
 71
    5
  3
RB
 53
0
210
0
220
0
230
1
100
AcDbAlignedDimension
 13
577.5000137065581
 23
412.3127367378074
 33
0
 14
7.500013706558093
 24
412.3127367378074
 34
0
100
AcDbRotatedDimension
  0
DIMENSION
  5
2D2
100
AcDbEntity
  8
COTATION
  6
ByLayer
 62
  256
370
   -1
100
AcDbDimension
 10
427.5000137065583
 20
493.2977699534786
 30
0
 11
392.5000137065581
 21
508.2977699534786
 31
0
 70
   32
 71
    5
  3
RB
 53
0
210
0
220
0
230
1
100
AcDbAlignedDimension
 13
357.5000137065581
 23
562.3127367378074
 33
0
 14
427.5000137065583
 24
562.3127367378074
 34
0
100
AcDbRotatedDimension
  0
DIMENSION
  5
2D3
100
AcDbEntity
  8
COTATION
  6
ByLayer
 62
  256
370
   -1
100
AcDbDimension
 10
357.5000137065581
 20
788.2203785485653
 30
0
 11
182.5000137065581
 21
803.2203785485653
 31
0
 70
   32
 71
    5
  3
RB
 53
0
210
0
220
0
230
1
100
AcDbAlignedDimension
 13
7.500013706558093
 23
412.3127367378074
 33
0
 14
357.5000137065581
 24
562.3127367378074
 34
0
100
AcDbRotatedDimension
  0
DIMENSION
  5
2D4
100
AcDbEntity
  8
COTATION
  6
ByLayer
 62
  256
370
   -1
100
AcDbDimension
 10
275.621574517332
 20
562.3127367378074
 30
0
 11
260.621574517332
 21
712.3127367378074
 31
0
 70
   32
 71
    5
  3
RB
 53
0
210
0
220
0
230
1
100
AcDbAlignedDimension
 13
357.5000137065581
 23
862.3127367378056
 33
0
 14
357.5000137065581
 24
562.3127367378074
 34
0
 50
90
100
AcDbRotatedDimension
  0
LWPOLYLINE
  5
2D5
100
AcDbEntity
  8
RDC
  6
ByLayer
 62
  256
370
   -1
100
AcDbPolyline
 90
    3
 70
    0
 43
0
 10
807.5761321523046
 20
595.3127367378074
 10
390.5000137065581
 20
595.3127367378074
 10
390.5000137065581
 20
862.3127367378056
  0
DIMENSION
  5
2D6
100
AcDbEntity
  8
COTATION
  6
ByLayer
 62
  256
370
   -1
100
AcDbDimension
 10
635.7041947505641
 20
414.363072021235
 30
0
 11
620.7041947505641
 21
488.3379043795212
 31
0
 70
   32
 71
    5
  3
RB
 53
0
210
0
220
0
230
1
100
AcDbAlignedDimension
 13
577.5000137065581
 23
562.3127367378074
 33
0
 14
577.5000137065581
 24
414.363072021235
 34
0
 50
90
100
AcDbRotatedDimension
  0
DIMENSION
  5
2D7
100
AcDbEntity
  8
COTATION
  6
ByLayer
 62
  256
370
   -1
100
AcDbDimension
 10
807.5761321523046
 20
493.2977699534786
 30
0
 11
677.5380729294316
 21
508.2997384574155
 31
0
 70
   32
 71
    5
  3
RB
 53
0
210
0
220
0
230
1
100
AcDbAlignedDimension
 13
547.5000137065583
 23
562.3127367378074
 33
0
 14
807.5761321523046
 24
562.3127367378074
 34
0
100
AcDbRotatedDimension
  0
DIMENSION
  5
2D8
100
AcDbEntity
  8
COTATION
  6
ByLayer
 62
  256
370
   -1
100
AcDbDimension
 10
547.5000137065583
 20
493.2977699534786
 30
0
 11
487.5000137065583
 21
508.2997384574155
 31
0
 70
   32
 71
    5
  3
RB
 53
0
210
0
220
0
230
1
100
AcDbAlignedDimension
 13
427.5000137065583
 23
562.3127367378074
 33
0
 14
547.5000137065583
 24
562.3127367378074
 34
0
100
AcDbRotatedDimension
  0
LINE
  5
2D9
100
AcDbEntity
  8
RDC
  6
ByLayer
 62
  256
370
   -1
100
AcDbLine
 10
797.5761321523046
 20
552.3127367378074
 11
797.5761321523046
 21
562.3127367378074
  0
LWPOLYLINE
  5
2DA
100
AcDbEntity
  8
RDC
  6
ByLayer
 62
  256
370
   -1
100
AcDbPolyline
 90
    4
 70
    1
 43
0
 10
812.5761321523046
 20
595.3127367378074
 10
817.5761321523046
 20
595.3127367378074
 10
817.5761321523046
 20
585.3127367378074
 10
812.5761321523046
 20
585.3127367378074
  0
LWPOLYLINE
  5
2DB
100
AcDbEntity
  8
RDC
  6
ByLayer
 62
  256
370
   -1
100
AcDbPolyline
 90
    4
 70
    1
 43
0
 10
807.5761321523046
 20
595.3127367378074
 10
812.5761321523046
 20
595.3127367378074
 10
812.5761321523046
 20
585.3127367378074
 10
807.5761321523046
 20
585.3127367378074
  0
LWPOLYLINE
  5
2DC
100
AcDbEntity
  8
RDC
  6
ByLayer
 62
  256
370
   -1
100
AcDbPolyline
 90
    4
 70
    1
 43
0
 10
380.5000137065581
 20
1062.312736737806
 10
385.5000137065581
 20
1062.312736737806
 10
385.5000137065581
 20
1057.312736737806
 10
380.5000137065581
 20
1057.312736737806
  0
LWPOLYLINE
  5
2DD
100
AcDbEntity
  8
RDC
  6
ByLayer
 62
  256
370
   -1
100
AcDbPolyline
 90
    4
 70
    1
 43
0
 10
385.5000137065581
 20
1062.312736737806
 10
390.5000137065581
 20
1062.312736737806
 10
390.5000137065581
 20
1057.312736737806
 10
385.5000137065581
 20
1057.312736737806
  0
LWPOLYLINE
  5
2DE
100
AcDbEntity
  8
RDC
  6
ByLayer
 62
  256
370
   -1
100
AcDbPolyline
 90
    4
 70
    1
 43
0
 10
390.5000137065581
 20
867.3127367378056
 10
375.5000137065581
 20
867.3127367378056
 10
375.5000137065581
 20
862.3127367378056
 10
390.5000137065581
 20
862.3127367378056
  0
LWPOLYLINE
  5
2DF
100
AcDbEntity
  8
RDC
  6
ByLayer
 62
  256
370
   -1
100
AcDbPolyline
 90
    4
 70
    1
 43
0
 10
380.5000137065581
 20
967.3127367378056
 10
385.5000137065581
 20
967.3127367378056
 10
385.5000137065581
 20
962.3127367378056
 10
380.5000137065581
 20
962.3127367378056
  0
LWPOLYLINE
  5
2E0
100
AcDbEntity
  8
RDC
  6
ByLayer
 62
  256
370
   -1
100
AcDbPolyline
 90
    4
 70
    1
 43
0
 10
375.5000137065581
 20
867.3127367378056
 10
380.5000137065581
 20
867.3127367378056
 10
380.5000137065581
 20
862.3127367378056
 10
375.5000137065581
 20
862.3127367378056
  0
LWPOLYLINE
  5
2E1
100
AcDbEntity
  8
RDC
  6
ByLayer
 62
  256
370
   -1
100
AcDbPolyline
 90
    4
 70
    1
 43
0
 10
375.5000137065581
 20
962.3127367378056
 10
380.5000137065581
 20
962.3127367378056
 10
380.5000137065581
 20
957.3127367378056
 10
375.5000137065581
 20
957.3127367378056
  0
LWPOLYLINE
  5
2E2
100
AcDbEntity
  8
RDC
  6
ByLayer
 62
  256
370
   -1
100
AcDbPolyline
 90
    4
 70
    1
 43
0
 10
375.5000137065581
 20
962.3127367378056
 10
380.5000137065581
 20
962.3127367378056
 10
380.5000137065581
 20
862.3127367378056
 10
375.5000137065581
 20
862.3127367378056
  0
LWPOLYLINE
  5
2E3
100
AcDbEntity
  8
RDC
  6
ByLayer
 62
  256
370
   -1
100
AcDbPolyline
 90
    4
 70
    1
 43
0
 10
380.5000137065581
 20
1062.312736737806
 10
385.5000137065581
 20
1062.312736737806
 10
385.5000137065581
 20
962.3127367378056
 10
380.5000137065581
 20
962.3127367378056
  0
CIRCLE
  5
2E4
100
AcDbEntity
  8
RDC
  6
ByLayer
 62
  256
370
   -1
100
AcDbCircle
 10
7.500013706558093
 20
1202.312736737807
 40
7.5
  0
LINE
  5
2E5
100
AcDbEntity
  8
RDC
  6
ByLayer
 62
  256
370
   -1
100
AcDbLine
 10
7.500013706558093
 20
1202.312736737807
 11
357.5000137065581
 21
1202.312736737807
  0
LINE
  5
2E6
100
AcDbEntity
  8
RDC
  6
ByLayer
 62
  256
370
   -1
100
AcDbLine
 10
357.5000137065581
 20
1352.312736737807
 11
792.5056628303291
 21
1352.312736737807
  0
LINE
  5
2E7
100
AcDbEntity
  8
RDC
  6
ByLayer
 62
  256
370
   -1
100
AcDbLine
 10
390.5000137065581
 20
1162.312736737806
 11
357.5000137065581
 21
1162.312736737806
  0
DIMENSION
  5
2E8
100
AcDbEntity
  8
COTATION
  6
ByLayer
 62
  256
370
   -1
100
AcDbDimension
 10
792.5056628303291
 20
1420.799115086334
 30
0
 11
575.0028382684436
 21
1435.799115086334
 31
0
 70
   32
 71
    5
  3
RB
 53
0
210
0
220
0
230
1
100
AcDbAlignedDimension
 13
357.5000137065581
 23
1352.312736737807
 33
0
 14
792.5056628303291
 24
1351.837412597633
 34
0
100
AcDbRotatedDimension
  0
DIMENSION
  5
2E9
100
AcDbEntity
  8
COTATION
  6
ByLayer
 62
  256
370
   -1
100
AcDbDimension
 10
275.6215745173322
 20
1162.312736737806
 30
0
 11
260.6215745173321
 21
1257.312736737807
 31
0
 70
   32
 71
    5
  3
RB
 53
0
210
0
220
0
230
1
100
AcDbAlignedDimension
 13
357.5000137065581
 23
1352.312736737807
 33
0
 14
357.5000137065581
 24
1162.312736737806
 34
0
 50
90
100
AcDbRotatedDimension
  0
LWPOLYLINE
  5
2EA
100
AcDbEntity
  8
RDC
  6
ByLayer
 62
  256
370
   -1
100
AcDbPolyline
 90
    4
 70
    1
 43
0
 10
385.5000137065581
 20
1157.312736737806
 10
390.5000137065581
 20
1157.312736737806
 10
390.5000137065581
 20
1152.312736737806
 10
385.5000137065581
 20
1152.312736737806
  0
LWPOLYLINE
  5
2EB
100
AcDbEntity
  8
RDC
  6
ByLayer
 62
  256
370
   -1
100
AcDbPolyline
 90
    4
 70
    1
 43
0
 10
390.5000137065581
 20
1162.312736737806
 10
375.5000137065581
 20
1162.312736737806
 10
375.5000137065581
 20
1157.312736737806
 10
390.5000137065581
 20
1157.312736737806
  0
LINE
  5
2EC
100
AcDbEntity
  8
RDC
  6
ByLayer
 62
  256
370
   -1
100
AcDbLine
 10
1669.500013706558
 20
1002.044797614302
 11
1669.500013706558
 21
1309.312736737807
  0
DIMENSION
  5
2ED
100
AcDbEntity
  8
COTATION
  6
ByLayer
 62
  256
370
   -1
100
AcDbDimension
 10
1474.635859859969
 20
1002.044797614291
 30
0
 11
1459.633891356032
 21
1120.67876717605
 31
0
 70
   32
 71
    5
  3
RB
 53
0
210
0
220
0
230
1
100
AcDbAlignedDimension
 13
1392.631746249331
 23
1239.312736737807
 33
0
 14
1392.631746249331
 24
1002.044797614291
 34
0
 50
90
100
AcDbRotatedDimension
  0
DIMENSION
  5
2EE
100
AcDbEntity
  8
COTATION
  6
ByLayer
 62
  256
370
   -1
100
AcDbDimension
 10
1610.500013706558
 20
1147.540227155747
 30
0
 11
1615.250013706558
 21
1105.040227155747
 31
0
 70
   32
 71
    5
  3
RB
 53
0
210
0
220
0
230
1
100
AcDbAlignedDimension
 13
1593.500013706558
 23
1239.312736737807
 33
0
 14
1610.500013706558
 24
1309.312736737807
 34
0
100
AcDbRotatedDimension
  0
DIMENSION
  5
2EF
100
AcDbEntity
  8
COTATION
  6
ByLayer
 62
  256
370
   -1
100
AcDbDimension
 10
1392.631746249331
 20
1147.540227155747
 30
0
 11
1400.881746249331
 21
1105.040227155747
 31
0
 70
   32
 71
    5
  3
RB
 53
0
210
0
220
0
230
1
100
AcDbAlignedDimension
 13
1382.631746249331
 23
1239.312736737807
 33
0
 14
1392.631746249331
 24
1239.312736737807
 34
0
100
AcDbRotatedDimension
  0
DIMENSION
  5
2F0
100
AcDbEntity
  8
COTATION
  6
ByLayer
 62
  256
370
   -1
100
AcDbDimension
 10
1382.631746249331
 20
1147.540227155747
 30
0
 11
1265.065879977944
 21
1162.542195659684
 31
0
 70
   32
 71
    5
  3
RB
 53
0
210
0
220
0
230
1
100
AcDbAlignedDimension
 13
1147.500013706558
 23
1108.0447976143
 33
0
 14
1382.631746249331
 24
1239.312736737807
 34
0
100
AcDbRotatedDimension
  0
LWPOLYLINE
  5
2F1
100
AcDbEntity
  8
RDC
  6
ByLayer
 62
  256
370
   -1
100
AcDbPolyline
 90
    2
 70
    0
 43
0
 10
1593.500013706558
 20
992.0447976143005
 10
1593.500013706558
 20
1239.312736737807
  0
DIMENSION
  5
2F2
100
AcDbEntity
  8
COTATION
  6
ByLayer
 62
  256
370
   -1
100
AcDbDimension
 10
2205.908994158031
 20
572.3127367378074
 30
0
 11
2190.908994158031
 21
957.3127367378074
 31
0
 70
   32
 71
    5
  3
RB
 53
0
210
0
220
0
230
1
100
AcDbAlignedDimension
 13
2002.500013706558
 23
1342.312736737807
 33
0
 14
2002.500013706558
 24
572.3127367378074
 34
0
 50
90
100
AcDbRotatedDimension
  0
LWPOLYLINE
  5
2F3
100
AcDbEntity
  8
RDC
  6
ByLayer
 62
  256
370
   -1
100
AcDbPolyline
 90
    2
 70
    0
 43
0
 10
2002.500013706558
 20
1342.312736737807
 10
2002.500013706558
 20
572.3127367378074
  0
LINE
  5
2F4
100
AcDbEntity
  8
RDC
  6
ByLayer
 62
  256
370
   -1
100
AcDbLine
 10
1009.500013706558
 20
1121.989410581975
 11
1009.500013706557
 21
992.0447976142968
  0
LINE
  5
2F5
100
AcDbEntity
  8
RDC
  6
ByLayer
 62
  256
370
   -1
100
AcDbLine
 10
1029.500013706557
 20
1234.312736737807
 11
1029.500013706557
 21
1015.044797614297
  0
LINE
  5
2F6
100
AcDbEntity
  8
RDC
  6
ByLayer
 62
  256
370
   -1
100
AcDbLine
 10
1147.500013706558
 20
1239.312736737807
 11
1147.500013706558
 21
1095.0447976143
  0
LINE
  5
2F7
100
AcDbEntity
  8
RDC
  6
ByLayer
 62
  256
370
   -1
100
AcDbLine
 10
1392.631746249331
 20
1002.044797614291
 11
1392.631746249331
 21
1239.312736737806
  0
LINE
  5
2F8
100
AcDbEntity
  8
RDC
  6
ByLayer
 62
  256
370
   -1
100
AcDbLine
 10
1382.631746249331
 20
1002.0447976143
 11
1382.631746249331
 21
1239.312736737806
  0
LWPOLYLINE
  5
2F9
100
AcDbEntity
  8
RDC
  6
ByLayer
 62
  256
370
   -1
100
AcDbPolyline
 90
    6
 70
    0
 43
0
 10
1610.500013706558
 20
1002.0447976143
 10
1610.500013706558
 20
1309.312736737807
 10
1969.500013706558
 20
1309.312736737807
 10
1969.500013706558
 20
605.3127367378074
 10
1610.500013706558
 20
605.3127367378074
 10
1610.500013706558
 20
883.0627367378092
  0
LINE
  5
2FA
100
AcDbEntity
  8
RDC
  6
ByLayer
 62
  256
370
   -1
100
AcDbLine
 10
1669.500013706557
 20
883.0627367378092
 11
1669.500013706557
 21
605.3127367378074
  0
LINE
  5
2FB
100
AcDbEntity
  8
RDC
  6
ByLayer
 62
  256
370
   -1
100
AcDbLine
 10
1124.500013706558
 20
897.5881593166887
 11
1124.500013706555
 21
992.0447976143005
  0
LINE
  5
2FC
100
AcDbEntity
  8
RDC
  6
ByLayer
 62
  256
370
   -1
100
AcDbLine
 10
1114.500013706558
 20
792.0447976142987
 11
1137.500013706556
 21
792.0447976142968
  0
LINE
  5
2FD
100
AcDbEntity
  8
RDC
  6
ByLayer
 62
  256
370
   -1
100
AcDbLine
 10
1029.500013706557
 20
1015.044797614297
 11
1147.500013706558
 21
1015.0447976143
  0
LINE
  5
2FE
100
AcDbEntity
  8
RDC
  6
ByLayer
 62
  256
370
   -1
100
AcDbLine
 10
1593.500013706558
 20
675.3127367378074
 11
1593.500013706558
 21
715.3127367378074
  0
LINE
  5
2FF
100
AcDbEntity
  8
RDC
  6
ByLayer
 62
  256
370
   -1
100
AcDbLine
 10
1593.500013706558
 20
992.0447976143005
 11
1669.500013706558
 21
992.0447976143023
  0
CIRCLE
  5
300
100
AcDbEntity
  8
RDC
  6
ByLayer
 62
  256
370
   -1
100
AcDbCircle
 10
1155.267233275532
 20
572.5968570941768
 40
5
  0
CIRCLE
  5
301
100
AcDbEntity
  8
RDC
  6
ByLayer
 62
  256
370
   -1
100
AcDbCircle
 10
1205.701557534703
 20
863.3344261094098
 40
39.33035668451055
  0
LINE
  5
302
100
AcDbEntity
  8
RDC
  6
ByLayer
 62
  256
370
   -1
100
AcDbLine
 10
1448.732680592743
 20
876.6825712427417
 11
1507.500013706558
 21
876.6825712427417
  0
CIRCLE
  5
303
100
AcDbEntity
  8
RDC
  6
ByLayer
 62
  256
370
   -1
100
AcDbCircle
 10
1413.328554730993
 20
1029.831816309485
 40
5.625338231138874
  0
LINE
  5
304
100
AcDbEntity
  8
RDC
  6
ByLayer
 62
  256
370
   -1
100
AcDbLine
 10
1507.500013706557
 20
1002.0447976143
 11
1507.500013706557
 21
992.0447976143005
  0
LINE
  5
305
100
AcDbEntity
  8
RDC
  6
ByLayer
 62
  256
370
   -1
100
AcDbLine
 10
1392.631746249331
 20
1002.044797614291
 11
1507.500013706558
 21
1002.044797614295
  0
LINE
  5
306
100
AcDbEntity
  8
RDC
  6
ByLayer
 62
  256
370
   -1
100
AcDbLine
 10
1147.500013706558
 20
1015.0447976143
 11
1029.500013706557
 21
1015.044797614297
  0
LINE
  5
307
100
AcDbEntity
  8
RDC
  6
ByLayer
 62
  256
370
   -1
100
AcDbLine
 10
1610.500013706558
 20
1002.0447976143
 11
1669.500013706558
 21
1002.044797614302
  0
LINE
  5
308
100
AcDbEntity
  8
RDC
  6
ByLayer
 62
  256
370
   -1
100
AcDbLine
 10
1315.315879977945
 20
992.0447976143005
 11
1382.631746249331
 21
992.0447976143005
  0
CIRCLE
  5
309
100
AcDbEntity
  8
RDC
  6
DIVIDE
 62
  256
370
   -1
100
AcDbCircle
 10
1434.019063373431
 20
878.9893126182396
 40
3.519421660096918
  0
LINE
  5
30A
100
AcDbEntity
  8
RDC
  6
ByLayer
 62
  256
370
   -1
100
AcDbLine
 10
1392.631746249331
 20
986.0627367378056
 11
1392.631746249331
 21
992.0447976143005
  0
LINE
  5
30B
100
AcDbEntity
  8
RDC
  6
ByLayer
 62
  256
370
   -1
100
AcDbLine
 10
1382.631746249331
 20
986.0627367378056
 11
1382.631746249331
 21
992.0447976143005
  0
LINE
  5
30C
100
AcDbEntity
  8
RDC
  6
ByLayer
 62
  256
370
   -1
100
AcDbLine
 10
1009.500013706557
 20
992.044797614295
 11
1227.315879977945
 21
992.0447976143005
  0
LINE
  5
30D
100
AcDbEntity
  8
RDC
  6
ByLayer
 62
  256
370
   -1
100
AcDbLine
 10
1448.732680592743
 20
866.6825712427417
 11
1507.500013706558
 21
866.6825712427417
  0
LINE
  5
30E
100
AcDbEntity
  8
RDC
  6
ByLayer
 62
  256
370
   -1
100
AcDbLine
 10
1392.63174624933
 20
893.0627367378074
 11
1448.732680592743
 21
893.0627367378074
  0
LINE
  5
30F
100
AcDbEntity
  8
RDC
  6
ByLayer
 62
  256
370
   -1
100
AcDbLine
 10
1472.631746249332
 20
642.3127367378074
 11
1147.500013706558
 21
642.3127367378056
  0
LINE
  5
310
100
AcDbEntity
  8
RDC
  6
ByLayer
 62
  256
370
   -1
100
AcDbLine
 10
1472.631746249331
 20
642.3127367378074
 11
1472.631746249331
 21
675.3127367378074
  0
LINE
  5
311
100
AcDbEntity
  8
RDC
  6
ByLayer
 62
  256
370
   -1
100
AcDbLine
 10
1402.631746249331
 20
642.3127367378074
 11
1412.631746249331
 21
642.3127367378074
  0
LINE
  5
312
100
AcDbEntity
  8
RDC
  6
ByLayer
 62
  256
370
   -1
100
AcDbLine
 10
1532.631746249331
 20
675.3127367378074
 11
1532.631746249331
 21
642.3127367378074
  0
LINE
  5
313
100
AcDbEntity
  8
RDC
  6
ByLayer
 62
  256
370
   -1
100
AcDbLine
 10
1412.631746249331
 20
675.3127367378074
 11
1472.631746249331
 21
675.3127367378074
  0
LINE
  5
314
100
AcDbEntity
  8
RDC
  6
ByLayer
 62
  256
370
   -1
100
AcDbLine
 10
1480.131746249331
 20
669.3127367378074
 11
1525.131746249331
 21
669.3127367378074
  0
LINE
  5
315
100
AcDbEntity
  8
RDC
  6
ByLayer
 62
  256
370
   -1
100
AcDbLine
 10
1480.131746249331
 20
671.3127367378074
 11
1525.131746249331
 21
671.3127367378074
  0
LINE
  5
316
100
AcDbEntity
  8
RDC
  6
ByLayer
 62
  256
370
   -1
100
AcDbLine
 10
1480.131746249331
 20
670.3127367378074
 11
1525.131746249331
 21
670.3127367378074
  0
LINE
  5
317
100
AcDbEntity
  8
RDC
  6
ByLayer
 62
  256
370
   -1
100
AcDbLine
 10
1472.631746249331
 20
665.3127367378074
 11
1532.631746249331
 21
665.3127367378074
  0
LINE
  5
318
100
AcDbEntity
  8
RDC
  6
ByLayer
 62
  256
370
   -1
100
AcDbLine
 10
1147.500013706558
 20
1095.0447976143
 11
1147.500013706558
 21
1002.0447976143
  0
LINE
  5
319
100
AcDbEntity
  8
RDC
  6
ByLayer
 62
  256
370
   -1
100
AcDbLine
 10
1114.500013706558
 20
899.0447976143005
 11
1137.500013706558
 21
899.0447976143005
  0
LINE
  5
31A
100
AcDbEntity
  8
RDC
  6
ByLayer
 62
  256
370
   -1
100
AcDbLine
 10
1114.500013706558
 20
1108.0447976143
 11
1147.500013706558
 21
1108.0447976143
  0
LINE
  5
31B
100
AcDbEntity
  8
RDC
  6
ByLayer
 62
  256
370
   -1
100
AcDbLine
 10
1232.315908394748
 20
675.3127367378056
 11
1137.500013706558
 21
675.3127367378074
  0
LINE
  5
31C
100
AcDbEntity
  8
RDC
  6
ByLayer
 62
  256
370
   -1
100
AcDbLine
 10
1358.815879977945
 20
675.3127367378074
 11
1358.815879977945
 21
642.3127367378056
  0
LINE
  5
31D
100
AcDbEntity
  8
RDC
  6
ByLayer
 62
  256
370
   -1
100
AcDbLine
 10
1188.815879977945
 20
675.3127367378092
 11
1188.815879977945
 21
642.3127367378074
  0
LINE
  5
31E
100
AcDbEntity
  8
RDC
  6
ByLayer
 62
  256
370
   -1
100
AcDbLine
 10
2002.500013706558
 20
572.3127367378074
 11
1849.500013706558
 21
572.3127367378074
  0
LINE
  5
31F
100
AcDbEntity
  8
RDC
  6
ByLayer
 62
  256
370
   -1
100
AcDbLine
 10
1577.500013706558
 20
572.3127367378074
 11
1729.500013706558
 21
572.3127367378074
  0
INSERT
  5
320
100
AcDbEntity
  8
RDC
  6
ByLayer
 62
  256
370
   -1
100
AcDbBlockReference
  2
FENETRE120
 10
1729.500013706558
 20
605.3127367378074
 30
0
 41
1
 42
1
 43
0
 50
0
 70
    1
 71
    1
 44
0
 45
0
  0
LINE
  5
321
100
AcDbEntity
  8
RDC
  6
ByLayer
 62
  256
370
   -1
100
AcDbLine
 10
927.5761321523046
 20
562.3127367378074
 11
937.5761321523046
 21
562.3127367378074
  0
LINE
  5
322
100
AcDbEntity
  8
RDC
  6
ByLayer
 62
  256
370
   -1
100
AcDbLine
 10
872.5761321523046
 20
589.3127367378074
 11
917.5761321523046
 21
589.3127367378074
  0
LINE
  5
323
100
AcDbEntity
  8
RDC
  6
ByLayer
 62
  256
370
   -1
100
AcDbLine
 10
872.5761321523046
 20
591.3127367378074
 11
917.5761321523046
 21
591.3127367378074
  0
LINE
  5
324
100
AcDbEntity
  8
RDC
  6
ByLayer
 62
  256
370
   -1
100
AcDbLine
 10
872.5761321523046
 20
590.3127367378074
 11
917.5761321523046
 21
590.3127367378074
  0
LINE
  5
325
100
AcDbEntity
  8
RDC
  6
ByLayer
 62
  256
370
   -1
100
AcDbLine
 10
867.5761321523046
 20
595.3127367378074
 11
867.5761321523046
 21
573.4980902745137
  0
LINE
  5
326
100
AcDbEntity
  8
RDC
  6
ByLayer
 62
  256
370
   -1
100
AcDbLine
 10
927.5761321523046
 20
595.3127367378074
 11
927.5761321523046
 21
562.3127367378074
  0
LINE
  5
327
100
AcDbEntity
  8
RDC
  6
ByLayer
 62
  256
370
   -1
100
AcDbLine
 10
1388.732680592743
 20
883.0627367378074
 11
1438.732680592744
 21
883.0627367378056
  0
LINE
  5
328
100
AcDbEntity
  8
RDC
  6
ByLayer
 62
  256
370
   -1
100
AcDbLine
 10
1593.500013706558
 20
892.9251092612176
 11
1669.500013706557
 21
893.0627367378092
  0
LINE
  5
329
100
AcDbEntity
  8
RDC
  6
ByLayer
 62
  256
370
   -1
100
AcDbLine
 10
1610.500013706557
 20
883.0627367378092
 11
1669.500013706557
 21
883.0627367378092
  0
LINE
  5
32A
100
AcDbEntity
  8
RDC
  6
ByLayer
 62
  256
370
   -1
100
AcDbLine
 10
1762.500013706558
 20
1002.044797614302
 11
1969.500013706558
 21
1002.0447976143
  0
LINE
  5
32B
100
AcDbEntity
  8
RDC
  6
ByLayer
 62
  256
370
   -1
100
AcDbLine
 10
1762.500013706558
 20
992.0447976143023
 11
1969.500013706558
 21
992.0447976143005
  0
LINE
  5
32C
100
AcDbEntity
  8
RDC
  6
ByLayer
 62
  256
370
   -1
100
AcDbLine
 10
1147.500013706558
 20
1002.044797614286
 11
1382.631746249331
 21
1002.044797614293
  0
LINE
  5
32D
100
AcDbEntity
  8
RDC
  6
ByLayer
 62
  256
370
   -1
100
AcDbLine
 10
1669.500013706557
 20
883.0627367378092
 11
1669.500013706557
 21
893.0627367378111
  0
LINE
  5
32E
100
AcDbEntity
  8
RDC
  6
ByLayer
 62
  256
370
   -1
100
AcDbLine
 10
1382.631746249331
 20
883.0627367378056
 11
1438.732680592744
 21
883.0627367378074
  0
LINE
  5
32F
100
AcDbEntity
  8
RDC
  6
ByLayer
 62
  256
370
   -1
100
AcDbLine
 10
1762.500013706558
 20
904.0447976143023
 11
1762.500013706558
 21
883.0627367378092
  0
LINE
  5
330
100
AcDbEntity
  8
RDC
  6
ByLayer
 62
  256
370
   -1
100
AcDbLine
 10
1772.500013706558
 20
904.0447976143023
 11
1772.500013706558
 21
893.0627367378092
  0
LINE
  5
331
100
AcDbEntity
  8
RDC
  6
ByLayer
 62
  256
370
   -1
100
AcDbLine
 10
1772.500013706558
 20
893.0627367378092
 11
1969.500013706558
 21
893.0627367378074
  0
LINE
  5
332
100
AcDbEntity
  8
RDC
  6
ByLayer
 62
  256
370
   -1
100
AcDbLine
 10
1762.500013706558
 20
883.0627367378092
 11
1969.500013706558
 21
883.0627367378074
  0
LINE
  5
333
100
AcDbEntity
  8
RDC
  6
ByLayer
 62
  256
370
   -1
100
AcDbLine
 10
1762.500013706558
 20
987.0447976143023
 11
1762.500013706558
 21
1002.044797614302
  0
LINE
  5
334
100
AcDbEntity
  8
RDC
  6
ByLayer
 62
  256
370
   -1
100
AcDbLine
 10
1507.500013706557
 20
992.0447976143005
 11
1392.631746249331
 21
992.0447976143005
  0
LINE
  5
335
100
AcDbEntity
  8
RDC
  6
ByLayer
 62
  256
370
   -1
100
AcDbLine
 10
1593.500013706558
 20
675.3127367378074
 11
1315.315908394748
 21
675.3127367378056
  0
LINE
  5
336
100
AcDbEntity
  8
RDC
  6
ByLayer
 62
  256
370
   -1
100
AcDbLine
 10
1577.500013706558
 20
642.3127367378074
 11
1532.631746249332
 21
642.3127367378074
  0
DIMENSION
  5
337
100
AcDbEntity
  8
COTATION
  6
ByLayer
 62
  256
370
   -1
100
AcDbDimension
 10
1969.500013706558
 20
800.9983029281393
 30
0
 11
1790.000013706558
 21
815.9983029281393
 31
0
 70
   32
 71
    5
  3
RB
 53
0
210
0
220
0
230
1
100
AcDbAlignedDimension
 13
1610.500013706558
 23
605.3127367378074
 33
0
 14
1969.500013706558
 24
605.3127367378074
 34
0
100
AcDbRotatedDimension
  0
DIMENSION
  5
338
100
AcDbEntity
  8
COTATION
  6
ByLayer
 62
  256
370
   -1
100
AcDbDimension
 10
2002.500013706558
 20
414.363072021235
 30
0
 11
1790.000013706558
 21
429.3650405251719
 31
0
 70
   32
 71
    5
  3
RB
 53
0
210
0
220
0
230
1
100
AcDbAlignedDimension
 13
1577.500013706558
 23
572.3127367378074
 33
0
 14
2002.500013706558
 24
572.3127367378074
 34
0
100
AcDbRotatedDimension
  0
DIMENSION
  5
339
100
AcDbEntity
  8
COTATION
  6
ByLayer
 62
  256
370
   -1
100
AcDbDimension
 10
2002.500013706558
 20
493.2977699534786
 30
0
 11
1926.000013706558
 21
508.2977699534786
 31
0
 70
   32
 71
    5
  3
RB
 53
0
210
0
220
0
230
1
100
AcDbAlignedDimension
 13
1849.500013706558
 23
572.3127367378074
 33
0
 14
2002.500013706558
 24
572.3127367378074
 34
0
100
AcDbRotatedDimension
  0
DIMENSION
  5
33A
100
AcDbEntity
  8
COTATION
  6
ByLayer
 62
  256
370
   -1
100
AcDbDimension
 10
1577.500013706558
 20
414.363072021235
 30
0
 11
1362.500013706558
 21
429.363072021235
 31
0
 70
   32
 71
    5
  3
RB
 53
0
210
0
220
0
230
1
100
AcDbAlignedDimension
 13
1147.500013706558
 23
562.3127367378074
 33
0
 14
1577.500013706558
 24
572.3127367378074
 34
0
100
AcDbRotatedDimension
  0
INSERT
  5
33B
100
AcDbEntity
  8
RDC
  6
ByLayer
 62
  256
370
   -1
100
AcDbBlockReference
  2
A$C5F556693
 10
1320.31592260315
 20
758.3127020354677
 30
0
 41
-1
 42
1
 43
0
 50
90
 70
    1
 71
    1
 44
0
 45
0
  0
LINE
  5
33C
100
AcDbEntity
  8
RDC
  6
CONTINUOUS
 62
  256
370
   -1
100
AcDbLine
 10
1137.500013706558
 20
992.0447976143005
 11
1137.500013706554
 21
675.3127367378074
  0
LWPOLYLINE
  5
33D
100
AcDbEntity
  8
RDC
  6
ByLayer
 62
  256
370
   -1
100
AcDbPolyline
 90
    2
 70
    0
 43
0
 10
1137.500013706558
 20
899.0447976143005
 10
1137.500013706558
 20
675.3127367378074
  0
LWPOLYLINE
  5
33E
100
AcDbEntity
  8
RDC
  6
ByLayer
 62
  256
370
   -1
100
AcDbPolyline
 90
    2
 70
    0
 43
0
 10
1114.500013706558
 20
899.0447976143005
 10
1114.500013706558
 20
675.3127367378074
  0
DIMENSION
  5
33F
100
AcDbEntity
  8
COTATION
  6
ByLayer
 62
  256
370
   -1
100
AcDbDimension
 10
1147.500013706558
 20
493.2977699534786
 30
0
 11
1037.538072929432
 21
508.2997384574155
 31
0
 70
   32
 71
    5
  3
RB
 53
0
210
0
220
0
230
1
100
AcDbAlignedDimension
 13
927.5761321523046
 23
562.3127367378074
 33
0
 14
1147.500013706558
 24
562.3127367378074
 34
0
100
AcDbRotatedDimension
  0
LWPOLYLINE
  5
340
100
AcDbEntity
  8
RDC
  6
ByLayer
 62
  256
370
   -1
100
AcDbPolyline
 90
    3
 70
    0
 43
0
 10
1147.500013706558
 20
642.3127367378074
 10
1147.500013706558
 20
562.3127367378074
 10
927.5761321523046
 20
562.3127367378074
  0
LINE
  5
341
100
AcDbEntity
  8
RDC
  6
ByLayer
 62
  256
370
   -1
100
AcDbLine
 10
937.5761321523046
 20
562.3127367378074
 11
937.5761321523046
 21
552.3127367378074
  0
LWPOLYLINE
  5
342
100
AcDbEntity
  8
RDC
  6
ByLayer
 62
  256
370
   -1
100
AcDbPolyline
 90
    4
 70
    1
 43
0
 10
917.5761321523046
 20
595.3127367378074
 10
922.5761321523046
 20
595.3127367378074
 10
922.5761321523046
 20
585.3127367378074
 10
917.5761321523046
 20
585.3127367378074
  0
LWPOLYLINE
  5
343
100
AcDbEntity
  8
RDC
  6
ByLayer
 62
  256
370
   -1
100
AcDbPolyline
 90
    4
 70
    1
 43
0
 10
922.5761321523046
 20
595.3127367378074
 10
927.5761321523046
 20
595.3127367378074
 10
927.5761321523046
 20
585.3127367378074
 10
922.5761321523046
 20
585.3127367378074
  0
LWPOLYLINE
  5
344
100
AcDbEntity
  8
RDC
  6
ByLayer
 62
  256
370
   -1
100
AcDbPolyline
 90
    4
 70
    1
 43
0
 10
867.5761321523046
 20
595.3127367378074
 10
872.5761321523046
 20
595.3127367378074
 10
872.5761321523046
 20
585.3127367378074
 10
867.5761321523046
 20
585.3127367378074
  0
LWPOLYLINE
  5
345
100
AcDbEntity
  8
RDC
  6
ByLayer
 62
  256
370
   -1
100
AcDbPolyline
 90
    4
 70
    1
 43
0
 10
862.5761321523046
 20
595.3127367378074
 10
867.5761321523046
 20
595.3127367378074
 10
867.5761321523046
 20
585.3127367378074
 10
862.5761321523046
 20
585.3127367378074
  0
INSERT
  5
346
100
AcDbEntity
  8
RDC
  6
ByLayer
 62
  256
370
   -1
100
AcDbBlockReference
  2
A$C5F556693
 10
1054.500048408896
 20
1015.0447834059
 30
0
 41
1
 42
1
 43
0
 50
0
 70
    1
 71
    1
 44
0
 45
0
  0
LWPOLYLINE
  5
347
100
AcDbEntity
  8
RDC
  6
ByLayer
 62
  256
370
   -1
100
AcDbPolyline
 90
    4
 70
    1
 43
0
 10
1134.102662422338
 20
971.2876306819635
 10
1129.102662422338
 20
971.2876306819635
 10
1129.102662422338
 20
876.2876306819635
 10
1134.102662422338
 20
876.2876306819635
  0
LINE
  5
348
100
AcDbEntity
  8
RDC
  6
CONTINUOUS
 62
  256
370
   -1
100
AcDbLine
 10
1114.500013706558
 20
897.5881593166887
 11
1114.500013706555
 21
992.0447976143005
  0
MTEXT
  5
349
100
AcDbEntity
  8
RDC
  6
ByLayer
 62
  256
370
   -1
100
AcDbMText
 10
1184.192207901787
 20
892.3210274029589
 30
0
 40
20
 41
284.4444444444475
 71
    1
 72
    5
  1
\fArial|b0|i0|c0|p34; + -\P000
  7
standard
210
0
220
0
230
1
 50
0
 73
    1
 44
1
  0
INSERT
  5
34A
100
AcDbEntity
  8
RDC
  6
ByLayer
 62
  256
370
   -1
100
AcDbBlockReference
  2
A$C5F556693
 10
1320.315894186346
 20
1085.044762911963
 30
0
 41
-1
 42
1
 43
0
 50
90
 70
    1
 71
    1
 44
0
 45
0
  0
LWPOLYLINE
  5
34B
100
AcDbEntity
  8
RDC
  6
ByLayer
 62
  256
370
   -1
100
AcDbPolyline
 90
    2
 70
    0
 43
0
 10
1147.500013706558
 20
1002.0447976143
 10
1147.500013706558
 20
992.0447976143005
  0
DIMENSION
  5
34C
100
AcDbEntity
  8
COTATION
  6
ByLayer
 62
  256
370
   -1
100
AcDbDimension
 10
1610.500013706558
 20
800.9983029281393
 30
0
 11
1615.250013706558
 21
843.4983029281393
 31
0
 70
   32
 71
    5
  3
RB
 53
0
210
0
220
0
230
1
100
AcDbAlignedDimension
 13
1593.500013706558
 23
675.3127367378074
 33
0
 14
1610.500013706558
 24
605.3127367378074
 34
0
100
AcDbRotatedDimension
  0
DIMENSION
  5
34D
100
AcDbEntity
  8
COTATION
  6
ByLayer
 62
  256
370
   -1
100
AcDbDimension
 10
1438.732680592743
 20
800.9983029281393
 30
0
 11
1410.682213421037
 21
815.9983029281393
 31
0
 70
   32
 71
    5
  3
RB
 53
0
210
0
220
0
230
1
100
AcDbAlignedDimension
 13
1382.63174624933
 23
675.3127367378074
 33
0
 14
1438.732680592743
 24
675.3127367378074
 34
0
100
AcDbRotatedDimension
  0
LWPOLYLINE
  5
34E
100
AcDbEntity
  8
RDC
  6
ByLayer
 62
  256
370
   -1
100
AcDbPolyline
 90
    2
 70
    0
 43
0
 10
1593.500013706558
 20
675.3127367378074
 10
1593.500013706558
 20
892.9251092612176
  0
LINE
  5
34F
100
AcDbEntity
  8
RDC
  6
ByLayer
 62
  256
370
   -1
100
AcDbLine
 10
1382.63174624933
 20
675.3127367378074
 11
1382.631746249331
 21
898.5627367378056
  0
LINE
  5
350
100
AcDbEntity
  8
RDC
  6
ByLayer
 62
  256
370
   -1
100
AcDbLine
 10
1438.732680592743
 20
675.3127367378074
 11
1438.732680592744
 21
883.0627367378074
  0
LINE
  5
351
100
AcDbEntity
  8
RDC
  6
ByLayer
 62
  256
370
   -1
100
AcDbLine
 10
1448.732680592743
 20
675.3127367378074
 11
1448.732680592743
 21
866.6825712427417
  0
DIMENSION
  5
352
100
AcDbEntity
  8
COTATION
  6
ByLayer
 62
  256
370
   -1
100
AcDbDimension
 10
1729.500013706558
 20
493.2977699534786
 30
0
 11
1653.500013706558
 21
508.2997384574155
 31
0
 70
   32
 71
    5
  3
RB
 53
0
210
0
220
0
230
1
100
AcDbAlignedDimension
 13
1577.500013706558
 23
642.3127367378074
 33
0
 14
1729.500013706558
 24
572.3127367378074
 34
0
100
AcDbRotatedDimension
  0
DIMENSION
  5
353
100
AcDbEntity
  8
COTATION
  6
ByLayer
 62
  256
370
   -1
100
AcDbDimension
 10
1577.500013706558
 20
493.2977699534786
 30
0
 11
1555.065879977944
 21
508.2977699534786
 31
0
 70
   32
 71
    5
  3
RB
 53
0
210
0
220
0
230
1
100
AcDbAlignedDimension
 13
1532.631746249331
 23
642.3127367378074
 33
0
 14
1577.500013706558
 24
642.3127367378074
 34
0
100
AcDbRotatedDimension
  0
DIMENSION
  5
354
100
AcDbEntity
  8
COTATION
  6
ByLayer
 62
  256
370
   -1
100
AcDbDimension
 10
1532.631746249331
 20
493.2977699534786
 30
0
 11
1502.631746249331
 21
508.2977699534786
 31
0
 70
   32
 71
    5
  3
RB
 53
0
210
0
220
0
230
1
100
AcDbAlignedDimension
 13
1472.631746249331
 23
642.3127367378074
 33
0
 14
1532.631746249331
 24
642.3127367378074
 34
0
100
AcDbRotatedDimension
  0
LINE
  5
355
100
AcDbEntity
  8
RDC
  6
ByLayer
 62
  256
370
   -1
100
AcDbLine
 10
1462.631746249331
 20
632.3127367378074
 11
1462.631746249331
 21
642.3127367378074
  0
LINE
  5
356
100
AcDbEntity
  8
RDC
  6
ByLayer
 62
  256
370
   -1
100
AcDbLine
 10
1542.631746249331
 20
632.3127367378074
 11
1462.631746249331
 21
632.3127367378074
  0
LINE
  5
357
100
AcDbEntity
  8
RDC
  6
ByLayer
 62
  256
370
   -1
100
AcDbLine
 10
1542.631746249331
 20
642.3127367378074
 11
1542.631746249331
 21
632.3127367378074
  0
LWPOLYLINE
  5
358
100
AcDbEntity
  8
RDC
  6
ByLayer
 62
  256
370
   -1
100
AcDbPolyline
 90
    4
 70
    1
 43
0
 10
1475.131746249331
 20
675.3127367378074
 10
1480.131746249331
 20
675.3127367378074
 10
1480.131746249331
 20
665.3127367378074
 10
1475.131746249331
 20
665.3127367378074
  0
LWPOLYLINE
  5
359
100
AcDbEntity
  8
RDC
  6
ByLayer
 62
  256
370
   -1
100
AcDbPolyline
 90
    4
 70
    1
 43
0
 10
1525.131746249331
 20
675.3127367378074
 10
1530.131746249331
 20
675.3127367378074
 10
1530.131746249331
 20
665.3127367378074
 10
1525.131746249331
 20
665.3127367378074
  0
LWPOLYLINE
  5
35A
100
AcDbEntity
  8
RDC
  6
ByLayer
 62
  256
370
   -1
100
AcDbPolyline
 90
    2
 70
    0
 43
0
 10
1577.500013706558
 20
572.3127367378074
 10
1577.500013706558
 20
642.3127367378074
  0
DIMENSION
  5
35B
100
AcDbEntity
  8
COTATION
  6
ByLayer
 62
  256
370
   -1
100
AcDbDimension
 10
1849.500013706558
 20
493.2977699534786
 30
0
 11
1789.500013706558
 21
508.2997384574155
 31
0
 70
   32
 71
    5
  3
RB
 53
0
210
0
220
0
230
1
100
AcDbAlignedDimension
 13
1729.500013706558
 23
572.3127367378074
 33
0
 14
1849.500013706558
 24
572.3127367378074
 34
0
100
AcDbRotatedDimension
  0
LINE
  5
35C
100
AcDbEntity
  8
RDC
  6
ByLayer
 62
  256
370
   -1
100
AcDbLine
 10
1448.732680592743
 20
876.6825712427435
 11
1448.732680592743
 21
893.0627367378092
  0
INSERT
  5
35D
100
AcDbEntity
  8
RDC
  6
ByLayer
 62
  256
370
   -1
100
AcDbBlockReference
  2
A$C5F556693
 10
1593.50002791496
 20
1085.044762911963
 30
0
 41
-1
 42
1
 43
0
 50
90
 70
    1
 71
    1
 44
0
 45
0
  0
HATCH
  5
35E
100
AcDbEntity
  8
RDC
  6
DIVIDE
 62
  256
370
   -1
100
AcDbHatch
 10
0
 20
0
 30
0
210
0
220
0
230
1
  2
SOLID
 70
    1
 71
    0
 91
    1
 92
    0
 93
    1
 72
    2
 10
1434.019063373431
 20
878.9893126182396
 40
3.519421660096918
 50
0
 51
360
 73
    1
 97
    0
 75
    0
 76
    1
 98
    0
  0
INSERT
  5
35F
100
AcDbEntity
  8
RDC
  6
ByLayer
 62
  256
370
   -1
100
AcDbBlockReference
  2
A$C5F556693
 10
1475.631711546993
 20
991.5627509462065
 30
0
 41
1
 42
1
 43
0
 50
180
 70
    1
 71
    1
 44
0
 45
0
  0
INSERT
  5
360
100
AcDbEntity
  8
RDC
  6
ByLayer
 62
  256
370
   -1
100
AcDbBlockReference
  2
A$C5F556693
 10
1593.500027914959
 20
783.6826059450814
 30
0
 41
1
 42
1
 43
0
 50
89.99999999999999
 70
    1
 71
    1
 44
0
 45
0
  0
INSERT
  5
361
100
AcDbEntity
  8
RDC
  6
ByLayer
 62
  256
370
   -1
100
AcDbBlockReference
  2
A$C5F556693
 10
1669.499999498156
 20
1085.044762911964
 30
0
 41
1
 42
1
 43
0
 50
270
 70
    1
 71
    1
 44
0
 45
0
  0
INSERT
  5
362
100
AcDbEntity
  8
RDC
  6
ByLayer
 62
  256
370
   -1
100
AcDbBlockReference
  2
A$C5F556693
 10
1669.499999498156
 20
800.0627714401471
 30
0
 41
-1
 42
1
 43
0
 50
270
 70
    1
 71
    1
 44
0
 45
0
  0
INSERT
  5
363
100
AcDbEntity
  8
RDC
  6
ByLayer
 62
  256
370
   -1
100
AcDbBlockReference
  2
A$C5F556693
 10
1679.500048408896
 20
992.0448118227032
 30
0
 41
-1
 42
1
 43
0
 50
180
 70
    1
 71
    1
 44
0
 45
0
  0
INSERT
  5
364
100
AcDbEntity
  8
0
  6
ByLayer
 62
    7
370
   -1
100
AcDbBlockReference
  2
A$C40CB4706
 10
2061.948204727645
 20
558.1643947783559
 30
0
 41
0.25
 42
0.25
 43
0
 50
350.7179167564648
 70
    1
 71
    1
 44
0
 45
0
  0
LWPOLYLINE
  5
365
100
AcDbEntity
  8
RDC
  6
ByLayer
 62
  256
370
   -1
100
AcDbPolyline
 90
    4
 70
    1
 43
0
 10
1004.450756860361
 20
1146.989410581975
 10
1029.450756860361
 20
1146.989410581975
 10
1029.450756860361
 20
1171.989410581975
 10
1004.450756860361
 20
1171.989410581975
  0
LWPOLYLINE
  5
366
100
AcDbEntity
  8
RDC
  6
ByLayer
 62
  256
370
   -1
100
AcDbPolyline
 90
    4
 70
    1
 43
0
 10
1007.950756860361
 20
1150.489410581977
 10
1025.950756860361
 20
1150.489410581977
 10
1025.950756860361
 20
1168.489410581973
 10
1007.950756860361
 20
1168.489410581975
  0
LWPOLYLINE
  5
367
100
AcDbEntity
  8
RDC
  6
ByLayer
 62
  256
370
   -1
100
AcDbPolyline
 90
    4
 70
    1
 43
0
 10
1007.950756860361
 20
1125.489410581977
 10
1025.950756860361
 20
1125.489410581977
 10
1025.950756860361
 20
1143.489410581973
 10
1007.950756860361
 20
1143.489410581975
  0
LWPOLYLINE
  5
368
100
AcDbEntity
  8
RDC
  6
ByLayer
 62
  256
370
   -1
100
AcDbPolyline
 90
    4
 70
    1
 43
0
 10
1004.450756860361
 20
1121.989410581975
 10
1029.450756860361
 20
1121.989410581975
 10
1029.450756860361
 20
1146.989410581975
 10
1004.450756860361
 20
1146.989410581975
  0
CIRCLE
  5
369
100
AcDbEntity
  8
RDC
  6
ByLayer
 62
  256
370
   -1
100
AcDbCircle
 10
1154.456301826009
 20
1342.226680903761
 40
5
  0
LINE
  5
36A
100
AcDbEntity
  8
RDC
  6
ByLayer
 62
  256
370
   -1
100
AcDbLine
 10
1147.500013706558
 20
1352.312736737807
 11
912.5056628303291
 21
1352.312736737807
  0
CIRCLE
  5
36B
100
AcDbEntity
  8
RDC
  6
ByLayer
 62
  256
370
   -1
100
AcDbCircle
 10
886.5751387166106
 20
1231.812736737806
 40
5
  0
CIRCLE
  5
36C
100
AcDbEntity
  8
RDC
  6
ByLayer
 62
  256
370
   -1
100
AcDbCircle
 10
1017.54925714355
 20
1179.95061003599
 40
5
  0
LINE
  5
36D
100
AcDbEntity
  8
RDC
  6
ByLayer
 62
  256
370
   -1
100
AcDbLine
 10
2002.500013706558
 20
1342.312736737807
 11
1849.500013706558
 21
1342.312736737807
  0
LINE
  5
36E
100
AcDbEntity
  8
RDC
  6
ByLayer
 62
  256
370
   -1
100
AcDbLine
 10
1577.500013706558
 20
1342.312736737807
 11
1729.500013706558
 21
1342.312736737807
  0
LINE
  5
36F
100
AcDbEntity
  8
RDC
  6
ByLayer
 62
  256
370
   -1
100
AcDbLine
 10
1029.500013706557
 20
1234.312736737807
 11
890.9052657355317
 21
1234.312736737807
  0
LINE
  5
370
100
AcDbEntity
  8
RDC
  6
ByLayer
 62
  256
370
   -1
100
AcDbLine
 10
1009.500013706558
 20
1234.312736737807
 11
1009.500013706558
 21
1171.989410581975
  0
LINE
  5
371
100
AcDbEntity
  8
RDC
  6
ByLayer
 62
  256
370
   -1
100
AcDbLine
 10
1019.500013706557
 20
1204.312736737807
 11
1019.500013706558
 21
1204.312736737807
  0
LINE
  5
372
100
AcDbEntity
  8
RDC
  6
ByLayer
 62
  256
370
   -1
100
AcDbLine
 10
1400.131746249332
 20
1272.312736737807
 11
1147.500013706558
 21
1272.312736737807
  0
LINE
  5
373
100
AcDbEntity
  8
RDC
  6
ByLayer
 62
  256
370
   -1
100
AcDbLine
 10
1460.131746249331
 20
1272.312736737807
 11
1460.131746249331
 21
1239.312736737807
  0
LINE
  5
374
100
AcDbEntity
  8
RDC
  6
ByLayer
 62
  256
370
   -1
100
AcDbLine
 10
1392.631746249331
 20
1272.312736737807
 11
1382.631746249331
 21
1272.312736737807
  0
LINE
  5
375
100
AcDbEntity
  8
RDC
  6
ByLayer
 62
  256
370
   -1
100
AcDbLine
 10
1400.131746249331
 20
1239.312736737807
 11
1400.131746249331
 21
1272.312736737807
  0
LINE
  5
376
100
AcDbEntity
  8
RDC
  6
ByLayer
 62
  256
370
   -1
100
AcDbLine
 10
1452.631746249331
 20
1239.312736737807
 11
1392.631746249331
 21
1239.312736737807
  0
LINE
  5
377
100
AcDbEntity
  8
RDC
  6
ByLayer
 62
  256
370
   -1
100
AcDbLine
 10
1452.631746249331
 20
1245.312736737807
 11
1407.631746249331
 21
1245.312736737807
  0
LINE
  5
378
100
AcDbEntity
  8
RDC
  6
ByLayer
 62
  256
370
   -1
100
AcDbLine
 10
1445.131746249331
 20
1243.312736737807
 11
1400.131746249331
 21
1243.312736737807
  0
LINE
  5
379
100
AcDbEntity
  8
RDC
  6
ByLayer
 62
  256
370
   -1
100
AcDbLine
 10
1452.631746249331
 20
1244.312736737807
 11
1407.631746249331
 21
1244.312736737807
  0
LINE
  5
37A
100
AcDbEntity
  8
RDC
  6
ByLayer
 62
  256
370
   -1
100
AcDbLine
 10
1460.131746249331
 20
1249.312736737807
 11
1400.131746249331
 21
1249.312736737807
  0
INSERT
  5
37B
100
AcDbEntity
  8
RDC
  6
ByLayer
 62
  256
370
   -1
100
AcDbBlockReference
  2
FENETRE120
 10
1849.500013706558
 20
1309.312736737807
 30
0
 41
1
 42
1
 43
0
 50
180
 70
    1
 71
    1
 44
0
 45
0
  0
LINE
  5
37C
100
AcDbEntity
  8
RDC
  6
ByLayer
 62
  256
370
   -1
100
AcDbLine
 10
1320.315879977945
 20
1239.312736737804
 11
1320.315879977945
 21
1272.312736737804
  0
LINE
  5
37D
100
AcDbEntity
  8
RDC
  6
ByLayer
 62
  256
370
   -1
100
AcDbLine
 10
1227.315879977945
 20
1239.312736737806
 11
1227.315879977945
 21
1272.312736737806
  0
LINE
  5
37E
100
AcDbEntity
  8
RDC
  6
ByLayer
 62
  256
370
   -1
100
AcDbLine
 10
1593.500013706558
 20
1239.312736737807
 11
1147.500013706558
 21
1239.312736737807
  0
LINE
  5
37F
100
AcDbEntity
  8
RDC
  6
ByLayer
 62
  256
370
   -1
100
AcDbLine
 10
1577.500013706558
 20
1272.312736737807
 11
1460.131746249332
 21
1272.312736737807
  0
DIMENSION
  5
380
100
AcDbEntity
  8
COTATION
  6
ByLayer
 62
  256
370
   -1
100
AcDbDimension
 10
2002.500013706558
 20
1512.06735472527
 30
0
 11
1790.000013706558
 21
1527.069323229207
 31
0
 70
   32
 71
    5
  3
RB
 53
0
210
0
220
0
230
1
100
AcDbAlignedDimension
 13
1577.500013706558
 23
1342.312736737807
 33
0
 14
2002.500013706558
 24
1342.312736737807
 34
0
100
AcDbRotatedDimension
  0
DIMENSION
  5
381
100
AcDbEntity
  8
COTATION
  6
ByLayer
 62
  256
370
   -1
100
AcDbDimension
 10
2002.500013706558
 20
1420.799115086334
 30
0
 11
1926.000013706558
 21
1435.799115086334
 31
0
 70
   32
 71
    5
  3
RB
 53
0
210
0
220
0
230
1
100
AcDbAlignedDimension
 13
1849.500013706558
 23
1342.312736737807
 33
0
 14
2002.500013706558
 24
1342.312736737807
 34
0
100
AcDbRotatedDimension
  0
DIMENSION
  5
382
100
AcDbEntity
  8
COTATION
  6
ByLayer
 62
  256
370
   -1
100
AcDbDimension
 10
1577.500013706558
 20
1512.06735472527
 30
0
 11
1362.500013706558
 21
1527.06735472527
 31
0
 70
   32
 71
    5
  3
RB
 53
0
210
0
220
0
230
1
100
AcDbAlignedDimension
 13
1147.500013706558
 23
1352.312736737807
 33
0
 14
1577.500013706558
 24
1342.312736737807
 34
0
100
AcDbRotatedDimension
  0
DIMENSION
  5
383
100
AcDbEntity
  8
COTATION
  6
ByLayer
 62
  256
370
   -1
100
AcDbDimension
 10
1147.500013706558
 20
1420.799115086334
 30
0
 11
1030.002838268444
 21
1435.801083590271
 31
0
 70
   32
 71
    5
  3
RB
 53
0
210
0
220
0
230
1
100
AcDbAlignedDimension
 13
912.5056628303291
 23
1351.837412597633
 33
0
 14
1147.500013706558
 24
1352.312736737807
 34
0
100
AcDbRotatedDimension
  0
HATCH
  5
384
100
AcDbEntity
  8
RDC
  6
ByLayer
 62
  256
370
   -1
100
AcDbHatch
 10
0
 20
0
 30
0
210
0
220
0
230
1
  2
SOLID
 70
    1
 71
    0
 91
    4
 92
    0
 93
    4
 72
    1
 10
1012.134151793667
 20
1216.382527255761
 11
1013.500013706557
 21
1216.382527255761
 72
    1
 10
1013.500013706557
 20
1216.382527255761
 11
1013.500013706557
 21
1231.382527255759
 72
    1
 10
1013.500013706557
 20
1231.382527255759
 11
1012.134151793667
 21
1231.382527255757
 72
    1
 10
1012.134151793667
 20
1231.382527255757
 11
1012.134151793667
 21
1216.382527255761
 97
    0
 92
    0
 93
    4
 72
    1
 10
1013.500013706557
 20
1216.382527255761
 11
1019.500013706557
 21
1216.382527255759
 72
    1
 10
1019.500013706557
 20
1216.382527255759
 11
1019.500013706557
 21
1231.382527255761
 72
    1
 10
1019.500013706557
 20
1231.382527255761
 11
1013.500013706558
 21
1231.382527255757
 72
    1
 10
1013.500013706558
 20
1231.382527255757
 11
1013.500013706557
 21
1216.382527255761
 97
    0
 92
    0
 93
    4
 72
    1
 10
1019.500013706558
 20
1216.382527255759
 11
1025.500013706557
 21
1216.382527255759
 72
    1
 10
1025.500013706557
 20
1216.382527255759
 11
1025.500013706557
 21
1231.382527255761
 72
    1
 10
1025.500013706557
 20
1231.382527255761
 11
1019.500013706557
 21
1231.382527255761
 72
    1
 10
1019.500013706557
 20
1231.382527255761
 11
1019.500013706558
 21
1216.382527255759
 97
    0
 92
    0
 93
    4
 72
    1
 10
1025.500013706557
 20
1216.382527255759
 11
1027.134151793667
 21
1216.382527255759
 72
    1
 10
1027.134151793667
 20
1216.382527255759
 11
1027.134151793667
 21
1231.382527255759
 72
    1
 10
1027.134151793667
 20
1231.382527255759
 11
1025.500013706557
 21
1231.382527255759
 72
    1
 10
1025.500013706557
 20
1231.382527255759
 11
1025.500013706557
 21
1216.382527255759
 97
    0
 75
    0
 76
    1
 98
    0
  0
LWPOLYLINE
  5
385
100
AcDbEntity
  8
RDC
  6
ByLayer
 62
  256
370
   -1
100
AcDbPolyline
 90
    4
 70
    1
 43
0
 10
1012.134151793667
 20
1231.382527255759
 10
1027.134151793667
 20
1231.382527255759
 10
1027.134151793667
 20
1216.382527255759
 10
1012.134151793667
 20
1216.382527255759
  0
MTEXT
  5
386
100
AcDbEntity
  8
RDC
  6
ByLayer
 62
  256
370
   -1
100
AcDbMText
 10
1012.74676230174
 20
1183.783517237493
 30
0
 40
5
 41
6.666666666666668
 71
    1
 72
    5
  1
EU
  7
standard
210
0
220
0
230
1
 50
0
 73
    1
 44
1
  0
LINE
  5
387
100
AcDbEntity
  8
RDC
  6
ByLayer
 62
  256
370
   -1
100
AcDbLine
 10
979.2753470294667
 20
1146.92235947884
 11
1004.500013706557
 21
1146.922359478838
  0
LWPOLYLINE
  5
388
100
AcDbEntity
  8
RDC
  6
ByLayer
 62
  256
370
   -1
100
AcDbPolyline
 90
    2
 70
    0
 43
0
 10
1147.500013706558
 20
1352.312736737807
 10
1147.500013706558
 20
1272.312736737807
  0
INSERT
  5
389
100
AcDbEntity
  8
RDC
  6
ByLayer
 62
  256
370
   -1
100
AcDbBlockReference
  2
A$C5F556693
 10
1227.315865769546
 20
1355.312702035468
 30
0
 41
1
 42
1
 43
0
 50
269.9999999999985
 70
    1
 71
    1
 44
0
 45
0
  0
DIMENSION
  5
38A
100
AcDbEntity
  8
COTATION
  6
ByLayer
 62
  256
370
   -1
100
AcDbDimension
 10
1729.500013706558
 20
1420.799115086334
 30
0
 11
1653.500013706558
 21
1435.801083590271
 31
0
 70
   32
 71
    5
  3
RB
 53
0
210
0
220
0
230
1
100
AcDbAlignedDimension
 13
1577.500013706558
 23
1272.312736737807
 33
0
 14
1729.500013706558
 24
1342.312736737807
 34
0
100
AcDbRotatedDimension
  0
DIMENSION
  5
38B
100
AcDbEntity
  8
COTATION
  6
ByLayer
 62
  256
370
   -1
100
AcDbDimension
 10
1593.500013706558
 20
1147.540227155747
 30
0
 11
1493.065879977944
 21
1162.542195659684
 31
0
 70
   32
 71
    5
  3
RB
 53
0
210
0
220
0
230
1
100
AcDbAlignedDimension
 13
1392.631746249331
 23
1239.312736737807
 33
0
 14
1593.500013706558
 24
1239.312736737807
 34
0
100
AcDbRotatedDimension
  0
CIRCLE
  5
38C
100
AcDbEntity
  8
RDC
  6
ByLayer
 62
  256
370
   -1
100
AcDbCircle
 10
1400.668322309763
 20
1137.815667897778
 40
3.524766113525402
  0
CIRCLE
  5
38D
100
AcDbEntity
  8
RDC
  6
ByLayer
 62
  256
370
   -1
100
AcDbCircle
 10
1400.668322309763
 20
1148.735778227821
 40
3.524766113525402
  0
CIRCLE
  5
38E
100
AcDbEntity
  8
RDC
  6
ByLayer
 62
  256
370
   -1
100
AcDbCircle
 10
1400.668322309763
 20
1159.655888557865
 40
3.524766113525402
  0
CIRCLE
  5
38F
100
AcDbEntity
  8
RDC
  6
ByLayer
 62
  256
370
   -1
100
AcDbCircle
 10
1400.668322309763
 20
1169.01598687799
 40
3.524766113525402
  0
DIMENSION
  5
390
100
AcDbEntity
  8
COTATION
  6
ByLayer
 62
  256
370
   -1
100
AcDbDimension
 10
1577.500013706558
 20
1420.799115086334
 30
0
 11
1518.815879977944
 21
1435.799115086334
 31
0
 70
   32
 71
    5
  3
RB
 53
0
210
0
220
0
230
1
100
AcDbAlignedDimension
 13
1460.131746249331
 23
1272.312736737807
 33
0
 14
1577.500013706558
 24
1272.312736737807
 34
0
100
AcDbRotatedDimension
  0
DIMENSION
  5
391
100
AcDbEntity
  8
COTATION
  6
ByLayer
 62
  256
370
   -1
100
AcDbDimension
 10
1460.131746249331
 20
1420.799115086334
 30
0
 11
1430.131746249331
 21
1435.799115086334
 31
0
 70
   32
 71
    5
  3
RB
 53
0
210
0
220
0
230
1
100
AcDbAlignedDimension
 13
1400.131746249331
 23
1272.312736737807
 33
0
 14
1460.131746249331
 24
1272.312736737807
 34
0
100
AcDbRotatedDimension
  0
LINE
  5
392
100
AcDbEntity
  8
RDC
  6
ByLayer
 62
  256
370
   -1
100
AcDbLine
 10
1470.131746249331
 20
1282.312736737807
 11
1470.131746249331
 21
1272.312736737807
  0
LINE
  5
393
100
AcDbEntity
  8
RDC
  6
ByLayer
 62
  256
370
   -1
100
AcDbLine
 10
1390.131746249331
 20
1282.312736737807
 11
1470.131746249331
 21
1282.312736737807
  0
LINE
  5
394
100
AcDbEntity
  8
RDC
  6
ByLayer
 62
  256
370
   -1
100
AcDbLine
 10
1390.131746249331
 20
1272.312736737807
 11
1390.131746249331
 21
1282.312736737807
  0
LWPOLYLINE
  5
395
100
AcDbEntity
  8
RDC
  6
ByLayer
 62
  256
370
   -1
100
AcDbPolyline
 90
    4
 70
    1
 43
0
 10
1457.631746249331
 20
1239.312736737807
 10
1452.631746249331
 20
1239.312736737807
 10
1452.631746249331
 20
1249.312736737807
 10
1457.631746249331
 20
1249.312736737807
  0
LWPOLYLINE
  5
396
100
AcDbEntity
  8
RDC
  6
ByLayer
 62
  256
370
   -1
100
AcDbPolyline
 90
    4
 70
    1
 43
0
 10
1407.631746249331
 20
1239.312736737807
 10
1402.631746249331
 20
1239.312736737807
 10
1402.631746249331
 20
1249.312736737807
 10
1407.631746249331
 20
1249.312736737807
  0
LWPOLYLINE
  5
397
100
AcDbEntity
  8
RDC
  6
ByLayer
 62
  256
370
   -1
100
AcDbPolyline
 90
    2
 70
    0
 43
0
 10
1577.500013706558
 20
1272.312736737807
 10
1577.500013706558
 20
1342.312736737807
  0
DIMENSION
  5
398
100
AcDbEntity
  8
COTATION
  6
ByLayer
 62
  256
370
   -1
100
AcDbDimension
 10
1849.500013706558
 20
1420.799115086334
 30
0
 11
1789.500013706558
 21
1435.801083590271
 31
0
 70
   32
 71
    5
  3
RB
 53
0
210
0
220
0
230
1
100
AcDbAlignedDimension
 13
1729.500013706558
 23
1342.312736737807
 33
0
 14
1849.500013706558
 24
1342.312736737807
 34
0
100
AcDbRotatedDimension
  0
ENDBLK
  5
103
330
101
100
AcDbEntity
  8
0
100
AcDbBlockEnd
  0
BLOCK
  5
105
330
104
100
AcDbEntity
  8
0
100
AcDbBlockBegin
  2
A$C76023D9C-0
 70
    0
 10
0
 20
0
  3
A$C76023D9C-0
  1

  0
ENDBLK
  5
106
330
104
100
AcDbEntity
  8
0
100
AcDbBlockEnd
  0
ENDSEC
  0
SECTION
  2
ENTITIES
  0
HATCH
  5
399
100
AcDbEntity
  8
FAÇADES
  6
ByLayer
 62
  256
370
   -1
100
AcDbHatch
 10
0
 20
0
 30
0
210
0
220
0
230
1
  2
SOLID
 70
    1
 71
    0
 91
    8
 92
    0
 93
    4
 72
    1
 10
510.0805977641821
 20
2465.253328830175
 11
483.5276214017212
 21
2465.253328830175
 72
    1
 10
483.5276214017212
 20
2465.253328830175
 11
483.5276214017221
 21
2376.72296841861
 72
    1
 10
483.5276214017221
 20
2376.72296841861
 11
510.0805977641812
 21
2376.722968418612
 72
    1
 10
510.0805977641812
 20
2376.722968418612
 11
510.0805977641821
 21
2465.253328830175
 97
    0
 92
    0
 93
    4
 72
    1
 10
568.5805977641821
 20
2465.253328830175
 11
520.0805977641821
 21
2465.253328830175
 72
    1
 10
520.0805977641821
 20
2465.253328830175
 11
520.0805977641812
 21
2376.722968418612
 72
    1
 10
520.0805977641812
 20
2376.722968418612
 11
568.5805977641821
 21
2376.722968418612
 72
    1
 10
568.5805977641821
 20
2376.722968418612
 11
568.5805977641821
 21
2465.253328830175
 97
    0
 92
    0
 93
    4
 72
    1
 10
509.8989041268432
 20
2193.318535059737
 11
478.0866964037695
 21
2193.318535059737
 72
    1
 10
478.0866964037695
 20
2193.318535059737
 11
478.0866964037704
 21
2105.541504293869
 72
    1
 10
478.0866964037704
 20
2105.541504293869
 11
509.8989041268432
 21
2105.541504293869
 72
    1
 10
509.8989041268432
 20
2105.541504293869
 11
509.8989041268432
 21
2193.318535059737
 97
    0
 92
    0
 93
    4
 72
    1
 10
568.3989041268442
 20
2193.318535059737
 11
519.8989041268433
 21
2193.318535059737
 72
    1
 10
519.8989041268433
 20
2193.318535059737
 11
519.8989041268442
 21
2105.541504293869
 72
    1
 10
519.8989041268442
 20
2105.541504293869
 11
568.3989041268433
 21
2105.541504293869
 72
    1
 10
568.3989041268433
 20
2105.541504293869
 11
568.3989041268442
 21
2193.318535059737
 97
    0
 92
    0
 93
    4
 72
    1
 10
1137.499999999995
 20
2180.628232494094
 11
1090.499999999994
 21
2180.628232494094
 72
    1
 10
1090.499999999994
 20
2180.628232494094
 11
1090.499999999995
 21
2150.459299693969
 72
    1
 10
1090.499999999995
 20
2150.459299693969
 11
1137.499999999996
 21
2150.459299693966
 72
    1
 10
1137.499999999996
 20
2150.459299693966
 11
1137.499999999995
 21
2180.628232494094
 97
    0
 92
    0
 93
    4
 72
    1
 10
1397.999999999996
 20
2193.318535059737
 11
1368.58489239835
 21
2193.318535059737
 72
    1
 10
1368.58489239835
 20
2193.318535059737
 11
1368.58489239835
 21
2097.04150429387
 72
    1
 10
1368.58489239835
 20
2097.04150429387
 11
1397.999999999998
 21
2097.04150429387
 72
    1
 10
1397.999999999998
 20
2097.04150429387
 11
1397.999999999996
 21
2193.318535059737
 97
    0
 92
    0
 93
    4
 72
    1
 10
1453.499999999997
 20
2193.318535059737
 11
1401.999999999998
 21
2193.318535059737
 72
    1
 10
1401.999999999998
 20
2193.318535059737
 11
1401.999999999998
 21
2097.04150429387
 72
    1
 10
1401.999999999998
 20
2097.04150429387
 11
1453.499999999996
 21
2097.04150429387
 72
    1
 10
1453.499999999996
 20
2097.04150429387
 11
1453.499999999997
 21
2193.318535059737
 97
    0
 92
    0
 93
    4
 72
    1
 10
993.5000000000528
 20
2180.628232494094
 11
962.5000000000509
 21
2180.628232494094
 72
    1
 10
962.5000000000509
 20
2180.628232494094
 11
962.50000000005
 21
2008.459299693968
 72
    1
 10
962.50000000005
 20
2008.459299693968
 11
993.50000000005
 21
2008.459299693968
 72
    1
 10
993.50000000005
 20
2008.459299693968
 11
993.5000000000528
 21
2180.628232494094
 97
    0
 75
    0
 76
    1
 98
    0
  0
HATCH
  5
39A
100
AcDbEntity
  8
charpente
  6
ByLayer
 62
  256
370
   -1
100
AcDbHatch
 10
0
 20
0
 30
0
210
0
220
0
230
1
  2
gost_wood
 70
    0
 71
    0
 91
    1
 92
    0
 93
   16
 72
    1
 10
-350
 20
0
 11
-330
 21
0
 72
    1
 10
-330
 20
0
 11
-330
 21
20
 72
    1
 10
-330
 20
20
 11
-350
 21
20
 72
    1
 10
-350
 20
20
 11
-350
 21
0
 72
    1
 10
-350
 20
770
 11
-330
 21
770
 72
    1
 10
-330
 20
770
 11
-330
 21
790
 72
    1
 10
-330
 20
790
 11
-350
 21
790
 72
    1
 10
-350
 20
790
 11
-350
 21
770
 72
    1
 10
-350
 20
260
 11
-330
 21
260
 72
    1
 10
-330
 20
260
 11
-330
 21
280
 72
    1
 10
-330
 20
280
 11
-350
 21
280
 72
    1
 10
-350
 20
280
 11
-350
 21
260
 72
    1
 10
-350
 20
510
 11
-330
 21
510
 72
    1
 10
-330
 20
510
 11
-330
 21
530
 72
    1
 10
-330
 20
530
 11
-350
 21
530
 72
    1
 10
-350
 20
530
 11
-350
 21
510
 97
    0
 75
    0
 76
    1
 52
1.570796326794897
 41
1
 77
    0
 78
    0
 98
    0
  0
HATCH
  5
39B
100
AcDbEntity
  8
RDC
  6
ByLayer
 62
  256
370
   -1
100
AcDbHatch
 10
0
 20
0
 30
0
210
0
220
0
230
1
  2
SOLID
 70
    1
 71
    0
 91
    4
 92
    0
 93
    4
 72
    1
 10
654.6341380871102
 20
654.0697905179532
 11
656
 21
654.0697905179532
 72
    1
 10
656
 20
654.0697905179532
 11
656
 21
669.0697905179513
 72
    1
 10
656
 20
669.0697905179513
 11
654.6341380871102
 21
669.0697905179495
 72
    1
 10
654.6341380871102
 20
669.0697905179495
 11
654.6341380871102
 21
654.0697905179532
 97
    0
 92
    0
 93
    4
 72
    1
 10
655.9999999999991
 20
654.0697905179532
 11
662
 21
654.0697905179513
 72
    1
 10
662
 20
654.0697905179513
 11
662
 21
669.0697905179532
 72
    1
 10
662
 20
669.0697905179532
 11
656
 21
669.0697905179495
 72
    1
 10
656
 20
669.0697905179495
 11
655.9999999999991
 21
654.0697905179532
 97
    0
 92
    0
 93
    4
 72
    1
 10
662
 20
654.0697905179513
 11
668
 21
654.0697905179513
 72
    1
 10
668
 20
654.0697905179513
 11
668
 21
669.0697905179532
 72
    1
 10
668
 20
669.0697905179532
 11
662
 21
669.0697905179532
 72
    1
 10
662
 20
669.0697905179532
 11
662
 21
654.0697905179513
 97
    0
 92
    0
 93
    4
 72
    1
 10
667.9999999999991
 20
654.0697905179513
 11
669.634138087109
 21
654.0697905179513
 72
    1
 10
669.634138087109
 20
654.0697905179513
 11
669.634138087109
 21
669.0697905179513
 72
    1
 10
669.634138087109
 20
669.0697905179513
 11
668
 21
669.0697905179513
 72
    1
 10
668
 20
669.0697905179513
 11
667.9999999999991
 21
654.0697905179513
 97
    0
 75
    0
 76
    1
 98
    0
  0
LINE
  5
39C
100
AcDbEntity
  8
RDC
  6
ByLayer
 62
    0
370
   -1
100
AcDbLine
 10
33
 20
33
 11
757.0000000000011
 21
757
  0
LINE
  5
39D
100
AcDbEntity
  8
RDC
  6
ByLayer
 62
    0
370
   -1
100
AcDbLine
 10
33
 20
757
 11
757.0000000000011
 21
33
  0
LWPOLYLINE
  5
39E
100
AcDbEntity
  8
RDC
  6
ByLayer
 62
  256
370
   -1
100
AcDbPolyline
 90
    4
 70
    0
 43
0
 10
33
 20
599.9999999999982
 10
33
 20
757
 10
757.0000000000011
 20
757
 10
757.0000000000011
 20
545.7320608764931
  0
INSERT
  5
39F
100
AcDbEntity
  8
RDC
  6
ByLayer
 62
  256
370
   -1
100
AcDbBlockReference
  2
FENETRE120
 10
555.005649123771
 20
757
 30
0
 41
1
 42
1
 43
0
 50
180
 70
    1
 71
    1
 44
0
 45
0
  0
LINE
  5
3A0
100
AcDbEntity
  8
RDC
  6
ByLayer
 62
  256
370
   -1
100
AcDbLine
 10
580.0761184457469
 20
-10
 11
440.0761184457469
 21
-10
  0
LWPOLYLINE
  5
3A1
100
AcDbEntity
  8
RDC
  6
ByLayer
 62
  256
370
   -1
100
AcDbPolyline
 90
    4
 70
    1
 43
0
 10
450.0761184457469
 20
33
 10
570.0761184457469
 20
33
 10
570.0761184457469
 20
23
 10
450.0761184457469
 20
23
  0
LINE
  5
3A2
100
AcDbEntity
  8
RDC
  6
ByLayer
 62
  256
370
   -1
100
AcDbLine
 10
460.0761184457469
 20
27
 11
505.0761184457469
 21
27
  0
LINE
  5
3A3
100
AcDbEntity
  8
RDC
  6
ByLayer
 62
  256
370
   -1
100
AcDbLine
 10
460.0761184457469
 20
29
 11
505.0761184457469
 21
29
  0
LINE
  5
3A4
100
AcDbEntity
  8
RDC
  6
ByLayer
 62
  256
370
   -1
100
AcDbLine
 10
460.0761184457469
 20
28
 11
505.0761184457469
 21
28
  0
LINE
  5
3A5
100
AcDbEntity
  8
RDC
  6
ByLayer
 62
  256
370
   -1
100
AcDbLine
 10
450.0761184457469
 20
33
 11
570.0761184457469
 21
33
  0
LWPOLYLINE
  5
3A6
100
AcDbEntity
  8
RDC
  6
ByLayer
 62
  256
370
   -1
100
AcDbPolyline
 90
    3
 70
    0
 43
0
 10
757.0000000000011
 20
113
 10
757.0000000000011
 20
33
 10
406.5000000000011
 20
33
  0
LINE
  5
3A7
100
AcDbEntity
  8
RDC
  6
ByLayer
 62
    0
370
   -1
100
AcDbLine
 10
395
 20
395
 11
395
 21
1045.737322814424
  0
LINE
  5
3A8
100
AcDbEntity
  8
RDC
  6
ByLayer
 62
  256
370
   -1
100
AcDbLine
 10
18
 20
594.9999999999982
 11
18
 21
304.9999999999982
  0
LINE
  5
3A9
100
AcDbEntity
  8
RDC
  6
ByLayer
 62
  256
370
   -1
100
AcDbLine
 10
33
 20
599.9999999999982
 11
33
 21
299.9999999999982
  0
LWPOLYLINE
  5
3AA
100
AcDbEntity
  8
RDC
  6
ByLayer
 62
  256
370
   -1
100
AcDbPolyline
 90
    4
 70
    1
 43
0
 10
28
 20
594.9999999999982
 10
33
 20
594.9999999999982
 10
33
 20
494.9999999999982
 10
28
 20
494.9999999999982
  0
LINE
  5
3AB
100
AcDbEntity
  8
RDC
  6
ByLayer
 62
  256
370
   -1
100
AcDbLine
 10
30.5
 20
589.9999999999982
 11
30.5
 21
499.9999999999982
  0
LWPOLYLINE
  5
3AC
100
AcDbEntity
  8
RDC
  6
ByLayer
 62
  256
370
   -1
100
AcDbPolyline
 90
    2
 70
    0
 43
0
 10
0
 20
0
 10
0
 20
790
  0
LINE
  5
3AD
100
AcDbEntity
  8
RDC
  6
ByLayer
 62
    0
370
   -1
100
AcDbLine
 10
395
 20
395
 11
395
 21
-213.9146987270615
  0
LINE
  5
3AE
100
AcDbEntity
  8
RDC
  6
ByLayer
 62
  256
370
   -1
100
AcDbLine
 10
25.5
 20
494.9999999999982
 11
25.5
 21
404.9999999999982
  0
LINE
  5
3AF
100
AcDbEntity
  8
RDC
  6
ByLayer
 62
  256
370
   -1
100
AcDbLine
 10
20.5
 20
394.9999999999982
 11
20.5
 21
304.9999999999982
  0
LINE
  5
3B0
100
AcDbEntity
  8
RDC
  6
ByLayer
 62
  256
370
   -1
100
AcDbLine
 10
33
 20
299.9999999999982
 11
0
 21
299.9999999999982
  0
LINE
  5
3B1
100
AcDbEntity
  8
RDC
  6
ByLayer
 62
  256
370
   -1
100
AcDbLine
 10
190.0000000000011
 20
0
 11
450.0761184457469
 21
0
  0
LINE
  5
3B2
100
AcDbEntity
  8
RDC
  6
ByLayer
 62
  256
370
   -1
100
AcDbLine
 10
0
 20
0
 11
70.00000000000114
 21
0
  0
INSERT
  5
3B3
100
AcDbEntity
  8
RDC
  6
ByLayer
 62
  256
370
   -1
100
AcDbBlockReference
  2
FENETRE120
 10
70.00000000000114
 20
33
 30
0
 41
1
 42
1
 43
0
 50
0
 70
    1
 71
    1
 44
0
 45
0
  0
LINE
  5
3B4
100
AcDbEntity
  8
RDC
  6
ByLayer
 62
  256
370
   -1
100
AcDbLine
 10
440.0761184457469
 20
0
 11
450.0761184457469
 21
0
  0
LINE
  5
3B5
100
AcDbEntity
  8
RDC
  6
ByLayer
 62
  256
370
   -1
100
AcDbLine
 10
450.0761184457469
 20
0
 11
450.0761184457469
 21
33
  0
LWPOLYLINE
  5
3B6
100
AcDbEntity
  8
RDC
  6
ByLayer
 62
  256
370
   -1
100
AcDbPolyline
 90
    3
 70
    0
 43
0
 10
450.0761184457469
 20
33
 10
33
 20
33
 10
33
 20
299.9999999999982
  0
LINE
  5
3B7
100
AcDbEntity
  8
RDC
  6
ByLayer
 62
  256
370
   -1
100
AcDbLine
 10
440.0761184457469
 20
-10
 11
440.0761184457469
 21
0
  0
LWPOLYLINE
  5
3B8
100
AcDbEntity
  8
RDC
  6
ByLayer
 62
  256
370
   -1
100
AcDbPolyline
 90
    4
 70
    1
 43
0
 10
455.0761184457469
 20
33
 10
460.0761184457469
 20
33
 10
460.0761184457469
 20
23
 10
455.0761184457469
 20
23
  0
LWPOLYLINE
  5
3B9
100
AcDbEntity
  8
RDC
  6
ByLayer
 62
  256
370
   -1
100
AcDbPolyline
 90
    4
 70
    1
 43
0
 10
450.0761184457469
 20
33
 10
455.0761184457469
 20
33
 10
455.0761184457469
 20
23
 10
450.0761184457469
 20
23
  0
LWPOLYLINE
  5
3BA
100
AcDbEntity
  8
RDC
  6
ByLayer
 62
  256
370
   -1
100
AcDbPolyline
 90
    4
 70
    1
 43
0
 10
23
 20
499.9999999999982
 10
28
 20
499.9999999999982
 10
28
 20
494.9999999999982
 10
23
 20
494.9999999999982
  0
LWPOLYLINE
  5
3BB
100
AcDbEntity
  8
RDC
  6
ByLayer
 62
  256
370
   -1
100
AcDbPolyline
 90
    4
 70
    1
 43
0
 10
28
 20
499.9999999999982
 10
33
 20
499.9999999999982
 10
33
 20
494.9999999999982
 10
28
 20
494.9999999999982
  0
LWPOLYLINE
  5
3BC
100
AcDbEntity
  8
RDC
  6
ByLayer
 62
  256
370
   -1
100
AcDbPolyline
 90
    4
 70
    1
 43
0
 10
33
 20
304.9999999999982
 10
18
 20
304.9999999999982
 10
18
 20
299.9999999999982
 10
33
 20
299.9999999999982
  0
LWPOLYLINE
  5
3BD
100
AcDbEntity
  8
RDC
  6
ByLayer
 62
  256
370
   -1
100
AcDbPolyline
 90
    4
 70
    1
 43
0
 10
23
 20
404.9999999999982
 10
28
 20
404.9999999999982
 10
28
 20
399.9999999999982
 10
23
 20
399.9999999999982
  0
LWPOLYLINE
  5
3BE
100
AcDbEntity
  8
RDC
  6
ByLayer
 62
  256
370
   -1
100
AcDbPolyline
 90
    4
 70
    1
 43
0
 10
18
 20
304.9999999999982
 10
23
 20
304.9999999999982
 10
23
 20
299.9999999999982
 10
18
 20
299.9999999999982
  0
LWPOLYLINE
  5
3BF
100
AcDbEntity
  8
RDC
  6
ByLayer
 62
  256
370
   -1
100
AcDbPolyline
 90
    4
 70
    1
 43
0
 10
18
 20
399.9999999999982
 10
23
 20
399.9999999999982
 10
23
 20
394.9999999999982
 10
18
 20
394.9999999999982
  0
LWPOLYLINE
  5
3C0
100
AcDbEntity
  8
RDC
  6
ByLayer
 62
  256
370
   -1
100
AcDbPolyline
 90
    4
 70
    1
 43
0
 10
18
 20
399.9999999999982
 10
23
 20
399.9999999999982
 10
23
 20
299.9999999999982
 10
18
 20
299.9999999999982
  0
LWPOLYLINE
  5
3C1
100
AcDbEntity
  8
RDC
  6
ByLayer
 62
  256
370
   -1
100
AcDbPolyline
 90
    4
 70
    1
 43
0
 10
23
 20
499.9999999999982
 10
28
 20
499.9999999999982
 10
28
 20
399.9999999999982
 10
23
 20
399.9999999999982
  0
LINE
  5
3C2
100
AcDbEntity
  8
RDC
  6
ByLayer
 62
  256
370
   -1
100
AcDbLine
 10
0
 20
790
 11
435.005649123771
 21
790
  0
LINE
  5
3C3
100
AcDbEntity
  8
RDC
  6
ByLayer
 62
  256
370
   -1
100
AcDbLine
 10
33
 20
599.9999999999982
 11
0
 21
599.9999999999982
  0
LWPOLYLINE
  5
3C4
100
AcDbEntity
  8
RDC
  6
ByLayer
 62
  256
370
   -1
100
AcDbPolyline
 90
    4
 70
    1
 43
0
 10
28
 20
594.9999999999982
 10
33
 20
594.9999999999982
 10
33
 20
589.9999999999982
 10
28
 20
589.9999999999982
  0
LWPOLYLINE
  5
3C5
100
AcDbEntity
  8
RDC
  6
ByLayer
 62
  256
370
   -1
100
AcDbPolyline
 90
    4
 70
    1
 43
0
 10
33
 20
599.9999999999982
 10
18
 20
599.9999999999982
 10
18
 20
594.9999999999982
 10
33
 20
594.9999999999982
  0
LWPOLYLINE
  5
3C6
100
AcDbEntity
  8
RDC
  6
ByLayer
 62
  256
370
   -1
100
AcDbPolyline
 90
    2
 70
    0
 43
0
 10
1236
 20
429.7320608764931
 10
1236
 20
677
  0
LINE
  5
3C7
100
AcDbEntity
  8
RDC
  6
ByLayer
 62
  256
370
   -1
100
AcDbLine
 10
790.0000000000011
 20
677
 11
790.0000000000011
 21
532.7320608764931
  0
LWPOLYLINE
  5
3C8
100
AcDbEntity
  8
RDC
  6
ByLayer
 62
  256
370
   -1
100
AcDbPolyline
 90
    6
 70
    0
 43
0
 10
1253
 20
439.7320608764931
 10
1253
 20
747
 10
1612
 20
747
 10
1612
 20
43
 10
1253
 20
43
 10
1253
 20
320.7500000000018
  0
LINE
  5
3C9
100
AcDbEntity
  8
RDC
  6
ByLayer
 62
  256
370
   -1
100
AcDbLine
 10
1236
 20
113
 11
1236
 21
153
  0
CIRCLE
  5
3CA
100
AcDbEntity
  8
RDC
  6
ByLayer
 62
  256
370
   -1
100
AcDbCircle
 10
797.767219568974
 20
10.28412035636939
 40
5
  0
LINE
  5
3CB
100
AcDbEntity
  8
RDC
  6
ByLayer
 62
  256
370
   -1
100
AcDbLine
 10
1115.131732542774
 20
80
 11
790.0000000000011
 21
79.99999999999818
  0
LINE
  5
3CC
100
AcDbEntity
  8
RDC
  6
ByLayer
 62
  256
370
   -1
100
AcDbLine
 10
1115.131732542773
 20
80
 11
1115.131732542773
 21
113
  0
LINE
  5
3CD
100
AcDbEntity
  8
RDC
  6
ByLayer
 62
  256
370
   -1
100
AcDbLine
 10
1045.131732542773
 20
80
 11
1055.131732542773
 21
80
  0
LINE
  5
3CE
100
AcDbEntity
  8
RDC
  6
ByLayer
 62
  256
370
   -1
100
AcDbLine
 10
1175.131732542773
 20
113
 11
1175.131732542773
 21
80
  0
LINE
  5
3CF
100
AcDbEntity
  8
RDC
  6
ByLayer
 62
  256
370
   -1
100
AcDbLine
 10
1055.131732542773
 20
113
 11
1115.131732542773
 21
113
  0
LINE
  5
3D0
100
AcDbEntity
  8
RDC
  6
ByLayer
 62
  256
370
   -1
100
AcDbLine
 10
1122.631732542773
 20
107
 11
1167.631732542773
 21
107
  0
LINE
  5
3D1
100
AcDbEntity
  8
RDC
  6
ByLayer
 62
  256
370
   -1
100
AcDbLine
 10
1122.631732542773
 20
109
 11
1167.631732542773
 21
109
  0
LINE
  5
3D2
100
AcDbEntity
  8
RDC
  6
ByLayer
 62
  256
370
   -1
100
AcDbLine
 10
1122.631732542773
 20
108
 11
1167.631732542773
 21
108
  0
LINE
  5
3D3
100
AcDbEntity
  8
RDC
  6
ByLayer
 62
  256
370
   -1
100
AcDbLine
 10
1115.131732542773
 20
103
 11
1175.131732542773
 21
103
  0
LINE
  5
3D4
100
AcDbEntity
  8
RDC
  6
ByLayer
 62
  256
370
   -1
100
AcDbLine
 10
757.0000000000011
 20
336.7320608764931
 11
780.0000000000011
 21
336.7320608764931
  0
LINE
  5
3D5
100
AcDbEntity
  8
RDC
  6
ByLayer
 62
  256
370
   -1
100
AcDbLine
 10
757.0000000000011
 20
545.7320608764931
 11
790.0000000000011
 21
545.7320608764931
  0
LINE
  5
3D6
100
AcDbEntity
  8
RDC
  6
ByLayer
 62
  256
370
   -1
100
AcDbLine
 10
1645
 20
10
 11
1492
 21
10
  0
LINE
  5
3D7
100
AcDbEntity
  8
RDC
  6
ByLayer
 62
  256
370
   -1
100
AcDbLine
 10
1220
 20
10
 11
1372
 21
10
  0
INSERT
  5
3D8
100
AcDbEntity
  8
RDC
  6
ByLayer
 62
  256
370
   -1
100
AcDbBlockReference
  2
FENETRE120
 10
1372
 20
43
 30
0
 41
1
 42
1
 43
0
 50
0
 70
    1
 71
    1
 44
0
 45
0
  0
LINE
  5
3D9
100
AcDbEntity
  8
RDC
  6
ByLayer
 62
  256
370
   -1
100
AcDbLine
 10
570.0761184457469
 20
0
 11
580.0761184457469
 21
0
  0
LINE
  5
3DA
100
AcDbEntity
  8
RDC
  6
ByLayer
 62
  256
370
   -1
100
AcDbLine
 10
515.0761184457469
 20
27
 11
560.0761184457469
 21
27
  0
LINE
  5
3DB
100
AcDbEntity
  8
RDC
  6
ByLayer
 62
  256
370
   -1
100
AcDbLine
 10
515.0761184457469
 20
29
 11
560.0761184457469
 21
29
  0
LINE
  5
3DC
100
AcDbEntity
  8
RDC
  6
ByLayer
 62
  256
370
   -1
100
AcDbLine
 10
515.0761184457469
 20
28
 11
560.0761184457469
 21
28
  0
LINE
  5
3DD
100
AcDbEntity
  8
RDC
  6
ByLayer
 62
  256
370
   -1
100
AcDbLine
 10
510.0761184457469
 20
33
 11
510.0761184457469
 21
11.18535353670632
  0
LINE
  5
3DE
100
AcDbEntity
  8
RDC
  6
ByLayer
 62
  256
370
   -1
100
AcDbLine
 10
570.0761184457469
 20
33
 11
570.0761184457469
 21
0
  0
LINE
  5
3DF
100
AcDbEntity
  8
RDC
  6
ByLayer
 62
  256
370
   -1
100
AcDbLine
 10
1220
 20
80
 11
1175.131732542774
 21
80
  0
LWPOLYLINE
  5
3E0
100
AcDbEntity
  8
RDC
  6
ByLayer
 62
  256
370
   -1
100
AcDbPolyline
 90
    2
 70
    0
 43
0
 10
757.0000000000011
 20
336.7320608764931
 10
757.0000000000011
 20
113
  0
LINE
  5
3E1
100
AcDbEntity
  8
RDC
  6
ByLayer
 62
  256
370
   -1
100
AcDbLine
 10
580.0761184457469
 20
0
 11
580.0761184457469
 21
-10
  0
LWPOLYLINE
  5
3E2
100
AcDbEntity
  8
RDC
  6
ByLayer
 62
  256
370
   -1
100
AcDbPolyline
 90
    4
 70
    1
 43
0
 10
560.0761184457469
 20
33
 10
565.0761184457469
 20
33
 10
565.0761184457469
 20
23
 10
560.0761184457469
 20
23
  0
LWPOLYLINE
  5
3E3
100
AcDbEntity
  8
RDC
  6
ByLayer
 62
  256
370
   -1
100
AcDbPolyline
 90
    4
 70
    1
 43
0
 10
565.0761184457469
 20
33
 10
570.0761184457469
 20
33
 10
570.0761184457469
 20
23
 10
565.0761184457469
 20
23
  0
LWPOLYLINE
  5
3E4
100
AcDbEntity
  8
RDC
  6
ByLayer
 62
  256
370
   -1
100
AcDbPolyline
 90
    4
 70
    1
 43
0
 10
510.0761184457469
 20
33
 10
515.0761184457469
 20
33
 10
515.0761184457469
 20
23
 10
510.0761184457469
 20
23
  0
LWPOLYLINE
  5
3E5
100
AcDbEntity
  8
RDC
  6
ByLayer
 62
  256
370
   -1
100
AcDbPolyline
 90
    4
 70
    1
 43
0
 10
505.0761184457469
 20
33
 10
510.0761184457469
 20
33
 10
510.0761184457469
 20
23
 10
505.0761184457469
 20
23
  0
LWPOLYLINE
  5
3E6
100
AcDbEntity
  8
RDC
  6
ByLayer
 62
  256
370
   -1
100
AcDbPolyline
 90
    2
 70
    0
 43
0
 10
790.0000000000011
 20
439.7320608764931
 10
790.0000000000011
 20
429.7320608764931
  0
LWPOLYLINE
  5
3E7
100
AcDbEntity
  8
RDC
  6
ByLayer
 62
  256
370
   -1
100
AcDbPolyline
 90
    2
 70
    0
 43
0
 10
1236
 20
113
 10
1236
 20
330.6123725234102
  0
LINE
  5
3E8
100
AcDbEntity
  8
RDC
  6
ByLayer
 62
  256
370
   -1
100
AcDbLine
 10
1105.131732542773
 20
70
 11
1105.131732542773
 21
80
  0
LINE
  5
3E9
100
AcDbEntity
  8
RDC
  6
ByLayer
 62
  256
370
   -1
100
AcDbLine
 10
1185.131732542773
 20
70
 11
1105.131732542773
 21
70
  0
LINE
  5
3EA
100
AcDbEntity
  8
RDC
  6
ByLayer
 62
  256
370
   -1
100
AcDbLine
 10
1185.131732542773
 20
80
 11
1185.131732542773
 21
70
  0
LWPOLYLINE
  5
3EB
100
AcDbEntity
  8
RDC
  6
ByLayer
 62
  256
370
   -1
100
AcDbPolyline
 90
    4
 70
    1
 43
0
 10
1117.631732542773
 20
113
 10
1122.631732542773
 20
113
 10
1122.631732542773
 20
103
 10
1117.631732542773
 20
103
  0
LWPOLYLINE
  5
3EC
100
AcDbEntity
  8
RDC
  6
ByLayer
 62
  256
370
   -1
100
AcDbPolyline
 90
    4
 70
    1
 43
0
 10
1167.631732542773
 20
113
 10
1172.631732542773
 20
113
 10
1172.631732542773
 20
103
 10
1167.631732542773
 20
103
  0
LWPOLYLINE
  5
3ED
100
AcDbEntity
  8
RDC
  6
ByLayer
 62
  256
370
   -1
100
AcDbPolyline
 90
    2
 70
    0
 43
0
 10
1220
 20
10
 10
1220
 20
80
  0
CIRCLE
  5
3EE
100
AcDbEntity
  8
RDC
  6
ByLayer
 62
  256
370
   -1
100
AcDbCircle
 10
796.9562881194511
 20
779.9139441659536
 40
5
  0
LINE
  5
3EF
100
AcDbEntity
  8
RDC
  6
ByLayer
 62
  256
370
   -1
100
AcDbLine
 10
790.0000000000011
 20
790
 11
555.005649123771
 21
790
  0
LINE
  5
3F0
100
AcDbEntity
  8
RDC
  6
ByLayer
 62
  256
370
   -1
100
AcDbLine
 10
1645
 20
780
 11
1492
 21
780
  0
LINE
  5
3F1
100
AcDbEntity
  8
RDC
  6
ByLayer
 62
  256
370
   -1
100
AcDbLine
 10
1220
 20
780
 11
1372
 21
780
  0
LINE
  5
3F2
100
AcDbEntity
  8
RDC
  6
ByLayer
 62
  256
370
   -1
100
AcDbLine
 10
662
 20
642
 11
662
 21
642
  0
LINE
  5
3F3
100
AcDbEntity
  8
RDC
  6
ByLayer
 62
  256
370
   -1
100
AcDbLine
 10
1042.631732542774
 20
710
 11
790.0000000000011
 21
710
  0
LINE
  5
3F4
100
AcDbEntity
  8
RDC
  6
ByLayer
 62
  256
370
   -1
100
AcDbLine
 10
1102.631732542773
 20
710
 11
1102.631732542773
 21
677
  0
LINE
  5
3F5
100
AcDbEntity
  8
RDC
  6
ByLayer
 62
  256
370
   -1
100
AcDbLine
 10
1035.131732542773
 20
710
 11
1025.131732542773
 21
710
  0
LINE
  5
3F6
100
AcDbEntity
  8
RDC
  6
ByLayer
 62
  256
370
   -1
100
AcDbLine
 10
1042.631732542773
 20
677
 11
1042.631732542773
 21
710
  0
LINE
  5
3F7
100
AcDbEntity
  8
RDC
  6
ByLayer
 62
  256
370
   -1
100
AcDbLine
 10
1095.131732542773
 20
677
 11
1035.131732542773
 21
677
  0
LINE
  5
3F8
100
AcDbEntity
  8
RDC
  6
ByLayer
 62
  256
370
   -1
100
AcDbLine
 10
1095.131732542773
 20
683
 11
1050.131732542773
 21
683
  0
LINE
  5
3F9
100
AcDbEntity
  8
RDC
  6
ByLayer
 62
  256
370
   -1
100
AcDbLine
 10
1087.631732542773
 20
681
 11
1042.631732542773
 21
681
  0
LINE
  5
3FA
100
AcDbEntity
  8
RDC
  6
ByLayer
 62
  256
370
   -1
100
AcDbLine
 10
1095.131732542773
 20
682
 11
1050.131732542773
 21
682
  0
LINE
  5
3FB
100
AcDbEntity
  8
RDC
  6
ByLayer
 62
  256
370
   -1
100
AcDbLine
 10
1102.631732542773
 20
687
 11
1042.631732542773
 21
687
  0
INSERT
  5
3FC
100
AcDbEntity
  8
RDC
  6
ByLayer
 62
  256
370
   -1
100
AcDbBlockReference
  2
FENETRE120
 10
1492
 20
747
 30
0
 41
1
 42
1
 43
0
 50
180
 70
    1
 71
    1
 44
0
 45
0
  0
LINE
  5
3FD
100
AcDbEntity
  8
RDC
  6
ByLayer
 62
  256
370
   -1
100
AcDbLine
 10
962.815866271387
 20
676.9999999999964
 11
962.815866271387
 21
709.9999999999964
  0
LINE
  5
3FE
100
AcDbEntity
  8
RDC
  6
ByLayer
 62
  256
370
   -1
100
AcDbLine
 10
869.815866271387
 20
676.9999999999982
 11
869.815866271387
 21
709.9999999999982
  0
LINE
  5
3FF
100
AcDbEntity
  8
RDC
  6
ByLayer
 62
  256
370
   -1
100
AcDbLine
 10
1236
 20
677
 11
790.0000000000011
 21
677
  0
LINE
  5
400
100
AcDbEntity
  8
RDC
  6
ByLayer
 62
  256
370
   -1
100
AcDbLine
 10
1220
 20
710
 11
1102.631732542774
 21
710
  0
LWPOLYLINE
  5
401
100
AcDbEntity
  8
RDC
  6
ByLayer
 62
  256
370
   -1
100
AcDbPolyline
 90
    4
 70
    1
 43
0
 10
654.634138087109
 20
669.0697905179513
 10
669.634138087109
 20
669.0697905179513
 10
669.634138087109
 20
654.0697905179513
 10
654.634138087109
 20
654.0697905179513
  0
MTEXT
  5
402
100
AcDbEntity
  8
RDC
  6
ByLayer
 62
  256
370
   -1
100
AcDbMText
 10
655.2467485951831
 20
621.4707804996851
 30
0
 40
5
 41
6.666666666666668
 71
    1
 72
    5
  1
EU
  7
standard
210
0
220
0
230
1
 50
0
 73
    1
 44
1
  0
LWPOLYLINE
  5
403
100
AcDbEntity
  8
RDC
  6
ByLayer
 62
  256
370
   -1
100
AcDbPolyline
 90
    2
 70
    0
 43
0
 10
790.0000000000011
 20
790
 10
790.0000000000011
 20
710
  0
INSERT
  5
404
100
AcDbEntity
  8
RDC
  6
ByLayer
 62
  256
370
   -1
100
AcDbBlockReference
  2
A$C5F556693
 10
869.8158520629881
 20
792.9999652976603
 30
0
 41
1
 42
1
 43
0
 50
269.9999999999985
 70
    1
 71
    1
 44
0
 45
0
  0
LINE
  5
405
100
AcDbEntity
  8
RDC
  6
ByLayer
 62
  256
370
   -1
100
AcDbLine
 10
1112.631732542773
 20
720
 11
1112.631732542773
 21
710
  0
LINE
  5
406
100
AcDbEntity
  8
RDC
  6
ByLayer
 62
  256
370
   -1
100
AcDbLine
 10
1032.631732542773
 20
720
 11
1112.631732542773
 21
720
  0
LINE
  5
407
100
AcDbEntity
  8
RDC
  6
ByLayer
 62
  256
370
   -1
100
AcDbLine
 10
1032.631732542773
 20
710
 11
1032.631732542773
 21
720
  0
LWPOLYLINE
  5
408
100
AcDbEntity
  8
RDC
  6
ByLayer
 62
  256
370
   -1
100
AcDbPolyline
 90
    4
 70
    1
 43
0
 10
1100.131732542773
 20
677
 10
1095.131732542773
 20
677
 10
1095.131732542773
 20
687
 10
1100.131732542773
 20
687
  0
LWPOLYLINE
  5
409
100
AcDbEntity
  8
RDC
  6
ByLayer
 62
  256
370
   -1
100
AcDbPolyline
 90
    4
 70
    1
 43
0
 10
1050.131732542773
 20
677
 10
1045.131732542773
 20
677
 10
1045.131732542773
 20
687
 10
1050.131732542773
 20
687
  0
LWPOLYLINE
  5
40A
100
AcDbEntity
  8
RDC
  6
ByLayer
 62
  256
370
   -1
100
AcDbPolyline
 90
    2
 70
    0
 43
0
 10
1220
 20
710
 10
1220
 20
780
  0
LINE
  5
40B
100
AcDbEntity
  8
RDC
  6
ByLayer
 62
  256
370
   -1
100
AcDbLine
 10
1645
 20
240
 11
1945
 21
240
  0
LWPOLYLINE
  5
40C
100
AcDbEntity
  8
RDC
  6
ByLayer
 62
  256
370
   -1
100
AcDbPolyline
 90
    4
 70
    1
 43
0
 10
790.0000000000011
 20
790
 10
830.0000000000011
 20
790
 10
830.0000000000011
 20
750
 10
790.0000000000011
 20
750
  0
LINE
  5
40D
100
AcDbEntity
  8
RDC
  6
ByLayer
 62
  256
370
   -1
100
AcDbLine
 10
1925
 20
240
 11
1925
 21
774
  0
LINE
  5
40E
100
AcDbEntity
  8
RDC
  6
ByLayer
 62
  256
370
   -1
100
AcDbLine
 10
1925
 20
774
 11
1945
 21
774
  0
LINE
  5
40F
100
AcDbEntity
  8
RDC
  6
ByLayer
 62
  256
370
   -1
100
AcDbLine
 10
1945
 20
240
 11
1945
 21
774
  0
LINE
  5
410
100
AcDbEntity
  8
RDC
  6
ByLayer
 62
  256
370
   -1
100
AcDbLine
 10
1645
 20
774
 11
1925
 21
774
  0
LINE
  5
411
100
AcDbEntity
  8
RDC
  6
ByLayer
 62
  256
370
   -1
100
AcDbLine
 10
1645
 20
754
 11
1825
 21
754
  0
LINE
  5
412
100
AcDbEntity
  8
RDC
  6
ByLayer
 62
  256
370
   -1
100
AcDbLine
 10
1825
 20
774
 11
1825
 21
754
  0
LINE
  5
413
100
AcDbEntity
  8
RDC
  6
ByLayer
 62
  256
370
   -1
100
AcDbLine
 10
1645
 20
754
 11
1645
 21
240
  0
LINE
  5
414
100
AcDbEntity
  8
RDC
  6
ByLayer
 62
  256
370
   -1
100
AcDbLine
 10
1645
 20
240
 11
1645
 21
10
  0
LINE
  5
415
100
AcDbEntity
  8
RDC
  6
ByLayer
 62
  256
370
   -1
100
AcDbLine
 10
790.0000000000011
 20
532.7320608764931
 11
790.0000000000013
 21
112.9999999999998
  0
LINE
  5
416
100
AcDbEntity
  8
RDC
  6
ByLayer
 62
  256
370
   -1
100
AcDbLine
 10
874.8158946881902
 20
112.9999999999982
 11
790.0000000000013
 21
112.9999999999998
  0
LINE
  5
417
100
AcDbEntity
  8
RDC
  6
ByLayer
 62
  256
370
   -1
100
AcDbLine
 10
826.583717099954
 20
113.0000000000018
 11
826.583717099954
 21
80
  0
LINE
  5
418
100
AcDbEntity
  8
RDC
  6
ByLayer
 62
  256
370
   -1
100
AcDbLine
 10
997.583717099954
 20
113
 11
997.583717099954
 21
79.99999999999818
  0
LINE
  5
419
100
AcDbEntity
  8
RDC
  6
ByLayer
 62
  256
370
   -1
100
AcDbLine
 10
1236
 20
113
 11
894
 21
112.9999999999978
  0
INSERT
  5
41A
100
AcDbEntity
  8
RDC
  6
ByLayer
 62
  256
370
   -1
100
AcDbBlockReference
  2
A$C5F556693
 10
866.5837313083556
 20
185.9999652976603
 30
0
 41
-1
 42
1
 43
0
 50
90
 70
    1
 71
    1
 44
0
 45
0
  0
LINE
  5
41B
100
AcDbEntity
  8
RDC
  6
ByLayer
 62
  256
370
   -1
100
AcDbLine
 10
865.583717099954
 20
102.9999999999982
 11
871.583717099954
 21
102.9999999999982
  0
LINE
  5
41C
100
AcDbEntity
  8
RDC
  6
ByLayer
 62
  256
370
   -1
100
AcDbLine
 10
826.583717099954
 20
102.9999999999982
 11
866.5837170999541
 21
102.9999999999982
  0
LINE
  5
41D
100
AcDbEntity
  8
RDC
  6
ByLayer
 62
  256
370
   -1
100
AcDbLine
 10
959.583717099954
 20
102.9999999999982
 11
997.583717099954
 21
102.9999999999982
  0
LINE
  5
41E
100
AcDbEntity
  8
RDC
  6
ByLayer
 62
  256
370
   -1
100
AcDbLine
 10
1645
 20
747
 11
1645
 21
43
  0
LWPOLYLINE
  5
41F
100
AcDbEntity
  8
panneauxphotovoltaique
  6
ByLayer
 62
  256
370
   -1
100
AcDbPolyline
 90
    4
 70
    1
 43
0
 10
-300
 20
510
 10
-200
 20
510
 10
-200
 20
680
 10
-300
 20
680
  0
LWPOLYLINE
  5
420
100
AcDbEntity
  8
panneauxphotovoltaique
  6
ByLayer
 62
  256
370
   -1
100
AcDbPolyline
 90
    4
 70
    1
 43
0
 10
-200
 20
510
 10
-100
 20
510
 10
-100
 20
680
 10
-200
 20
680
  0
LWPOLYLINE
  5
421
100
AcDbEntity
  8
panneauxphotovoltaique
  6
ByLayer
 62
  256
370
   -1
100
AcDbPolyline
 90
    4
 70
    1
 43
0
 10
-100
 20
510
 10
0
 20
510
 10
0
 20
680
 10
-100
 20
680
  0
LWPOLYLINE
  5
422
100
AcDbEntity
  8
panneauxphotovoltaique
  6
ByLayer
 62
  256
370
   -1
100
AcDbPolyline
 90
    4
 70
    1
 43
0
 10
-300
 20
340
 10
-200
 20
340
 10
-200
 20
510
 10
-300
 20
510
  0
LWPOLYLINE
  5
423
100
AcDbEntity
  8
panneauxphotovoltaique
  6
ByLayer
 62
  256
370
   -1
100
AcDbPolyline
 90
    4
 70
    1
 43
0
 10
-200
 20
340
 10
-100
 20
340
 10
-100
 20
510
 10
-200
 20
510
  0
LWPOLYLINE
  5
424
100
AcDbEntity
  8
panneauxphotovoltaique
  6
ByLayer
 62
  256
370
   -1
100
AcDbPolyline
 90
    4
 70
    1
 43
0
 10
-100
 20
340
 10
0
 20
340
 10
0
 20
510
 10
-100
 20
510
  0
LWPOLYLINE
  5
425
100
AcDbEntity
  8
panneauxphotovoltaique
  6
ByLayer
 62
  256
370
   -1
100
AcDbPolyline
 90
    4
 70
    1
 43
0
 10
-300
 20
170
 10
-200
 20
170
 10
-200
 20
340
 10
-300
 20
340
  0
LWPOLYLINE
  5
426
100
AcDbEntity
  8
panneauxphotovoltaique
  6
ByLayer
 62
  256
370
   -1
100
AcDbPolyline
 90
    4
 70
    1
 43
0
 10
-200
 20
170
 10
-100
 20
170
 10
-100
 20
340
 10
-200
 20
340
  0
LWPOLYLINE
  5
427
100
AcDbEntity
  8
panneauxphotovoltaique
  6
ByLayer
 62
  256
370
   -1
100
AcDbPolyline
 90
    4
 70
    1
 43
0
 10
-100
 20
170
 10
0
 20
170
 10
0
 20
340
 10
-100
 20
340
  0
LWPOLYLINE
  5
428
100
AcDbEntity
  8
panneauxphotovoltaique
  6
ByLayer
 62
  256
370
   -1
100
AcDbPolyline
 90
    4
 70
    1
 43
0
 10
-300
 20
0
 10
-200
 20
0
 10
-200
 20
170
 10
-300
 20
170
  0
LWPOLYLINE
  5
429
100
AcDbEntity
  8
panneauxphotovoltaique
  6
ByLayer
 62
  256
370
   -1
100
AcDbPolyline
 90
    4
 70
    1
 43
0
 10
-200
 20
0
 10
-100
 20
0
 10
-100
 20
170
 10
-200
 20
170
  0
LWPOLYLINE
  5
42A
100
AcDbEntity
  8
panneauxphotovoltaique
  6
ByLayer
 62
  256
370
   -1
100
AcDbPolyline
 90
    4
 70
    1
 43
0
 10
-100
 20
0
 10
0
 20
0
 10
0
 20
170
 10
-100
 20
170
  0
LWPOLYLINE
  5
42B
100
AcDbEntity
  8
charpente
  6
ByLayer
 62
  256
370
   -1
100
AcDbPolyline
 90
    4
 70
    1
 43
0
 10
-350
 20
0
 10
-330
 20
0
 10
-330
 20
20
 10
-350
 20
20
  0
LWPOLYLINE
  5
42C
100
AcDbEntity
  8
charpente
  6
ByLayer
 62
  256
370
   -1
100
AcDbPolyline
 90
    4
 70
    1
 43
0
 10
-350
 20
770
 10
-330
 20
770
 10
-330
 20
790
 10
-350
 20
790
  0
LINE
  5
42D
100
AcDbEntity
  8
charpente
  6
ByLayer
 62
  256
370
   -1
100
AcDbLine
 10
0
 20
790
 11
6.123233995736766e-16
 21
800
  0
LINE
  5
42E
100
AcDbEntity
  8
charpente
  6
ByLayer
 62
  256
370
   -1
100
AcDbLine
 10
0
 20
1045.737322814424
 11
6.123233995736766e-16
 21
1055.737322814424
  0
LINE
  5
42F
100
AcDbEntity
  8
charpente
  6
ByLayer
 62
  256
370
   -1
100
AcDbLine
 10
0
 20
1055.737322814424
 11
6.123233995736766e-16
 21
1065.737322814424
  0
LWPOLYLINE
  5
430
100
AcDbEntity
  8
charpente
  6
ByLayer
 62
  256
370
   -1
100
AcDbPolyline
 90
    4
 70
    1
 43
0
 10
-350
 20
260
 10
-330
 20
260
 10
-330
 20
280
 10
-350
 20
280
  0
LWPOLYLINE
  5
431
100
AcDbEntity
  8
charpente
  6
ByLayer
 62
  256
370
   -1
100
AcDbPolyline
 90
    4
 70
    1
 43
0
 10
-350
 20
510
 10
-330
 20
510
 10
-330
 20
530
 10
-350
 20
530
  0
LINE
  5
432
100
AcDbEntity
  8
COTATION
  6
ByLayer
 62
  256
370
   -1
100
AcDbLine
 10
0
 20
790
 11
790.0000000000011
 21
790
  0
LINE
  5
433
100
AcDbEntity
  8
COTATION
  6
ByLayer
 62
  256
370
   -1
100
AcDbLine
 10
790.0000000000011
 20
790
 11
790.0000000000011
 21
710
  0
LINE
  5
434
100
AcDbEntity
  8
COTATION
  6
ByLayer
 62
  256
370
   -1
100
AcDbLine
 10
790.0000000000011
 20
710
 11
1220.000000000001
 21
710
  0
LINE
  5
435
100
AcDbEntity
  8
COTATION
  6
ByLayer
 62
  256
370
   -1
100
AcDbLine
 10
1220.000000000001
 20
710
 11
1220
 21
780
  0
LINE
  5
436
100
AcDbEntity
  8
COTATION
  6
ByLayer
 62
  256
370
   -1
100
AcDbLine
 10
1220
 20
780
 11
1945
 21
774
  0
LINE
  5
437
100
AcDbEntity
  8
COTATION
  6
ByLayer
 62
  256
370
   -1
100
AcDbLine
 10
1945
 20
774
 11
1945
 21
240
  0
LINE
  5
438
100
AcDbEntity
  8
COTATION
  6
ByLayer
 62
  256
370
   -1
100
AcDbLine
 10
1945
 20
240
 11
1645
 21
240
  0
LINE
  5
439
100
AcDbEntity
  8
COTATION
  6
ByLayer
 62
  256
370
   -1
100
AcDbLine
 10
1645
 20
240
 11
1645
 21
10
  0
LINE
  5
43A
100
AcDbEntity
  8
COTATION
  6
ByLayer
 62
  256
370
   -1
100
AcDbLine
 10
1645
 20
10
 11
1220
 21
10
  0
LINE
  5
43B
100
AcDbEntity
  8
COTATION
  6
ByLayer
 62
  256
370
   -1
100
AcDbLine
 10
1220
 20
10
 11
1220
 21
80
  0
LINE
  5
43C
100
AcDbEntity
  8
COTATION
  6
ByLayer
 62
  256
370
   -1
100
AcDbLine
 10
0
 20
0
 11
0
 21
790
  0
MTEXT
  5
43D
100
AcDbEntity
  8
terrasseBucher
  6
ByLayer
 62
  256
370
   -1
100
AcDbMText
 10
1640.914067611755
 20
1012.297483373147
 30
0
 40
30
 41
332.5000308572347
 71
    1
 72
    1
  1
Terrasse Bucher
  7
standard
210
0
220
0
230
1
 50
0
 73
    2
 44
1
  0
MTEXT
  5
43E
100
AcDbEntity
  8
terrasseBucher
  6
ByLayer
 62
  256
370
   -1
100
AcDbMText
 10
1715.702327869375
 20
932.9285254842081
 30
0
 40
30
 41
214.1666666666699
 71
    1
 72
    1
  1
pente 1,5%
  7
standard
210
0
220
0
230
1
 50
0
 73
    2
 44
1
  0
LWPOLYLINE
  5
43F
100
AcDbEntity
  8
terrasseBucher
  6
ByLayer
 62
  256
370
   -1
100
AcDbPolyline
 90
    4
 70
    0
 43
0
 10
1890.472579345308
 20
802.4662250866803
 10
1890.472579345308
 20
873.8512573796672
 10
1880.626367994551
 20
846.774176165086
 10
1902.780343533754
 20
849.2357290027752
  0
DIMENSION
  5
440
100
AcDbEntity
  8
FAÇADES
  6
ByLayer
 62
  256
370
   -1
100
AcDbDimension
  2
*D1
 10
-432.48956489392
 20
2579.172291616913
 30
0
 11
-444.48956489392
 21
2691.224412758962
 31
0
 70
   32
  1
230
 71
    5
 72
    0
  3
RB
 53
0
210
0
220
0
230
1
100
AcDbAlignedDimension
 13
187.2029366949428
 23
2803.27653390101
 33
0
 14
605.7167959623921
 24
2579.172291616913
 34
0
 50
90
100
AcDbRotatedDimension
  0
DIMENSION
  5
441
100
AcDbEntity
  8
FAÇADES
  6
ByLayer
 62
  256
370
   -1
100
AcDbDimension
  2
*D2
 10
-432.48956489392
 20
2003.959299693965
 30
0
 11
-444.48956489392
 21
2291.565795655439
 31
0
 70
   32
 71
    5
 72
    0
  3
RB
 53
0
210
0
220
0
230
1
100
AcDbAlignedDimension
 13
605.7167959623921
 23
2579.172291616913
 33
0
 14
-219.2832040376088
 24
2003.959299693965
 34
0
 50
90
100
AcDbRotatedDimension
  0
DIMENSION
  5
442
100
AcDbEntity
  8
FAÇADES
  6
ByLayer
 62
  256
370
   -1
100
AcDbDimension
  2
*D3
 10
-563.5690794019974
 20
2003.959299693963
 30
0
 11
-575.5690794019974
 21
2403.617916797486
 31
0
 70
   32
  1
805
 71
    5
 72
    0
  3
RB
 53
0
210
0
220
0
230
1
100
AcDbAlignedDimension
 13
-432.48956489392
 23
2803.27653390101
 33
0
 14
-400
 24
2003.959299693963
 34
0
 50
90
100
AcDbRotatedDimension
  0
LINE
  5
443
100
AcDbEntity
  8
FAÇADES
  6
ByLayer
 62
  256
370
   -1
100
AcDbLine
 10
839.5905112881328
 20
2003.959299693968
 11
790.0000000000291
 21
2003.959299693968
  0
LINE
  5
444
100
AcDbEntity
  8
FAÇADES
  6
ByLayer
 62
  256
370
   -1
100
AcDbLine
 10
517.0805977641821
 20
2498.72296841861
 11
517.0805977641821
 21
2372.428267894427
  0
LINE
  5
445
100
AcDbEntity
  8
FAÇADES
  6
ByLayer
 62
  256
370
   -1
100
AcDbLine
 10
513.0805977641821
 20
2498.72296841861
 11
513.0805977641821
 21
2372.428267894427
  0
LINE
  5
446
100
AcDbEntity
  8
FAÇADES
  6
ByLayer
 62
  256
370
   -1
100
AcDbLine
 10
456.5805977641839
 20
2373.896216848052
 11
513.0805977641821
 21
2373.896216848052
  0
LINE
  5
447
100
AcDbEntity
  8
FAÇADES
  6
ByLayer
 62
  256
370
   -1
100
AcDbLine
 10
517.0805977641821
 20
2373.896216848052
 11
573.5805977641821
 21
2373.896216848052
  0
LINE
  5
448
100
AcDbEntity
  8
FAÇADES
  6
ByLayer
 62
  256
370
   -1
100
AcDbLine
 10
520.0805977641821
 20
2493.72296841861
 11
520.0805977641821
 21
2376.722968418612
  0
LINE
  5
449
100
AcDbEntity
  8
FAÇADES
  6
ByLayer
 62
  256
370
   -1
100
AcDbLine
 10
510.0805977641821
 20
2493.72296841861
 11
510.0805977641821
 21
2376.722968418612
  0
LWPOLYLINE
  5
44A
100
AcDbEntity
  8
FAÇADES
  6
ByLayer
 62
  256
370
   -1
100
AcDbPolyline
 90
    4
 70
    1
 43
0
 10
445.0805977641821
 20
2365.222968418611
 10
585.0805977641821
 20
2365.222968418611
 10
585.0805977641821
 20
2357.222968418612
 10
445.0805977641821
 20
2357.222968418612
  0
LWPOLYLINE
  5
44B
100
AcDbEntity
  8
FAÇADES
  6
ByLayer
 62
  256
370
   -1
100
AcDbPolyline
 90
    4
 70
    0
 43
0
 10
510.0805977641821
 20
2376.722968418612
 10
461.5805977641839
 20
2376.722968418612
 10
461.5805977641821
 20
2493.72296841861
 10
510.0805977641821
 20
2493.72296841861
  0
LWPOLYLINE
  5
44C
100
AcDbEntity
  8
FAÇADES
  6
ByLayer
 62
  256
370
   -1
100
AcDbPolyline
 90
    4
 70
    1
 43
0
 10
457.8852029687577
 20
2372.428267894427
 10
572.7274225520187
 20
2372.428267894427
 10
572.7274225520187
 20
2369.785932031025
 10
457.8852029687577
 20
2369.785932031025
  0
LWPOLYLINE
  5
44D
100
AcDbEntity
  8
FAÇADES
  6
ByLayer
 62
  256
370
   -1
100
AcDbPolyline
 90
    4
 70
    1
 43
0
 10
455.0805977641821
 20
2500.222968418611
 10
575.0805977641821
 20
2500.222968418611
 10
575.0805977641821
 20
2365.222968418611
 10
455.0805977641821
 20
2365.222968418611
  0
LWPOLYLINE
  5
44E
100
AcDbEntity
  8
FAÇADES
  6
ByLayer
 62
  256
370
   -1
100
AcDbPolyline
 90
    4
 70
    1
 43
0
 10
456.5805977641821
 20
2498.72296841861
 10
573.5805977641821
 20
2498.72296841861
 10
573.5805977641821
 20
2366.722968418612
 10
456.5805977641839
 20
2366.722968418612
  0
LWPOLYLINE
  5
44F
100
AcDbEntity
  8
FAÇADES
  6
ByLayer
 62
  256
370
   -1
100
AcDbPolyline
 90
    4
 70
    0
 43
0
 10
520.0805977641821
 20
2493.72296841861
 10
568.5805977641821
 20
2493.72296841861
 10
568.5805977641821
 20
2376.722968418612
 10
520.0805977641821
 20
2376.722968418612
  0
LINE
  5
450
100
AcDbEntity
  8
FAÇADES
  6
ByLayer
 62
  256
370
   -1
100
AcDbLine
 10
104.9827776076017
 20
2212.541504293872
 11
104.9827776076017
 21
2095.541504293869
  0
LINE
  5
451
100
AcDbEntity
  8
FAÇADES
  6
ByLayer
 62
  256
370
   -1
100
AcDbLine
 10
114.9827776076017
 20
2212.541504293872
 11
114.9827776076017
 21
2095.541504293869
  0
LINE
  5
452
100
AcDbEntity
  8
FAÇADES
  6
ByLayer
 62
  256
370
   -1
100
AcDbLine
 10
111.9827776076017
 20
2092.714752723312
 11
168.4827776076008
 21
2092.714752723312
  0
LINE
  5
453
100
AcDbEntity
  8
FAÇADES
  6
ByLayer
 62
  256
370
   -1
100
AcDbLine
 10
51.48277760760175
 20
2092.714752723312
 11
107.9827776076017
 21
2092.714752723312
  0
LINE
  5
454
100
AcDbEntity
  8
FAÇADES
  6
ByLayer
 62
  256
370
   -1
100
AcDbLine
 10
107.9827776076017
 20
2217.541504293872
 11
107.9827776076017
 21
2091.246803769686
  0
LINE
  5
455
100
AcDbEntity
  8
FAÇADES
  6
ByLayer
 62
  256
370
   -1
100
AcDbLine
 10
111.9827776076017
 20
2217.541504293872
 11
111.9827776076017
 21
2091.246803769686
  0
LWPOLYLINE
  5
456
100
AcDbEntity
  8
FAÇADES
  6
ByLayer
 62
  256
370
   -1
100
AcDbPolyline
 90
    4
 70
    0
 43
0
 10
114.9827776076017
 20
2212.541504293872
 10
163.4827776076008
 20
2212.541504293872
 10
163.4827776076008
 20
2095.541504293869
 10
114.9827776076017
 20
2095.541504293869
  0
LWPOLYLINE
  5
457
100
AcDbEntity
  8
FAÇADES
  6
ByLayer
 62
  256
370
   -1
100
AcDbPolyline
 90
    4
 70
    1
 43
0
 10
51.48277760760175
 20
2217.541504293872
 10
168.4827776076017
 20
2217.541504293872
 10
168.4827776076008
 20
2085.541504293869
 10
51.48277760760175
 20
2085.541504293872
  0
LWPOLYLINE
  5
458
100
AcDbEntity
  8
FAÇADES
  6
ByLayer
 62
  256
370
   -1
100
AcDbPolyline
 90
    4
 70
    1
 43
0
 10
49.98277760760175
 20
2219.041504293871
 10
169.9827776076017
 20
2219.041504293871
 10
169.9827776076017
 20
2084.041504293871
 10
49.98277760760175
 20
2084.041504293871
  0
LWPOLYLINE
  5
459
100
AcDbEntity
  8
FAÇADES
  6
ByLayer
 62
  256
370
   -1
100
AcDbPolyline
 90
    4
 70
    1
 43
0
 10
52.78738281217829
 20
2091.246803769686
 10
167.6296023954392
 20
2091.246803769686
 10
167.6296023954392
 20
2088.604467906284
 10
52.78738281217829
 20
2088.604467906284
  0
LWPOLYLINE
  5
45A
100
AcDbEntity
  8
FAÇADES
  6
ByLayer
 62
  256
370
   -1
100
AcDbPolyline
 90
    4
 70
    1
 43
0
 10
39.98277760760175
 20
2084.041504293871
 10
179.9827776076017
 20
2084.041504293871
 10
179.9827776076017
 20
2076.041504293871
 10
39.98277760760175
 20
2076.041504293871
  0
LWPOLYLINE
  5
45B
100
AcDbEntity
  8
FAÇADES
  6
ByLayer
 62
  256
370
   -1
100
AcDbPolyline
 90
    4
 70
    0
 43
0
 10
104.9827776076017
 20
2095.541504293869
 10
56.48277760760175
 20
2095.541504293869
 10
56.48277760760175
 20
2212.541504293872
 10
104.9827776076017
 20
2212.541504293872
  0
LINE
  5
45C
100
AcDbEntity
  8
FAÇADES
  6
ByLayer
 62
  256
370
   -1
100
AcDbLine
 10
1925.000000000002
 20
2284.487731236675
 11
790.0000000000009
 21
2284.487731236675
  0
LINE
  5
45D
100
AcDbEntity
  8
FAÇADES
  6
ByLayer
 62
  256
370
   -1
100
AcDbLine
 10
1925.000000000002
 20
2277.332313708675
 11
792.2780539247979
 21
2277.332313708675
  0
LINE
  5
45E
100
AcDbEntity
  8
FAÇADES
  6
ByLayer
 62
  256
370
   -1
100
AcDbLine
 10
1925.000000000002
 20
2257.332313708675
 11
792.2780539247968
 21
2257.332313708678
  0
LINE
  5
45F
100
AcDbEntity
  8
FAÇADES
  6
ByLayer
 62
  256
370
   -1
100
AcDbLine
 10
1925.000000000002
 20
2267.332313708678
 11
792.2780539247979
 21
2267.332313708675
  0
LINE
  5
460
100
AcDbEntity
  8
FAÇADES
  6
ByLayer
 62
  256
370
   -1
100
AcDbLine
 10
1189.999999999995
 20
2003.959299693959
 11
789.9999999999945
 21
2003.959299693959
  0
LINE
  5
461
100
AcDbEntity
  8
FAÇADES
  6
ByLayer
 62
  256
370
   -1
100
AcDbLine
 10
1189.999999999995
 20
2257.332313708675
 11
1189.999999999996
 21
1712.284047721773
  0
LINE
  5
462
100
AcDbEntity
  8
FAÇADES
  6
ByLayer
 62
  256
370
   -1
100
AcDbLine
 10
1609.999999999999
 20
2257.332313708675
 11
1609.999999999995
 21
2003.959299693956
  0
LINE
  5
463
100
AcDbEntity
  8
FAÇADES
  6
ByLayer
 62
  256
370
   -1
100
AcDbLine
 10
1401.999999999998
 20
2219.041504293871
 11
1401.999999999998
 21
2092.746803769687
  0
LINE
  5
464
100
AcDbEntity
  8
FAÇADES
  6
ByLayer
 62
  256
370
   -1
100
AcDbLine
 10
1397.999999999998
 20
2219.041504293871
 11
1397.999999999998
 21
2092.746803769687
  0
LINE
  5
465
100
AcDbEntity
  8
FAÇADES
  6
ByLayer
 62
  256
370
   -1
100
AcDbLine
 10
1341.499999999998
 20
2094.214752723313
 11
1397.999999999998
 21
2094.214752723313
  0
LINE
  5
466
100
AcDbEntity
  8
FAÇADES
  6
ByLayer
 62
  256
370
   -1
100
AcDbLine
 10
1401.999999999998
 20
2094.214752723313
 11
1458.499999999996
 21
2094.21475272331
  0
LWPOLYLINE
  5
467
100
AcDbEntity
  8
FAÇADES
  6
ByLayer
 62
  256
370
   -1
100
AcDbPolyline
 90
    4
 70
    0
 43
0
 10
1397.999999999998
 20
2097.04150429387
 10
1346.499999999998
 20
2097.04150429387
 10
1346.499999999998
 20
2214.041504293871
 10
1397.999999999998
 20
2214.041504293871
  0
LWPOLYLINE
  5
468
100
AcDbEntity
  8
FAÇADES
  6
ByLayer
 62
  256
370
   -1
100
AcDbPolyline
 90
    4
 70
    1
 43
0
 10
1339.999999999998
 20
2220.541504293869
 10
1459.999999999998
 20
2220.541504293869
 10
1459.999999999998
 20
2085.541504293869
 10
1339.999999999998
 20
2085.541504293869
  0
LWPOLYLINE
  5
469
100
AcDbEntity
  8
FAÇADES
  6
ByLayer
 62
  256
370
   -1
100
AcDbPolyline
 90
    4
 70
    1
 43
0
 10
1341.499999999998
 20
2219.041504293871
 10
1458.499999999998
 20
2219.041504293871
 10
1458.499999999996
 20
2087.04150429387
 10
1341.499999999998
 20
2087.04150429387
  0
LWPOLYLINE
  5
46A
100
AcDbEntity
  8
FAÇADES
  6
ByLayer
 62
  256
370
   -1
100
AcDbPolyline
 90
    4
 70
    0
 43
0
 10
1401.999999999998
 20
2214.041504293871
 10
1453.499999999996
 20
2214.041504293871
 10
1453.499999999996
 20
2097.04150429387
 10
1401.999999999998
 20
2097.04150429387
  0
LWPOLYLINE
  5
46B
100
AcDbEntity
  8
FAÇADES
  6
ByLayer
 62
  256
370
   -1
100
AcDbPolyline
 90
    4
 70
    1
 43
0
 10
1329.999999999998
 20
2085.541504293869
 10
1469.999999999998
 20
2085.541504293869
 10
1469.999999999998
 20
2077.54150429387
 10
1329.999999999998
 20
2077.54150429387
  0
LWPOLYLINE
  5
46C
100
AcDbEntity
  8
FAÇADES
  6
ByLayer
 62
  256
370
   -1
100
AcDbPolyline
 90
    4
 70
    1
 43
0
 10
1342.804605204574
 20
2092.746803769687
 10
1457.646824787836
 20
2092.746803769687
 10
1457.646824787836
 20
2090.104467906285
 10
1342.804605204574
 20
2090.104467906285
  0
LWPOLYLINE
  5
46D
100
AcDbEntity
  8
FAÇADES
  6
ByLayer
 62
  256
370
   -1
100
AcDbPolyline
 90
    4
 70
    1
 43
0
 10
1083.999999999995
 20
2143.959299693968
 10
1143.999999999995
 20
2143.959299693968
 10
1143.999999999995
 20
2218.959299693968
 10
1083.999999999995
 20
2218.959299693968
  0
LWPOLYLINE
  5
46E
100
AcDbEntity
  8
FAÇADES
  6
ByLayer
 62
  256
370
   -1
100
AcDbPolyline
 90
    4
 70
    1
 43
0
 10
1085.499999999994
 20
2145.459299693969
 10
1142.499999999995
 20
2145.459299693966
 10
1142.499999999995
 20
2217.459299693967
 10
1085.499999999995
 20
2217.459299693969
  0
LWPOLYLINE
  5
46F
100
AcDbEntity
  8
FAÇADES
  6
ByLayer
 62
  256
370
   -1
100
AcDbPolyline
 90
    4
 70
    1
 43
0
 10
1090.499999999995
 20
2150.459299693969
 10
1137.499999999996
 20
2150.459299693966
 10
1137.499999999992
 20
2212.459299693967
 10
1090.499999999995
 20
2212.459299693969
  0
LWPOLYLINE
  5
470
100
AcDbEntity
  8
FAÇADES
  6
ByLayer
 62
  256
370
   -1
100
AcDbPolyline
 90
    4
 70
    1
 43
0
 10
1088.999999999995
 20
2148.959299693968
 10
1138.999999999995
 20
2148.959299693968
 10
1138.999999999992
 20
2213.959299693968
 10
1088.999999999994
 20
2213.959299693968
  0
LWPOLYLINE
  5
471
100
AcDbEntity
  8
FAÇADES
  6
ByLayer
 62
  256
370
   -1
100
AcDbPolyline
 90
    4
 70
    1
 43
0
 10
1073.999999999995
 20
2143.959299693968
 10
1153.999999999995
 20
2143.959299693968
 10
1153.999999999995
 20
2135.959299693968
 10
1073.999999999995
 20
2135.959299693968
  0
LINE
  5
472
100
AcDbEntity
  8
FAÇADES
  6
ByLayer
 62
  256
370
   -1
100
AcDbLine
 10
1609.999999999995
 20
2003.959299693959
 11
1609.999999999995
 21
1718.959299693959
  0
LINE
  5
473
100
AcDbEntity
  8
FAÇADES
  6
ByLayer
 62
  256
370
   -1
100
AcDbLine
 10
2047.255931465756
 20
1718.959299693959
 11
1189.999999999998
 21
1718.959299693959
  0
LINE
  5
474
100
AcDbEntity
  8
FAÇADES
  6
ByLayer
 62
  256
370
   -1
100
AcDbLine
 10
1199.999999999995
 20
1827.175361703207
 11
1199.999999999995
 21
1827.175361703207
  0
LWPOLYLINE
  5
475
100
AcDbEntity
  8
FAÇADES
  6
ByLayer
 62
  256
370
   -1
100
AcDbPolyline
 90
    4
 70
    1
 43
0
 10
1199.999999999995
 20
1718.959299693959
 10
1609.999999999995
 20
1718.959299693959
 10
1609.999999999995
 20
1718.959299693959
 10
1199.999999999995
 20
1718.959299693959
  0
LINE
  5
476
100
AcDbEntity
  8
FAÇADES
  6
ByLayer
 62
  256
370
   -1
100
AcDbLine
 10
509.8989041268432
 20
2212.541504293872
 11
509.8989041268432
 21
2105.541504293869
  0
LINE
  5
477
100
AcDbEntity
  8
FAÇADES
  6
ByLayer
 62
  256
370
   -1
100
AcDbLine
 10
519.8989041268433
 20
2212.541504293872
 11
519.8989041268433
 21
2105.541504293869
  0
LINE
  5
478
100
AcDbEntity
  8
FAÇADES
  6
ByLayer
 62
  256
370
   -1
100
AcDbLine
 10
516.8989041268433
 20
2102.714752723312
 11
573.3989041268433
 21
2102.714752723312
  0
LINE
  5
479
100
AcDbEntity
  8
FAÇADES
  6
ByLayer
 62
  256
370
   -1
100
AcDbLine
 10
456.398904126845
 20
2102.714752723312
 11
512.8989041268433
 21
2102.714752723312
  0
LINE
  5
47A
100
AcDbEntity
  8
FAÇADES
  6
ByLayer
 62
  256
370
   -1
100
AcDbLine
 10
512.8989041268433
 20
2217.541504293872
 11
512.8989041268433
 21
2101.246803769686
  0
LINE
  5
47B
100
AcDbEntity
  8
FAÇADES
  6
ByLayer
 62
  256
370
   -1
100
AcDbLine
 10
516.8989041268433
 20
2217.541504293872
 11
516.8989041268433
 21
2101.246803769686
  0
LWPOLYLINE
  5
47C
100
AcDbEntity
  8
FAÇADES
  6
ByLayer
 62
  256
370
   -1
100
AcDbPolyline
 90
    4
 70
    1
 43
0
 10
456.3989041268432
 20
2217.541504293872
 10
573.3989041268433
 20
2217.541504293872
 10
573.3989041268433
 20
2095.541504293869
 10
456.398904126845
 20
2095.541504293872
  0
LWPOLYLINE
  5
47D
100
AcDbEntity
  8
FAÇADES
  6
ByLayer
 62
  256
370
   -1
100
AcDbPolyline
 90
    4
 70
    1
 43
0
 10
454.8989041268432
 20
2219.041504293871
 10
574.8989041268433
 20
2219.041504293871
 10
574.8989041268433
 20
2094.041504293871
 10
454.8989041268432
 20
2094.041504293871
  0
LWPOLYLINE
  5
47E
100
AcDbEntity
  8
FAÇADES
  6
ByLayer
 62
  256
370
   -1
100
AcDbPolyline
 90
    4
 70
    1
 43
0
 10
457.7035093314188
 20
2101.246803769686
 10
572.5457289146798
 20
2101.246803769686
 10
572.5457289146798
 20
2098.604467906284
 10
457.7035093314188
 20
2098.604467906284
  0
LWPOLYLINE
  5
47F
100
AcDbEntity
  8
FAÇADES
  6
ByLayer
 62
  256
370
   -1
100
AcDbPolyline
 90
    4
 70
    0
 43
0
 10
509.8989041268432
 20
2105.541504293869
 10
461.398904126845
 20
2105.541504293869
 10
461.3989041268432
 20
2212.541504293872
 10
509.8989041268432
 20
2212.541504293872
  0
LWPOLYLINE
  5
480
100
AcDbEntity
  8
FAÇADES
  6
ByLayer
 62
  256
370
   -1
100
AcDbPolyline
 90
    4
 70
    1
 43
0
 10
444.8989041268432
 20
2094.041504293871
 10
584.8989041268433
 20
2094.041504293871
 10
584.8989041268433
 20
2086.041504293871
 10
444.8989041268432
 20
2086.041504293871
  0
LWPOLYLINE
  5
481
100
AcDbEntity
  8
FAÇADES
  6
ByLayer
 62
  256
370
   -1
100
AcDbPolyline
 90
    4
 70
    0
 43
0
 10
519.8989041268433
 20
2212.541504293872
 10
568.3989041268433
 20
2212.541504293872
 10
568.3989041268433
 20
2105.541504293869
 10
519.8989041268433
 20
2105.541504293869
  0
LINE
  5
482
100
AcDbEntity
  8
FAÇADES
  6
ByLayer
 62
  256
370
   -1
100
AcDbLine
 10
-19.67626320655836
 20
2604.17229161691
 11
405.0000000000009
 21
2804.010423220191
  0
LINE
  5
483
100
AcDbEntity
  8
FAÇADES
  6
ByLayer
 62
  256
370
   -1
100
AcDbLine
 10
835.0000000000009
 20
2604.17229161691
 11
-45
 21
2604.17229161691
  0
LINE
  5
484
100
AcDbEntity
  8
FAÇADES
  6
ByLayer
 62
  256
370
   -1
100
AcDbLine
 10
809.6762632065575
 20
2604.17229161691
 11
405.0000000000009
 21
2804.010423220191
  0
LINE
  5
485
100
AcDbEntity
  8
FAÇADES
  6
ByLayer
 62
  256
370
   -1
100
AcDbLine
 10
835.0000000000009
 20
2599.17229161691
 11
-44.9999999999992
 21
2599.17229161691
  0
LINE
  5
486
100
AcDbEntity
  8
FAÇADES
  6
ByLayer
 62
  256
370
   -1
100
AcDbLine
 10
835.0000000000009
 20
2594.17229161691
 11
-45
 21
2594.17229161691
  0
LINE
  5
487
100
AcDbEntity
  8
FAÇADES
  6
ByLayer
 62
  256
370
   -1
100
AcDbLine
 10
834.590511288131
 20
2594.172291616913
 11
-44.9999999999992
 21
2594.172291616908
  0
LINE
  5
488
100
AcDbEntity
  8
FAÇADES
  6
ByLayer
 62
  256
370
   -1
100
AcDbLine
 10
834.590511288131
 20
2599.172291616913
 11
-44.9999999999992
 21
2599.172291616908
  0
LINE
  5
489
100
AcDbEntity
  8
FAÇADES
  6
ByLayer
 62
  256
370
   -1
100
AcDbLine
 10
835.0000000000009
 20
2604.17229161691
 11
835.0000000000009
 21
2589.172291616913
  0
LINE
  5
48A
100
AcDbEntity
  8
FAÇADES
  6
ByLayer
 62
  256
370
   -1
100
AcDbLine
 10
835.0000000000009
 20
2604.17229161691
 11
835.0000000000009
 21
2589.17229161691
  0
LINE
  5
48B
100
AcDbEntity
  8
FAÇADES
  6
ByLayer
 62
  256
370
   -1
100
AcDbLine
 10
-44.9999999999992
 20
2604.17229161691
 11
-44.9999999999992
 21
2589.172291616908
  0
LINE
  5
48C
100
AcDbEntity
  8
FAÇADES
  6
ByLayer
 62
  256
370
   -1
100
AcDbLine
 10
-44.9999999999992
 20
2604.17229161691
 11
-44.9999999999992
 21
2589.172291616908
  0
LINE
  5
48D
100
AcDbEntity
  8
FAÇADES
  6
ByLayer
 62
  256
370
   -1
100
AcDbLine
 10
825.0000000000009
 20
2579.172291616913
 11
-35
 21
2579.172291616908
  0
LINE
  5
48E
100
AcDbEntity
  8
FAÇADES
  6
ByLayer
 62
  256
370
   -1
100
AcDbLine
 10
835.0000000000009
 20
2589.17229161691
 11
-45
 21
2589.172291616908
  0
LINE
  5
48F
100
AcDbEntity
  8
FAÇADES
  6
ByLayer
 62
  256
370
   -1
100
AcDbLine
 10
825.0000000000009
 20
2579.172291616913
 11
-34.9999999999992
 21
2579.172291616908
  0
LINE
  5
490
100
AcDbEntity
  8
FAÇADES
  6
ByLayer
 62
  256
370
   -1
100
AcDbLine
 10
835.0000000000009
 20
2589.17229161691
 11
825.0000000000009
 21
2589.17229161691
  0
LINE
  5
491
100
AcDbEntity
  8
FAÇADES
  6
ByLayer
 62
  256
370
   -1
100
AcDbLine
 10
825.0000000000009
 20
2589.17229161691
 11
825.0000000000009
 21
2579.17229161691
  0
LINE
  5
492
100
AcDbEntity
  8
FAÇADES
  6
ByLayer
 62
  256
370
   -1
100
AcDbLine
 10
-44.9999999999992
 20
2589.172291616908
 11
-34.9999999999992
 21
2589.172291616908
  0
LINE
  5
493
100
AcDbEntity
  8
FAÇADES
  6
ByLayer
 62
  256
370
   -1
100
AcDbLine
 10
-34.9999999999992
 20
2589.172291616908
 11
-34.9999999999992
 21
2579.172291616908
  0
LINE
  5
494
100
AcDbEntity
  8
FAÇADES
  6
ByLayer
 62
  256
370
   -1
100
AcDbLine
 10
790.0000000000018
 20
2579.172291616913
 11
790.0000000000018
 21
2003.959299693959
  0
LINE
  5
495
100
AcDbEntity
  8
FAÇADES
  6
ByLayer
 62
  256
370
   -1
100
AcDbLine
 10
600.0000000000018
 20
2707.715089874312
 11
600.0000000000018
 21
2799.673493586463
  0
LWPOLYLINE
  5
496
100
AcDbEntity
  8
FAÇADES
  6
ByLayer
 62
  256
370
   -1
100
AcDbPolyline
 90
    4
 70
    1
 43
0
 10
1285.999999999995
 20
1923.959299693959
 10
1523.999999999995
 20
1923.959299693959
 10
1523.999999999995
 20
1723.959299693959
 10
1285.999999999995
 20
1723.959299693959
  0
LINE
  5
497
100
AcDbEntity
  8
FAÇADES
  6
ByLayer
 62
  256
370
   -1
100
AcDbLine
 10
-400
 20
2003.959299693963
 11
-700
 21
1903.959299693963
  0
LINE
  5
498
100
AcDbEntity
  8
FAÇADES
  6
ByLayer
 62
  256
370
   -1
100
AcDbLine
 10
702.0470278141601
 20
1988.959299693968
 11
-400
 21
1988.959299693963
  0
LINE
  5
499
100
AcDbEntity
  8
FAÇADES
  6
ByLayer
 62
  256
370
   -1
100
AcDbLine
 10
1055.707205876152
 20
1988.959299693959
 11
932.762894134672
 21
1988.959299693959
  0
ARC
  5
49A
100
AcDbEntity
  8
FAÇADES
  6
ByLayer
 62
  256
370
   -1
100
AcDbCircle
 10
63.45110683840358
 20
5998.744095278665
 40
4060.317580829001
100
AcDbArc
 50
277.1747217509822
 51
280.307961725791
  0
LINE
  5
49B
100
AcDbEntity
  8
FAÇADES
  6
ByLayer
 62
  256
370
   -1
100
AcDbLine
 10
-400
 20
1988.959299693963
 11
-400
 21
1931.396543743419
  0
LINE
  5
49C
100
AcDbEntity
  8
FAÇADES
  6
ByLayer
 62
  256
370
   -1
100
AcDbLine
 10
570.5665483974863
 20
1970.219205679321
 11
-1090.278400634644
 21
1903.785407718033
  0
LINE
  5
49D
100
AcDbEntity
  8
FAÇADES
  6
ByLayer
 62
  256
370
   -1
100
AcDbLine
 10
899.721017148262
 20
2003.959299693968
 11
928.9298328931309
 21
2003.959299693959
  0
LINE
  5
49E
100
AcDbEntity
  8
FAÇADES
  6
ByLayer
 62
  256
370
   -1
100
AcDbLine
 10
960.8012722863768
 20
2003.959299693959
 11
1053.679008242859
 21
1991.310145387645
  0
LINE
  5
49F
100
AcDbEntity
  8
FAÇADES
  6
ByLayer
 62
  256
370
   -1
100
AcDbLine
 10
1610.000000000007
 20
1718.959299693961
 11
1610.000000000007
 21
1898.959299693961
  0
LINE
  5
4A0
100
AcDbEntity
  8
FAÇADES
  6
ByLayer
 62
  256
370
   -1
100
AcDbLine
 10
1885.402163945311
 20
1998.959299693961
 11
1885.402163945311
 21
1718.959299693959
  0
LINE
  5
4A1
100
AcDbEntity
  8
FAÇADES
  6
ByLayer
 62
  256
370
   -1
100
AcDbLine
 10
1609.999999999995
 20
1718.959299693959
 11
1609.999999999995
 21
2018.959299693959
  0
LINE
  5
4A2
100
AcDbEntity
  8
FAÇADES
  6
ByLayer
 62
  256
370
   -1
100
AcDbLine
 10
1885.402163945313
 20
1814.934108479893
 11
1940.000000000007
 21
1814.934108479895
  0
LINE
  5
4A3
100
AcDbEntity
  8
FAÇADES
  6
ByLayer
 62
  256
370
   -1
100
AcDbLine
 10
2228.346424761614
 20
2064.927824125564
 11
2228.346424761614
 21
2063.927824125562
  0
LWPOLYLINE
  5
4A4
100
AcDbEntity
  8
FAÇADES
  6
ByLayer
 62
  256
370
   -1
100
AcDbPolyline
 90
    4
 70
    1
 43
0
 10
595.0000000000018
 20
2799.673493586463
 10
645.0000000000018
 20
2799.673493586463
 10
645.0000000000018
 20
2804.673493586463
 10
595.0000000000018
 20
2804.673493586463
  0
LINE
  5
4A5
100
AcDbEntity
  8
FAÇADES
  6
ByLayer
 62
  256
370
   -1
100
AcDbLine
 10
640.0000000000009
 20
2687.96220098285
 11
640.0000000000018
 21
2799.673493586463
  0
LINE
  5
4A6
100
AcDbEntity
  8
FAÇADES
  6
ByLayer
 62
  256
370
   -1
100
AcDbLine
 10
604.0000000000018
 20
2844.673493586463
 11
636.0000000000018
 21
2844.673493586463
  0
LINE
  5
4A7
100
AcDbEntity
  8
FAÇADES
  6
ByLayer
 62
  256
370
   -1
100
AcDbLine
 10
599.0000000000018
 20
2804.673493586463
 11
641.0000000000017
 21
2804.673493586463
  0
LINE
  5
4A8
100
AcDbEntity
  8
FAÇADES
  6
ByLayer
 62
  256
370
   -1
100
AcDbLine
 10
603.630769230771
 20
2841.719647432622
 11
599.3692307692318
 21
2807.627339740314
  0
LINE
  5
4A9
100
AcDbEntity
  8
FAÇADES
  6
ByLayer
 62
  256
370
   -1
100
AcDbLine
 10
636.3692307692318
 20
2841.719647432622
 11
640.630769230771
 21
2807.627339740314
  0
LINE
  5
4AA
100
AcDbEntity
  8
FAÇADES
  6
ByLayer
 62
  256
370
   -1
100
AcDbLine
 10
604.0000000000018
 20
2841.673493586466
 11
636.0000000000018
 21
2841.673493586466
  0
LINE
  5
4AB
100
AcDbEntity
  8
FAÇADES
  6
ByLayer
 62
  256
370
   -1
100
AcDbLine
 10
599.0000000000018
 20
2807.673493586465
 11
641.0000000000017
 21
2807.673493586465
  0
ARC
  5
4AC
100
AcDbEntity
  8
FAÇADES
  6
ByLayer
 62
  256
370
   -1
100
AcDbCircle
 10
604.0000000000018
 20
2843.173493586467
 40
1.5
100
AcDbArc
 50
90
 51
270
  0
ARC
  5
4AD
100
AcDbEntity
  8
FAÇADES
  6
ByLayer
 62
  256
370
   -1
100
AcDbCircle
 10
636.0000000000018
 20
2843.173493586467
 40
1.5
100
AcDbArc
 50
270
 51
90
  0
ARC
  5
4AE
100
AcDbEntity
  8
FAÇADES
  6
ByLayer
 62
  256
370
   -1
100
AcDbCircle
 10
599.0000000000018
 20
2806.173493586469
 40
1.5
100
AcDbArc
 50
75.74996730222901
 51
270
  0
ARC
  5
4AF
100
AcDbEntity
  8
FAÇADES
  6
ByLayer
 62
  256
370
   -1
100
AcDbCircle
 10
641.0000000000017
 20
2806.173493586469
 40
1.5
100
AcDbArc
 50
270
 51
104.2500326978426
  0
INSERT
  5
4B0
100
AcDbEntity
  8
FAÇADES
  6
ByLayer
 62
  256
370
   -1
100
AcDbBlockReference
  2
A$C76023D9C-0
 10
397.9127264892749
 20
2796.923161316138
 30
0
 41
10
 42
10
 43
0
 50
0
 70
    1
 71
    1
 44
0
 45
0
  0
LWPOLYLINE
  5
4B1
100
AcDbEntity
  8
FAÇADES
  6
ByLayer
 62
  256
370
   -1
100
AcDbPolyline
 90
    3
 70
    0
 43
0
 10
1368.58489239835
 20
2089.983311567533
 10
1368.58489239835
 20
2193.318535059737
 10
1464.707946694325
 20
2193.318535059737
  0
LINE
  5
4B2
100
AcDbEntity
  8
FAÇADES
  6
ByLayer
 62
  256
370
   -1
100
AcDbLine
 10
1885.402163945311
 20
1898.959299693961
 11
1885.402163945311
 21
1998.959299693961
  0
LINE
  5
4B3
100
AcDbEntity
  8
FAÇADES
  6
ByLayer
 62
  256
370
   -1
100
AcDbLine
 10
900.85154904909
 20
2007.239502375462
 11
900.85154904909
 21
2142.538025620236
  0
LINE
  5
4B4
100
AcDbEntity
  8
FAÇADES
  6
ByLayer
 62
  256
370
   -1
100
AcDbLine
 10
900.85154904909
 20
2142.538025620236
 11
1001.275492172966
 21
2142.538025620236
  0
LINE
  5
4B5
100
AcDbEntity
  8
FAÇADES
  6
ByLayer
 62
  256
370
   -1
100
AcDbLine
 10
1001.275492172966
 20
2142.538025620236
 11
1001.275492172966
 21
2173.089290180263
  0
LINE
  5
4B6
100
AcDbEntity
  8
FAÇADES
  6
ByLayer
 62
  256
370
   -1
100
AcDbLine
 10
1082.051277473875
 20
2173.089290180263
 11
1082.051277473875
 21
2146.902483198285
  0
LINE
  5
4B7
100
AcDbEntity
  8
FAÇADES
  6
ByLayer
 62
  256
370
   -1
100
AcDbLine
 10
1082.051277473875
 20
2146.902483198285
 11
1143.178859300156
 21
2146.902483198285
  0
LINE
  5
4B8
100
AcDbEntity
  8
FAÇADES
  6
ByLayer
 62
  256
370
   -1
100
AcDbLine
 10
1143.178859300156
 20
2146.902483198285
 11
1143.178859300156
 21
2173.089290180263
  0
LINE
  5
4B9
100
AcDbEntity
  8
FAÇADES
  6
ByLayer
 62
  256
370
   -1
100
AcDbLine
 10
1191.627695013325
 20
2000.775152077902
 11
1156.697596082115
 21
2000.775152077902
  0
LINE
  5
4BA
100
AcDbEntity
  8
FAÇADES
  6
ByLayer
 62
  256
370
   -1
100
AcDbLine
 10
1156.697596082115
 20
2000.775152077902
 11
1117.401280436177
 21
2000.775152077902
  0
LINE
  5
4BB
100
AcDbEntity
  8
FAÇADES
  6
ByLayer
 62
  256
370
   -1
100
AcDbLine
 10
1287.685330119137
 20
1891.663435815101
 11
1287.685330119137
 21
1874.205574746065
  0
LINE
  5
4BC
100
AcDbEntity
  8
FAÇADES
  6
ByLayer
 62
  256
370
   -1
100
AcDbLine
 10
570.6065164358351
 20
1969.220004720598
 11
-1090.238432596295
 21
1902.786206759313
  0
LINE
  5
4BD
100
AcDbEntity
  8
FAÇADES
  6
ByLayer
 62
  256
370
   -1
100
AcDbLine
 10
570.646484474184
 20
1968.220803761876
 11
-1090.198464557946
 21
1901.787005800591
  0
LINE
  5
4BE
100
AcDbEntity
  8
FAÇADES
  6
ByLayer
 62
  256
370
   -1
100
AcDbLine
 10
570.6864525125329
 20
1967.221602803154
 11
-1090.158496519597
 21
1900.787804841868
  0
LINE
  5
4BF
100
AcDbEntity
  8
FAÇADES
  6
ByLayer
 62
  256
370
   -1
100
AcDbLine
 10
570.7264205508818
 20
1966.222401844434
 11
-1090.118528481248
 21
1899.788603883146
  0
LINE
  5
4C0
100
AcDbEntity
  8
FAÇADES
  6
ByLayer
 62
  256
370
   -1
100
AcDbLine
 10
570.7663885892316
 20
1965.223200885712
 11
-1090.078560442898
 21
1898.789402924426
  0
ARC
  5
4C1
100
AcDbEntity
  8
FAÇADES
  6
ByLayer
 62
  256
370
   -1
100
AcDbCircle
 10
63.45110683840358
 20
5998.744095278665
 40
4061.317580829002
100
AcDbArc
 50
277.1747217509822
 51
280.307961725791
  0
LINE
  5
4C2
100
AcDbEntity
  8
FAÇADES
  6
ByLayer
 62
  256
370
   -1
100
AcDbLine
 10
702.0470278141601
 20
1987.959299693969
 11
-400
 21
1987.959299693964
  0
ARC
  5
4C3
100
AcDbEntity
  8
FAÇADES
  6
ByLayer
 62
  256
370
   -1
100
AcDbCircle
 10
63.45110683840358
 20
5998.744095278665
 40
4062.317580829001
100
AcDbArc
 50
277.1747217509822
 51
280.307961725791
  0
ARC
  5
4C4
100
AcDbEntity
  8
FAÇADES
  6
ByLayer
 62
  256
370
   -1
100
AcDbCircle
 10
63.45110683840358
 20
5998.744095278665
 40
4063.317580829002
100
AcDbArc
 50
277.1747217509822
 51
280.307961725791
  0
LINE
  5
4C5
100
AcDbEntity
  8
FAÇADES
  6
ByLayer
 62
  256
370
   -1
100
AcDbLine
 10
1156.697596082115
 20
1999.775152077902
 11
1117.401280436177
 21
1999.775152077902
  0
LINE
  5
4C6
100
AcDbEntity
  8
FAÇADES
  6
ByLayer
 62
  256
370
   -1
100
AcDbLine
 10
1156.697596082115
 20
2000.775152077902
 11
1117.401280436177
 21
2000.775152077902
  0
LINE
  5
4C7
100
AcDbEntity
  8
FAÇADES
  6
ByLayer
 62
  256
370
   -1
100
AcDbLine
 10
2047.255931465756
 20
1717.95929969396
 11
1420.779970818704
 21
1717.95929969396
  0
LINE
  5
4C8
100
AcDbEntity
  8
FAÇADES
  6
ByLayer
 62
  256
370
   -1
100
AcDbLine
 10
2047.255931465756
 20
1716.95929969396
 11
1420.658131674294
 21
1716.95929969396
  0
LINE
  5
4C9
100
AcDbEntity
  8
FAÇADES
  6
ByLayer
 62
  256
370
   -1
100
AcDbLine
 10
2047.255931465756
 20
1715.959299693959
 11
1420.532359928895
 21
1715.959299693959
  0
LINE
  5
4CA
100
AcDbEntity
  8
FAÇADES
  6
ByLayer
 62
  256
370
   -1
100
AcDbLine
 10
2047.255931465756
 20
1714.95929969396
 11
1420.402641987674
 21
1714.95929969396
  0
LINE
  5
4CB
100
AcDbEntity
  8
FAÇADES
  6
ByLayer
 62
  256
370
   -1
100
AcDbLine
 10
2047.255931465756
 20
1713.959299693959
 11
1420.268963767306
 21
1713.959299693959
  0
LINE
  5
4CC
100
AcDbEntity
  8
FAÇADES
  6
ByLayer
 62
  256
370
   -1
100
AcDbLine
 10
2047.255931465756
 20
1712.95929969396
 11
1420.131310688584
 21
1712.959299693957
  0
LINE
  5
4CD
100
AcDbEntity
  8
FAÇADES
  6
ByLayer
 62
  256
370
   -1
100
AcDbLine
 10
1615.000000000002
 20
2494.101984901749
 11
1347.089579126048
 21
2494.101984901749
  0
LINE
  5
4CE
100
AcDbEntity
  8
FAÇADES
  6
ByLayer
 62
  256
370
   -1
100
AcDbLine
 10
1615.000000000002
 20
2494.101984901749
 11
790.0000000000018
 21
2494.101984901749
  0
LINE
  5
4CF
100
AcDbEntity
  8
FAÇADES
  6
ByLayer
 62
  256
370
   -1
100
AcDbLine
 10
1939.597836054696
 20
1814.934108479895
 11
2234.357376486252
 21
2051.007484022
  0
LINE
  5
4D0
100
AcDbEntity
  8
FAÇADES
  6
ByLayer
 62
  256
370
   -1
100
AcDbLine
 10
1189.305739686928
 20
2000.775152077902
 11
1189.305739686928
 21
1988.481774199279
  0
LINE
  5
4D1
100
AcDbEntity
  8
FAÇADES
  6
ByLayer
 62
  256
370
   -1
100
AcDbLine
 10
1885.402163945311
 20
1998.959299693961
 11
1885.402163945311
 21
2048.127417644755
  0
CIRCLE
  5
4D2
100
AcDbEntity
  8
FAÇADES
  6
ByLayer
 62
  256
370
   -1
100
AcDbCircle
 10
1609.999999999995
 20
1718.959299693959
 40
0
  0
LWPOLYLINE
  5
4D3
100
AcDbEntity
  8
FAÇADES
  6
ByLayer
 62
  256
370
   -1
100
AcDbPolyline
 90
    4
 70
    0
 43
0
 10
1615.000000000002
 20
2494.101984901749
 10
1915.000000000002
 20
2494.101984901749
 10
1925.000000000002
 20
2494.101984901749
 10
1925.000000000002
 20
2257.332313708675
  0
LINE
  5
4D4
100
AcDbEntity
  8
FAÇADES
  6
ByLayer
 62
  256
370
   -1
100
AcDbLine
 10
1915.402163945311
 20
1716.95929969396
 11
1915.402163945311
 21
2267.332313708678
  0
LINE
  5
4D5
100
AcDbEntity
  8
FAÇADES
  6
ByLayer
 62
  256
370
   -1
100
AcDbLine
 10
1915.402163945311
 20
2257.332313708675
 11
1925.000000000002
 21
2257.332313708675
  0
LWPOLYLINE
  5
4D6
100
AcDbEntity
  8
FAÇADES
  6
ByLayer
 62
  256
370
   -1
100
AcDbPolyline
 90
    2
 70
    0
 43
0
 10
1915.402163945311
 20
2048.107946899158
 10
1915
 20
2048.127417644755
  0
LINE
  5
4D7
100
AcDbEntity
  8
FAÇADES
  6
ByLayer
 62
  256
370
   -1
100
AcDbLine
 10
2227.112381452283
 20
2051.784323281918
 11
1909.850642575073
 21
2024.534848777125
  0
LINE
  5
4D8
100
AcDbEntity
  8
FAÇADES
  6
ByLayer
 62
  256
370
   -1
100
AcDbLine
 10
1909.850642575073
 20
2024.534848777125
 11
2435.376222310331
 21
2065.409060534314
  0
LINE
  5
4D9
100
AcDbEntity
  8
FAÇADES
  6
ByLayer
 62
  256
370
   -1
100
AcDbLine
 10
1885.402163945311
 20
2048.127417644755
 11
1917.636206719301
 21
2048.127417644755
  0
LWPOLYLINE
  5
4DA
100
AcDbEntity
  8
FAÇADES
  6
ByLayer
 62
  256
370
   -1
100
AcDbPolyline
 90
    2
 70
    0
 43
0
 10
1885.402163945311
 20
2048.127417644755
 10
1885.402163945311
 20
1948.127417644755
  0
LINE
  5
4DB
100
AcDbEntity
  8
FAÇADES
  6
ByLayer
 62
  256
370
   -1
100
AcDbLine
 10
1885.402163945311
 20
2048.127417644755
 11
1885.402163945311
 21
1948.127417644755
  0
LINE
  5
4DC
100
AcDbEntity
  8
FAÇADES
  6
ByLayer
 62
  256
370
   -1
100
AcDbLine
 10
1885.402163945311
 20
1948.127417644755
 11
1609.999999999995
 21
1948.127417644755
  0
LINE
  5
4DD
100
AcDbEntity
  8
FAÇADES
  6
ByLayer
 62
  256
370
   -1
100
AcDbLine
 10
1915
 20
2048.127417644755
 11
1609.999999999995
 21
2048.12741764476
  0
LINE
  5
4DE
100
AcDbEntity
  8
FAÇADES
  6
ByLayer
 62
  256
370
   -1
100
AcDbLine
 10
1915
 20
2068.127417644755
 11
1609.999999999995
 21
2068.12741764476
  0
LINE
  5
4DF
100
AcDbEntity
  8
FAÇADES
  6
ByLayer
 62
  256
370
   -1
100
AcDbLine
 10
1609.999999999995
 20
1948.127417644755
 11
1629.999999999995
 21
1948.127417644755
  0
LINE
  5
4E0
100
AcDbEntity
  8
FAÇADES
  6
ByLayer
 62
  256
370
   -1
100
AcDbLine
 10
1629.999999999995
 20
1948.127417644755
 11
1629.999999999995
 21
2267.332313708678
  0
LWPOLYLINE
  5
4E1
100
AcDbEntity
  8
FAÇADES
  6
ByLayer
 62
  256
370
   -1
100
AcDbPolyline
 90
    3
 70
    0
 43
0
 10
1915
 20
2068.127417644755
 10
1895
 20
2068.127417644755
 10
1895
 20
2267.332313708678
  0
LWPOLYLINE
  5
4E2
100
AcDbEntity
  8
FAÇADES
  6
ByLayer
 62
  256
370
   -1
100
AcDbPolyline
 90
    4
 70
    1
 43
0
 10
1609.999999999999
 20
2257.332313708675
 10
1609.999999999999
 20
1715.959299693959
 10
1915.402163945311
 20
1718.959299693959
 10
1915.402163945311
 20
2257.332313708675
  0
SPLINE
  5
4E3
100
AcDbEntity
  8
FAÇADES
  6
ByLayer
 62
  256
370
   -1
100
AcDbSpline
210
0
220
0
230
0
 70
    8
 71
    3
 72
   13
 73
    9
 74
    0
 42
1e-07
 43
1e-07
 40
0
 40
0
 40
0
 40
0
 40
332.4888750893887
 40
551.7251485930301
 40
904.3358375075052
 40
1799.474445068034
 40
2784.60237259779
 40
2786.60237259779
 40
2786.60237259779
 40
2786.60237259779
 40
2786.60237259779
 10
1086.941626724286
 20
2002.965452306089
 30
0
 10
1197.419935047093
 20
1994.147903078776
 30
0
 10
1424.821843063864
 20
1944.730839264103
 30
0
 10
1437.01585624678
 20
1571.517042979485
 30
0
 10
890.1337590772982
 20
1390.730538016267
 30
0
 10
193.4743124230463
 20
1455.432661355453
 30
0
 10
-470.992756184125
 20
1434.100059029504
 30
0
 10
-654.9427358823259
 20
1921.198834308127
 30
0
 10
-654.2766019098444
 20
1921.225479667025
 30
0
  0
LINE
  5
4E4
100
AcDbEntity
  8
FAÇADES
  6
ByLayer
 62
  256
370
   -1
100
AcDbLine
 10
49.98277760760175
 20
2219.041504293871
 11
59.98277760760175
 21
2219.041504293871
  0
LINE
  5
4E5
100
AcDbEntity
  8
FAÇADES
  6
ByLayer
 62
  256
370
   -1
100
AcDbLine
 10
49.98277760760175
 20
2219.041504293871
 11
59.98277760760175
 21
2219.041504293871
  0
LINE
  5
4E6
100
AcDbEntity
  8
FAÇADES
  6
ByLayer
 62
  256
370
   -1
100
AcDbLine
 10
-6.872010795692783e-13
 20
2219.041504293871
 11
9.999999999999313
 21
2219.041504293871
  0
LINE
  5
4E7
100
AcDbEntity
  8
FAÇADES
  6
ByLayer
 62
  256
370
   -1
100
AcDbLine
 10
-6.872010795692783e-13
 20
2219.041504293871
 11
-400.0000000000009
 21
2219.041504293871
  0
LINE
  5
4E8
100
AcDbEntity
  8
FAÇADES
  6
ByLayer
 62
  256
370
   -1
100
AcDbLine
 10
-350.0000000000007
 20
1988.959299693965
 11
-350.0000000000007
 21
2219.041504293871
  0
CIRCLE
  5
4E9
100
AcDbEntity
  8
FAÇADES
  6
ByLayer
 62
  256
370
   -1
100
AcDbCircle
 10
-6.872010795692783e-13
 20
2219.041504293871
 40
10
  0
LINE
  5
4EA
100
AcDbEntity
  8
FAÇADES
  6
ByLayer
 62
  256
370
   -1
100
AcDbLine
 10
-350
 20
790
 11
-350.0000000000007
 21
2219.041504293871
  0
LINE
  5
4EB
100
AcDbEntity
  8
FAÇADES
  6
ByLayer
 62
  256
370
   -1
100
AcDbLine
 10
234.9471879308748
 20
2003.959299693965
 11
-400
 21
2003.959299693963
  0
LINE
  5
4EC
100
AcDbEntity
  8
FAÇADES
  6
ByLayer
 62
  256
370
   -1
100
AcDbLine
 10
7.958078640513122e-13
 20
2579.172291616908
 11
-7.44722678332724e-13
 21
1988.959299693965
  0
LINE
  5
4ED
100
AcDbEntity
  8
FAÇADES
  6
ByLayer
 62
  256
370
   -1
100
AcDbLine
 10
789.9999999999945
 20
2003.959299693959
 11
-400
 21
2003.959299693963
  0
CIRCLE
  5
4EE
100
AcDbEntity
  8
FAÇADES
  6
ByLayer
 62
  256
370
   -1
100
AcDbCircle
 10
-400
 20
2003.959299693963
 40
7
  0
LINE
  5
4EF
100
AcDbEntity
  8
FAÇADES
  6
ByLayer
 62
  256
370
   -1
100
AcDbLine
 10
-400
 20
1996.959299693963
 11
789.9999999999945
 21
2003.959299693959
  0
LINE
  5
4F0
100
AcDbEntity
  8
terrasseBucher
  6
ByLayer
 62
  256
370
   -1
100
AcDbLine
 10
1646.339858104708
 20
774.337814617045
 11
1626.339858104708
 21
774.337814617045
  0
LINE
  5
4F1
100
AcDbEntity
  8
terrasseBucher
  6
ByLayer
 62
  256
370
   -1
100
AcDbLine
 10
1626.339858104708
 20
774.337814617045
 11
1626.339858104708
 21
894.337814617045
  0
LINE
  5
4F2
100
AcDbEntity
  8
terrasseBucher
  6
ByLayer
 62
  256
370
   -1
100
AcDbLine
 10
1626.339858104708
 20
894.337814617045
 11
1945
 21
894
  0
LINE
  5
4F3
100
AcDbEntity
  8
terrasseBucher
  6
ByLayer
 62
  256
370
   -1
100
AcDbLine
 10
1945
 20
894
 11
1945
 21
774
  0
DIMENSION
  5
4F4
100
AcDbEntity
  8
COTATION
  6
ByLayer
 62
  256
370
   -1
100
AcDbDimension
  2
*D4
 10
5.662452507390395e-15
 20
1132.474867224294
 30
0
 11
-75
 21
1144.474867224294
 31
0
 70
   32
 71
    5
 72
    0
  3
Standard
 53
0
210
0
220
0
230
1
100
AcDbAlignedDimension
 13
-150
 23
1040
 33
0
 14
0
 24
1040
 34
0
100
AcDbRotatedDimension
  0
DIMENSION
  5
4F5
100
AcDbEntity
  8
COTATION
  6
ByLayer
 62
  256
370
   -1
100
AcDbDimension
  2
*D5
 10
-419.5004177422286
 20
890
 30
0
 11
-431.5004177422286
 21
840
 31
0
 70
   32
 71
    5
 72
    0
  3
Standard
 53
0
210
0
220
0
230
1
100
AcDbAlignedDimension
 13
-150
 23
790
 33
0
 14
-150
 24
890
 34
0
 50
90
100
AcDbRotatedDimension
  0
DIMENSION
  5
4F6
100
AcDbEntity
  8
COTATION
  6
ByLayer
 62
  256
370
   -1
100
AcDbDimension
  2
*D6
 10
-420.3817211408468
 20
1040
 30
0
 11
-432.3817211408468
 21
965
 31
0
 70
   32
 71
    5
 72
    0
  3
Standard
 53
0
210
0
220
0
230
1
100
AcDbAlignedDimension
 13
-150
 23
890
 33
0
 14
-150
 24
1040
 34
0
 50
90
100
AcDbRotatedDimension
  0
DIMENSION
  5
4F7
100
AcDbEntity
  8
COTATION
  6
ByLayer
 62
  256
370
   -1
100
AcDbDimension
  2
*D7
 10
1235
 20
1006.088088761269
 30
0
 11
1005.000000000001
 21
1018.088088761269
 31
0
 70
   32
 71
    5
  3
Standard
 53
0
210
0
220
0
230
1
100
AcDbAlignedDimension
 13
775.0000000000011
 23
960
 33
0
 14
1235
 24
960
 34
0
100
AcDbRotatedDimension
  0
DIMENSION
  5
4F8
100
AcDbEntity
  8
COTATION
  6
ByLayer
 62
  256
370
   -1
100
AcDbDimension
  2
*D8
 10
1945
 20
1053.378468533098
 30
0
 11
1785.669929052354
 21
1065.378468533098
 31
0
 70
   32
 71
    5
  3
Standard
 53
0
210
0
220
0
230
1
100
AcDbAlignedDimension
 13
1626.339858104708
 23
894.337814617045
 33
0
 14
1945
 24
894
 34
0
100
AcDbRotatedDimension
  0
LWPOLYLINE
  5
4F9
100
AcDbEntity
  8
terrasseSéjour
  6
ByLayer
 62
  256
370
   -1
100
AcDbPolyline
 90
    4
 70
    1
 43
0
 10
-150
 20
890
 10
0
 20
890
 10
0
 20
1040
 10
-150
 20
1040
  0
LWPOLYLINE
  5
4FA
100
AcDbEntity
  8
terrasseSéjour
  6
ByLayer
 62
  256
370
   -1
100
AcDbPolyline
 90
    7
 70
    0
 43
0
 10
0
 20
0
 10
-350
 20
0
 10
-350
 20
790
 10
-150
 20
790
 10
-150
 20
1040
 10
0
 20
1040
 10
0
 20
0
  0
LINE
  5
4FB
100
AcDbEntity
  8
terrasseSéjour
  6
ByLayer
 62
  256
370
   -1
100
AcDbLine
 10
-150
 20
890
 11
0
 21
890
  0
LWPOLYLINE
  5
4FC
100
AcDbEntity
  8
terrasseSéjour
  6
ByLayer
 62
  256
370
   -1
100
AcDbPolyline
 90
    4
 70
    0
 43
0
 10
-43.18386653228824
 20
835.4756218899847
 10
-114.5694418203566
 20
835.4756218899847
 10
-96.06207044937588
 20
844.288655876166
 10
-96.94337384799401
 20
824.8999811065672
  0
LWPOLYLINE
  5
4FD
100
AcDbEntity
  8
terrasseSéjour
  6
ByLayer
 62
  256
370
   -1
100
AcDbPolyline
 90
    4
 70
    0
 43
0
 10
-72.26687868668644
 20
923.6059617517975
 10
-72.26687868668644
 20
1009.092391417756
 10
-78.43600247701333
 20
988.822413249539
 10
-65.21645149774143
 20
990.5850200467752
  0
DIMENSION
  5
4FE
100
AcDbEntity
  8
COTATION
  6
ByLayer
 62
  256
370
   30
100
AcDbDimension
  2
*D9
 10
-6.132775577597904e-15
 20
-100.1558258571823
 30
0
 11
-175
 21
-88.15582585718229
 31
0
 70
   32
 71
    5
  3
Standard
 53
0
210
0
220
0
230
1
100
AcDbAlignedDimension
 13
-350
 23
0
 33
0
 14
0
 24
0
 34
0
100
AcDbRotatedDimension
  0
DIMENSION
  5
4FF
100
AcDbEntity
  8
COTATION
  6
ByLayer
 62
  256
370
   30
100
AcDbDimension
  2
*D10
 10
1982.434822602869
 20
894
 30
0
 11
1970.434822602869
 21
834
 31
0
 70
   32
 71
    5
 72
    0
  3
Standard
 53
0
210
0
220
0
230
1
100
AcDbAlignedDimension
 13
1945
 23
774
 33
0
 14
1945
 24
894
 34
0
 50
90
100
AcDbRotatedDimension
  0
DIMENSION
  5
500
100
AcDbEntity
  8
COTATION
  6
ByLayer
 62
  256
370
   30
100
AcDbDimension
  2
*D11
 10
-420.6247601726681
 20
8.649038648600741e-15
 30
0
 11
-432.6247601726681
 21
395
 31
0
 70
   32
 71
    5
  3
Standard
 53
0
210
0
220
0
230
1
100
AcDbAlignedDimension
 13
-350
 23
790
 33
0
 14
-350
 24
0
 34
0
 50
90
100
AcDbRotatedDimension
  0
LWPOLYLINE
  5
501
100
AcDbEntity
  8
terrasseBuanderie
  6
ByLayer
 62
  256
370
   30
100
AcDbPolyline
 90
    9
 70
    0
 43
0
 10
775.0000000000011
 20
790
 10
775.0000000000011
 20
960
 10
1235
 20
960
 10
1235
 20
780
 10
1220
 20
780
 10
1220.000000000001
 20
710
 10
790.0000000000011
 20
710
 10
790.0000000000011
 20
790
 10
775.0000000000011
 20
790
  0
MTEXT
  5
502
100
AcDbEntity
  8
terrasseBuanderie
  6
ByLayer
 62
  256
370
   40
100
AcDbMText
 10
819.6970949505037
 20
849.2357290027742
 30
0
 40
30
 41
392.5000308572361
 71
    1
 72
    1
  1
Terrasse Buanderie
  7
standard
210
0
220
0
230
1
 50
0
 73
    2
 44
1
  0
MTEXT
  5
503
100
AcDbEntity
  8
terrasseBuanderie
  6
ByLayer
 62
  256
370
   40
100
AcDbMText
 10
912.692056320538
 20
785.4175677327198
 30
0
 40
30
 41
214.1666666666699
 71
    1
 72
    1
  1
pente 1,5%
  7
standard
210
0
220
0
230
1
 50
0
 73
    2
 44
1
  0
LWPOLYLINE
  5
504
100
AcDbEntity
  8
terrasseBuanderie
  6
ByLayer
 62
  256
370
   40
100
AcDbPolyline
 90
    4
 70
    0
 43
0
 10
1159.391386551615
 20
743.3889569821395
 10
1161.852939389304
 20
893.5436800811808
 10
1174.16070357775
 20
866.4665988665996
 10
1144.62206952548
 20
861.5434931912212
  0
LINE
  5
505
100
AcDbEntity
  8
COTATION
  6
ByLayer
 62
  256
370
   -1
100
AcDbLine
 10
1220
 20
80
 11
790.0000000000011
 21
80
  0
LINE
  5
506
100
AcDbEntity
  8
COTATION
  6
ByLayer
 62
  256
370
   -1
100
AcDbLine
 10
790.0000000000011
 20
-0
 11
0
 21
0
  0
LINE
  5
507
100
AcDbEntity
  8
0
  6
ByLayer
 62
  256
370
   -1
100
AcDbLine
 10
790.0000000000011
 20
80
 11
790.0000000000011
 21
-0
  0
LWPOLYLINE
  5
508
100
AcDbEntity
  8
terrasseBucher
  6
ByLayer
 62
  256
370
   40
100
AcDbPolyline
 90
    4
 70
    1
 43
0
 10
1655
 20
784
 10
1735
 20
784
 10
1735
 20
874
 10
1655
 20
874
  0
DIMENSION
  5
509
100
AcDbEntity
  8
COTATION
  6
ByLayer
 62
  256
370
   40
100
AcDbDimension
  2
*D12
 10
1735
 20
847.3749946682829
 30
0
 11
1695
 21
859.3749946682829
 31
0
 70
   32
 71
    5
 72
    0
  3
Standard
 53
0
210
0
220
0
230
1
100
AcDbAlignedDimension
 13
1655
 23
874
 33
0
 14
1735
 24
874
 34
0
100
AcDbRotatedDimension
  0
DIMENSION
  5
50A
100
AcDbEntity
  8
COTATION
  6
ByLayer
 62
  256
370
   40
100
AcDbDimension
  2
*D13
 10
1679.752201820313
 20
784
 30
0
 11
1667.752201820313
 21
829
 31
0
 70
   32
 71
    5
 72
    0
  3
Standard
 53
0
210
0
220
0
230
1
100
AcDbAlignedDimension
 13
1655
 23
874
 33
0
 14
1655
 24
784
 34
0
 50
90
100
AcDbRotatedDimension
  0
DIMENSION
  5
50B
100
AcDbEntity
  8
COTATION
  6
ByLayer
 62
  256
370
   40
100
AcDbDimension
  2
*D14
 10
735.0798550781972
 20
960
 30
0
 11
723.0798550781972
 21
835
 31
0
 70
   32
 71
    5
 72
    0
  3
Standard
 53
0
210
0
220
0
230
1
100
AcDbAlignedDimension
 13
790.0000000000011
 23
710
 33
0
 14
790.0000000000011
 24
960
 34
0
 50
90
100
AcDbRotatedDimension
  0
MTEXT
  5
50C
100
AcDbEntity
  8
terrasseSéjour
  6
ByLayer
 62
  256
370
   -1
100
AcDbMText
 10
53.13893891208014
 20
536.4348241576331
 30
0
 40
30
 41
583.3448242085398
 71
    1
 72
    1
  1
carrotage 1%%C 125\Ppercement 1 %%C 60\Psous dalle plafond sous sol.
  7
standard
210
0
220
0
230
1
 50
0
 73
    2
 44
1
  0
MTEXT
  5
50D
100
AcDbEntity
  8
terrasseSéjour
  6
ByLayer
 62
  256
370
   -1
100
AcDbMText
 10
-335.3007109905839
 20
373.7799937537757
 30
0
 40
30
 41
329.1666911638369
 71
    1
 72
    1
  1
Terrasse Séjour
  7
standard
210
0
220
0
230
1
 50
0
 73
    2
 44
1
  0
MTEXT
  5
50E
100
AcDbEntity
  8
terrasseSéjour
  6
ByLayer
 62
  256
370
   -1
100
AcDbMText
 10
-289.7169279696387
 20
298.3811653682395
 30
0
 40
30
 41
214.1666666666699
 71
    1
 72
    1
  1
pente 1,5%
  7
standard
210
0
220
0
230
1
 50
0
 73
    2
 44
1
  0
LWPOLYLINE
  5
50F
100
AcDbEntity
  8
terrasseSéjour
  6
ByLayer
 62
  256
370
   -1
100
AcDbPolyline
 90
    4
 70
    0
 43
0
 10
-103.3852191829465
 20
195.5000587778304
 10
-312.6172103865288
 20
193.0385059401412
 10
-270.7708121458124
 20
180.7307417516952
 10
-263.3861536327448
 20
210.2693758039656
  0
LINE
  5
510
100
AcDbEntity
  8
terrasseSéjour
  6
DASHED2
 62
  256
370
   -1
100
AcDbLine
 10
32.6703837882951
 20
438.0513070657935
 11
-336.0893180556986
 21
449.9329232204034
  0
LINE
  5
511
100
AcDbEntity
  8
terrasseSéjour
  6
DASHED2
 62
  256
370
   -1
100
AcDbLine
 10
32.34834606599897
 20
428.0564938256464
 11
-336.4113557779947
 21
439.9381099802564
  0
MTEXT
  5
512
100
AcDbEntity
  8
terrasseSéjour
  6
ByLayer
 62
  256
370
   -1
100
AcDbMText
 10
-259.3098227477857
 20
532.4758955660639
 30
0
 40
30
 41
128.3333333333352
 71
    1
 72
    1
  1
 1%%C 125\P 1 %%C 60\P
  7
standard
210
0
220
0
230
1
 50
0
 73
    2
 44
1
  0
ENDSEC
  0
SECTION
  2
OBJECTS
  0
DICTIONARY
  5
C
330
0
100
AcDbDictionary
281
    1
  3
ACAD_GROUP
350
D
  0
DICTIONARY
  5
D
330
C
100
AcDbDictionary
281
    1
  0
ENDSEC
  0
EOF
