999
dxfrw 0.6.3
  0
SECTION
  2
HEADER
  9
$ACADVER
  1
AC1021
  9
$DWGCODEPAGE
  3
ANSI_1252
  9
$INSBASE
 10
0
 20
0
 30
0
  9
$EXTMIN
 10
-64.13219443818376
 20
-181.25
 30
0
  9
$EXTMAX
 10
201.25
 20
23.125
 30
0
  9
$LIMMIN
 10
0
 20
0
  9
$LIMMAX
 10
420
 20
297
  9
$ORTHOMODE
 70
    0
  9
$REGENMODE
 70
    1
  9
$FILLMODE
 70
    1
  9
$QTEXTMODE
 70
    0
  9
$MIRRTEXT
 70
    0
  9
$LTSCALE
 40
1
  9
$ATTMODE
 70
    0
  9
$TEXTSIZE
 40
2.5
  9
$TRACEWID
 40
15.68
  9
$TEXTSTYLE
  7
STANDARD
  9
$CLAYER
  8
0
  9
$CELTYPE
  6
BYLAYER
  9
$CECOLOR
 62
  256
  9
$CELTSCALE
 40
1
  9
$DISPSILH
 70
    0
  9
$DIMSCALE
 40
1
  9
$DIMASZ
 40
2.5
  9
$DIMEXO
 40
0.625
  9
$DIMDLI
 40
3.75
  9
$DIMRND
 40
0
  9
$DIMDLE
 40
0
  9
$DIMEXE
 40
1.25
  9
$DIMTP
 40
0
  9
$DIMTM
 40
0
  9
$DIMTXT
 40
2.5
  9
$DIMCEN
 40
2.5
  9
$DIMTSZ
 40
0
  9
$DIMTOL
 70
    0
  9
$DIMLIM
 70
    0
  9
$DIMTIH
 70
    0
  9
$DIMTOH
 70
    0
  9
$DIMSE1
 70
    0
  9
$DIMSE2
 70
    0
  9
$DIMTAD
 70
    1
  9
$DIMZIN
 70
    1
  9
$DIMBLK
  1

  9
$DIMASO
 70
    1
  9
$DIMSHO
 70
    1
  9
$DIMPOST
  1

  9
$DIMAPOST
  1

  9
$DIMALT
 70
    0
  9
$DIMALTD
 70
    3
  9
$DIMALTF
 40
0.03937
  9
$DIMLFAC
 40
1
  9
$DIMTOFL
 70
    1
  9
$DIMTVP
 40
0
  9
$DIMTIX
 70
    0
  9
$DIMSOXD
 70
    0
  9
$DIMSAH
 70
    0
  9
$DIMBLK1
  1

  9
$DIMBLK2
  1

  9
$DIMSTYLE
  2
STANDARD
  9
$DIMCLRD
 70
    0
  9
$DIMCLRE
 70
    0
  9
$DIMCLRT
 70
    0
  9
$DIMTFAC
 40
1
  9
$DIMGAP
 40
0.625
  9
$DIMJUST
 70
    0
  9
$DIMSD1
 70
    0
  9
$DIMSD2
 70
    0
  9
$DIMTOLJ
 70
    0
  9
$DIMTZIN
 70
    8
  9
$DIMALTZ
 70
    0
  9
$DIMALTTZ
 70
    0
  9
$DIMUPT
 70
    0
  9
$DIMDEC
 70
    4
  9
$DIMTDEC
 70
    2
  9
$DIMALTU
 70
    2
  9
$DIMALTTD
 70
    3
  9
$DIMTXSTY
  7
standard
  9
$DIMAUNIT
 70
    0
  9
$DIMADEC
 70
    2
  9
$DIMALTRND
 40
0
  9
$DIMAZIN
 70
    0
  9
$DIMDSEP
 70
    0
  9
$DIMATFIT
 70
    3
  9
$DIMFRAC
 70
    0
  9
$DIMLDRBLK
  1
STANDARD
  9
$DIMLUNIT
 70
    2
  9
$DIMLWD
 70
   20
  9
$DIMLWE
 70
   -2
  9
$DIMTMOVE
 70
    0
  9
$DIMFXL
 40
1
  9
$DIMFXLON
 70
    0
  9
$DIMJOGANG
 40
0.7854
  9
$DIMTFILL
 70
    0
  9
$DIMTFILLCLR
 70
    0
  9
$DIMARCSYM
 70
    0
  9
$DIMLTYPE
  6

  9
$DIMLTEX1
  6

  9
$DIMLTEX2
  6

  9
$LUNITS
 70
    2
  9
$LUPREC
 70
    0
  9
$SKETCHINC
 40
1
  9
$FILLETRAD
 40
0
  9
$AUNITS
 70
    0
  9
$AUPREC
 70
    2
  9
$MENU
  1
.
  9
$ELEVATION
 40
0
  9
$PELEVATION
 40
0
  9
$THICKNESS
 40
0
  9
$LIMCHECK
 70
    0
  9
$CHAMFERA
 40
0
  9
$CHAMFERB
 40
0
  9
$CHAMFERC
 40
0
  9
$CHAMFERD
 40
0
  9
$SKPOLY
 70
    0
  9
$USRTIMER
 70
    1
  9
$ANGBASE
 50
0
  9
$ANGDIR
 70
    0
  9
$PDMODE
 70
   34
  9
$PDSIZE
 40
0
  9
$PLINEWID
 40
0
  9
$SPLFRAME
 70
    0
  9
$SPLINETYPE
 70
    2
  9
$SPLINESEGS
 70
    8
  9
$HANDSEED
  5
20000
  9
$SURFTAB1
 70
    6
  9
$SURFTAB2
 70
    6
  9
$SURFTYPE
 70
    6
  9
$SURFU
 70
    6
  9
$SURFV
 70
    6
  9
$UCSBASE
  2

  9
$UCSNAME
  2

  9
$UCSORG
 10
0
 20
0
 30
0
  9
$UCSXDIR
 10
1
 20
0
 30
0
  9
$UCSYDIR
 10
0
 20
1
 30
0
  9
$UCSORTHOREF
  2

  9
$UCSORTHOVIEW
 70
    0
  9
$UCSORGTOP
 10
0
 20
0
 30
0
  9
$UCSORGBOTTOM
 10
0
 20
0
 30
0
  9
$UCSORGLEFT
 10
0
 20
0
 30
0
  9
$UCSORGRIGHT
 10
0
 20
0
 30
0
  9
$UCSORGFRONT
 10
0
 20
0
 30
0
  9
$UCSORGBACK
 10
0
 20
0
 30
0
  9
$PUCSBASE
  2

  9
$PUCSNAME
  2

  9
$PUCSORG
 10
0
 20
0
 30
0
  9
$PUCSXDIR
 10
1
 20
0
 30
0
  9
$PUCSYDIR
 10
0
 20
1
 30
0
  9
$PUCSORTHOREF
  2

  9
$PUCSORTHOVIEW
 70
    0
  9
$PUCSORGTOP
 10
0
 20
0
 30
0
  9
$PUCSORGBOTTOM
 10
0
 20
0
 30
0
  9
$PUCSORGLEFT
 10
0
 20
0
 30
0
  9
$PUCSORGRIGHT
 10
0
 20
0
 30
0
  9
$PUCSORGFRONT
 10
0
 20
0
 30
0
  9
$PUCSORGBACK
 10
0
 20
0
 30
0
  9
$USERI1
 70
    0
  9
$USERI2
 70
    0
  9
$USERI3
 70
    0
  9
$USERI4
 70
    0
  9
$USERI5
 70
    0
  9
$USERR1
 40
0
  9
$USERR2
 40
0
  9
$USERR3
 40
0
  9
$USERR4
 40
0
  9
$USERR5
 40
0
  9
$WORLDVIEW
 70
    1
  9
$SHADEDGE
 70
    3
  9
$SHADEDIF
 70
   70
  9
$TILEMODE
 70
    1
  9
$MAXACTVP
 70
   64
  9
$PINSBASE
 10
86.44056506682323
 20
176.5672782874618
 30
0
  9
$PLIMCHECK
 70
    0
  9
$PEXTMIN
 10
0
 20
0
 30
0
  9
$PEXTMAX
 10
0
 20
0
 30
0
  9
$GRIDMODE
 70
    1
  9
$SNAPSTYLE
 70
    0
  9
$GRIDUNIT
 10
0
 20
0
  9
$PLIMMIN
 10
0
 20
0
  9
$PLIMMAX
 10
297
 20
210
  9
$UNITMODE
 70
    0
  9
$VISRETAIN
 70
    1
  9
$PLINEGEN
 70
    0
  9
$PSLTSCALE
 70
    1
  9
$TREEDEPTH
 70
 3020
  9
$CMLSTYLE
  2
Standard
  9
$CMLJUST
 70
    0
  9
$CMLSCALE
 40
20
  9
$PROXYGRAPHICS
 70
    1
  9
$MEASUREMENT
 70
    1
  9
$CELWEIGHT
370
   -1
  9
$ENDCAPS
280
    0
  9
$JOINSTYLE
280
    0
  9
$LWDISPLAY
290
    0
  9
$INSUNITS
 70
    4
  9
$HYPERLINKBASE
  1

  9
$STYLESHEET
  1

  9
$XEDIT
290
    1
  9
$CEPSNTYPE
380
    0
  9
$PSTYLEMODE
290
    1
  9
$EXTNAMES
290
    1
  9
$PSVPSCALE
 40
1
  9
$OLESTARTUP
290
    0
  9
$SORTENTS
280
  127
  9
$INDEXCTL
280
    0
  9
$HIDETEXT
280
    1
  9
$XCLIPFRAME
290
    0
  9
$HALOGAP
280
    0
  9
$OBSCOLOR
 70
  257
  9
$OBSLTYPE
280
    0
  9
$INTERSECTIONDISPLAY
280
    0
  9
$INTERSECTIONCOLOR
 70
  257
  9
$DIMASSOC
280
    1
  9
$PROJECTNAME
  1

  9
$CAMERADISPLAY
290
    0
  9
$LENSLENGTH
 40
50
  9
$CAMERAHEIGHT
 40
0
  9
$STEPSPERSEC
 40
2
  9
$STEPSIZE
 40
50
  9
$3DDWFPREC
 40
2
  9
$PSOLWIDTH
 40
5
  9
$PSOLHEIGHT
 40
80
  9
$LOFTANG1
 40
1.570796326794897
  9
$LOFTANG2
 40
1.570796326794897
  9
$LOFTMAG1
 40
0
  9
$LOFTMAG2
 40
0
  9
$LOFTPARAM
 70
    7
  9
$LOFTNORMALS
280
    1
  9
$LATITUDE
 40
1
  9
$LONGITUDE
 40
1
  9
$NORTHDIRECTION
 40
0
  9
$TIMEZONE
 70
-8000
  9
$LIGHTGLYPHDISPLAY
280
    1
  9
$TILEMODELIGHTSYNCH
280
    1
  9
$SOLIDHIST
280
    1
  9
$SHOWHIST
280
    1
  9
$DWFFRAME
280
    2
  9
$DGNFRAME
280
    0
  9
$REALWORLDSCALE
290
    1
  9
$INTERFERECOLOR
 62
    1
  9
$CSHADOW
280
    0
  9
$SHADOWPLANELOCATION
 40
0
  0
ENDSEC
  0
SECTION
  2
CLASSES
  0
ENDSEC
  0
SECTION
  2
TABLES
  0
TABLE
  2
VPORT
  5
8
330
0
100
AcDbSymbolTable
 70
    1
  0
VPORT
  5
31
330
2
100
AcDbSymbolTableRecord
100
AcDbViewportTableRecord
  2
*ACTIVE
 70
    0
 10
0
 20
0
 11
1
 21
1
 12
249.2825865752836
 22
20.24984596830035
 13
0
 23
0
 14
10
 24
10
 15
10
 25
10
 16
0
 26
0
 36
1
 17
0
 27
0
 37
0
 40
402.2038371634828
 41
1.819444444444444
 42
50
 43
0
 44
0
 50
0
 51
0
 71
    0
 72
  100
 73
    1
 74
    3
 75
    0
 76
    1
 77
    0
 78
    0
281
    0
 65
    1
110
0
120
0
130
0
111
1
121
0
131
0
112
0
122
1
132
0
 79
    0
146
0
348
10020
 60
    7
 61
    5
292
1
282
    1
141
0
142
0
 63
  250
421
3358443
  0
ENDTAB
  0
TABLE
  2
LTYPE
  5
5
330
0
100
AcDbSymbolTable
 70
    4
  0
LTYPE
  5
14
330
5
100
AcDbSymbolTableRecord
100
AcDbLinetypeTableRecord
  2
ByBlock
 70
    0
  3

 72
   65
 73
    0
 40
0
  0
LTYPE
  5
15
330
5
100
AcDbSymbolTableRecord
100
AcDbLinetypeTableRecord
  2
ByLayer
 70
    0
  3

 72
   65
 73
    0
 40
0
  0
LTYPE
  5
16
330
5
100
AcDbSymbolTableRecord
100
AcDbLinetypeTableRecord
  2
Continuous
 70
    0
  3
Solid line
 72
   65
 73
    0
 40
0
  0
LTYPE
  5
32
330
5
100
AcDbSymbolTableRecord
100
AcDbLinetypeTableRecord
  2
DOT
 70
    0
  3
Dot . . . . . . . . . . . . . . . . . . . . . .
 72
   65
 73
    2
 40
6.35
 49
0
 74
    0
 49
-6.35
 74
    0
  0
LTYPE
  5
33
330
5
100
AcDbSymbolTableRecord
100
AcDbLinetypeTableRecord
  2
DOTTINY
 70
    0
  3
Dot (.15x) .....................................
 72
   65
 73
    2
 40
0.9525
 49
0
 74
    0
 49
-0.9525
 74
    0
  0
LTYPE
  5
34
330
5
100
AcDbSymbolTableRecord
100
AcDbLinetypeTableRecord
  2
DOT2
 70
    0
  3
Dot (.5x) .....................................
 72
   65
 73
    2
 40
3.175
 49
0
 74
    0
 49
-3.175
 74
    0
  0
LTYPE
  5
35
330
5
100
AcDbSymbolTableRecord
100
AcDbLinetypeTableRecord
  2
DOTX2
 70
    0
  3
Dot (2x) .  .  .  .  .  .  .  .  .  .  .  .  .
 72
   65
 73
    2
 40
12.7
 49
0
 74
    0
 49
-12.7
 74
    0
  0
LTYPE
  5
36
330
5
100
AcDbSymbolTableRecord
100
AcDbLinetypeTableRecord
  2
DASHED
 70
    0
  3
Dashed _ _ _ _ _ _ _ _ _ _ _ _ _ _ _ _ _
 72
   65
 73
    2
 40
19.05
 49
12.7
 74
    0
 49
-6.35
 74
    0
  0
LTYPE
  5
37
330
5
100
AcDbSymbolTableRecord
100
AcDbLinetypeTableRecord
  2
DASHEDTINY
 70
    0
  3
Dashed (.15x) _ _ _ _ _ _ _ _ _ _ _ _ _ _ _ _ _
 72
   65
 73
    2
 40
2.8575
 49
1.905
 74
    0
 49
-0.9525
 74
    0
  0
LTYPE
  5
38
330
5
100
AcDbSymbolTableRecord
100
AcDbLinetypeTableRecord
  2
DASHED2
 70
    0
  3
Dashed (.5x) _ _ _ _ _ _ _ _ _ _ _ _ _ _ _ _ _
 72
   65
 73
    2
 40
9.524999999999999
 49
6.35
 74
    0
 49
-3.175
 74
    0
  0
LTYPE
  5
39
330
5
100
AcDbSymbolTableRecord
100
AcDbLinetypeTableRecord
  2
DASHEDX2
 70
    0
  3
Dashed (2x) ____  ____  ____  ____  ____  ___
 72
   65
 73
    2
 40
38.09999999999999
 49
25.4
 74
    0
 49
-12.7
 74
    0
  0
LTYPE
  5
3A
330
5
100
AcDbSymbolTableRecord
100
AcDbLinetypeTableRecord
  2
DASHDOT
 70
    0
  3
Dash dot __ . __ . __ . __ . __ . __ . __ . __
 72
   65
 73
    4
 40
25.4
 49
12.7
 74
    0
 49
-6.35
 74
    0
 49
0
 74
    0
 49
-6.35
 74
    0
  0
LTYPE
  5
3B
330
5
100
AcDbSymbolTableRecord
100
AcDbLinetypeTableRecord
  2
DASHDOTTINY
 70
    0
  3
Dash dot (.15x) _._._._._._._._._._._._._._._.
 72
   65
 73
    4
 40
3.81
 49
1.905
 74
    0
 49
-0.9525
 74
    0
 49
0
 74
    0
 49
-0.9525
 74
    0
  0
LTYPE
  5
3C
330
5
100
AcDbSymbolTableRecord
100
AcDbLinetypeTableRecord
  2
DASHDOT2
 70
    0
  3
Dash dot (.5x) _._._._._._._._._._._._._._._.
 72
   65
 73
    4
 40
12.7
 49
6.35
 74
    0
 49
-3.175
 74
    0
 49
0
 74
    0
 49
-3.175
 74
    0
  0
LTYPE
  5
3D
330
5
100
AcDbSymbolTableRecord
100
AcDbLinetypeTableRecord
  2
DASHDOTX2
 70
    0
  3
Dash dot (2x) ____  .  ____  .  ____  .  ___
 72
   65
 73
    4
 40
50.8
 49
25.4
 74
    0
 49
-12.7
 74
    0
 49
0
 74
    0
 49
-12.7
 74
    0
  0
LTYPE
  5
3E
330
5
100
AcDbSymbolTableRecord
100
AcDbLinetypeTableRecord
  2
DIVIDE
 70
    0
  3
Divide ____ . . ____ . . ____ . . ____ . . ____
 72
   65
 73
    6
 40
31.75
 49
12.7
 74
    0
 49
-6.35
 74
    0
 49
0
 74
    0
 49
-6.35
 74
    0
 49
0
 74
    0
 49
-6.35
 74
    0
  0
LTYPE
  5
3F
330
5
100
AcDbSymbolTableRecord
100
AcDbLinetypeTableRecord
  2
DIVIDETINY
 70
    0
  3
Divide (.15x) __..__..__..__..__..__..__..__.._
 72
   65
 73
    6
 40
4.7625
 49
1.905
 74
    0
 49
-0.9525
 74
    0
 49
0
 74
    0
 49
-0.9525
 74
    0
 49
0
 74
    0
 49
-0.9525
 74
    0
  0
LTYPE
  5
40
330
5
100
AcDbSymbolTableRecord
100
AcDbLinetypeTableRecord
  2
DIVIDE2
 70
    0
  3
Divide (.5x) __..__..__..__..__..__..__..__.._
 72
   65
 73
    6
 40
15.875
 49
6.35
 74
    0
 49
-3.175
 74
    0
 49
0
 74
    0
 49
-3.175
 74
    0
 49
0
 74
    0
 49
-3.175
 74
    0
  0
LTYPE
  5
41
330
5
100
AcDbSymbolTableRecord
100
AcDbLinetypeTableRecord
  2
DIVIDEX2
 70
    0
  3
Divide (2x) ________  .  .  ________  .  .  _
 72
   65
 73
    6
 40
63.5
 49
25.4
 74
    0
 49
-12.7
 74
    0
 49
0
 74
    0
 49
-12.7
 74
    0
 49
0
 74
    0
 49
-12.7
 74
    0
  0
LTYPE
  5
42
330
5
100
AcDbSymbolTableRecord
100
AcDbLinetypeTableRecord
  2
BORDER
 70
    0
  3
Border __ __ . __ __ . __ __ . __ __ . __ __ .
 72
   65
 73
    6
 40
44.45
 49
12.7
 74
    0
 49
-6.35
 74
    0
 49
12.7
 74
    0
 49
-6.35
 74
    0
 49
0
 74
    0
 49
-6.35
 74
    0
  0
LTYPE
  5
43
330
5
100
AcDbSymbolTableRecord
100
AcDbLinetypeTableRecord
  2
BORDERTINY
 70
    0
  3
Border (.15x) __.__.__.__.__.__.__.__.__.__.__.
 72
   65
 73
    6
 40
6.6675
 49
1.905
 74
    0
 49
-0.9525
 74
    0
 49
1.905
 74
    0
 49
-0.9525
 74
    0
 49
0
 74
    0
 49
-0.9525
 74
    0
  0
LTYPE
  5
44
330
5
100
AcDbSymbolTableRecord
100
AcDbLinetypeTableRecord
  2
BORDER2
 70
    0
  3
Border (.5x) __.__.__.__.__.__.__.__.__.__.__.
 72
   65
 73
    6
 40
22.225
 49
6.35
 74
    0
 49
-3.175
 74
    0
 49
6.35
 74
    0
 49
-3.175
 74
    0
 49
0
 74
    0
 49
-3.175
 74
    0
  0
LTYPE
  5
45
330
5
100
AcDbSymbolTableRecord
100
AcDbLinetypeTableRecord
  2
BORDERX2
 70
    0
  3
Border (2x) ____  ____  .  ____  ____  .  ___
 72
   65
 73
    6
 40
88.89999999999999
 49
25.4
 74
    0
 49
-12.7
 74
    0
 49
25.4
 74
    0
 49
-12.7
 74
    0
 49
0
 74
    0
 49
-12.7
 74
    0
  0
LTYPE
  5
46
330
5
100
AcDbSymbolTableRecord
100
AcDbLinetypeTableRecord
  2
CENTER
 70
    0
  3
Center ____ _ ____ _ ____ _ ____ _ ____ _ ____
 72
   65
 73
    4
 40
50.8
 49
31.75
 74
    0
 49
-6.35
 74
    0
 49
6.35
 74
    0
 49
-6.35
 74
    0
  0
LTYPE
  5
47
330
5
100
AcDbSymbolTableRecord
100
AcDbLinetypeTableRecord
  2
CENTERTINY
 70
    0
  3
Center (.15x) ___ _ ___ _ ___ _ ___ _ ___ _ ___
 72
   65
 73
    4
 40
7.62
 49
4.7625
 74
    0
 49
-0.9525
 74
    0
 49
0.9525
 74
    0
 49
-0.9525
 74
    0
  0
LTYPE
  5
48
330
5
100
AcDbSymbolTableRecord
100
AcDbLinetypeTableRecord
  2
CENTER2
 70
    0
  3
Center (.5x) ___ _ ___ _ ___ _ ___ _ ___ _ ___
 72
   65
 73
    4
 40
28.575
 49
19.05
 74
    0
 49
-3.175
 74
    0
 49
3.175
 74
    0
 49
-3.175
 74
    0
  0
LTYPE
  5
49
330
5
100
AcDbSymbolTableRecord
100
AcDbLinetypeTableRecord
  2
CENTERX2
 70
    0
  3
Center (2x) ________  __  ________  __  _____
 72
   65
 73
    4
 40
101.6
 49
63.5
 74
    0
 49
-12.7
 74
    0
 49
12.7
 74
    0
 49
-12.7
 74
    0
  0
ENDTAB
  0
TABLE
  2
LAYER
  5
2
330
0
100
AcDbSymbolTable
 70
    1
  0
LAYER
  5
10
330
2
100
AcDbSymbolTableRecord
100
AcDbLayerTableRecord
  2
0
 70
    0
 62
    7
  6
CONTINUOUS
370
    0
390
F
  0
ENDTAB
  0
TABLE
  2
STYLE
  5
3
330
0
100
AcDbSymbolTable
 70
    3
  0
STYLE
  5
4A
330
2
100
AcDbSymbolTableRecord
100
AcDbTextStyleTableRecord
  2
standard
 70
    0
 40
0
 41
1
 50
0
 71
    0
 42
1
  3
standard
  4

  0
ENDTAB
  0
TABLE
  2
VIEW
  5
6
330
0
100
AcDbSymbolTable
 70
    0
  0
ENDTAB
  0
TABLE
  2
UCS
  5
7
330
0
100
AcDbSymbolTable
 70
    0
  0
ENDTAB
  0
TABLE
  2
APPID
  5
9
330
0
100
AcDbSymbolTable
 70
    1
  0
APPID
  5
12
330
9
100
AcDbSymbolTableRecord
100
AcDbRegAppTableRecord
  2
ACAD
 70
    0
  0
APPID
  5
4B
330
9
100
AcDbSymbolTableRecord
100
AcDbRegAppTableRecord
  2
LibreCad
 70
    0
  0
ENDTAB
  0
TABLE
  2
DIMSTYLE
  5
A
330
0
100
AcDbSymbolTable
 70
    1
100
AcDbDimStyleTable
 71
    1
  0
DIMSTYLE
105
4C
330
A
100
AcDbSymbolTableRecord
100
AcDbDimStyleTableRecord
  2
Standard
 70
    0
 40
1
 41
2.5
 42
0.625
 43
0.38
 44
1.25
 45
0
 46
0
 47
0
 48
0
 49
1
140
2.5
141
0.09
142
0
143
25.4
144
1
145
0
146
1
147
0.625
148
0
 71
    0
 72
    0
 73
    0
 74
    1
 75
    0
 76
    0
 77
    0
 78
    1
 79
    0
170
    0
171
    2
172
    0
173
    0
174
    0
175
    0
176
    0
177
    0
178
    0
179
    2
271
    4
272
    4
273
    2
274
    2
275
    0
276
    0
277
    2
278
    0
279
    0
280
    0
281
    0
282
    0
283
    1
284
    0
285
    0
286
    0
288
    0
289
    3
340
standard
341

371
   20
372
   -2
  0
ENDTAB
  0
TABLE
  2
BLOCK_RECORD
  5
1
330
0
100
AcDbSymbolTable
 70
    2
  0
BLOCK_RECORD
  5
1F
330
1
100
AcDbSymbolTableRecord
100
AcDbBlockTableRecord
  2
*Model_Space
 70
    0
280
    1
281
    0
  0
BLOCK_RECORD
  5
1E
330
1
100
AcDbSymbolTableRecord
100
AcDbBlockTableRecord
  2
*Paper_Space
 70
    0
280
    1
281
    0
  0
BLOCK_RECORD
  5
4D
330
1
100
AcDbSymbolTableRecord
100
AcDbBlockTableRecord
  2
*D8
 70
    0
280
    1
281
    0
  0
BLOCK_RECORD
  5
50
330
1
100
AcDbSymbolTableRecord
100
AcDbBlockTableRecord
  2
*D11
 70
    0
280
    1
281
    0
  0
BLOCK_RECORD
  5
53
330
1
100
AcDbSymbolTableRecord
100
AcDbBlockTableRecord
  2
*D19
 70
    0
280
    1
281
    0
  0
BLOCK_RECORD
  5
56
330
1
100
AcDbSymbolTableRecord
100
AcDbBlockTableRecord
  2
*D5
 70
    0
280
    1
281
    0
  0
BLOCK_RECORD
  5
59
330
1
100
AcDbSymbolTableRecord
100
AcDbBlockTableRecord
  2
*D6
 70
    0
280
    1
281
    0
  0
BLOCK_RECORD
  5
5C
330
1
100
AcDbSymbolTableRecord
100
AcDbBlockTableRecord
  2
*D12
 70
    0
280
    1
281
    0
  0
BLOCK_RECORD
  5
5F
330
1
100
AcDbSymbolTableRecord
100
AcDbBlockTableRecord
  2
*D13
 70
    0
280
    1
281
    0
  0
BLOCK_RECORD
  5
62
330
1
100
AcDbSymbolTableRecord
100
AcDbBlockTableRecord
  2
*D3
 70
    0
280
    1
281
    0
  0
BLOCK_RECORD
  5
65
330
1
100
AcDbSymbolTableRecord
100
AcDbBlockTableRecord
  2
*D15
 70
    0
280
    1
281
    0
  0
BLOCK_RECORD
  5
68
330
1
100
AcDbSymbolTableRecord
100
AcDbBlockTableRecord
  2
*D7
 70
    0
280
    1
281
    0
  0
BLOCK_RECORD
  5
6B
330
1
100
AcDbSymbolTableRecord
100
AcDbBlockTableRecord
  2
*D2
 70
    0
280
    1
281
    0
  0
BLOCK_RECORD
  5
6E
330
1
100
AcDbSymbolTableRecord
100
AcDbBlockTableRecord
  2
*D17
 70
    0
280
    1
281
    0
  0
BLOCK_RECORD
  5
71
330
1
100
AcDbSymbolTableRecord
100
AcDbBlockTableRecord
  2
*D4
 70
    0
280
    1
281
    0
  0
BLOCK_RECORD
  5
74
330
1
100
AcDbSymbolTableRecord
100
AcDbBlockTableRecord
  2
*D9
 70
    0
280
    1
281
    0
  0
BLOCK_RECORD
  5
77
330
1
100
AcDbSymbolTableRecord
100
AcDbBlockTableRecord
  2
*D10
 70
    0
280
    1
281
    0
  0
BLOCK_RECORD
  5
7A
330
1
100
AcDbSymbolTableRecord
100
AcDbBlockTableRecord
  2
*D14
 70
    0
280
    1
281
    0
  0
BLOCK_RECORD
  5
7D
330
1
100
AcDbSymbolTableRecord
100
AcDbBlockTableRecord
  2
*D18
 70
    0
280
    1
281
    0
  0
BLOCK_RECORD
  5
80
330
1
100
AcDbSymbolTableRecord
100
AcDbBlockTableRecord
  2
*D1
 70
    0
280
    1
281
    0
  0
BLOCK_RECORD
  5
83
330
1
100
AcDbSymbolTableRecord
100
AcDbBlockTableRecord
  2
*D16
 70
    0
280
    1
281
    0
  0
BLOCK_RECORD
  5
86
330
1
100
AcDbSymbolTableRecord
100
AcDbBlockTableRecord
  2
*D20
 70
    0
280
    1
281
    0
  0
ENDTAB
  0
ENDSEC
  0
SECTION
  2
BLOCKS
  0
BLOCK
  5
20
330
1F
100
AcDbEntity
  8
0
100
AcDbBlockBegin
  2
*Model_Space
 70
    0
 10
0
 20
0
 30
0
  3
*Model_Space
  1

  0
ENDBLK
  5
21
330
1F
100
AcDbEntity
  8
0
100
AcDbBlockEnd
  0
BLOCK
  5
1C
330
1B
100
AcDbEntity
  8
0
100
AcDbBlockBegin
  2
*Paper_Space
 70
    0
 10
0
 20
0
 30
0
  3
*Paper_Space
  1

  0
ENDBLK
  5
1D
330
1F
100
AcDbEntity
  8
0
100
AcDbBlockEnd
  0
BLOCK
  5
4E
330
4D
100
AcDbEntity
  8
0
100
AcDbBlockBegin
  2
*D8
 70
    1
 10
0
 20
0
  3
*D8
  1

  0
LINE
  5
89
100
AcDbEntity
  8
0
  6
ByBlock
 62
    0
370
   20
100
AcDbLine
 10
0
 20
-70
 11
48.4
 21
-70
  0
SOLID
  5
8A
100
AcDbEntity
  8
0
  6
ByBlock
 62
    0
370
   20
100
AcDbTrace
 10
0
 20
-70
 30
0
 11
2.5
 21
-69.58371534222717
 31
0
 12
2.5
 22
-70.41628465777283
 32
0
 13
2.5
 23
-70.41628465777283
 33
0
  0
SOLID
  5
8B
100
AcDbEntity
  8
0
  6
ByBlock
 62
    0
370
   20
100
AcDbTrace
 10
48.4
 20
-70
 30
0
 11
45.9
 21
-70.41628465777283
 31
0
 12
45.9
 22
-69.58371534222717
 32
0
 13
45.9
 23
-69.58371534222717
 33
0
  0
MTEXT
  5
8C
100
AcDbEntity
  8
0
  6
CONTINUOUS
 62
    0
370
   -2
100
AcDbMText
 10
24.2
 20
-68.125
 30
0
 40
2.5
 41
12.22222222222222
 71
    5
 72
    1
  1
48.4000
  7
standard
210
0
220
0
230
1
 50
0
 73
    2
 44
1
  0
LINE
  5
8D
100
AcDbEntity
  8
0
  6
ByBlock
 62
    0
370
   -2
100
AcDbLine
 10
1.072377592541834e-016
 20
-61.825
 11
-2.296136913416957e-016
 21
-71.25
  0
LINE
  5
8E
100
AcDbEntity
  8
0
  6
ByBlock
 62
    0
370
   -2
100
AcDbLine
 10
48.4
 20
-61.825
 11
48.4
 21
-71.25
  0
ENDBLK
  5
4F
330
4D
100
AcDbEntity
  8
0
100
AcDbBlockEnd
  0
BLOCK
  5
51
330
50
100
AcDbEntity
  8
0
100
AcDbBlockBegin
  2
*D11
 70
    1
 10
0
 20
0
  3
*D11
  1

  0
LINE
  5
8F
100
AcDbEntity
  8
0
  6
ByBlock
 62
    0
370
   20
100
AcDbLine
 10
140
 20
-73.2
 11
140
 21
-86.00000000000001
  0
SOLID
  5
90
100
AcDbEntity
  8
0
  6
ByBlock
 62
    0
370
   20
100
AcDbTrace
 10
140
 20
-73.2
 30
0
 11
140.4162846577728
 21
-75.7
 31
0
 12
139.5837153422272
 22
-75.7
 32
0
 13
139.5837153422272
 23
-75.7
 33
0
  0
SOLID
  5
91
100
AcDbEntity
  8
0
  6
ByBlock
 62
    0
370
   20
100
AcDbTrace
 10
140
 20
-86.00000000000001
 30
0
 11
139.5837153422272
 21
-83.50000000000001
 31
0
 12
140.4162846577728
 22
-83.50000000000001
 32
0
 13
140.4162846577728
 23
-83.50000000000001
 33
0
  0
MTEXT
  5
92
100
AcDbEntity
  8
0
  6
CONTINUOUS
 62
    0
370
   -2
100
AcDbMText
 10
138.125
 20
-79.60000000000001
 30
0
 40
2.5
 41
11.11111111111111
 71
    5
 72
    1
  1
12.8000
  7
standard
210
0
220
0
230
1
 50
90
 73
    2
 44
1
  0
LINE
  5
93
100
AcDbEntity
  8
0
  6
ByBlock
 62
    0
370
   -2
100
AcDbLine
 10
136.125
 20
-73.2
 11
141.25
 21
-73.2
  0
LINE
  5
94
100
AcDbEntity
  8
0
  6
ByBlock
 62
    0
370
   -2
100
AcDbLine
 10
136.125
 20
-86.00000000000001
 11
141.25
 21
-86.00000000000001
  0
ENDBLK
  5
52
330
50
100
AcDbEntity
  8
0
100
AcDbBlockEnd
  0
BLOCK
  5
54
330
53
100
AcDbEntity
  8
0
100
AcDbBlockBegin
  2
*D19
 70
    1
 10
0
 20
0
  3
*D19
  1

  0
LINE
  5
95
100
AcDbEntity
  8
0
  6
ByBlock
 62
    0
370
   20
100
AcDbLine
 10
19.19999999999999
 20
-165
 11
170
 21
-165
  0
SOLID
  5
96
100
AcDbEntity
  8
0
  6
ByBlock
 62
    0
370
   20
100
AcDbTrace
 10
19.19999999999999
 20
-165
 30
0
 11
21.69999999999999
 21
-164.5837153422272
 31
0
 12
21.69999999999999
 22
-165.4162846577728
 32
0
 13
21.69999999999999
 23
-165.4162846577728
 33
0
  0
SOLID
  5
97
100
AcDbEntity
  8
0
  6
ByBlock
 62
    0
370
   20
100
AcDbTrace
 10
170
 20
-165
 30
0
 11
167.5
 21
-165.4162846577728
 31
0
 12
167.5
 22
-164.5837153422272
 32
0
 13
167.5
 23
-164.5837153422272
 33
0
  0
MTEXT
  5
98
100
AcDbEntity
  8
0
  6
CONTINUOUS
 62
    0
370
   -2
100
AcDbMText
 10
94.59999999999999
 20
-163.125
 30
0
 40
2.5
 41
13.05555555555571
 71
    5
 72
    1
  1
150.8000
  7
standard
210
0
220
0
230
1
 50
0
 73
    2
 44
1
  0
LINE
  5
99
100
AcDbEntity
  8
0
  6
ByBlock
 62
    0
370
   -2
100
AcDbLine
 10
19.2
 20
-156.625
 11
19.19999999999999
 21
-166.25
  0
LINE
  5
9A
100
AcDbEntity
  8
0
  6
ByBlock
 62
    0
370
   -2
100
AcDbLine
 10
170
 20
-156.625
 11
170
 21
-166.25
  0
ENDBLK
  5
55
330
53
100
AcDbEntity
  8
0
100
AcDbBlockEnd
  0
BLOCK
  5
57
330
56
100
AcDbEntity
  8
0
100
AcDbBlockBegin
  2
*D5
 70
    1
 10
0
 20
0
  3
*D5
  1

  0
LINE
  5
9B
100
AcDbEntity
  8
0
  6
ByBlock
 62
    0
370
   20
100
AcDbLine
 10
135.5
 20
-82
 11
172
 21
-82
  0
SOLID
  5
9C
100
AcDbEntity
  8
0
  6
ByBlock
 62
    0
370
   20
100
AcDbTrace
 10
135.5
 20
-82
 30
0
 11
138
 21
-81.58371534222717
 31
0
 12
138
 22
-82.41628465777283
 32
0
 13
138
 23
-82.41628465777283
 33
0
  0
SOLID
  5
9D
100
AcDbEntity
  8
0
  6
ByBlock
 62
    0
370
   20
100
AcDbTrace
 10
172
 20
-82
 30
0
 11
169.5
 21
-82.41628465777283
 31
0
 12
169.5
 22
-81.58371534222717
 32
0
 13
169.5
 23
-81.58371534222717
 33
0
  0
MTEXT
  5
9E
100
AcDbEntity
  8
0
  6
CONTINUOUS
 62
    0
370
   -2
100
AcDbMText
 10
153.75
 20
-80.125
 30
0
 40
2.5
 41
11.66666666666713
 71
    5
 72
    1
  1
36.5000
  7
standard
210
0
220
0
230
1
 50
0
 73
    2
 44
1
  0
LINE
  5
9F
100
AcDbEntity
  8
0
  6
ByBlock
 62
    0
370
   -2
100
AcDbLine
 10
135.5
 20
-85.37500000000001
 11
135.5
 21
-80.75
  0
LINE
  5
A0
100
AcDbEntity
  8
0
  6
ByBlock
 62
    0
370
   -2
100
AcDbLine
 10
172
 20
-85.375
 11
172
 21
-80.75
  0
ENDBLK
  5
58
330
56
100
AcDbEntity
  8
0
100
AcDbBlockEnd
  0
BLOCK
  5
5A
330
59
100
AcDbEntity
  8
0
100
AcDbBlockBegin
  2
*D6
 70
    1
 10
0
 20
0
  3
*D6
  1

  0
LINE
  5
A1
100
AcDbEntity
  8
0
  6
ByBlock
 62
    0
370
   20
100
AcDbLine
 10
19.2
 20
-160
 11
95.30000000000001
 21
-160
  0
SOLID
  5
A2
100
AcDbEntity
  8
0
  6
ByBlock
 62
    0
370
   20
100
AcDbTrace
 10
19.2
 20
-160
 30
0
 11
21.7
 21
-159.5837153422272
 31
0
 12
21.7
 22
-160.4162846577728
 32
0
 13
21.7
 23
-160.4162846577728
 33
0
  0
SOLID
  5
A3
100
AcDbEntity
  8
0
  6
ByBlock
 62
    0
370
   20
100
AcDbTrace
 10
95.30000000000001
 20
-160
 30
0
 11
92.80000000000001
 21
-160.4162846577728
 31
0
 12
92.80000000000001
 22
-159.5837153422272
 32
0
 13
92.80000000000001
 23
-159.5837153422272
 33
0
  0
MTEXT
  5
A4
100
AcDbEntity
  8
0
  6
CONTINUOUS
 62
    0
370
   -2
100
AcDbMText
 10
57.25000000000001
 20
-158.125
 30
0
 40
2.5
 41
11.11111111111127
 71
    5
 72
    1
  1
76.1000
  7
standard
210
0
220
0
230
1
 50
0
 73
    2
 44
1
  0
LINE
  5
A5
100
AcDbEntity
  8
0
  6
ByBlock
 62
    0
370
   -2
100
AcDbLine
 10
19.2
 20
-156.625
 11
19.2
 21
-161.25
  0
LINE
  5
A6
100
AcDbEntity
  8
0
  6
ByBlock
 62
    0
370
   -2
100
AcDbLine
 10
95.30000000000001
 20
-156.625
 11
95.30000000000001
 21
-161.25
  0
ENDBLK
  5
5B
330
59
100
AcDbEntity
  8
0
100
AcDbBlockEnd
  0
BLOCK
  5
5D
330
5C
100
AcDbEntity
  8
0
100
AcDbBlockBegin
  2
*D12
 70
    1
 10
0
 20
0
  3
*D12
  1

  0
LINE
  5
A7
100
AcDbEntity
  8
0
  6
ByBlock
 62
    0
370
   20
100
AcDbLine
 10
158
 20
0
 11
158
 21
-73.2
  0
SOLID
  5
A8
100
AcDbEntity
  8
0
  6
ByBlock
 62
    0
370
   20
100
AcDbTrace
 10
158
 20
0
 30
0
 11
158.4162846577728
 21
-2.5
 31
0
 12
157.5837153422272
 22
-2.5
 32
0
 13
157.5837153422272
 23
-2.5
 33
0
  0
SOLID
  5
A9
100
AcDbEntity
  8
0
  6
ByBlock
 62
    0
370
   20
100
AcDbTrace
 10
158
 20
-73.2
 30
0
 11
157.5837153422272
 21
-70.7
 31
0
 12
158.4162846577728
 22
-70.7
 32
0
 13
158.4162846577728
 23
-70.7
 33
0
  0
MTEXT
  5
AA
100
AcDbEntity
  8
0
  6
CONTINUOUS
 62
    0
370
   -2
100
AcDbMText
 10
156.125
 20
-36.6
 30
0
 40
2.5
 41
11.66666666666682
 71
    5
 72
    1
  1
73.2000
  7
standard
210
0
220
0
230
1
 50
90
 73
    2
 44
1
  0
LINE
  5
AB
100
AcDbEntity
  8
0
  6
ByBlock
 62
    0
370
   -2
100
AcDbLine
 10
150.625
 20
0
 11
159.25
 21
0
  0
LINE
  5
AC
100
AcDbEntity
  8
0
  6
ByBlock
 62
    0
370
   -2
100
AcDbLine
 10
150.625
 20
-73.2
 11
159.25
 21
-73.2
  0
ENDBLK
  5
5E
330
5C
100
AcDbEntity
  8
0
100
AcDbBlockEnd
  0
BLOCK
  5
60
330
5F
100
AcDbEntity
  8
0
100
AcDbBlockBegin
  2
*D13
 70
    1
 10
0
 20
0
  3
*D13
  1

  0
LINE
  5
AD
100
AcDbEntity
  8
0
  6
ByBlock
 62
    0
370
   20
100
AcDbLine
 10
135.5
 20
-77.76170858577521
 11
150
 21
-77.76170858577521
  0
SOLID
  5
AE
100
AcDbEntity
  8
0
  6
ByBlock
 62
    0
370
   20
100
AcDbTrace
 10
135.5
 20
-77.76170858577521
 30
0
 11
138
 21
-77.34542392800238
 31
0
 12
138
 22
-78.17799324354804
 32
0
 13
138
 23
-78.17799324354804
 33
0
  0
SOLID
  5
AF
100
AcDbEntity
  8
0
  6
ByBlock
 62
    0
370
   20
100
AcDbTrace
 10
150
 20
-77.76170858577521
 30
0
 11
147.5
 21
-78.17799324354804
 31
0
 12
147.5
 22
-77.34542392800238
 32
0
 13
147.5
 23
-77.34542392800238
 33
0
  0
MTEXT
  5
B0
100
AcDbEntity
  8
0
  6
CONTINUOUS
 62
    0
370
   -2
100
AcDbMText
 10
142.75
 20
-75.88670858577521
 30
0
 40
2.5
 41
11.38888888888904
 71
    5
 72
    1
  1
14.5000
  7
standard
210
0
220
0
230
1
 50
0
 73
    2
 44
1
  0
LINE
  5
B1
100
AcDbEntity
  8
0
  6
ByBlock
 62
    0
370
   -2
100
AcDbLine
 10
135.5
 20
-73.825
 11
135.5
 21
-79.01170858577521
  0
LINE
  5
B2
100
AcDbEntity
  8
0
  6
ByBlock
 62
    0
370
   -2
100
AcDbLine
 10
150
 20
-73.825
 11
150
 21
-79.01170858577521
  0
ENDBLK
  5
61
330
5F
100
AcDbEntity
  8
0
100
AcDbBlockEnd
  0
BLOCK
  5
63
330
62
100
AcDbEntity
  8
0
100
AcDbBlockBegin
  2
*D3
 70
    1
 10
0
 20
0
  3
*D3
  1

  0
LINE
  5
B3
100
AcDbEntity
  8
0
  6
ByBlock
 62
    0
370
   20
100
AcDbLine
 10
180
 20
-86
 11
180
 21
-156
  0
SOLID
  5
B4
100
AcDbEntity
  8
0
  6
ByBlock
 62
    0
370
   20
100
AcDbTrace
 10
180
 20
-86
 30
0
 11
180.4162846577728
 21
-88.5
 31
0
 12
179.5837153422272
 22
-88.5
 32
0
 13
179.5837153422272
 23
-88.5
 33
0
  0
SOLID
  5
B5
100
AcDbEntity
  8
0
  6
ByBlock
 62
    0
370
   20
100
AcDbTrace
 10
180
 20
-156
 30
0
 11
179.5837153422272
 21
-153.5
 31
0
 12
180.4162846577728
 22
-153.5
 32
0
 13
180.4162846577728
 23
-153.5
 33
0
  0
MTEXT
  5
B6
100
AcDbEntity
  8
0
  6
CONTINUOUS
 62
    0
370
   -2
100
AcDbMText
 10
178.125
 20
-121
 30
0
 40
2.5
 41
11.66666666666667
 71
    5
 72
    1
  1
70.0000
  7
standard
210
0
220
0
230
1
 50
90
 73
    2
 44
1
  0
LINE
  5
B7
100
AcDbEntity
  8
0
  6
ByBlock
 62
    0
370
   -2
100
AcDbLine
 10
173.125
 20
-86
 11
181.25
 21
-86
  0
LINE
  5
B8
100
AcDbEntity
  8
0
  6
ByBlock
 62
    0
370
   -2
100
AcDbLine
 10
172.625
 20
-156
 11
181.25
 21
-156
  0
ENDBLK
  5
64
330
62
100
AcDbEntity
  8
0
100
AcDbBlockEnd
  0
BLOCK
  5
66
330
65
100
AcDbEntity
  8
0
100
AcDbBlockBegin
  2
*D15
 70
    1
 10
0
 20
0
  3
*D15
  1

  0
LINE
  5
B9
100
AcDbEntity
  8
0
  6
ByBlock
 62
    0
370
   20
100
AcDbLine
 10
108.8
 20
-160
 11
170
 21
-160
  0
SOLID
  5
BA
100
AcDbEntity
  8
0
  6
ByBlock
 62
    0
370
   20
100
AcDbTrace
 10
108.8
 20
-160
 30
0
 11
111.3
 21
-159.5837153422272
 31
0
 12
111.3
 22
-160.4162846577728
 32
0
 13
111.3
 23
-160.4162846577728
 33
0
  0
SOLID
  5
BB
100
AcDbEntity
  8
0
  6
ByBlock
 62
    0
370
   20
100
AcDbTrace
 10
170
 20
-160
 30
0
 11
167.5
 21
-160.4162846577728
 31
0
 12
167.5
 22
-159.5837153422272
 32
0
 13
167.5
 23
-159.5837153422272
 33
0
  0
MTEXT
  5
BC
100
AcDbEntity
  8
0
  6
CONTINUOUS
 62
    0
370
   -2
100
AcDbMText
 10
139.4
 20
-158.125
 30
0
 40
2.5
 41
11.11111111111127
 71
    5
 72
    1
  1
61.2000
  7
standard
210
0
220
0
230
1
 50
0
 73
    2
 44
1
  0
LINE
  5
BD
100
AcDbEntity
  8
0
  6
ByBlock
 62
    0
370
   -2
100
AcDbLine
 10
108.8
 20
-156.625
 11
108.8
 21
-161.25
  0
LINE
  5
BE
100
AcDbEntity
  8
0
  6
ByBlock
 62
    0
370
   -2
100
AcDbLine
 10
170
 20
-156.625
 11
170
 21
-161.25
  0
ENDBLK
  5
67
330
65
100
AcDbEntity
  8
0
100
AcDbBlockEnd
  0
BLOCK
  5
69
330
68
100
AcDbEntity
  8
0
100
AcDbBlockBegin
  2
*D7
 70
    1
 10
0
 20
0
  3
*D7
  1

  0
LINE
  5
BF
100
AcDbEntity
  8
0
  6
ByBlock
 62
    0
370
   20
100
AcDbLine
 10
40
 20
-61.2
 11
40
 21
-120.6
  0
SOLID
  5
C0
100
AcDbEntity
  8
0
  6
ByBlock
 62
    0
370
   20
100
AcDbTrace
 10
40
 20
-61.2
 30
0
 11
40.41628465777284
 21
-63.7
 31
0
 12
39.58371534222716
 22
-63.7
 32
0
 13
39.58371534222716
 23
-63.7
 33
0
  0
SOLID
  5
C1
100
AcDbEntity
  8
0
  6
ByBlock
 62
    0
370
   20
100
AcDbTrace
 10
40
 20
-120.6
 30
0
 11
39.58371534222716
 21
-118.1
 31
0
 12
40.41628465777284
 22
-118.1
 32
0
 13
40.41628465777284
 23
-118.1
 33
0
  0
MTEXT
  5
C2
100
AcDbEntity
  8
0
  6
CONTINUOUS
 62
    0
370
   -2
100
AcDbMText
 10
38.125
 20
-90.90000000000001
 30
0
 40
2.5
 41
11.9444444444446
 71
    5
 72
    1
  1
59.4000
  7
standard
210
0
220
0
230
1
 50
90
 73
    2
 44
1
  0
LINE
  5
C3
100
AcDbEntity
  8
0
  6
ByBlock
 62
    0
370
   -2
100
AcDbLine
 10
47.775
 20
-61.2
 11
38.75
 21
-61.2
  0
LINE
  5
C4
100
AcDbEntity
  8
0
  6
ByBlock
 62
    0
370
   -2
100
AcDbLine
 10
47.775
 20
-120.6
 11
38.75
 21
-120.6
  0
ENDBLK
  5
6A
330
68
100
AcDbEntity
  8
0
100
AcDbBlockEnd
  0
BLOCK
  5
6C
330
6B
100
AcDbEntity
  8
0
100
AcDbBlockBegin
  2
*D2
 70
    1
 10
0
 20
0
  3
*D2
  1

  0
LINE
  5
C5
100
AcDbEntity
  8
0
  6
ByBlock
 62
    0
370
   20
100
AcDbLine
 10
-10
 20
-61.2
 11
-9.999999999999998
 21
5.329070518200751e-016
  0
SOLID
  5
C6
100
AcDbEntity
  8
0
  6
ByBlock
 62
    0
370
   20
100
AcDbTrace
 10
-10
 20
-61.2
 30
0
 11
-10.41628465777284
 21
-58.7
 31
0
 12
-9.58371534222716
 22
-58.7
 32
0
 13
-9.58371534222716
 23
-58.7
 33
0
  0
SOLID
  5
C7
100
AcDbEntity
  8
0
  6
ByBlock
 62
    0
370
   20
100
AcDbTrace
 10
-9.999999999999998
 20
5.329070518200751e-016
 30
0
 11
-9.583715342227158
 21
-2.5
 31
0
 12
-10.41628465777284
 22
-2.5
 32
0
 13
-10.41628465777284
 23
-2.5
 33
0
  0
MTEXT
  5
C8
100
AcDbEntity
  8
0
  6
CONTINUOUS
 62
    0
370
   -2
100
AcDbMText
 10
-11.875
 20
-30.6
 30
0
 40
2.5
 41
11.11111111111127
 71
    5
 72
    1
  1
61.2000
  7
standard
210
0
220
0
230
1
 50
90
 73
    2
 44
1
  0
LINE
  5
C9
100
AcDbEntity
  8
0
  6
ByBlock
 62
    0
370
   -2
100
AcDbLine
 10
-0.6249999999999998
 20
-61.2
 11
-11.25
 21
-61.2
  0
LINE
  5
CA
100
AcDbEntity
  8
0
  6
ByBlock
 62
    0
370
   -2
100
AcDbLine
 10
-0.625
 20
7.653789711389858e-017
 11
-11.25
 21
6.859828460478723e-016
  0
ENDBLK
  5
6D
330
6B
100
AcDbEntity
  8
0
100
AcDbBlockEnd
  0
BLOCK
  5
6F
330
6E
100
AcDbEntity
  8
0
100
AcDbBlockBegin
  2
*D17
 70
    1
 10
0
 20
0
  3
*D17
  1

  0
LINE
  5
CB
100
AcDbEntity
  8
0
  6
ByBlock
 62
    0
370
   20
100
AcDbLine
 10
84.80000000000001
 20
5
 11
150
 21
5
  0
SOLID
  5
CC
100
AcDbEntity
  8
0
  6
ByBlock
 62
    0
370
   20
100
AcDbTrace
 10
84.80000000000001
 20
5
 30
0
 11
87.30000000000001
 21
5.41628465777284
 31
0
 12
87.30000000000001
 22
4.583715342227159
 32
0
 13
87.30000000000001
 23
4.583715342227159
 33
0
  0
SOLID
  5
CD
100
AcDbEntity
  8
0
  6
ByBlock
 62
    0
370
   20
100
AcDbTrace
 10
150
 20
5
 30
0
 11
147.5
 21
4.583715342227159
 31
0
 12
147.5
 22
5.416284657772841
 32
0
 13
147.5
 23
5.416284657772841
 33
0
  0
MTEXT
  5
CE
100
AcDbEntity
  8
0
  6
CONTINUOUS
 62
    0
370
   -2
100
AcDbMText
 10
117.4
 20
6.875
 30
0
 40
2.5
 41
11.66666666666698
 71
    5
 72
    1
  1
65.2000
  7
standard
210
0
220
0
230
1
 50
0
 73
    2
 44
1
  0
LINE
  5
CF
100
AcDbEntity
  8
0
  6
ByBlock
 62
    0
370
   -2
100
AcDbLine
 10
84.80000000000001
 20
-0.375
 11
84.80000000000001
 21
6.25
  0
LINE
  5
D0
100
AcDbEntity
  8
0
  6
ByBlock
 62
    0
370
   -2
100
AcDbLine
 10
150
 20
-0.375
 11
150
 21
6.25
  0
ENDBLK
  5
70
330
6E
100
AcDbEntity
  8
0
100
AcDbBlockEnd
  0
BLOCK
  5
72
330
71
100
AcDbEntity
  8
0
100
AcDbBlockBegin
  2
*D4
 70
    1
 10
0
 20
0
  3
*D4
  1

  0
LINE
  5
D1
100
AcDbEntity
  8
0
  6
ByBlock
 62
    0
370
   20
100
AcDbLine
 10
200
 20
-156
 11
200
 21
0
  0
SOLID
  5
D2
100
AcDbEntity
  8
0
  6
ByBlock
 62
    0
370
   20
100
AcDbTrace
 10
200
 20
-156
 30
0
 11
199.5837153422272
 21
-153.5
 31
0
 12
200.4162846577728
 22
-153.5
 32
0
 13
200.4162846577728
 23
-153.5
 33
0
  0
SOLID
  5
D3
100
AcDbEntity
  8
0
  6
ByBlock
 62
    0
370
   20
100
AcDbTrace
 10
200
 20
0
 30
0
 11
200.4162846577728
 21
-2.5
 31
0
 12
199.5837153422272
 22
-2.5
 32
0
 13
199.5837153422272
 23
-2.5
 33
0
  0
MTEXT
  5
D4
100
AcDbEntity
  8
0
  6
CONTINUOUS
 62
    0
370
   -2
100
AcDbMText
 10
198.125
 20
-78
 30
0
 40
2.5
 41
13.05555555555587
 71
    5
 72
    1
  1
156.0000
  7
standard
210
0
220
0
230
1
 50
90
 73
    2
 44
1
  0
LINE
  5
D5
100
AcDbEntity
  8
0
  6
ByBlock
 62
    0
370
   -2
100
AcDbLine
 10
172.625
 20
-156
 11
201.25
 21
-156
  0
LINE
  5
D6
100
AcDbEntity
  8
0
  6
ByBlock
 62
    0
370
   -2
100
AcDbLine
 10
170.625
 20
0
 11
201.25
 21
0
  0
ENDBLK
  5
73
330
71
100
AcDbEntity
  8
0
100
AcDbBlockEnd
  0
BLOCK
  5
75
330
74
100
AcDbEntity
  8
0
100
AcDbBlockBegin
  2
*D9
 70
    1
 10
0
 20
0
  3
*D9
  1

  0
LINE
  5
D7
100
AcDbEntity
  8
0
  6
ByBlock
 62
    0
370
   20
100
AcDbLine
 10
60
 20
0
 11
60
 21
-17.8
  0
SOLID
  5
D8
100
AcDbEntity
  8
0
  6
ByBlock
 62
    0
370
   20
100
AcDbTrace
 10
60
 20
0
 30
0
 11
60.41628465777284
 21
-2.5
 31
0
 12
59.58371534222716
 22
-2.5
 32
0
 13
59.58371534222716
 23
-2.5
 33
0
  0
SOLID
  5
D9
100
AcDbEntity
  8
0
  6
ByBlock
 62
    0
370
   20
100
AcDbTrace
 10
60
 20
-17.8
 30
0
 11
59.58371534222716
 21
-15.3
 31
0
 12
60.41628465777284
 22
-15.3
 32
0
 13
60.41628465777284
 23
-15.3
 33
0
  0
MTEXT
  5
DA
100
AcDbEntity
  8
0
  6
CONTINUOUS
 62
    0
370
   -2
100
AcDbMText
 10
58.125
 20
-8.9
 30
0
 40
2.5
 41
11.11111111111111
 71
    5
 72
    1
  1
17.8000
  7
standard
210
0
220
0
230
1
 50
90
 73
    2
 44
1
  0
LINE
  5
DB
100
AcDbEntity
  8
0
  6
ByBlock
 62
    0
370
   -2
100
AcDbLine
 10
54.825
 20
-2.477401964129377e-017
 11
61.25
 21
5.963111948670274e-018
  0
LINE
  5
DC
100
AcDbEntity
  8
0
  6
ByBlock
 62
    0
370
   -2
100
AcDbLine
 10
54.825
 20
-17.8
 11
61.25
 21
-17.8
  0
ENDBLK
  5
76
330
74
100
AcDbEntity
  8
0
100
AcDbBlockEnd
  0
BLOCK
  5
78
330
77
100
AcDbEntity
  8
0
100
AcDbBlockBegin
  2
*D10
 70
    1
 10
0
 20
0
  3
*D10
  1

  0
LINE
  5
DD
100
AcDbEntity
  8
0
  6
ByBlock
 62
    0
370
   20
100
AcDbLine
 10
54.2
 20
-10
 11
84.80000000000001
 21
-10
  0
SOLID
  5
DE
100
AcDbEntity
  8
0
  6
ByBlock
 62
    0
370
   20
100
AcDbTrace
 10
54.2
 20
-10
 30
0
 11
56.7
 21
-9.58371534222716
 31
0
 12
56.7
 22
-10.41628465777284
 32
0
 13
56.7
 23
-10.41628465777284
 33
0
  0
SOLID
  5
DF
100
AcDbEntity
  8
0
  6
ByBlock
 62
    0
370
   20
100
AcDbTrace
 10
84.80000000000001
 20
-10
 30
0
 11
82.30000000000001
 21
-10.41628465777284
 31
0
 12
82.30000000000001
 22
-9.58371534222716
 32
0
 13
82.30000000000001
 23
-9.58371534222716
 33
0
  0
MTEXT
  5
E0
100
AcDbEntity
  8
0
  6
CONTINUOUS
 62
    0
370
   -2
100
AcDbMText
 10
69.5
 20
-8.125
 30
0
 40
2.5
 41
11.66666666666698
 71
    5
 72
    1
  1
30.6000
  7
standard
210
0
220
0
230
1
 50
0
 73
    2
 44
1
  0
LINE
  5
E1
100
AcDbEntity
  8
0
  6
ByBlock
 62
    0
370
   -2
100
AcDbLine
 10
54.2
 20
-17.175
 11
54.2
 21
-8.75
  0
LINE
  5
E2
100
AcDbEntity
  8
0
  6
ByBlock
 62
    0
370
   -2
100
AcDbLine
 10
84.80000000000001
 20
-17.175
 11
84.80000000000001
 21
-8.75
  0
ENDBLK
  5
79
330
77
100
AcDbEntity
  8
0
100
AcDbBlockEnd
  0
BLOCK
  5
7B
330
7A
100
AcDbEntity
  8
0
100
AcDbBlockBegin
  2
*D14
 70
    1
 10
0
 20
0
  3
*D14
  1

  0
LINE
  5
E3
100
AcDbEntity
  8
0
  6
ByBlock
 62
    0
370
   20
100
AcDbLine
 10
95.30000000000001
 20
-132
 11
108.8
 21
-132
  0
SOLID
  5
E4
100
AcDbEntity
  8
0
  6
ByBlock
 62
    0
370
   20
100
AcDbTrace
 10
95.30000000000001
 20
-132
 30
0
 11
97.80000000000001
 21
-131.5837153422272
 31
0
 12
97.80000000000001
 22
-132.4162846577728
 32
0
 13
97.80000000000001
 23
-132.4162846577728
 33
0
  0
SOLID
  5
E5
100
AcDbEntity
  8
0
  6
ByBlock
 62
    0
370
   20
100
AcDbTrace
 10
108.8
 20
-132
 30
0
 11
106.3
 21
-132.4162846577728
 31
0
 12
106.3
 22
-131.5837153422272
 32
0
 13
106.3
 23
-131.5837153422272
 33
0
  0
MTEXT
  5
E6
100
AcDbEntity
  8
0
  6
CONTINUOUS
 62
    0
370
   -2
100
AcDbMText
 10
102.05
 20
-130.125
 30
0
 40
2.5
 41
11.11111111111142
 71
    5
 72
    1
  1
13.5000
  7
standard
210
0
220
0
230
1
 50
0
 73
    2
 44
1
  0
LINE
  5
E7
100
AcDbEntity
  8
0
  6
ByBlock
 62
    0
370
   -2
100
AcDbLine
 10
95.30000000000001
 20
-129.125
 11
95.30000000000001
 21
-133.25
  0
LINE
  5
E8
100
AcDbEntity
  8
0
  6
ByBlock
 62
    0
370
   -2
100
AcDbLine
 10
108.8
 20
-129.125
 11
108.8
 21
-133.25
  0
ENDBLK
  5
7C
330
7A
100
AcDbEntity
  8
0
100
AcDbBlockEnd
  0
BLOCK
  5
7E
330
7D
100
AcDbEntity
  8
0
100
AcDbBlockBegin
  2
*D18
 70
    1
 10
0
 20
0
  3
*D18
  1

  0
LINE
  5
E9
100
AcDbEntity
  8
0
  6
ByBlock
 62
    0
370
   20
100
AcDbLine
 10
0
 20
14
 11
150
 21
14
  0
SOLID
  5
EA
100
AcDbEntity
  8
0
  6
ByBlock
 62
    0
370
   20
100
AcDbTrace
 10
0
 20
14
 30
0
 11
2.5
 21
14.41628465777284
 31
0
 12
2.5
 22
13.58371534222716
 32
0
 13
2.5
 23
13.58371534222716
 33
0
  0
SOLID
  5
EB
100
AcDbEntity
  8
0
  6
ByBlock
 62
    0
370
   20
100
AcDbTrace
 10
150
 20
14
 30
0
 11
147.5
 21
13.58371534222716
 31
0
 12
147.5
 22
14.41628465777284
 32
0
 13
147.5
 23
14.41628465777284
 33
0
  0
MTEXT
  5
EC
100
AcDbEntity
  8
0
  6
CONTINUOUS
 62
    0
370
   -2
100
AcDbMText
 10
75
 20
15.875
 30
0
 40
2.5
 41
13.05555555555571
 71
    5
 72
    1
  1
150.0000
  7
standard
210
0
220
0
230
1
 50
0
 73
    2
 44
1
  0
LINE
  5
ED
100
AcDbEntity
  8
0
  6
ByBlock
 62
    0
370
   -2
100
AcDbLine
 10
3.826894855694929e-017
 20
0.625
 11
7.653789711389858e-017
 21
15.25
  0
LINE
  5
EE
100
AcDbEntity
  8
0
  6
ByBlock
 62
    0
370
   -2
100
AcDbLine
 10
150
 20
0.625
 11
150
 21
15.25
  0
ENDBLK
  5
7F
330
7D
100
AcDbEntity
  8
0
100
AcDbBlockEnd
  0
BLOCK
  5
81
330
80
100
AcDbEntity
  8
0
100
AcDbBlockBegin
  2
*D1
 70
    1
 10
0
 20
0
  3
*D1
  1

  0
LINE
  5
EF
100
AcDbEntity
  8
0
  6
ByBlock
 62
    0
370
   20
100
AcDbLine
 10
18.9
 20
-115
 11
48.4
 21
-115
  0
SOLID
  5
F0
100
AcDbEntity
  8
0
  6
ByBlock
 62
    0
370
   20
100
AcDbTrace
 10
18.9
 20
-115
 30
0
 11
21.4
 21
-114.5837153422272
 31
0
 12
21.4
 22
-115.4162846577728
 32
0
 13
21.4
 23
-115.4162846577728
 33
0
  0
SOLID
  5
F1
100
AcDbEntity
  8
0
  6
ByBlock
 62
    0
370
   20
100
AcDbTrace
 10
48.4
 20
-115
 30
0
 11
45.9
 21
-115.4162846577728
 31
0
 12
45.9
 22
-114.5837153422272
 32
0
 13
45.9
 23
-114.5837153422272
 33
0
  0
MTEXT
  5
F2
100
AcDbEntity
  8
0
  6
CONTINUOUS
 62
    0
370
   -2
100
AcDbMText
 10
33.65
 20
-113.125
 30
0
 40
2.5
 41
11.66666666666682
 71
    5
 72
    1
  1
29.5000
  7
standard
210
0
220
0
230
1
 50
0
 73
    2
 44
1
  0
LINE
  5
F3
100
AcDbEntity
  8
0
  6
ByBlock
 62
    0
370
   -2
100
AcDbLine
 10
18.9
 20
-119.975
 11
18.9
 21
-113.75
  0
LINE
  5
F4
100
AcDbEntity
  8
0
  6
ByBlock
 62
    0
370
   -2
100
AcDbLine
 10
48.4
 20
-119.975
 11
48.4
 21
-113.75
  0
ENDBLK
  5
82
330
80
100
AcDbEntity
  8
0
100
AcDbBlockEnd
  0
BLOCK
  5
84
330
83
100
AcDbEntity
  8
0
100
AcDbBlockBegin
  2
*D16
 70
    1
 10
0
 20
0
  3
*D16
  1

  0
LINE
  5
F5
100
AcDbEntity
  8
0
  6
ByBlock
 62
    0
370
   20
100
AcDbLine
 10
0
 20
5
 11
54.2
 21
5
  0
SOLID
  5
F6
100
AcDbEntity
  8
0
  6
ByBlock
 62
    0
370
   20
100
AcDbTrace
 10
0
 20
5
 30
0
 11
2.5
 21
5.41628465777284
 31
0
 12
2.5
 22
4.583715342227159
 32
0
 13
2.5
 23
4.583715342227159
 33
0
  0
SOLID
  5
F7
100
AcDbEntity
  8
0
  6
ByBlock
 62
    0
370
   20
100
AcDbTrace
 10
54.2
 20
5
 30
0
 11
51.7
 21
4.583715342227159
 31
0
 12
51.7
 22
5.416284657772841
 32
0
 13
51.7
 23
5.416284657772841
 33
0
  0
MTEXT
  5
F8
100
AcDbEntity
  8
0
  6
CONTINUOUS
 62
    0
370
   -2
100
AcDbMText
 10
27.1
 20
6.875
 30
0
 40
2.5
 41
11.9444444444446
 71
    5
 72
    1
  1
54.2000
  7
standard
210
0
220
0
230
1
 50
0
 73
    2
 44
1
  0
LINE
  5
F9
100
AcDbEntity
  8
0
  6
ByBlock
 62
    0
370
   -2
100
AcDbLine
 10
-1.454220045164073e-016
 20
-0.375
 11
7.653789711389858e-017
 21
6.25
  0
LINE
  5
FA
100
AcDbEntity
  8
0
  6
ByBlock
 62
    0
370
   -2
100
AcDbLine
 10
54.2
 20
-0.375
 11
54.2
 21
6.25
  0
ENDBLK
  5
85
330
83
100
AcDbEntity
  8
0
100
AcDbBlockEnd
  0
BLOCK
  5
87
330
86
100
AcDbEntity
  8
0
100
AcDbBlockBegin
  2
*D20
 70
    1
 10
0
 20
0
  3
*D20
  1

  0
LINE
  5
FB
100
AcDbEntity
  8
0
  6
ByBlock
 62
    0
370
   20
100
AcDbLine
 10
0
 20
-171
 11
170
 21
-171
  0
SOLID
  5
FC
100
AcDbEntity
  8
0
  6
ByBlock
 62
    0
370
   20
100
AcDbTrace
 10
0
 20
-171
 30
0
 11
2.5
 21
-170.5837153422272
 31
0
 12
2.5
 22
-171.4162846577728
 32
0
 13
2.5
 23
-171.4162846577728
 33
0
  0
SOLID
  5
FD
100
AcDbEntity
  8
0
  6
ByBlock
 62
    0
370
   20
100
AcDbTrace
 10
170
 20
-171
 30
0
 11
167.5
 21
-171.4162846577728
 31
0
 12
167.5
 22
-170.5837153422272
 32
0
 13
167.5
 23
-170.5837153422272
 33
0
  0
MTEXT
  5
FE
100
AcDbEntity
  8
0
  6
CONTINUOUS
 62
    0
370
   -2
100
AcDbMText
 10
85
 20
-169.125
 30
0
 40
2.5
 41
13.05555555555556
 71
    5
 72
    1
  1
170.0000
  7
standard
210
0
220
0
230
1
 50
0
 73
    2
 44
1
  0
LINE
  5
FF
100
AcDbEntity
  8
0
  6
ByBlock
 62
    0
370
   -2
100
AcDbLine
 10
-1.148068456708479e-016
 20
-158.625
 11
-2.296136913416957e-016
 21
-172.25
  0
LINE
  5
100
100
AcDbEntity
  8
0
  6
ByBlock
 62
    0
370
   -2
100
AcDbLine
 10
170
 20
-166.625
 11
170
 21
-172.25
  0
ENDBLK
  5
88
330
86
100
AcDbEntity
  8
0
100
AcDbBlockEnd
  0
ENDSEC
  0
SECTION
  2
ENTITIES
  0
DIMENSION
  5
101
100
AcDbEntity
  8
0
  6
ByLayer
 62
  256
370
   -3
100
AcDbDimension
  2
*D1
 10
48.4
 20
-115
 30
0
 11
33.65
 21
-113.125
 31
0
 70
   32
 71
    5
  3
Standard
 53
0
210
0
220
0
230
1
100
AcDbAlignedDimension
 13
18.9
 23
-120.6
 33
0
 14
48.4
 24
-120.6
 34
0
100
AcDbRotatedDimension
  0
DIMENSION
  5
102
100
AcDbEntity
  8
0
  6
ByLayer
 62
  256
370
   -3
100
AcDbDimension
  2
*D2
 10
-9.999999999999998
 20
1.224606353822377e-015
 30
0
 11
-11.875
 21
-30.6
 31
0
 70
   32
 71
    5
  3
Standard
 53
0
210
0
220
0
230
1
100
AcDbAlignedDimension
 13
2.220446049250313e-016
 23
-61.2
 33
0
 14
0
 24
0
 34
0
 50
90
100
AcDbRotatedDimension
  0
DIMENSION
  5
103
100
AcDbEntity
  8
0
  6
ByLayer
 62
  256
370
   -3
100
AcDbDimension
  2
*D3
 10
180
 20
-156
 30
0
 11
178.125
 21
-121
 31
0
 70
   32
 71
    5
  3
Standard
 53
0
210
0
220
0
230
1
100
AcDbAlignedDimension
 13
172.5
 23
-86
 33
0
 14
172
 24
-156
 34
0
 50
90
100
AcDbRotatedDimension
  0
DIMENSION
  5
104
100
AcDbEntity
  8
0
  6
ByLayer
 62
  256
370
   -3
100
AcDbDimension
  2
*D4
 10
200
 20
-3.673819061467132e-015
 30
0
 11
198.125
 21
-78
 31
0
 70
   32
 71
    5
  3
Standard
 53
0
210
0
220
0
230
1
100
AcDbAlignedDimension
 13
172
 23
-156
 33
0
 14
170
 24
0
 34
0
 50
90
100
AcDbRotatedDimension
  0
LINE
  5
105
100
AcDbEntity
  8
0
  6
ByLayer
 62
    3
370
   -1
100
AcDbLine
 10
84.80000000000001
 20
-17.8
 11
54.2
 21
-17.8
  0
LINE
  5
106
100
AcDbEntity
  8
0
  6
ByLayer
 62
    3
370
   -1
100
AcDbLine
 10
54.2
 20
-17.8
 11
54.2
 21
-2.775557561562891e-017
  0
LINE
  5
107
100
AcDbEntity
  8
0
  6
ByLayer
 62
    3
370
   -1
100
AcDbLine
 10
84.80000000000001
 20
-17.8
 11
84.80000000000001
 21
5.551115123125783e-017
  0
LINE
  5
108
100
AcDbEntity
  8
0
  6
ByLayer
 62
    3
370
   -1
100
AcDbLine
 10
150
 20
0
 11
150
 21
-73.2
  0
LINE
  5
109
100
AcDbEntity
  8
0
  6
ByLayer
 62
    3
370
   -1
100
AcDbLine
 10
150
 20
-73.2
 11
135.5
 21
-73.2
  0
LINE
  5
10A
100
AcDbEntity
  8
0
  6
ByLayer
 62
    3
370
   -1
100
AcDbLine
 10
135.5
 20
-73.2
 11
135.5
 21
-86.00000000000001
  0
DIMENSION
  5
10B
100
AcDbEntity
  8
0
  6
ByLayer
 62
  256
370
   -1
100
AcDbDimension
  2
*D5
 10
172
 20
-82
 30
0
 11
153.75
 21
-80.125
 31
0
 70
   32
 71
    5
 72
    0
  3
Standard
 53
0
210
0
220
0
230
1
100
AcDbAlignedDimension
 13
135.5
 23
-86.00000000000001
 33
0
 14
172
 24
-86
 34
0
100
AcDbRotatedDimension
  0
LINE
  5
10C
100
AcDbEntity
  8
0
  6
ByLayer
 62
    3
370
   -1
100
AcDbLine
 10
108.8
 20
-156
 11
108.8
 21
-128.5
  0
LINE
  5
10D
100
AcDbEntity
  8
0
  6
ByLayer
 62
    3
370
   -1
100
AcDbLine
 10
108.8
 20
-128.5
 11
95.30000000000001
 21
-128.5
  0
LINE
  5
10E
100
AcDbEntity
  8
0
  6
ByLayer
 62
    3
370
   -1
100
AcDbLine
 10
95.30000000000001
 20
-128.5
 11
95.30000000000001
 21
-156
  0
LINE
  5
10F
100
AcDbEntity
  8
0
  6
ByLayer
 62
    3
370
   -1
100
AcDbLine
 10
48.4
 20
-120.6
 11
48.4
 21
-61.2
  0
LINE
  5
110
100
AcDbEntity
  8
0
  6
ByLayer
 62
    3
370
   -1
100
AcDbLine
 10
48.4
 20
-61.2
 11
2.220446049250313e-016
 21
-61.2
  0
LINE
  5
111
100
AcDbEntity
  8
0
  6
ByLayer
 62
    3
370
   -1
100
AcDbLine
 10
2.220446049250313e-016
 20
-61.2
 11
0
 21
0
  0
LINE
  5
112
100
AcDbEntity
  8
0
  6
ByLayer
 62
    3
370
   -1
100
AcDbLine
 10
0
 20
0
 11
54.2
 21
-2.775557561562891e-017
  0
DIMENSION
  5
113
100
AcDbEntity
  8
0
  6
ByLayer
 62
  256
370
   -3
100
AcDbDimension
  2
*D6
 10
90
 20
-160
 30
0
 11
57.25000000000001
 21
-158.125
 31
0
 70
   32
 71
    5
  3
Standard
 53
0
210
0
220
0
230
1
100
AcDbAlignedDimension
 13
19.2
 23
-156
 33
0
 14
95.30000000000001
 24
-156
 34
0
100
AcDbRotatedDimension
  0
DIMENSION
  5
114
100
AcDbEntity
  8
0
  6
ByLayer
 62
  256
370
   -3
100
AcDbDimension
  2
*D7
 10
40
 20
-110
 30
0
 11
38.125
 21
-90.90000000000001
 31
0
 70
   32
 71
    5
  3
Standard
 53
0
210
0
220
0
230
1
100
AcDbAlignedDimension
 13
48.4
 23
-61.2
 33
0
 14
48.4
 24
-120.6
 34
0
 50
90
100
AcDbRotatedDimension
  0
DIMENSION
  5
115
100
AcDbEntity
  8
0
  6
ByLayer
 62
  256
370
   -3
100
AcDbDimension
  2
*D8
 10
50
 20
-70
 30
0
 11
24.2
 21
-68.125
 31
0
 70
   32
 71
    5
  3
Standard
 53
0
210
0
220
0
230
1
100
AcDbAlignedDimension
 13
2.220446049250313e-016
 23
-61.2
 33
0
 14
48.4
 24
-61.2
 34
0
100
AcDbRotatedDimension
  0
DIMENSION
  5
116
100
AcDbEntity
  8
0
  6
ByLayer
 62
  256
370
   -3
100
AcDbDimension
  2
*D9
 10
60
 20
-20
 30
0
 11
58.125
 21
-8.9
 31
0
 70
   32
 71
    5
  3
Standard
 53
0
210
0
220
0
230
1
100
AcDbAlignedDimension
 13
54.2
 23
-2.775557561562891e-017
 33
0
 14
54.2
 24
-17.8
 34
0
 50
90
100
AcDbRotatedDimension
  0
DIMENSION
  5
117
100
AcDbEntity
  8
0
  6
ByLayer
 62
  256
370
   -3
100
AcDbDimension
  2
*D10
 10
90
 20
-10
 30
0
 11
69.5
 21
-8.125
 31
0
 70
   32
 71
    5
  3
Standard
 53
0
210
0
220
0
230
1
100
AcDbAlignedDimension
 13
54.2
 23
-17.8
 33
0
 14
84.80000000000001
 24
-17.8
 34
0
100
AcDbRotatedDimension
  0
DIMENSION
  5
118
100
AcDbEntity
  8
0
  6
ByLayer
 62
  256
370
   -3
100
AcDbDimension
  2
*D11
 10
140
 20
-90
 30
0
 11
138.125
 21
-79.60000000000001
 31
0
 70
   32
 71
    5
  3
Standard
 53
0
210
0
220
0
230
1
100
AcDbAlignedDimension
 13
135.5
 23
-73.2
 33
0
 14
135.5
 24
-86.00000000000001
 34
0
 50
90
100
AcDbRotatedDimension
  0
DIMENSION
  5
119
100
AcDbEntity
  8
0
  6
ByLayer
 62
  256
370
   -3
100
AcDbDimension
  2
*D12
 10
158
 20
-60
 30
0
 11
156.125
 21
-36.6
 31
0
 70
   32
 71
    5
  3
Standard
 53
0
210
0
220
0
230
1
100
AcDbAlignedDimension
 13
150
 23
0
 33
0
 14
150
 24
-73.2
 34
0
 50
90
100
AcDbRotatedDimension
  0
LINE
  5
11A
100
AcDbEntity
  8
0
  6
ByLayer
 62
    3
370
   -1
100
AcDbLine
 10
84.80000000000001
 20
5.551115123125783e-017
 11
150
 21
0
  0
DIMENSION
  5
11B
100
AcDbEntity
  8
0
  6
ByLayer
 62
  256
370
   -3
100
AcDbDimension
  2
*D13
 10
144.9278515537549
 20
-77.76170858577521
 30
0
 11
142.75
 21
-75.88670858577521
 31
0
 70
   32
 71
    5
  3
Standard
 53
0
210
0
220
0
230
1
100
AcDbAlignedDimension
 13
135.5
 23
-73.2
 33
0
 14
150
 24
-73.2
 34
0
100
AcDbRotatedDimension
  0
MTEXT
  5
11C
100
AcDbEntity
  8
0
  6
ByLayer
 62
    1
370
   -1
100
AcDbMText
 10
128.1973275606532
 20
-16.75390978622305
 30
0
 40
2
 41
10.44444444444463
 71
    1
 72
    1
  1
bedroom
  7
standard
210
0
220
0
230
1
 50
0
 73
    2
 44
4
  0
MTEXT
  5
11D
100
AcDbEntity
  8
0
  6
ByLayer
 62
    1
370
   -1
100
AcDbMText
 10
96.93333519171905
 20
-16.60432130598891
 30
0
 40
2
 41
10.44444444444463
 71
    1
 72
    1
  1
bedroom
  7
standard
210
0
220
0
230
1
 50
0
 73
    2
 44
4
  0
MTEXT
  5
11E
100
AcDbEntity
  8
0
  6
ByLayer
 62
    1
370
   -1
100
AcDbMText
 10
75.34637119761142
 20
-121.6087029487408
 30
0
 40
2
 41
7.555556584130044
 71
    1
 72
    1
  1
closet
  7
standard
210
0
220
0
230
1
 50
0
 73
    2
 44
4
  0
MTEXT
  5
11F
100
AcDbEntity
  8
0
  6
ByLayer
 62
    1
370
   -1
100
AcDbMText
 10
66.30279591648551
 20
-95.6935640888892
 30
0
 40
2
 41
7.555556584130044
 71
    1
 72
    1
  1
closet
  7
standard
210
0
220
0
230
1
 50
0
 73
    2
 44
4
  0
MTEXT
  5
120
100
AcDbEntity
  8
0
  6
ByLayer
 62
    1
370
   -1
100
AcDbMText
 10
85.16380068853985
 20
-95.57785240317109
 30
0
 40
2
 41
7.555556584130044
 71
    1
 72
    1
  1
closet
  7
standard
210
0
220
0
230
1
 50
0
 73
    2
 44
4
  0
MTEXT
  5
121
100
AcDbEntity
  8
0
  6
ByLayer
 62
    1
370
   -1
100
AcDbMText
 10
135.4017487426559
 20
-37.7865345328342
 30
0
 40
2
 41
7.555556584130044
 71
    1
 72
    1
  1
closet
  7
standard
210
0
220
0
230
1
 50
0
 73
    2
 44
4
  0
MTEXT
  5
122
100
AcDbEntity
  8
0
  6
ByLayer
 62
    1
370
   -1
100
AcDbMText
 10
135.9612307187968
 20
-47.67321451586748
 30
0
 40
2
 41
6.666666666666667
 71
    1
 72
    1
  1
toilet
  7
standard
210
0
220
0
230
1
 50
0
 73
    2
 44
4
  0
MTEXT
  5
123
100
AcDbEntity
  8
0
  6
ByLayer
 62
    1
370
   -1
100
AcDbMText
 10
133.1975342282406
 20
-61.87545029751602
 30
0
 40
2
 41
14.38888991746375
 71
    1
 72
    1
  1
guest bath
  7
standard
210
0
220
0
230
1
 50
0
 73
    2
 44
4
  0
MTEXT
  5
124
100
AcDbEntity
  8
0
  6
ByLayer
 62
    1
370
   -1
100
AcDbMText
 10
103.648936555246
 20
-80.82468886820995
 30
0
 40
2
 41
9.333333333333583
 71
    1
 72
    1
  1
laundry
  7
standard
210
0
220
0
230
1
 50
0
 73
    2
 44
4
  0
MTEXT
  5
125
100
AcDbEntity
  8
0
  6
ByLayer
 62
    1
370
   -1
100
AcDbMText
 10
134.6884021758979
 20
-121.7286933754678
 30
0
 40
2
 41
8.444444444444908
 71
    1
 72
    1
  1
garage
  7
standard
210
0
220
0
230
1
 50
0
 73
    2
 44
4
  0
DIMENSION
  5
126
100
AcDbEntity
  8
0
  6
ByLayer
 62
  256
370
   -3
100
AcDbDimension
  2
*D14
 10
105
 20
-132
 30
0
 11
102.05
 21
-130.125
 31
0
 70
   32
 71
    5
  3
Standard
 53
0
210
0
220
0
230
1
100
AcDbAlignedDimension
 13
95.30000000000001
 23
-128.5
 33
0
 14
108.8
 24
-128.5
 34
0
100
AcDbRotatedDimension
  0
MTEXT
  5
127
100
AcDbEntity
  8
0
  6
ByLayer
 62
    1
370
   -1
100
AcDbMText
 10
74.86546065962911
 20
-141.8625266904255
 30
0
 40
2
 41
9.111112139685693
 71
    1
 72
    1
  1
ensuite
  7
standard
210
0
220
0
230
1
 50
0
 73
    2
 44
4
  0
MTEXT
  5
128
100
AcDbEntity
  8
0
  6
ByLayer
 62
    1
370
   -1
100
AcDbMText
 10
30.12371061791206
 20
-135.4549284879762
 30
0
 40
2
 41
21.27777880635254
 71
    1
 72
    1
  1
master bedroom
  7
standard
210
0
220
0
230
1
 50
0
 73
    2
 44
4
  0
LINE
  5
129
100
AcDbEntity
  8
0
  6
ByLayer
 62
    1
370
   -1
100
AcDbLine
 10
84.82541899764463
 20
-42.99120302393188
 11
84.82541899764463
 21
-17.78106414020979
  0
LINE
  5
12A
100
AcDbEntity
  8
0
  6
ByLayer
 62
    1
370
   -1
100
AcDbLine
 10
84.82520092838908
 20
-34.99142514826798
 11
106.8081729518081
 21
-34.95318772767266
  0
LINE
  5
12B
100
AcDbEntity
  8
0
  6
ByLayer
 62
    1
370
   -1
100
AcDbLine
 10
84.82541899764463
 20
-42.99120302393188
 11
149.9998559751837
 21
-43.0627926690547
  0
LINE
  5
12C
100
AcDbEntity
  8
0
  6
ByLayer
 62
    1
370
   -1
100
AcDbLine
 10
117.9807392557939
 20
-43.02886141415681
 11
117.8908910118049
 21
-0.1217881105493852
  0
LINE
  5
12D
100
AcDbEntity
  8
0
  6
ByLayer
 62
    1
370
   -1
100
AcDbLine
 10
106.8050742988909
 20
-34.94771257003132
 11
106.8081530033997
 21
-43.01368379862623
  0
LINE
  5
12E
100
AcDbEntity
  8
0
  6
ByLayer
 62
    1
370
   -1
100
AcDbLine
 10
130.1001034745451
 20
-72.16269316546089
 11
130.0529998889671
 21
-43.09978083969752
  0
LINE
  5
12F
100
AcDbEntity
  8
0
  6
ByLayer
 62
    1
370
   -1
100
AcDbLine
 10
130.0156296596182
 20
-54.05809184633596
 11
150.0249201906414
 21
-54.12201987411209
  0
LINE
  5
130
100
AcDbEntity
  8
0
  6
ByLayer
 62
    1
370
   -1
100
AcDbLine
 10
130.1001034745451
 20
-72.16269316546089
 11
135.5033043522544
 21
-72.15408020782492
  0
LINE
  5
131
100
AcDbEntity
  8
0
  6
ByLayer
 62
    1
370
   -1
100
AcDbLine
 10
135.5
 20
-73.2
 11
135.5033043522544
 21
-72.15408020782492
  0
LINE
  5
132
100
AcDbEntity
  8
0
  6
ByLayer
 62
    1
370
   -1
100
AcDbLine
 10
97.69275913555347
 20
-54.00450186090129
 11
119.9309780272194
 21
-54.00305429569806
  0
LINE
  5
133
100
AcDbEntity
  8
0
  6
ByLayer
 62
    1
370
   -1
100
AcDbLine
 10
97.69532426769909
 20
-68.9921580492244
 11
119.9531799747243
 21
-69.00251083606004
  0
LINE
  5
134
100
AcDbEntity
  8
0
  6
ByLayer
 62
    1
370
   -1
100
AcDbLine
 10
97.6572276446168
 20
-76.04723440772634
 11
119.9731636182321
 21
-76.04146679148278
  0
LINE
  5
135
100
AcDbEntity
  8
0
  6
ByLayer
 62
    1
370
   -1
100
AcDbLine
 10
97.62352259477713
 20
-87.99964341699413
 11
135.4986454221114
 21
-87.9402275822557
  0
LINE
  5
136
100
AcDbEntity
  8
0
  6
ByLayer
 62
    1
370
   -1
100
AcDbLine
 10
80.01478863098605
 20
-93.95952728889762
 11
80.07568268626076
 21
-99.9880387610952
  0
LINE
  5
137
100
AcDbEntity
  8
0
  6
ByLayer
 62
    1
370
   -1
100
AcDbLine
 10
108.7508272147617
 20
-87.89573030855637
 11
108.8
 21
-128.5
  0
LINE
  5
138
100
AcDbEntity
  8
0
  6
ByLayer
 62
    1
370
   -1
100
AcDbLine
 10
95.33227774844509
 20
-112.1000524473871
 11
48.39634205230504
 21
-112.0939596318768
  0
LINE
  5
139
100
AcDbEntity
  8
0
  6
ByLayer
 62
    1
370
   -1
100
AcDbLine
 10
95.33227774844509
 20
-112.1000524473871
 11
95.30000000000001
 21
-128.5
  0
LINE
  5
13A
100
AcDbEntity
  8
0
  6
ByLayer
 62
    1
370
   -1
100
AcDbLine
 10
130.0529998889671
 20
-43.09978083969752
 11
130.1429652429395
 21
-34.90767293311306
  0
LINE
  5
13B
100
AcDbEntity
  8
0
  6
ByLayer
 62
    1
370
   -1
100
AcDbLine
 10
130.1429652429395
 20
-34.90767293311306
 11
150.0029163660834
 21
-34.87097627758022
  0
MTEXT
  5
13C
100
AcDbEntity
  8
0
  6
ByLayer
 62
    1
370
   -1
100
AcDbMText
 10
21.69032963396305
 20
-27.97304580380062
 30
0
 40
2
 41
8.000000000000249
 71
    1
 72
    1
  1
lounge
  7
standard
210
0
220
0
230
1
 50
0
 73
    2
 44
4
  0
MTEXT
  5
13D
100
AcDbEntity
  8
0
  6
ByLayer
 62
    1
370
   -1
100
AcDbMText
 10
63.57510409954688
 20
-35.75164677598048
 30
0
 40
2
 41
6.888888888889261
 71
    1
 72
    1
  1
dining
  7
standard
210
0
220
0
230
1
 50
0
 73
    2
 44
4
  0
MTEXT
  5
13E
100
AcDbEntity
  8
0
  6
ByLayer
 62
    1
370
   -1
100
AcDbMText
 10
70.77830610143576
 20
-72.32537290146715
 30
0
 40
2
 41
8.888888888889074
 71
    1
 72
    1
  1
kitchen
  7
standard
210
0
220
0
230
1
 50
0
 73
    2
 44
4
  0
MTEXT
  5
13F
100
AcDbEntity
  8
0
  6
ByLayer
 62
    1
370
   -1
100
AcDbMText
 10
91.41223171737585
 20
-37.83772122985051
 30
0
 40
2
 41
7.555556584130044
 71
    1
 72
    1
  1
closet
  7
standard
210
0
220
0
230
1
 50
0
 73
    2
 44
4
  0
MTEXT
  5
140
100
AcDbEntity
  8
0
  6
ByLayer
 62
    1
370
   -1
100
AcDbMText
 10
102.1734184891682
 20
-60.17007657346258
 30
0
 40
2
 41
15.05555658413023
 71
    1
 72
    1
  1
bonus room
  7
standard
210
0
220
0
230
1
 50
0
 73
    2
 44
4
  0
MTEXT
  5
141
100
AcDbEntity
  8
0
  6
ByLayer
 62
    1
370
   -1
100
AcDbMText
 10
99.81942872429957
 20
-71.32208393076925
 30
0
 40
2
 41
18.16666666666713
 71
    1
 72
    1
  1
hw tank/linen
  7
standard
210
0
220
0
230
1
 50
0
 73
    2
 44
4
  0
LINE
  5
142
100
AcDbEntity
  8
0
  6
ByLayer
 62
    1
370
   -1
100
AcDbLine
 10
97.69275913555347
 20
-54.00450186090129
 11
97.69532426770824
 21
-100.0226080151524
  0
MTEXT
  5
143
100
AcDbEntity
  8
0
  6
ByLayer
 62
    1
370
   -1
100
AcDbMText
 10
98.55939297527213
 20
-92.14702578472927
 30
0
 40
2
 41
9.77853972182719
 71
    1
 72
    1
  1
storage
  7
standard
210
0
220
0
230
1
 50
0
 73
    2
 44
4
  0
LINE
  5
144
100
AcDbEntity
  8
0
  6
ByLayer
 62
    1
370
   -1
100
AcDbLine
 10
135.5
 20
-86.00000000000001
 11
135.4986454221114
 21
-87.9402275822557
  0
MTEXT
  5
145
100
AcDbEntity
  8
0
  6
ByLayer
 62
    1
370
   -1
100
AcDbMText
 10
-64.13219443818376
 20
-87.4098057527838
 30
0
 40
6
 41
72.9999987279886
 71
    1
 72
    1
  1
40 Sanderlane Dr.\PMotueka 7120
  7
standard
210
0
220
0
230
1
 50
0
 73
    2
 44
1
  0
LINE
  5
146
100
AcDbEntity
  8
0
  6
ByLayer
 62
    1
370
   -1
100
AcDbLine
 10
62.11775645024823
 20
-112.062580800736
 11
62.02824959657352
 21
-156.0104459550182
  0
LINE
  5
147
100
AcDbEntity
  8
0
  6
ByLayer
 62
    1
370
   -1
100
AcDbLine
 10
62.07060362426702
 20
-132.0735527596225
 11
95.4381763408597
 21
-132.0174549271713
  0
LINE
  5
148
100
AcDbEntity
  8
0
  6
ByLayer
 62
    1
370
   -1
100
AcDbLine
 10
62.02824959657371
 20
-99.97915555465055
 11
61.96519081166347
 21
-93.8314730354662
  0
LINE
  5
149
100
AcDbEntity
  8
0
  6
ByLayer
 62
    1
370
   -1
100
AcDbLine
 10
62.02824959657371
 20
-99.97915555465055
 11
108.7013691302759
 21
-100.0468015243622
  0
LINE
  5
14A
100
AcDbEntity
  8
0
  6
ByLayer
 62
    1
370
   -1
100
AcDbLine
 10
48.41209619736222
 20
-93.79998566862193
 11
97.70797171992558
 21
-93.83041692225061
  0
MTEXT
  5
14B
100
AcDbEntity
  8
0
  6
ByLayer
 62
    1
370
   -1
100
AcDbMText
 10
54.00325560321144
 20
-112.6511060760868
 30
0
 40
1
 41
2.666666666666713
 71
    1
 72
    1
  1
door
  7
standard
210
0
220
0
230
1
 50
0
 73
    2
 44
1
  0
MTEXT
  5
14C
100
AcDbEntity
  8
0
  6
ByLayer
 62
    1
370
   -1
100
AcDbMText
 10
53.77100395411478
 20
-94.7419382418616
 30
0
 40
1
 41
2.666666666666713
 71
    1
 72
    1
  1
door
  7
standard
210
0
220
0
230
1
 50
0
 73
    2
 44
1
  0
MTEXT
  5
14D
100
AcDbEntity
  8
0
  6
ByLayer
 62
    1
370
   -1
100
AcDbMText
 10
113.4094539079883
 20
-41.33421488587851
 30
0
 40
1
 41
2.666666666666713
 71
    1
 72
    1
  1
door
  7
standard
210
0
220
0
230
1
 50
0
 73
    2
 44
1
  0
MTEXT
  5
14E
100
AcDbEntity
  8
0
  6
ByLayer
 62
    1
370
   -1
100
AcDbMText
 10
119.2945598800145
 20
-41.40345142672587
 30
0
 40
1
 41
2.666666666666713
 71
    1
 72
    1
  1
door
  7
standard
210
0
220
0
230
1
 50
0
 73
    2
 44
1
  0
MTEXT
  5
14F
100
AcDbEntity
  8
0
  6
ByLayer
 62
    1
370
   -1
100
AcDbMText
 10
138.6049384793322
 20
-86.38708105377233
 30
0
 40
1
 41
2.666666666666713
 71
    1
 72
    1
  1
door
  7
standard
210
0
220
0
230
1
 50
0
 73
    2
 44
1
  0
LINE
  5
150
100
AcDbEntity
  8
0
  6
ByLayer
 62
    1
370
   -1
100
AcDbLine
 10
119.9753596722425
 20
-67.56899572701224
 11
119.9722471418147
 21
-88.01113668277483
  0
LINE
  5
151
100
AcDbEntity
  8
0
  6
ByLayer
 62
    1
370
   -1
100
AcDbLine
 10
119.9309780272194
 20
-54.00305429569806
 11
119.9095764923797
 21
-55.57263826892287
  0
MTEXT
  5
152
100
AcDbEntity
  8
0
  6
ByLayer
 62
    1
370
   -1
100
AcDbMText
 10
117.0749646065228
 20
-80.64567516091515
 30
0
 40
1
 41
2.666666666666713
 71
    1
 72
    1
  1
door
  7
standard
210
0
220
0
230
1
 50
0
 73
    2
 44
1
  0
MTEXT
  5
153
100
AcDbEntity
  8
0
  6
ByLayer
 62
    1
370
   -1
100
AcDbMText
 10
130.410751621784
 20
-58.80534097770794
 30
0
 40
1
 41
2.666666666666713
 71
    1
 72
    1
  1
door
  7
standard
210
0
220
0
230
1
 50
0
 73
    2
 44
1
  0
MTEXT
  5
154
100
AcDbEntity
  8
0
  6
ByLayer
 62
    1
370
   -1
100
AcDbMText
 10
130.4416429564424
 20
-48.05015934807379
 30
0
 40
1
 41
2.666666666666713
 71
    1
 72
    1
  1
door
  7
standard
210
0
220
0
230
1
 50
0
 73
    2
 44
1
  0
MTEXT
  5
155
100
AcDbEntity
  8
0
  6
ByLayer
 62
    1
370
   -1
100
AcDbMText
 10
62.72830600771599
 20
-120.4023445335741
 30
0
 40
1
 41
2.666666666666713
 71
    1
 72
    1
  1
door
  7
standard
210
0
220
0
230
1
 50
0
 73
    2
 44
1
  0
MTEXT
  5
156
100
AcDbEntity
  8
0
  6
ByLayer
 62
    1
370
   -1
100
AcDbMText
 10
62.34907331033371
 20
-152.3305930645163
 30
0
 40
1
 41
2.666666666666713
 71
    1
 72
    1
  1
door
  7
standard
210
0
220
0
230
1
 50
0
 73
    2
 44
1
  0
LINE
  5
157
100
AcDbEntity
  8
0
  6
ByLayer
 62
    3
370
   -1
100
AcDbLine
 10
19.00668720981722
 20
-156.003141920085
 11
18.9910759677555
 21
-120.5968449247112
  0
LINE
  5
158
100
AcDbEntity
  8
0
  6
ByLayer
 62
    3
370
   -1
100
AcDbLine
 10
95.30000000000001
 20
-156
 11
19.00668720981722
 21
-156.003141920085
  0
LINE
  5
159
100
AcDbEntity
  8
0
  6
ByLayer
 62
    3
370
   -1
100
AcDbLine
 10
18.9910759677555
 20
-120.5968449247112
 11
48.4
 21
-120.6
  0
DIMENSION
  5
15A
100
AcDbEntity
  8
0
  6
ByLayer
 62
  256
370
   -3
100
AcDbDimension
  2
*D15
 10
170
 20
-160
 30
0
 11
139.4
 21
-158.125
 31
0
 70
   32
 71
    5
  3
Standard
 53
0
210
0
220
0
230
1
100
AcDbAlignedDimension
 13
108.8
 23
-156
 33
0
 14
170
 24
-156
 34
0
100
AcDbRotatedDimension
  0
LINE
  5
15B
100
AcDbEntity
  8
0
  6
ByLayer
 62
    3
370
   -1
100
AcDbLine
 10
170
 20
-86
 11
170
 21
-156
  0
LINE
  5
15C
100
AcDbEntity
  8
0
  6
ByLayer
 62
    3
370
   -1
100
AcDbLine
 10
135.5
 20
-86.00000000000001
 11
170
 21
-86
  0
LINE
  5
15D
100
AcDbEntity
  8
0
  6
ByLayer
 62
    3
370
   -1
100
AcDbLine
 10
170
 20
-156
 11
108.8
 21
-156
  0
MTEXT
  5
15E
100
AcDbEntity
  8
0
  6
ByLayer
 62
    3
370
   -1
100
AcDbMText
 10
132
 20
-79
 30
0
 40
1
 41
3.333333333333427
 71
    1
 72
    1
  1
entry
  7
standard
210
0
220
0
230
1
 50
0
 73
    2
 44
1
  0
MTEXT
  5
15F
100
AcDbEntity
  8
0
  6
ByLayer
 62
    3
370
   -1
100
AcDbMText
 10
100
 20
-127
 30
0
 40
1
 41
3.333333333333427
 71
    1
 72
    1
  1
entry
  7
standard
210
0
220
0
230
1
 50
0
 73
    2
 44
1
  0
DIMENSION
  5
160
100
AcDbEntity
  8
0
  6
ByLayer
 62
  256
370
   -3
100
AcDbDimension
  2
*D16
 10
53
 20
5
 30
0
 11
27.1
 21
6.875
 31
0
 70
   32
 71
    5
  3
Standard
 53
0
210
0
220
0
230
1
100
AcDbAlignedDimension
 13
-1.836909530733566e-016
 23
-1
 33
0
 14
54.2
 24
-1
 34
0
100
AcDbRotatedDimension
  0
DIMENSION
  5
161
100
AcDbEntity
  8
0
  6
ByLayer
 62
  256
370
   -3
100
AcDbDimension
  2
*D17
 10
146
 20
5
 30
0
 11
117.4
 21
6.875
 31
0
 70
   32
 71
    5
  3
Standard
 53
0
210
0
220
0
230
1
100
AcDbAlignedDimension
 13
84.80000000000001
 23
-1
 33
0
 14
150
 24
-1
 34
0
100
AcDbRotatedDimension
  0
DIMENSION
  5
162
100
AcDbEntity
  8
0
  6
ByLayer
 62
  256
370
   -3
100
AcDbDimension
  2
*D18
 10
144
 20
14
 30
0
 11
75
 21
15.875
 31
0
 70
   32
 71
    5
  3
Standard
 53
0
210
0
220
0
230
1
100
AcDbAlignedDimension
 13
0
 23
0
 33
0
 14
150
 24
0
 34
0
100
AcDbRotatedDimension
  0
DIMENSION
  5
163
100
AcDbEntity
  8
0
  6
ByLayer
 62
  256
370
   -3
100
AcDbDimension
  2
*D19
 10
167
 20
-165
 30
0
 11
94.59999999999999
 21
-163.125
 31
0
 70
   32
 71
    5
  3
Standard
 53
0
210
0
220
0
230
1
100
AcDbAlignedDimension
 13
19.2
 23
-156
 33
0
 14
170
 24
-156
 34
0
100
AcDbRotatedDimension
  0
DIMENSION
  5
164
100
AcDbEntity
  8
0
  6
ByLayer
 62
  256
370
   -1
100
AcDbDimension
  2
*D20
 10
164
 20
-171
 30
0
 11
85
 21
-169.125
 31
0
 70
   32
 71
    5
  3
Standard
 53
0
210
0
220
0
230
1
100
AcDbAlignedDimension
 13
0
 23
-158
 33
0
 14
170
 24
-166
 34
0
100
AcDbRotatedDimension
  0
ENDSEC
  0
SECTION
  2
OBJECTS
  0
DICTIONARY
  5
C
330
0
100
AcDbDictionary
281
    1
  3
ACAD_GROUP
350
D
  0
DICTIONARY
  5
D
330
C
100
AcDbDictionary
281
    1
  0
ENDSEC
  0
EOF
