999
dxfrw 0.6.3
  0
SECTION
  2
HEADER
  9
$ACADVER
  1
AC1021
  9
$DWGCODEPAGE
  3
ANSI_1252
  9
$INSBASE
 10
0
 20
0
 30
0
  9
$EXTMIN
 10
-6413.219443818376
 20
-17225
 30
0
  9
$EXTMAX
 10
20125
 20
1712.5
 30
0
  9
$LIMMIN
 10
0
 20
0
  9
$LIMMAX
 10
420
 20
297
  9
$ORTHOMODE
 70
    0
  9
$REGENMODE
 70
    1
  9
$FILLMODE
 70
    1
  9
$QTEXTMODE
 70
    0
  9
$MIRRTEXT
 70
    0
  9
$LTSCALE
 40
1
  9
$ATTMODE
 70
    0
  9
$TEXTSIZE
 40
2.5
  9
$TRACEWID
 40
15.68
  9
$TEXTSTYLE
  7
STANDARD
  9
$CLAYER
  8
0
  9
$CELTYPE
  6
BYLAYER
  9
$CECOLOR
 62
  256
  9
$CELTSCALE
 40
1
  9
$DISPSILH
 70
    0
  9
$DIMSCALE
 40
100
  9
$DIMASZ
 40
2.5
  9
$DIMEXO
 40
0.625
  9
$DIMDLI
 40
3.75
  9
$DIMRND
 40
0
  9
$DIMDLE
 40
0
  9
$DIMEXE
 40
1.25
  9
$DIMTP
 40
0
  9
$DIMTM
 40
0
  9
$DIMTXT
 40
2.5
  9
$DIMCEN
 40
2.5
  9
$DIMTSZ
 40
0
  9
$DIMTOL
 70
    0
  9
$DIMLIM
 70
    0
  9
$DIMTIH
 70
    0
  9
$DIMTOH
 70
    0
  9
$DIMSE1
 70
    0
  9
$DIMSE2
 70
    0
  9
$DIMTAD
 70
    1
  9
$DIMZIN
 70
    1
  9
$DIMBLK
  1

  9
$DIMASO
 70
    1
  9
$DIMSHO
 70
    1
  9
$DIMPOST
  1

  9
$DIMAPOST
  1

  9
$DIMALT
 70
    0
  9
$DIMALTD
 70
    3
  9
$DIMALTF
 40
0.03937
  9
$DIMLFAC
 40
1
  9
$DIMTOFL
 70
    1
  9
$DIMTVP
 40
0
  9
$DIMTIX
 70
    0
  9
$DIMSOXD
 70
    0
  9
$DIMSAH
 70
    0
  9
$DIMBLK1
  1

  9
$DIMBLK2
  1

  9
$DIMSTYLE
  2
STANDARD
  9
$DIMCLRD
 70
    0
  9
$DIMCLRE
 70
    0
  9
$DIMCLRT
 70
    0
  9
$DIMTFAC
 40
1
  9
$DIMGAP
 40
0.625
  9
$DIMJUST
 70
    0
  9
$DIMSD1
 70
    0
  9
$DIMSD2
 70
    0
  9
$DIMTOLJ
 70
    0
  9
$DIMTZIN
 70
    8
  9
$DIMALTZ
 70
    0
  9
$DIMALTTZ
 70
    0
  9
$DIMUPT
 70
    0
  9
$DIMDEC
 70
    0
  9
$DIMTDEC
 70
    2
  9
$DIMALTU
 70
    2
  9
$DIMALTTD
 70
    3
  9
$DIMTXSTY
  7
standard
  9
$DIMAUNIT
 70
    0
  9
$DIMADEC
 70
    2
  9
$DIMALTRND
 40
0
  9
$DIMAZIN
 70
    0
  9
$DIMDSEP
 70
    0
  9
$DIMATFIT
 70
    3
  9
$DIMFRAC
 70
    0
  9
$DIMLDRBLK
  1
STANDARD
  9
$DIMLUNIT
 70
    2
  9
$DIMLWD
 70
   20
  9
$DIMLWE
 70
   25
  9
$DIMTMOVE
 70
    0
  9
$DIMFXL
 40
1
  9
$DIMFXLON
 70
    0
  9
$DIMJOGANG
 40
0.7854
  9
$DIMTFILL
 70
    0
  9
$DIMTFILLCLR
 70
    0
  9
$DIMARCSYM
 70
    0
  9
$DIMLTYPE
  6

  9
$DIMLTEX1
  6

  9
$DIMLTEX2
  6

  9
$LUNITS
 70
    2
  9
$LUPREC
 70
    2
  9
$SKETCHINC
 40
1
  9
$FILLETRAD
 40
0
  9
$AUNITS
 70
    0
  9
$AUPREC
 70
    2
  9
$MENU
  1
.
  9
$ELEVATION
 40
0
  9
$PELEVATION
 40
0
  9
$THICKNESS
 40
0
  9
$LIMCHECK
 70
    0
  9
$CHAMFERA
 40
0
  9
$CHAMFERB
 40
0
  9
$CHAMFERC
 40
0
  9
$CHAMFERD
 40
0
  9
$SKPOLY
 70
    0
  9
$USRTIMER
 70
    1
  9
$ANGBASE
 50
0
  9
$ANGDIR
 70
    0
  9
$PDMODE
 70
   34
  9
$PDSIZE
 40
0
  9
$PLINEWID
 40
0
  9
$SPLFRAME
 70
    0
  9
$SPLINETYPE
 70
    2
  9
$SPLINESEGS
 70
    8
  9
$HANDSEED
  5
20000
  9
$SURFTAB1
 70
    6
  9
$SURFTAB2
 70
    6
  9
$SURFTYPE
 70
    6
  9
$SURFU
 70
    6
  9
$SURFV
 70
    6
  9
$UCSBASE
  2

  9
$UCSNAME
  2

  9
$UCSORG
 10
0
 20
0
 30
0
  9
$UCSXDIR
 10
1
 20
0
 30
0
  9
$UCSYDIR
 10
0
 20
1
 30
0
  9
$UCSORTHOREF
  2

  9
$UCSORTHOVIEW
 70
    0
  9
$UCSORGTOP
 10
0
 20
0
 30
0
  9
$UCSORGBOTTOM
 10
0
 20
0
 30
0
  9
$UCSORGLEFT
 10
0
 20
0
 30
0
  9
$UCSORGRIGHT
 10
0
 20
0
 30
0
  9
$UCSORGFRONT
 10
0
 20
0
 30
0
  9
$UCSORGBACK
 10
0
 20
0
 30
0
  9
$PUCSBASE
  2

  9
$PUCSNAME
  2

  9
$PUCSORG
 10
0
 20
0
 30
0
  9
$PUCSXDIR
 10
1
 20
0
 30
0
  9
$PUCSYDIR
 10
0
 20
1
 30
0
  9
$PUCSORTHOREF
  2

  9
$PUCSORTHOVIEW
 70
    0
  9
$PUCSORGTOP
 10
0
 20
0
 30
0
  9
$PUCSORGBOTTOM
 10
0
 20
0
 30
0
  9
$PUCSORGLEFT
 10
0
 20
0
 30
0
  9
$PUCSORGRIGHT
 10
0
 20
0
 30
0
  9
$PUCSORGFRONT
 10
0
 20
0
 30
0
  9
$PUCSORGBACK
 10
0
 20
0
 30
0
  9
$USERI1
 70
    0
  9
$USERI2
 70
    0
  9
$USERI3
 70
    0
  9
$USERI4
 70
    0
  9
$USERI5
 70
    0
  9
$USERR1
 40
0
  9
$USERR2
 40
0
  9
$USERR3
 40
0
  9
$USERR4
 40
0
  9
$USERR5
 40
0
  9
$WORLDVIEW
 70
    1
  9
$SHADEDGE
 70
    3
  9
$SHADEDIF
 70
   70
  9
$TILEMODE
 70
    1
  9
$MAXACTVP
 70
   64
  9
$PINSBASE
 10
81.52496626023496
 20
180.7706270627063
 30
0
  9
$PLIMCHECK
 70
    0
  9
$PEXTMIN
 10
0
 20
0
 30
0
  9
$PEXTMAX
 10
0
 20
0
 30
0
  9
$GRIDMODE
 70
    1
  9
$SNAPSTYLE
 70
    0
  9
$GRIDUNIT
 10
0
 20
0
  9
$PLIMMIN
 10
0
 20
0
  9
$PLIMMAX
 10
297
 20
210
  9
$UNITMODE
 70
    0
  9
$VISRETAIN
 70
    1
  9
$PLINEGEN
 70
    0
  9
$PSLTSCALE
 70
    1
  9
$TREEDEPTH
 70
 3020
  9
$CMLSTYLE
  2
Standard
  9
$CMLJUST
 70
    0
  9
$CMLSCALE
 40
20
  9
$PROXYGRAPHICS
 70
    1
  9
$MEASUREMENT
 70
    1
  9
$CELWEIGHT
370
   -1
  9
$ENDCAPS
280
    0
  9
$JOINSTYLE
280
    0
  9
$LWDISPLAY
290
    0
  9
$INSUNITS
 70
    4
  9
$HYPERLINKBASE
  1

  9
$STYLESHEET
  1

  9
$XEDIT
290
    1
  9
$CEPSNTYPE
380
    0
  9
$PSTYLEMODE
290
    1
  9
$EXTNAMES
290
    1
  9
$PSVPSCALE
 40
0.9768964001367656
  9
$OLESTARTUP
290
    0
  9
$SORTENTS
280
  127
  9
$INDEXCTL
280
    0
  9
$HIDETEXT
280
    1
  9
$XCLIPFRAME
290
    0
  9
$HALOGAP
280
    0
  9
$OBSCOLOR
 70
  257
  9
$OBSLTYPE
280
    0
  9
$INTERSECTIONDISPLAY
280
    0
  9
$INTERSECTIONCOLOR
 70
  257
  9
$DIMASSOC
280
    1
  9
$PROJECTNAME
  1

  9
$CAMERADISPLAY
290
    0
  9
$LENSLENGTH
 40
50
  9
$CAMERAHEIGHT
 40
0
  9
$STEPSPERSEC
 40
2
  9
$STEPSIZE
 40
50
  9
$3DDWFPREC
 40
2
  9
$PSOLWIDTH
 40
5
  9
$PSOLHEIGHT
 40
80
  9
$LOFTANG1
 40
1.570796326794897
  9
$LOFTANG2
 40
1.570796326794897
  9
$LOFTMAG1
 40
0
  9
$LOFTMAG2
 40
0
  9
$LOFTPARAM
 70
    7
  9
$LOFTNORMALS
280
    1
  9
$LATITUDE
 40
1
  9
$LONGITUDE
 40
1
  9
$NORTHDIRECTION
 40
0
  9
$TIMEZONE
 70
-8000
  9
$LIGHTGLYPHDISPLAY
280
    1
  9
$TILEMODELIGHTSYNCH
280
    1
  9
$SOLIDHIST
280
    1
  9
$SHOWHIST
280
    1
  9
$DWFFRAME
280
    2
  9
$DGNFRAME
280
    0
  9
$REALWORLDSCALE
290
    1
  9
$INTERFERECOLOR
 62
    1
  9
$CSHADOW
280
    0
  9
$SHADOWPLANELOCATION
 40
0
  0
ENDSEC
  0
SECTION
  2
CLASSES
  0
ENDSEC
  0
SECTION
  2
TABLES
  0
TABLE
  2
VPORT
  5
8
330
0
100
AcDbSymbolTable
 70
    1
  0
VPORT
  5
31
330
2
100
AcDbSymbolTableRecord
100
AcDbViewportTableRecord
  2
*ACTIVE
 70
    0
 10
0
 20
0
 11
1
 21
1
 12
10706.74795709908
 22
957.5140449438202
 13
0
 23
0
 14
10
 24
10
 15
10
 25
10
 16
0
 26
0
 36
1
 17
0
 27
0
 37
0
 40
19324.37436159346
 41
1.506506506506506
 42
50
 43
0
 44
0
 50
0
 51
0
 71
    0
 72
  100
 73
    1
 74
    3
 75
    0
 76
    1
 77
    0
 78
    0
281
    0
 65
    1
110
0
120
0
130
0
111
1
121
0
131
0
112
0
122
1
132
0
 79
    0
146
0
348
10020
 60
    7
 61
    5
292
1
282
    1
141
0
142
0
 63
  250
421
3358443
  0
ENDTAB
  0
TABLE
  2
LTYPE
  5
5
330
0
100
AcDbSymbolTable
 70
    4
  0
LTYPE
  5
14
330
5
100
AcDbSymbolTableRecord
100
AcDbLinetypeTableRecord
  2
ByBlock
 70
    0
  3

 72
   65
 73
    0
 40
0
  0
LTYPE
  5
15
330
5
100
AcDbSymbolTableRecord
100
AcDbLinetypeTableRecord
  2
ByLayer
 70
    0
  3

 72
   65
 73
    0
 40
0
  0
LTYPE
  5
16
330
5
100
AcDbSymbolTableRecord
100
AcDbLinetypeTableRecord
  2
Continuous
 70
    0
  3
Solid line
 72
   65
 73
    0
 40
0
  0
LTYPE
  5
32
330
5
100
AcDbSymbolTableRecord
100
AcDbLinetypeTableRecord
  2
DOT
 70
    0
  3
Dot . . . . . . . . . . . . . . . . . . . . . .
 72
   65
 73
    2
 40
6.35
 49
0
 74
    0
 49
-6.35
 74
    0
  0
LTYPE
  5
33
330
5
100
AcDbSymbolTableRecord
100
AcDbLinetypeTableRecord
  2
DOTTINY
 70
    0
  3
Dot (.15x) .....................................
 72
   65
 73
    2
 40
0.9525
 49
0
 74
    0
 49
-0.9525
 74
    0
  0
LTYPE
  5
34
330
5
100
AcDbSymbolTableRecord
100
AcDbLinetypeTableRecord
  2
DOT2
 70
    0
  3
Dot (.5x) .....................................
 72
   65
 73
    2
 40
3.175
 49
0
 74
    0
 49
-3.175
 74
    0
  0
LTYPE
  5
35
330
5
100
AcDbSymbolTableRecord
100
AcDbLinetypeTableRecord
  2
DOTX2
 70
    0
  3
Dot (2x) .  .  .  .  .  .  .  .  .  .  .  .  .
 72
   65
 73
    2
 40
12.7
 49
0
 74
    0
 49
-12.7
 74
    0
  0
LTYPE
  5
36
330
5
100
AcDbSymbolTableRecord
100
AcDbLinetypeTableRecord
  2
DASHED
 70
    0
  3
Dashed _ _ _ _ _ _ _ _ _ _ _ _ _ _ _ _ _
 72
   65
 73
    2
 40
19.05
 49
12.7
 74
    0
 49
-6.35
 74
    0
  0
LTYPE
  5
37
330
5
100
AcDbSymbolTableRecord
100
AcDbLinetypeTableRecord
  2
DASHEDTINY
 70
    0
  3
Dashed (.15x) _ _ _ _ _ _ _ _ _ _ _ _ _ _ _ _ _
 72
   65
 73
    2
 40
2.8575
 49
1.905
 74
    0
 49
-0.9525
 74
    0
  0
LTYPE
  5
38
330
5
100
AcDbSymbolTableRecord
100
AcDbLinetypeTableRecord
  2
DASHED2
 70
    0
  3
Dashed (.5x) _ _ _ _ _ _ _ _ _ _ _ _ _ _ _ _ _
 72
   65
 73
    2
 40
9.524999999999999
 49
6.35
 74
    0
 49
-3.175
 74
    0
  0
LTYPE
  5
39
330
5
100
AcDbSymbolTableRecord
100
AcDbLinetypeTableRecord
  2
DASHEDX2
 70
    0
  3
Dashed (2x) ____  ____  ____  ____  ____  ___
 72
   65
 73
    2
 40
38.09999999999999
 49
25.4
 74
    0
 49
-12.7
 74
    0
  0
LTYPE
  5
3A
330
5
100
AcDbSymbolTableRecord
100
AcDbLinetypeTableRecord
  2
DASHDOT
 70
    0
  3
Dash dot __ . __ . __ . __ . __ . __ . __ . __
 72
   65
 73
    4
 40
25.4
 49
12.7
 74
    0
 49
-6.35
 74
    0
 49
0
 74
    0
 49
-6.35
 74
    0
  0
LTYPE
  5
3B
330
5
100
AcDbSymbolTableRecord
100
AcDbLinetypeTableRecord
  2
DASHDOTTINY
 70
    0
  3
Dash dot (.15x) _._._._._._._._._._._._._._._.
 72
   65
 73
    4
 40
3.81
 49
1.905
 74
    0
 49
-0.9525
 74
    0
 49
0
 74
    0
 49
-0.9525
 74
    0
  0
LTYPE
  5
3C
330
5
100
AcDbSymbolTableRecord
100
AcDbLinetypeTableRecord
  2
DASHDOT2
 70
    0
  3
Dash dot (.5x) _._._._._._._._._._._._._._._.
 72
   65
 73
    4
 40
12.7
 49
6.35
 74
    0
 49
-3.175
 74
    0
 49
0
 74
    0
 49
-3.175
 74
    0
  0
LTYPE
  5
3D
330
5
100
AcDbSymbolTableRecord
100
AcDbLinetypeTableRecord
  2
DASHDOTX2
 70
    0
  3
Dash dot (2x) ____  .  ____  .  ____  .  ___
 72
   65
 73
    4
 40
50.8
 49
25.4
 74
    0
 49
-12.7
 74
    0
 49
0
 74
    0
 49
-12.7
 74
    0
  0
LTYPE
  5
3E
330
5
100
AcDbSymbolTableRecord
100
AcDbLinetypeTableRecord
  2
DIVIDE
 70
    0
  3
Divide ____ . . ____ . . ____ . . ____ . . ____
 72
   65
 73
    6
 40
31.75
 49
12.7
 74
    0
 49
-6.35
 74
    0
 49
0
 74
    0
 49
-6.35
 74
    0
 49
0
 74
    0
 49
-6.35
 74
    0
  0
LTYPE
  5
3F
330
5
100
AcDbSymbolTableRecord
100
AcDbLinetypeTableRecord
  2
DIVIDETINY
 70
    0
  3
Divide (.15x) __..__..__..__..__..__..__..__.._
 72
   65
 73
    6
 40
4.7625
 49
1.905
 74
    0
 49
-0.9525
 74
    0
 49
0
 74
    0
 49
-0.9525
 74
    0
 49
0
 74
    0
 49
-0.9525
 74
    0
  0
LTYPE
  5
40
330
5
100
AcDbSymbolTableRecord
100
AcDbLinetypeTableRecord
  2
DIVIDE2
 70
    0
  3
Divide (.5x) __..__..__..__..__..__..__..__.._
 72
   65
 73
    6
 40
15.875
 49
6.35
 74
    0
 49
-3.175
 74
    0
 49
0
 74
    0
 49
-3.175
 74
    0
 49
0
 74
    0
 49
-3.175
 74
    0
  0
LTYPE
  5
41
330
5
100
AcDbSymbolTableRecord
100
AcDbLinetypeTableRecord
  2
DIVIDEX2
 70
    0
  3
Divide (2x) ________  .  .  ________  .  .  _
 72
   65
 73
    6
 40
63.5
 49
25.4
 74
    0
 49
-12.7
 74
    0
 49
0
 74
    0
 49
-12.7
 74
    0
 49
0
 74
    0
 49
-12.7
 74
    0
  0
LTYPE
  5
42
330
5
100
AcDbSymbolTableRecord
100
AcDbLinetypeTableRecord
  2
BORDER
 70
    0
  3
Border __ __ . __ __ . __ __ . __ __ . __ __ .
 72
   65
 73
    6
 40
44.45
 49
12.7
 74
    0
 49
-6.35
 74
    0
 49
12.7
 74
    0
 49
-6.35
 74
    0
 49
0
 74
    0
 49
-6.35
 74
    0
  0
LTYPE
  5
43
330
5
100
AcDbSymbolTableRecord
100
AcDbLinetypeTableRecord
  2
BORDERTINY
 70
    0
  3
Border (.15x) __.__.__.__.__.__.__.__.__.__.__.
 72
   65
 73
    6
 40
6.6675
 49
1.905
 74
    0
 49
-0.9525
 74
    0
 49
1.905
 74
    0
 49
-0.9525
 74
    0
 49
0
 74
    0
 49
-0.9525
 74
    0
  0
LTYPE
  5
44
330
5
100
AcDbSymbolTableRecord
100
AcDbLinetypeTableRecord
  2
BORDER2
 70
    0
  3
Border (.5x) __.__.__.__.__.__.__.__.__.__.__.
 72
   65
 73
    6
 40
22.225
 49
6.35
 74
    0
 49
-3.175
 74
    0
 49
6.35
 74
    0
 49
-3.175
 74
    0
 49
0
 74
    0
 49
-3.175
 74
    0
  0
LTYPE
  5
45
330
5
100
AcDbSymbolTableRecord
100
AcDbLinetypeTableRecord
  2
BORDERX2
 70
    0
  3
Border (2x) ____  ____  .  ____  ____  .  ___
 72
   65
 73
    6
 40
88.89999999999999
 49
25.4
 74
    0
 49
-12.7
 74
    0
 49
25.4
 74
    0
 49
-12.7
 74
    0
 49
0
 74
    0
 49
-12.7
 74
    0
  0
LTYPE
  5
46
330
5
100
AcDbSymbolTableRecord
100
AcDbLinetypeTableRecord
  2
CENTER
 70
    0
  3
Center ____ _ ____ _ ____ _ ____ _ ____ _ ____
 72
   65
 73
    4
 40
50.8
 49
31.75
 74
    0
 49
-6.35
 74
    0
 49
6.35
 74
    0
 49
-6.35
 74
    0
  0
LTYPE
  5
47
330
5
100
AcDbSymbolTableRecord
100
AcDbLinetypeTableRecord
  2
CENTERTINY
 70
    0
  3
Center (.15x) ___ _ ___ _ ___ _ ___ _ ___ _ ___
 72
   65
 73
    4
 40
7.62
 49
4.7625
 74
    0
 49
-0.9525
 74
    0
 49
0.9525
 74
    0
 49
-0.9525
 74
    0
  0
LTYPE
  5
48
330
5
100
AcDbSymbolTableRecord
100
AcDbLinetypeTableRecord
  2
CENTER2
 70
    0
  3
Center (.5x) ___ _ ___ _ ___ _ ___ _ ___ _ ___
 72
   65
 73
    4
 40
28.575
 49
19.05
 74
    0
 49
-3.175
 74
    0
 49
3.175
 74
    0
 49
-3.175
 74
    0
  0
LTYPE
  5
49
330
5
100
AcDbSymbolTableRecord
100
AcDbLinetypeTableRecord
  2
CENTERX2
 70
    0
  3
Center (2x) ________  __  ________  __  _____
 72
   65
 73
    4
 40
101.6
 49
63.5
 74
    0
 49
-12.7
 74
    0
 49
12.7
 74
    0
 49
-12.7
 74
    0
  0
ENDTAB
  0
TABLE
  2
LAYER
  5
2
330
0
100
AcDbSymbolTable
 70
    1
  0
LAYER
  5
10
330
2
100
AcDbSymbolTableRecord
100
AcDbLayerTableRecord
  2
0
 70
    0
 62
    7
  6
CONTINUOUS
370
   25
390
F
  0
ENDTAB
  0
TABLE
  2
STYLE
  5
3
330
0
100
AcDbSymbolTable
 70
    3
  0
STYLE
  5
4A
330
2
100
AcDbSymbolTableRecord
100
AcDbTextStyleTableRecord
  2
standard
 70
    0
 40
0
 41
1
 50
0
 71
    0
 42
1
  3
standard
  4

  0
ENDTAB
  0
TABLE
  2
VIEW
  5
6
330
0
100
AcDbSymbolTable
 70
    0
  0
ENDTAB
  0
TABLE
  2
UCS
  5
7
330
0
100
AcDbSymbolTable
 70
    0
  0
ENDTAB
  0
TABLE
  2
APPID
  5
9
330
0
100
AcDbSymbolTable
 70
    1
  0
APPID
  5
12
330
9
100
AcDbSymbolTableRecord
100
AcDbRegAppTableRecord
  2
ACAD
 70
    0
  0
APPID
  5
4B
330
9
100
AcDbSymbolTableRecord
100
AcDbRegAppTableRecord
  2
LibreCad
 70
    0
  0
ENDTAB
  0
TABLE
  2
DIMSTYLE
  5
A
330
0
100
AcDbSymbolTable
 70
    1
100
AcDbDimStyleTable
 71
    1
  0
DIMSTYLE
105
4C
330
A
100
AcDbSymbolTableRecord
100
AcDbDimStyleTableRecord
  2
Standard
 70
    0
 40
100
 41
2.5
 42
0.625
 43
0.38
 44
1.25
 45
0
 46
0
 47
0
 48
0
 49
1
140
2.5
141
0.09
142
0
143
25.4
144
1
145
0
146
1
147
0.625
148
0
 71
    0
 72
    0
 73
    0
 74
    1
 75
    0
 76
    0
 77
    0
 78
    1
 79
    0
170
    0
171
    2
172
    0
173
    0
174
    0
175
    0
176
    0
177
    0
178
    0
179
    2
271
    0
272
    4
273
    2
274
    2
275
    0
276
    0
277
    2
278
    0
279
    0
280
    0
281
    0
282
    0
283
    1
284
    0
285
    0
286
    0
288
    0
289
    3
340
standard
341

371
   20
372
   25
  0
ENDTAB
  0
TABLE
  2
BLOCK_RECORD
  5
1
330
0
100
AcDbSymbolTable
 70
    2
  0
BLOCK_RECORD
  5
1F
330
1
100
AcDbSymbolTableRecord
100
AcDbBlockTableRecord
  2
*Model_Space
 70
    0
280
    1
281
    0
  0
BLOCK_RECORD
  5
1E
330
1
100
AcDbSymbolTableRecord
100
AcDbBlockTableRecord
  2
*Paper_Space
 70
    0
280
    1
281
    0
  0
BLOCK_RECORD
  5
4D
330
1
100
AcDbSymbolTableRecord
100
AcDbBlockTableRecord
  2
*D4
 70
    0
280
    1
281
    0
  0
BLOCK_RECORD
  5
50
330
1
100
AcDbSymbolTableRecord
100
AcDbBlockTableRecord
  2
*D12
 70
    0
280
    1
281
    0
  0
BLOCK_RECORD
  5
53
330
1
100
AcDbSymbolTableRecord
100
AcDbBlockTableRecord
  2
*D11
 70
    0
280
    1
281
    0
  0
BLOCK_RECORD
  5
56
330
1
100
AcDbSymbolTableRecord
100
AcDbBlockTableRecord
  2
*D2
 70
    0
280
    1
281
    0
  0
BLOCK_RECORD
  5
59
330
1
100
AcDbSymbolTableRecord
100
AcDbBlockTableRecord
  2
*D13
 70
    0
280
    1
281
    0
  0
BLOCK_RECORD
  5
5C
330
1
100
AcDbSymbolTableRecord
100
AcDbBlockTableRecord
  2
*D3
 70
    0
280
    1
281
    0
  0
BLOCK_RECORD
  5
5F
330
1
100
AcDbSymbolTableRecord
100
AcDbBlockTableRecord
  2
*D10
 70
    0
280
    1
281
    0
  0
BLOCK_RECORD
  5
62
330
1
100
AcDbSymbolTableRecord
100
AcDbBlockTableRecord
  2
*D16
 70
    0
280
    1
281
    0
  0
BLOCK_RECORD
  5
65
330
1
100
AcDbSymbolTableRecord
100
AcDbBlockTableRecord
  2
*D18
 70
    0
280
    1
281
    0
  0
BLOCK_RECORD
  5
68
330
1
100
AcDbSymbolTableRecord
100
AcDbBlockTableRecord
  2
*D6
 70
    0
280
    1
281
    0
  0
BLOCK_RECORD
  5
6B
330
1
100
AcDbSymbolTableRecord
100
AcDbBlockTableRecord
  2
*D8
 70
    0
280
    1
281
    0
  0
BLOCK_RECORD
  5
6E
330
1
100
AcDbSymbolTableRecord
100
AcDbBlockTableRecord
  2
*D19
 70
    0
280
    1
281
    0
  0
BLOCK_RECORD
  5
71
330
1
100
AcDbSymbolTableRecord
100
AcDbBlockTableRecord
  2
*D9
 70
    0
280
    1
281
    0
  0
BLOCK_RECORD
  5
74
330
1
100
AcDbSymbolTableRecord
100
AcDbBlockTableRecord
  2
*D7
 70
    0
280
    1
281
    0
  0
BLOCK_RECORD
  5
77
330
1
100
AcDbSymbolTableRecord
100
AcDbBlockTableRecord
  2
*D5
 70
    0
280
    1
281
    0
  0
BLOCK_RECORD
  5
7A
330
1
100
AcDbSymbolTableRecord
100
AcDbBlockTableRecord
  2
*D15
 70
    0
280
    1
281
    0
  0
BLOCK_RECORD
  5
7D
330
1
100
AcDbSymbolTableRecord
100
AcDbBlockTableRecord
  2
*D1
 70
    0
280
    1
281
    0
  0
BLOCK_RECORD
  5
80
330
1
100
AcDbSymbolTableRecord
100
AcDbBlockTableRecord
  2
*D20
 70
    0
280
    1
281
    0
  0
BLOCK_RECORD
  5
83
330
1
100
AcDbSymbolTableRecord
100
AcDbBlockTableRecord
  2
*D17
 70
    0
280
    1
281
    0
  0
BLOCK_RECORD
  5
86
330
1
100
AcDbSymbolTableRecord
100
AcDbBlockTableRecord
  2
*D14
 70
    0
280
    1
281
    0
  0
ENDTAB
  0
ENDSEC
  0
SECTION
  2
BLOCKS
  0
BLOCK
  5
20
330
1F
100
AcDbEntity
  8
0
100
AcDbBlockBegin
  2
*Model_Space
 70
    0
 10
0
 20
0
 30
0
  3
*Model_Space
  1

  0
ENDBLK
  5
21
330
1F
100
AcDbEntity
  8
0
100
AcDbBlockEnd
  0
BLOCK
  5
1C
330
1B
100
AcDbEntity
  8
0
100
AcDbBlockBegin
  2
*Paper_Space
 70
    0
 10
0
 20
0
 30
0
  3
*Paper_Space
  1

  0
ENDBLK
  5
1D
330
1F
100
AcDbEntity
  8
0
100
AcDbBlockEnd
  0
BLOCK
  5
4E
330
4D
100
AcDbEntity
  8
0
100
AcDbBlockBegin
  2
*D4
 70
    1
 10
0
 20
0
  3
*D4
  1

  0
LINE
  5
89
100
AcDbEntity
  8
0
  6
ByBlock
 62
    0
370
   20
100
AcDbLine
 10
13550
 20
-8200
 11
17200
 21
-8200
  0
SOLID
  5
8A
100
AcDbEntity
  8
0
  6
ByBlock
 62
    0
370
   20
100
AcDbTrace
 10
13550
 20
-8200
 30
0
 11
13800
 21
-8158.371534222716
 31
0
 12
13800
 22
-8241.628465777285
 32
0
 13
13800
 23
-8241.628465777285
 33
0
  0
SOLID
  5
8B
100
AcDbEntity
  8
0
  6
ByBlock
 62
    0
370
   20
100
AcDbTrace
 10
17200
 20
-8200
 30
0
 11
16950
 21
-8241.628465777285
 31
0
 12
16950
 22
-8158.371534222716
 32
0
 13
16950
 23
-8158.371534222716
 33
0
  0
MTEXT
  5
8C
100
AcDbEntity
  8
0
  6
CONTINUOUS
 62
    0
370
   -2
100
AcDbMText
 10
15375
 20
-8012.5
 30
0
 40
250
 41
694.444444444491
 71
    5
 72
    1
  1
3650
  7
standard
210
0
220
0
230
1
 50
0
 73
    2
 44
1
  0
LINE
  5
8D
100
AcDbEntity
  8
0
  6
ByBlock
 62
    0
370
   25
100
AcDbLine
 10
13550
 20
-8537.500000000002
 11
13550
 21
-8075
  0
LINE
  5
8E
100
AcDbEntity
  8
0
  6
ByBlock
 62
    0
370
   25
100
AcDbLine
 10
17200
 20
-8537.5
 11
17200
 21
-8075
  0
ENDBLK
  5
4F
330
4D
100
AcDbEntity
  8
0
100
AcDbBlockEnd
  0
BLOCK
  5
51
330
50
100
AcDbEntity
  8
0
100
AcDbBlockBegin
  2
*D12
 70
    1
 10
0
 20
0
  3
*D12
  1

  0
LINE
  5
8F
100
AcDbEntity
  8
0
  6
ByBlock
 62
    0
370
   20
100
AcDbLine
 10
9530.000000000002
 20
-13200
 11
10880
 21
-13200
  0
SOLID
  5
90
100
AcDbEntity
  8
0
  6
ByBlock
 62
    0
370
   20
100
AcDbTrace
 10
9530.000000000002
 20
-13200
 30
0
 11
9780.000000000002
 21
-13158.37153422272
 31
0
 12
9780.000000000002
 22
-13241.62846577728
 32
0
 13
9780.000000000002
 23
-13241.62846577728
 33
0
  0
SOLID
  5
91
100
AcDbEntity
  8
0
  6
ByBlock
 62
    0
370
   20
100
AcDbTrace
 10
10880
 20
-13200
 30
0
 11
10630
 21
-13241.62846577728
 31
0
 12
10630
 22
-13158.37153422272
 32
0
 13
10630
 23
-13158.37153422272
 33
0
  0
MTEXT
  5
92
100
AcDbEntity
  8
0
  6
CONTINUOUS
 62
    0
370
   -2
100
AcDbMText
 10
10205
 20
-13012.5
 30
0
 40
250
 41
638.8888888889198
 71
    5
 72
    1
  1
1350
  7
standard
210
0
220
0
230
1
 50
0
 73
    2
 44
1
  0
LINE
  5
93
100
AcDbEntity
  8
0
  6
ByBlock
 62
    0
370
   25
100
AcDbLine
 10
9530.000000000002
 20
-12912.5
 11
9530.000000000002
 21
-13325
  0
LINE
  5
94
100
AcDbEntity
  8
0
  6
ByBlock
 62
    0
370
   25
100
AcDbLine
 10
10880
 20
-12912.5
 11
10880
 21
-13325
  0
ENDBLK
  5
52
330
50
100
AcDbEntity
  8
0
100
AcDbBlockEnd
  0
BLOCK
  5
54
330
53
100
AcDbEntity
  8
0
100
AcDbBlockBegin
  2
*D11
 70
    1
 10
0
 20
0
  3
*D11
  1

  0
LINE
  5
95
100
AcDbEntity
  8
0
  6
ByBlock
 62
    0
370
   20
100
AcDbLine
 10
13550
 20
-7776.170858577521
 11
15000
 21
-7776.170858577521
  0
SOLID
  5
96
100
AcDbEntity
  8
0
  6
ByBlock
 62
    0
370
   20
100
AcDbTrace
 10
13550
 20
-7776.170858577521
 30
0
 11
13800
 21
-7734.542392800237
 31
0
 12
13800
 22
-7817.799324354805
 32
0
 13
13800
 23
-7817.799324354805
 33
0
  0
SOLID
  5
97
100
AcDbEntity
  8
0
  6
ByBlock
 62
    0
370
   20
100
AcDbTrace
 10
15000
 20
-7776.170858577521
 30
0
 11
14750
 21
-7817.799324354805
 31
0
 12
14750
 22
-7734.542392800237
 32
0
 13
14750
 23
-7734.542392800237
 33
0
  0
MTEXT
  5
98
100
AcDbEntity
  8
0
  6
CONTINUOUS
 62
    0
370
   -2
100
AcDbMText
 10
14275
 20
-7588.670858577521
 30
0
 40
250
 41
666.6666666666822
 71
    5
 72
    1
  1
1450
  7
standard
210
0
220
0
230
1
 50
0
 73
    2
 44
1
  0
LINE
  5
99
100
AcDbEntity
  8
0
  6
ByBlock
 62
    0
370
   25
100
AcDbLine
 10
13550
 20
-7382.5
 11
13550
 21
-7901.170858577521
  0
LINE
  5
9A
100
AcDbEntity
  8
0
  6
ByBlock
 62
    0
370
   25
100
AcDbLine
 10
15000
 20
-7382.5
 11
15000
 21
-7901.170858577521
  0
ENDBLK
  5
55
330
53
100
AcDbEntity
  8
0
100
AcDbBlockEnd
  0
BLOCK
  5
57
330
56
100
AcDbEntity
  8
0
100
AcDbBlockBegin
  2
*D2
 70
    1
 10
0
 20
0
  3
*D2
  1

  0
LINE
  5
9B
100
AcDbEntity
  8
0
  6
ByBlock
 62
    0
370
   20
100
AcDbLine
 10
18000
 20
-8600
 11
18000
 21
-15600
  0
SOLID
  5
9C
100
AcDbEntity
  8
0
  6
ByBlock
 62
    0
370
   20
100
AcDbTrace
 10
18000
 20
-8600
 30
0
 11
18041.62846577728
 21
-8850
 31
0
 12
17958.37153422272
 22
-8850
 32
0
 13
17958.37153422272
 23
-8850
 33
0
  0
SOLID
  5
9D
100
AcDbEntity
  8
0
  6
ByBlock
 62
    0
370
   20
100
AcDbTrace
 10
18000
 20
-15600
 30
0
 11
17958.37153422272
 21
-15350
 31
0
 12
18041.62846577728
 22
-15350
 32
0
 13
18041.62846577728
 23
-15350
 33
0
  0
MTEXT
  5
9E
100
AcDbEntity
  8
0
  6
CONTINUOUS
 62
    0
370
   -2
100
AcDbMText
 10
17812.5
 20
-12100
 30
0
 40
250
 41
694.4444444444445
 71
    5
 72
    1
  1
7000
  7
standard
210
0
220
0
230
1
 50
90
 73
    2
 44
1
  0
LINE
  5
9F
100
AcDbEntity
  8
0
  6
ByBlock
 62
    0
370
   25
100
AcDbLine
 10
17312.5
 20
-8600
 11
18125
 21
-8600
  0
LINE
  5
A0
100
AcDbEntity
  8
0
  6
ByBlock
 62
    0
370
   25
100
AcDbLine
 10
17262.5
 20
-15600
 11
18125
 21
-15600
  0
ENDBLK
  5
58
330
56
100
AcDbEntity
  8
0
100
AcDbBlockEnd
  0
BLOCK
  5
5A
330
59
100
AcDbEntity
  8
0
100
AcDbBlockBegin
  2
*D13
 70
    1
 10
0
 20
0
  3
*D13
  1

  0
LINE
  5
A1
100
AcDbEntity
  8
0
  6
ByBlock
 62
    0
370
   20
100
AcDbLine
 10
10880
 20
-16000
 11
17000
 21
-16000
  0
SOLID
  5
A2
100
AcDbEntity
  8
0
  6
ByBlock
 62
    0
370
   20
100
AcDbTrace
 10
10880
 20
-16000
 30
0
 11
11130
 21
-15958.37153422272
 31
0
 12
11130
 22
-16041.62846577728
 32
0
 13
11130
 23
-16041.62846577728
 33
0
  0
SOLID
  5
A3
100
AcDbEntity
  8
0
  6
ByBlock
 62
    0
370
   20
100
AcDbTrace
 10
17000
 20
-16000
 30
0
 11
16750
 21
-16041.62846577728
 31
0
 12
16750
 22
-15958.37153422272
 32
0
 13
16750
 23
-15958.37153422272
 33
0
  0
MTEXT
  5
A4
100
AcDbEntity
  8
0
  6
CONTINUOUS
 62
    0
370
   -2
100
AcDbMText
 10
13940
 20
-15812.5
 30
0
 40
250
 41
638.8888888889044
 71
    5
 72
    1
  1
6120
  7
standard
210
0
220
0
230
1
 50
0
 73
    2
 44
1
  0
LINE
  5
A5
100
AcDbEntity
  8
0
  6
ByBlock
 62
    0
370
   25
100
AcDbLine
 10
10880
 20
-15662.5
 11
10880
 21
-16125
  0
LINE
  5
A6
100
AcDbEntity
  8
0
  6
ByBlock
 62
    0
370
   25
100
AcDbLine
 10
17000
 20
-15662.5
 11
17000
 21
-16125
  0
ENDBLK
  5
5B
330
59
100
AcDbEntity
  8
0
100
AcDbBlockEnd
  0
BLOCK
  5
5D
330
5C
100
AcDbEntity
  8
0
100
AcDbBlockBegin
  2
*D3
 70
    1
 10
0
 20
0
  3
*D3
  1

  0
LINE
  5
A7
100
AcDbEntity
  8
0
  6
ByBlock
 62
    0
370
   20
100
AcDbLine
 10
20000
 20
-15600
 11
20000
 21
0
  0
SOLID
  5
A8
100
AcDbEntity
  8
0
  6
ByBlock
 62
    0
370
   20
100
AcDbTrace
 10
20000
 20
-15600
 30
0
 11
19958.37153422272
 21
-15350
 31
0
 12
20041.62846577728
 22
-15350
 32
0
 13
20041.62846577728
 23
-15350
 33
0
  0
SOLID
  5
A9
100
AcDbEntity
  8
0
  6
ByBlock
 62
    0
370
   20
100
AcDbTrace
 10
20000
 20
0
 30
0
 11
20041.62846577728
 21
-250
 31
0
 12
19958.37153422272
 22
-250
 32
0
 13
19958.37153422272
 23
-250
 33
0
  0
MTEXT
  5
AA
100
AcDbEntity
  8
0
  6
CONTINUOUS
 62
    0
370
   -2
100
AcDbMText
 10
19812.5
 20
-7800
 30
0
 40
250
 41
833.3333333333644
 71
    5
 72
    1
  1
15600
  7
standard
210
0
220
0
230
1
 50
90
 73
    2
 44
1
  0
LINE
  5
AB
100
AcDbEntity
  8
0
  6
ByBlock
 62
    0
370
   25
100
AcDbLine
 10
17262.5
 20
-15600
 11
20125
 21
-15600
  0
LINE
  5
AC
100
AcDbEntity
  8
0
  6
ByBlock
 62
    0
370
   25
100
AcDbLine
 10
17062.5
 20
0
 11
20125
 21
0
  0
ENDBLK
  5
5E
330
5C
100
AcDbEntity
  8
0
100
AcDbBlockEnd
  0
BLOCK
  5
60
330
5F
100
AcDbEntity
  8
0
100
AcDbBlockBegin
  2
*D10
 70
    1
 10
0
 20
0
  3
*D10
  1

  0
LINE
  5
AD
100
AcDbEntity
  8
0
  6
ByBlock
 62
    0
370
   20
100
AcDbLine
 10
15800
 20
0
 11
15800
 21
-7320
  0
SOLID
  5
AE
100
AcDbEntity
  8
0
  6
ByBlock
 62
    0
370
   20
100
AcDbTrace
 10
15800
 20
0
 30
0
 11
15841.62846577728
 21
-250
 31
0
 12
15758.37153422272
 22
-250
 32
0
 13
15758.37153422272
 23
-250
 33
0
  0
SOLID
  5
AF
100
AcDbEntity
  8
0
  6
ByBlock
 62
    0
370
   20
100
AcDbTrace
 10
15800
 20
-7320
 30
0
 11
15758.37153422272
 21
-7070
 31
0
 12
15841.62846577728
 22
-7070
 32
0
 13
15841.62846577728
 23
-7070
 33
0
  0
MTEXT
  5
B0
100
AcDbEntity
  8
0
  6
CONTINUOUS
 62
    0
370
   -2
100
AcDbMText
 10
15612.5
 20
-3660
 30
0
 40
250
 41
694.44444444446
 71
    5
 72
    1
  1
7320
  7
standard
210
0
220
0
230
1
 50
90
 73
    2
 44
1
  0
LINE
  5
B1
100
AcDbEntity
  8
0
  6
ByBlock
 62
    0
370
   25
100
AcDbLine
 10
15062.5
 20
0
 11
15925
 21
0
  0
LINE
  5
B2
100
AcDbEntity
  8
0
  6
ByBlock
 62
    0
370
   25
100
AcDbLine
 10
15062.5
 20
-7320
 11
15925
 21
-7320
  0
ENDBLK
  5
61
330
5F
100
AcDbEntity
  8
0
100
AcDbBlockEnd
  0
BLOCK
  5
63
330
62
100
AcDbEntity
  8
0
100
AcDbBlockBegin
  2
*D16
 70
    1
 10
0
 20
0
  3
*D16
  1

  0
LINE
  5
B3
100
AcDbEntity
  8
0
  6
ByBlock
 62
    0
370
   20
100
AcDbLine
 10
0
 20
1400
 11
15000
 21
1400
  0
SOLID
  5
B4
100
AcDbEntity
  8
0
  6
ByBlock
 62
    0
370
   20
100
AcDbTrace
 10
0
 20
1400
 30
0
 11
250
 21
1441.628465777284
 31
0
 12
250
 22
1358.371534222716
 32
0
 13
250
 23
1358.371534222716
 33
0
  0
SOLID
  5
B5
100
AcDbEntity
  8
0
  6
ByBlock
 62
    0
370
   20
100
AcDbTrace
 10
15000
 20
1400
 30
0
 11
14750
 21
1358.371534222716
 31
0
 12
14750
 22
1441.628465777284
 32
0
 13
14750
 23
1441.628465777284
 33
0
  0
MTEXT
  5
B6
100
AcDbEntity
  8
0
  6
CONTINUOUS
 62
    0
370
   -2
100
AcDbMText
 10
7500
 20
1587.5
 30
0
 40
250
 41
833.3333333333489
 71
    5
 72
    1
  1
15000
  7
standard
210
0
220
0
230
1
 50
0
 73
    2
 44
1
  0
LINE
  5
B7
100
AcDbEntity
  8
0
  6
ByBlock
 62
    0
370
   25
100
AcDbLine
 10
3.826894855694929e-015
 20
62.5
 11
7.653789711389858e-015
 21
1525
  0
LINE
  5
B8
100
AcDbEntity
  8
0
  6
ByBlock
 62
    0
370
   25
100
AcDbLine
 10
15000
 20
62.5
 11
15000
 21
1525
  0
ENDBLK
  5
64
330
62
100
AcDbEntity
  8
0
100
AcDbBlockEnd
  0
BLOCK
  5
66
330
65
100
AcDbEntity
  8
0
100
AcDbBlockBegin
  2
*D18
 70
    1
 10
0
 20
0
  3
*D18
  1

  0
LINE
  5
B9
100
AcDbEntity
  8
0
  6
ByBlock
 62
    0
370
   20
100
AcDbLine
 10
0
 20
-17100
 11
17000
 21
-17100
  0
SOLID
  5
BA
100
AcDbEntity
  8
0
  6
ByBlock
 62
    0
370
   20
100
AcDbTrace
 10
0
 20
-17100
 30
0
 11
250
 21
-17058.37153422272
 31
0
 12
250
 22
-17141.62846577728
 32
0
 13
250
 23
-17141.62846577728
 33
0
  0
SOLID
  5
BB
100
AcDbEntity
  8
0
  6
ByBlock
 62
    0
370
   20
100
AcDbTrace
 10
17000
 20
-17100
 30
0
 11
16750
 21
-17141.62846577728
 31
0
 12
16750
 22
-17058.37153422272
 32
0
 13
16750
 23
-17058.37153422272
 33
0
  0
MTEXT
  5
BC
100
AcDbEntity
  8
0
  6
CONTINUOUS
 62
    0
370
   -2
100
AcDbMText
 10
8500
 20
-16912.5
 30
0
 40
250
 41
833.3333333333333
 71
    5
 72
    1
  1
17000
  7
standard
210
0
220
0
230
1
 50
0
 73
    2
 44
1
  0
LINE
  5
BD
100
AcDbEntity
  8
0
  6
ByBlock
 62
    0
370
   25
100
AcDbLine
 10
-1.148068456708479e-014
 20
-15862.5
 11
-2.296136913416957e-014
 21
-17225
  0
LINE
  5
BE
100
AcDbEntity
  8
0
  6
ByBlock
 62
    0
370
   25
100
AcDbLine
 10
17000
 20
-16662.5
 11
17000
 21
-17225
  0
ENDBLK
  5
67
330
65
100
AcDbEntity
  8
0
100
AcDbBlockEnd
  0
BLOCK
  5
69
330
68
100
AcDbEntity
  8
0
100
AcDbBlockBegin
  2
*D6
 70
    1
 10
0
 20
0
  3
*D6
  1

  0
LINE
  5
BF
100
AcDbEntity
  8
0
  6
ByBlock
 62
    0
370
   20
100
AcDbLine
 10
4000
 20
-6120
 11
4000
 21
-12060
  0
SOLID
  5
C0
100
AcDbEntity
  8
0
  6
ByBlock
 62
    0
370
   20
100
AcDbTrace
 10
4000
 20
-6120
 30
0
 11
4041.628465777284
 21
-6370
 31
0
 12
3958.371534222716
 22
-6370
 32
0
 13
3958.371534222716
 23
-6370
 33
0
  0
SOLID
  5
C1
100
AcDbEntity
  8
0
  6
ByBlock
 62
    0
370
   20
100
AcDbTrace
 10
4000
 20
-12060
 30
0
 11
3958.371534222716
 21
-11810
 31
0
 12
4041.628465777284
 22
-11810
 32
0
 13
4041.628465777284
 23
-11810
 33
0
  0
MTEXT
  5
C2
100
AcDbEntity
  8
0
  6
CONTINUOUS
 62
    0
370
   -2
100
AcDbMText
 10
3812.5
 20
-9090
 30
0
 40
250
 41
722.2222222222377
 71
    5
 72
    1
  1
5940
  7
standard
210
0
220
0
230
1
 50
90
 73
    2
 44
1
  0
LINE
  5
C3
100
AcDbEntity
  8
0
  6
ByBlock
 62
    0
370
   25
100
AcDbLine
 10
4777.5
 20
-6120
 11
3875
 21
-6120
  0
LINE
  5
C4
100
AcDbEntity
  8
0
  6
ByBlock
 62
    0
370
   25
100
AcDbLine
 10
4777.5
 20
-12060
 11
3875
 21
-12060
  0
ENDBLK
  5
6A
330
68
100
AcDbEntity
  8
0
100
AcDbBlockEnd
  0
BLOCK
  5
6C
330
6B
100
AcDbEntity
  8
0
100
AcDbBlockBegin
  2
*D8
 70
    1
 10
0
 20
0
  3
*D8
  1

  0
LINE
  5
C5
100
AcDbEntity
  8
0
  6
ByBlock
 62
    0
370
   20
100
AcDbLine
 10
5420
 20
-1000
 11
8480.000000000002
 21
-1000
  0
SOLID
  5
C6
100
AcDbEntity
  8
0
  6
ByBlock
 62
    0
370
   20
100
AcDbTrace
 10
5420
 20
-1000
 30
0
 11
5670
 21
-958.3715342227159
 31
0
 12
5670
 22
-1041.628465777284
 32
0
 13
5670
 23
-1041.628465777284
 33
0
  0
SOLID
  5
C7
100
AcDbEntity
  8
0
  6
ByBlock
 62
    0
370
   20
100
AcDbTrace
 10
8480.000000000002
 20
-1000
 30
0
 11
8230.000000000002
 21
-1041.628465777284
 31
0
 12
8230.000000000002
 22
-958.3715342227159
 32
0
 13
8230.000000000002
 23
-958.3715342227159
 33
0
  0
MTEXT
  5
C8
100
AcDbEntity
  8
0
  6
CONTINUOUS
 62
    0
370
   -2
100
AcDbMText
 10
6950.000000000001
 20
-812.5
 30
0
 40
250
 41
694.4444444444755
 71
    5
 72
    1
  1
3060
  7
standard
210
0
220
0
230
1
 50
0
 73
    2
 44
1
  0
LINE
  5
C9
100
AcDbEntity
  8
0
  6
ByBlock
 62
    0
370
   25
100
AcDbLine
 10
5420
 20
-1717.5
 11
5420
 21
-875
  0
LINE
  5
CA
100
AcDbEntity
  8
0
  6
ByBlock
 62
    0
370
   25
100
AcDbLine
 10
8480.000000000002
 20
-1717.5
 11
8480.000000000002
 21
-875
  0
ENDBLK
  5
6D
330
6B
100
AcDbEntity
  8
0
100
AcDbBlockEnd
  0
BLOCK
  5
6F
330
6E
100
AcDbEntity
  8
0
100
AcDbBlockBegin
  2
*D19
 70
    1
 10
0
 20
0
  3
*D19
  1

  0
LINE
  5
CB
100
AcDbEntity
  8
0
  6
ByBlock
 62
    0
370
   20
100
AcDbLine
 10
0
 20
-7000
 11
4840
 21
-7000
  0
SOLID
  5
CC
100
AcDbEntity
  8
0
  6
ByBlock
 62
    0
370
   20
100
AcDbTrace
 10
0
 20
-7000
 30
0
 11
250
 21
-6958.371534222716
 31
0
 12
250
 22
-7041.628465777284
 32
0
 13
250
 23
-7041.628465777284
 33
0
  0
SOLID
  5
CD
100
AcDbEntity
  8
0
  6
ByBlock
 62
    0
370
   20
100
AcDbTrace
 10
4840
 20
-7000
 30
0
 11
4590
 21
-7041.628465777284
 31
0
 12
4590
 22
-6958.371534222716
 32
0
 13
4590
 23
-6958.371534222716
 33
0
  0
MTEXT
  5
CE
100
AcDbEntity
  8
0
  6
CONTINUOUS
 62
    0
370
   -2
100
AcDbMText
 10
2420
 20
-6812.5
 30
0
 40
250
 41
750
 71
    5
 72
    1
  1
4840
  7
standard
210
0
220
0
230
1
 50
0
 73
    2
 44
1
  0
LINE
  5
CF
100
AcDbEntity
  8
0
  6
ByBlock
 62
    0
370
   25
100
AcDbLine
 10
1.072377592541834e-014
 20
-6182.5
 11
-2.296136913416957e-014
 21
-7125
  0
LINE
  5
D0
100
AcDbEntity
  8
0
  6
ByBlock
 62
    0
370
   25
100
AcDbLine
 10
4840
 20
-6182.5
 11
4840
 21
-7125
  0
ENDBLK
  5
70
330
6E
100
AcDbEntity
  8
0
100
AcDbBlockEnd
  0
BLOCK
  5
72
330
71
100
AcDbEntity
  8
0
100
AcDbBlockBegin
  2
*D9
 70
    1
 10
0
 20
0
  3
*D9
  1

  0
LINE
  5
D1
100
AcDbEntity
  8
0
  6
ByBlock
 62
    0
370
   20
100
AcDbLine
 10
14000
 20
-7320
 11
14000
 21
-8600.000000000002
  0
SOLID
  5
D2
100
AcDbEntity
  8
0
  6
ByBlock
 62
    0
370
   20
100
AcDbTrace
 10
14000
 20
-7320
 30
0
 11
14041.62846577728
 21
-7570
 31
0
 12
13958.37153422272
 22
-7570
 32
0
 13
13958.37153422272
 23
-7570
 33
0
  0
SOLID
  5
D3
100
AcDbEntity
  8
0
  6
ByBlock
 62
    0
370
   20
100
AcDbTrace
 10
14000
 20
-8600.000000000002
 30
0
 11
13958.37153422272
 21
-8350.000000000002
 31
0
 12
14041.62846577728
 22
-8350.000000000002
 32
0
 13
14041.62846577728
 23
-8350.000000000002
 33
0
  0
MTEXT
  5
D4
100
AcDbEntity
  8
0
  6
CONTINUOUS
 62
    0
370
   -2
100
AcDbMText
 10
13812.5
 20
-7960.000000000001
 30
0
 40
250
 41
638.8888888888889
 71
    5
 72
    1
  1
1280
  7
standard
210
0
220
0
230
1
 50
90
 73
    2
 44
1
  0
LINE
  5
D5
100
AcDbEntity
  8
0
  6
ByBlock
 62
    0
370
   25
100
AcDbLine
 10
13612.5
 20
-7320
 11
14125
 21
-7320
  0
LINE
  5
D6
100
AcDbEntity
  8
0
  6
ByBlock
 62
    0
370
   25
100
AcDbLine
 10
13612.5
 20
-8600.000000000002
 11
14125
 21
-8600.000000000002
  0
ENDBLK
  5
73
330
71
100
AcDbEntity
  8
0
100
AcDbBlockEnd
  0
BLOCK
  5
75
330
74
100
AcDbEntity
  8
0
100
AcDbBlockBegin
  2
*D7
 70
    1
 10
0
 20
0
  3
*D7
  1

  0
LINE
  5
D7
100
AcDbEntity
  8
0
  6
ByBlock
 62
    0
370
   20
100
AcDbLine
 10
6000
 20
0
 11
6000
 21
-1780
  0
SOLID
  5
D8
100
AcDbEntity
  8
0
  6
ByBlock
 62
    0
370
   20
100
AcDbTrace
 10
6000
 20
0
 30
0
 11
6041.628465777284
 21
-250
 31
0
 12
5958.371534222716
 22
-250
 32
0
 13
5958.371534222716
 23
-250
 33
0
  0
SOLID
  5
D9
100
AcDbEntity
  8
0
  6
ByBlock
 62
    0
370
   20
100
AcDbTrace
 10
6000
 20
-1780
 30
0
 11
5958.371534222716
 21
-1530
 31
0
 12
6041.628465777284
 22
-1530
 32
0
 13
6041.628465777284
 23
-1530
 33
0
  0
MTEXT
  5
DA
100
AcDbEntity
  8
0
  6
CONTINUOUS
 62
    0
370
   -2
100
AcDbMText
 10
5812.5
 20
-890
 30
0
 40
250
 41
638.8888888888889
 71
    5
 72
    1
  1
1780
  7
standard
210
0
220
0
230
1
 50
90
 73
    2
 44
1
  0
LINE
  5
DB
100
AcDbEntity
  8
0
  6
ByBlock
 62
    0
370
   25
100
AcDbLine
 10
5482.5
 20
-2.477401964129377e-015
 11
6125
 21
5.963111948670274e-016
  0
LINE
  5
DC
100
AcDbEntity
  8
0
  6
ByBlock
 62
    0
370
   25
100
AcDbLine
 10
5482.5
 20
-1780
 11
6125
 21
-1780
  0
ENDBLK
  5
76
330
74
100
AcDbEntity
  8
0
100
AcDbBlockEnd
  0
BLOCK
  5
78
330
77
100
AcDbEntity
  8
0
100
AcDbBlockBegin
  2
*D5
 70
    1
 10
0
 20
0
  3
*D5
  1

  0
LINE
  5
DD
100
AcDbEntity
  8
0
  6
ByBlock
 62
    0
370
   20
100
AcDbLine
 10
1920
 20
-16000
 11
9530.000000000002
 21
-16000
  0
SOLID
  5
DE
100
AcDbEntity
  8
0
  6
ByBlock
 62
    0
370
   20
100
AcDbTrace
 10
1920
 20
-16000
 30
0
 11
2170
 21
-15958.37153422272
 31
0
 12
2170
 22
-16041.62846577728
 32
0
 13
2170
 23
-16041.62846577728
 33
0
  0
SOLID
  5
DF
100
AcDbEntity
  8
0
  6
ByBlock
 62
    0
370
   20
100
AcDbTrace
 10
9530.000000000002
 20
-16000
 30
0
 11
9280.000000000002
 21
-16041.62846577728
 31
0
 12
9280.000000000002
 22
-15958.37153422272
 32
0
 13
9280.000000000002
 23
-15958.37153422272
 33
0
  0
MTEXT
  5
E0
100
AcDbEntity
  8
0
  6
CONTINUOUS
 62
    0
370
   -2
100
AcDbMText
 10
5725.000000000001
 20
-15812.5
 30
0
 40
250
 41
638.8888888889045
 71
    5
 72
    1
  1
7610
  7
standard
210
0
220
0
230
1
 50
0
 73
    2
 44
1
  0
LINE
  5
E1
100
AcDbEntity
  8
0
  6
ByBlock
 62
    0
370
   25
100
AcDbLine
 10
1920
 20
-15662.5
 11
1920
 21
-16125
  0
LINE
  5
E2
100
AcDbEntity
  8
0
  6
ByBlock
 62
    0
370
   25
100
AcDbLine
 10
9530.000000000002
 20
-15662.5
 11
9530.000000000002
 21
-16125
  0
ENDBLK
  5
79
330
77
100
AcDbEntity
  8
0
100
AcDbBlockEnd
  0
BLOCK
  5
7B
330
7A
100
AcDbEntity
  8
0
100
AcDbBlockBegin
  2
*D15
 70
    1
 10
0
 20
0
  3
*D15
  1

  0
LINE
  5
E3
100
AcDbEntity
  8
0
  6
ByBlock
 62
    0
370
   20
100
AcDbLine
 10
8480.000000000002
 20
500
 11
15000
 21
500
  0
SOLID
  5
E4
100
AcDbEntity
  8
0
  6
ByBlock
 62
    0
370
   20
100
AcDbTrace
 10
8480.000000000002
 20
500
 30
0
 11
8730.000000000002
 21
541.6284657772841
 31
0
 12
8730.000000000002
 22
458.3715342227159
 32
0
 13
8730.000000000002
 23
458.3715342227159
 33
0
  0
SOLID
  5
E5
100
AcDbEntity
  8
0
  6
ByBlock
 62
    0
370
   20
100
AcDbTrace
 10
15000
 20
500
 30
0
 11
14750
 21
458.371534222716
 31
0
 12
14750
 22
541.6284657772841
 32
0
 13
14750
 23
541.6284657772841
 33
0
  0
MTEXT
  5
E6
100
AcDbEntity
  8
0
  6
CONTINUOUS
 62
    0
370
   -2
100
AcDbMText
 10
11740
 20
687.5
 30
0
 40
250
 41
694.4444444444755
 71
    5
 72
    1
  1
6520
  7
standard
210
0
220
0
230
1
 50
0
 73
    2
 44
1
  0
LINE
  5
E7
100
AcDbEntity
  8
0
  6
ByBlock
 62
    0
370
   25
100
AcDbLine
 10
8480.000000000002
 20
-37.5
 11
8480.000000000002
 21
625
  0
LINE
  5
E8
100
AcDbEntity
  8
0
  6
ByBlock
 62
    0
370
   25
100
AcDbLine
 10
15000
 20
-37.5
 11
15000
 21
625
  0
ENDBLK
  5
7C
330
7A
100
AcDbEntity
  8
0
100
AcDbBlockEnd
  0
BLOCK
  5
7E
330
7D
100
AcDbEntity
  8
0
100
AcDbBlockBegin
  2
*D1
 70
    1
 10
0
 20
0
  3
*D1
  1

  0
LINE
  5
E9
100
AcDbEntity
  8
0
  6
ByBlock
 62
    0
370
   20
100
AcDbLine
 10
1890
 20
-11500
 11
4840
 21
-11500
  0
SOLID
  5
EA
100
AcDbEntity
  8
0
  6
ByBlock
 62
    0
370
   20
100
AcDbTrace
 10
1890
 20
-11500
 30
0
 11
2140
 21
-11458.37153422272
 31
0
 12
2140
 22
-11541.62846577728
 32
0
 13
2140
 23
-11541.62846577728
 33
0
  0
SOLID
  5
EB
100
AcDbEntity
  8
0
  6
ByBlock
 62
    0
370
   20
100
AcDbTrace
 10
4840
 20
-11500
 30
0
 11
4590
 21
-11541.62846577728
 31
0
 12
4590
 22
-11458.37153422272
 32
0
 13
4590
 23
-11458.37153422272
 33
0
  0
MTEXT
  5
EC
100
AcDbEntity
  8
0
  6
CONTINUOUS
 62
    0
370
   -2
100
AcDbMText
 10
3365
 20
-11312.5
 30
0
 40
250
 41
694.44444444446
 71
    5
 72
    1
  1
2950
  7
standard
210
0
220
0
230
1
 50
0
 73
    2
 44
1
  0
LINE
  5
ED
100
AcDbEntity
  8
0
  6
ByBlock
 62
    0
370
   25
100
AcDbLine
 10
1890
 20
-11997.5
 11
1890
 21
-11375
  0
LINE
  5
EE
100
AcDbEntity
  8
0
  6
ByBlock
 62
    0
370
   25
100
AcDbLine
 10
4840
 20
-11997.5
 11
4840
 21
-11375
  0
ENDBLK
  5
7F
330
7D
100
AcDbEntity
  8
0
100
AcDbBlockEnd
  0
BLOCK
  5
81
330
80
100
AcDbEntity
  8
0
100
AcDbBlockBegin
  2
*D20
 70
    1
 10
0
 20
0
  3
*D20
  1

  0
LINE
  5
EF
100
AcDbEntity
  8
0
  6
ByBlock
 62
    0
370
   20
100
AcDbLine
 10
-999.9999999999998
 20
-6120
 11
-999.9999999999998
 21
2.524354896707238e-029
  0
SOLID
  5
F0
100
AcDbEntity
  8
0
  6
ByBlock
 62
    0
370
   20
100
AcDbTrace
 10
-999.9999999999998
 20
-6120
 30
0
 11
-1041.628465777284
 21
-5870
 31
0
 12
-958.3715342227157
 22
-5870
 32
0
 13
-958.3715342227157
 23
-5870
 33
0
  0
SOLID
  5
F1
100
AcDbEntity
  8
0
  6
ByBlock
 62
    0
370
   20
100
AcDbTrace
 10
-999.9999999999998
 20
2.524354896707238e-029
 30
0
 11
-958.3715342227157
 21
-250
 31
0
 12
-1041.628465777284
 22
-250
 32
0
 13
-1041.628465777284
 23
-250
 33
0
  0
MTEXT
  5
F2
100
AcDbEntity
  8
0
  6
CONTINUOUS
 62
    0
370
   -2
100
AcDbMText
 10
-1187.5
 20
-3060
 30
0
 40
250
 41
638.8888888889044
 71
    5
 72
    1
  1
6120
  7
standard
210
0
220
0
230
1
 50
90
 73
    2
 44
1
  0
LINE
  5
F3
100
AcDbEntity
  8
0
  6
ByBlock
 62
    0
370
   25
100
AcDbLine
 10
-62.49999999999998
 20
-6120
 11
-1125
 21
-6120
  0
LINE
  5
F4
100
AcDbEntity
  8
0
  6
ByBlock
 62
    0
370
   25
100
AcDbLine
 10
-62.5
 20
7.653789711389858e-015
 11
-1125
 21
1.530757942277974e-014
  0
ENDBLK
  5
82
330
80
100
AcDbEntity
  8
0
100
AcDbBlockEnd
  0
BLOCK
  5
84
330
83
100
AcDbEntity
  8
0
100
AcDbBlockBegin
  2
*D17
 70
    1
 10
0
 20
0
  3
*D17
  1

  0
LINE
  5
F5
100
AcDbEntity
  8
0
  6
ByBlock
 62
    0
370
   20
100
AcDbLine
 10
1920
 20
-16500
 11
17000
 21
-16500
  0
SOLID
  5
F6
100
AcDbEntity
  8
0
  6
ByBlock
 62
    0
370
   20
100
AcDbTrace
 10
1920
 20
-16500
 30
0
 11
2170
 21
-16458.37153422272
 31
0
 12
2170
 22
-16541.62846577728
 32
0
 13
2170
 23
-16541.62846577728
 33
0
  0
SOLID
  5
F7
100
AcDbEntity
  8
0
  6
ByBlock
 62
    0
370
   20
100
AcDbTrace
 10
17000
 20
-16500
 30
0
 11
16750
 21
-16541.62846577728
 31
0
 12
16750
 22
-16458.37153422272
 32
0
 13
16750
 23
-16458.37153422272
 33
0
  0
MTEXT
  5
F8
100
AcDbEntity
  8
0
  6
CONTINUOUS
 62
    0
370
   -2
100
AcDbMText
 10
9460
 20
-16312.5
 30
0
 40
250
 41
833.3333333333489
 71
    5
 72
    1
  1
15080
  7
standard
210
0
220
0
230
1
 50
0
 73
    2
 44
1
  0
LINE
  5
F9
100
AcDbEntity
  8
0
  6
ByBlock
 62
    0
370
   25
100
AcDbLine
 10
1920
 20
-15662.5
 11
1920
 21
-16625
  0
LINE
  5
FA
100
AcDbEntity
  8
0
  6
ByBlock
 62
    0
370
   25
100
AcDbLine
 10
17000
 20
-15662.5
 11
17000
 21
-16625
  0
ENDBLK
  5
85
330
83
100
AcDbEntity
  8
0
100
AcDbBlockEnd
  0
BLOCK
  5
87
330
86
100
AcDbEntity
  8
0
100
AcDbBlockBegin
  2
*D14
 70
    1
 10
0
 20
0
  3
*D14
  1

  0
LINE
  5
FB
100
AcDbEntity
  8
0
  6
ByBlock
 62
    0
370
   20
100
AcDbLine
 10
0
 20
500
 11
5420
 21
500
  0
SOLID
  5
FC
100
AcDbEntity
  8
0
  6
ByBlock
 62
    0
370
   20
100
AcDbTrace
 10
0
 20
500
 30
0
 11
250
 21
541.6284657772841
 31
0
 12
250
 22
458.3715342227159
 32
0
 13
250
 23
458.3715342227159
 33
0
  0
SOLID
  5
FD
100
AcDbEntity
  8
0
  6
ByBlock
 62
    0
370
   20
100
AcDbTrace
 10
5420
 20
500
 30
0
 11
5170
 21
458.371534222716
 31
0
 12
5170
 22
541.6284657772841
 32
0
 13
5170
 23
541.6284657772841
 33
0
  0
MTEXT
  5
FE
100
AcDbEntity
  8
0
  6
CONTINUOUS
 62
    0
370
   -2
100
AcDbMText
 10
2710
 20
687.5
 30
0
 40
250
 41
722.2222222222377
 71
    5
 72
    1
  1
5420
  7
standard
210
0
220
0
230
1
 50
0
 73
    2
 44
1
  0
LINE
  5
FF
100
AcDbEntity
  8
0
  6
ByBlock
 62
    0
370
   25
100
AcDbLine
 10
-1.454220045164073e-014
 20
-37.5
 11
7.653789711389858e-015
 21
625
  0
LINE
  5
100
100
AcDbEntity
  8
0
  6
ByBlock
 62
    0
370
   25
100
AcDbLine
 10
5420
 20
-37.5
 11
5420
 21
625
  0
ENDBLK
  5
88
330
86
100
AcDbEntity
  8
0
100
AcDbBlockEnd
  0
ENDSEC
  0
SECTION
  2
ENTITIES
  0
LINE
  5
101
100
AcDbEntity
  8
0
  6
ByLayer
 62
    3
370
   -1
100
AcDbLine
 10
8480.000000000002
 20
-1780
 11
5420
 21
-1780
  0
LINE
  5
102
100
AcDbEntity
  8
0
  6
ByLayer
 62
    3
370
   -1
100
AcDbLine
 10
5420
 20
-1780
 11
5420
 21
-2.775557561562891e-015
  0
LINE
  5
103
100
AcDbEntity
  8
0
  6
ByLayer
 62
    3
370
   -1
100
AcDbLine
 10
8480.000000000002
 20
-1780
 11
8480.000000000002
 21
5.551115123125783e-015
  0
LINE
  5
104
100
AcDbEntity
  8
0
  6
ByLayer
 62
    3
370
   -1
100
AcDbLine
 10
15000
 20
0
 11
15000
 21
-7320
  0
LINE
  5
105
100
AcDbEntity
  8
0
  6
ByLayer
 62
    3
370
   -1
100
AcDbLine
 10
15000
 20
-7320
 11
13550
 21
-7320
  0
LINE
  5
106
100
AcDbEntity
  8
0
  6
ByLayer
 62
    3
370
   -1
100
AcDbLine
 10
13550
 20
-7320
 11
13550
 21
-8600.000000000002
  0
LINE
  5
107
100
AcDbEntity
  8
0
  6
ByLayer
 62
    3
370
   -1
100
AcDbLine
 10
10880
 20
-15600
 11
10880
 21
-12850
  0
LINE
  5
108
100
AcDbEntity
  8
0
  6
ByLayer
 62
    3
370
   -1
100
AcDbLine
 10
10880
 20
-12850
 11
9530.000000000002
 21
-12850
  0
LINE
  5
109
100
AcDbEntity
  8
0
  6
ByLayer
 62
    3
370
   -1
100
AcDbLine
 10
9530.000000000002
 20
-12850
 11
9530.000000000002
 21
-15600
  0
LINE
  5
10A
100
AcDbEntity
  8
0
  6
ByLayer
 62
    3
370
   -1
100
AcDbLine
 10
4840
 20
-12060
 11
4840
 21
-6120
  0
LINE
  5
10B
100
AcDbEntity
  8
0
  6
ByLayer
 62
    3
370
   -1
100
AcDbLine
 10
4840
 20
-6120
 11
2.220446049250313e-014
 21
-6120
  0
LINE
  5
10C
100
AcDbEntity
  8
0
  6
ByLayer
 62
    3
370
   -1
100
AcDbLine
 10
2.220446049250313e-014
 20
-6120
 11
0
 21
0
  0
LINE
  5
10D
100
AcDbEntity
  8
0
  6
ByLayer
 62
    3
370
   -1
100
AcDbLine
 10
0
 20
0
 11
5420
 21
-2.775557561562891e-015
  0
LINE
  5
10E
100
AcDbEntity
  8
0
  6
ByLayer
 62
    3
370
   -1
100
AcDbLine
 10
8480.000000000002
 20
5.551115123125783e-015
 11
15000
 21
0
  0
MTEXT
  5
10F
100
AcDbEntity
  8
0
  6
ByLayer
 62
    1
370
   -1
100
AcDbMText
 10
12819.73275606532
 20
-1675.390978622305
 30
0
 40
200
 41
1044.444444444463
 71
    1
 72
    1
  1
bedroom
  7
standard
210
0
220
0
230
1
 50
0
 73
    2
 44
4
  0
MTEXT
  5
110
100
AcDbEntity
  8
0
  6
ByLayer
 62
    1
370
   -1
100
AcDbMText
 10
9693.333519171905
 20
-1660.432130598891
 30
0
 40
200
 41
1044.444444444463
 71
    1
 72
    1
  1
bedroom
  7
standard
210
0
220
0
230
1
 50
0
 73
    2
 44
4
  0
MTEXT
  5
111
100
AcDbEntity
  8
0
  6
ByLayer
 62
    1
370
   -1
100
AcDbMText
 10
7534.637119761142
 20
-12160.87029487408
 30
0
 40
200
 41
755.5556584130044
 71
    1
 72
    1
  1
closet
  7
standard
210
0
220
0
230
1
 50
0
 73
    2
 44
4
  0
MTEXT
  5
112
100
AcDbEntity
  8
0
  6
ByLayer
 62
    1
370
   -1
100
AcDbMText
 10
6630.279591648551
 20
-9569.35640888892
 30
0
 40
200
 41
755.5556584130044
 71
    1
 72
    1
  1
closet
  7
standard
210
0
220
0
230
1
 50
0
 73
    2
 44
4
  0
MTEXT
  5
113
100
AcDbEntity
  8
0
  6
ByLayer
 62
    1
370
   -1
100
AcDbMText
 10
8516.380068853985
 20
-9557.785240317109
 30
0
 40
200
 41
755.5556584130044
 71
    1
 72
    1
  1
closet
  7
standard
210
0
220
0
230
1
 50
0
 73
    2
 44
4
  0
MTEXT
  5
114
100
AcDbEntity
  8
0
  6
ByLayer
 62
    1
370
   -1
100
AcDbMText
 10
13540.17487426559
 20
-3778.65345328342
 30
0
 40
200
 41
755.5556584130044
 71
    1
 72
    1
  1
closet
  7
standard
210
0
220
0
230
1
 50
0
 73
    2
 44
4
  0
MTEXT
  5
115
100
AcDbEntity
  8
0
  6
ByLayer
 62
    1
370
   -1
100
AcDbMText
 10
13596.12307187968
 20
-4767.321451586748
 30
0
 40
200
 41
666.6666666666666
 71
    1
 72
    1
  1
toilet
  7
standard
210
0
220
0
230
1
 50
0
 73
    2
 44
4
  0
MTEXT
  5
116
100
AcDbEntity
  8
0
  6
ByLayer
 62
    1
370
   -1
100
AcDbMText
 10
13319.75342282406
 20
-6187.545029751602
 30
0
 40
200
 41
1438.888991746374
 71
    1
 72
    1
  1
guest bath
  7
standard
210
0
220
0
230
1
 50
0
 73
    2
 44
4
  0
MTEXT
  5
117
100
AcDbEntity
  8
0
  6
ByLayer
 62
    1
370
   -1
100
AcDbMText
 10
10364.8936555246
 20
-8082.468886820995
 30
0
 40
200
 41
933.3333333333583
 71
    1
 72
    1
  1
laundry
  7
standard
210
0
220
0
230
1
 50
0
 73
    2
 44
4
  0
MTEXT
  5
118
100
AcDbEntity
  8
0
  6
ByLayer
 62
    1
370
   -1
100
AcDbMText
 10
13468.84021758979
 20
-12172.86933754678
 30
0
 40
200
 41
844.4444444444911
 71
    1
 72
    1
  1
garage
  7
standard
210
0
220
0
230
1
 50
0
 73
    2
 44
4
  0
MTEXT
  5
119
100
AcDbEntity
  8
0
  6
ByLayer
 62
    1
370
   -1
100
AcDbMText
 10
7486.546065962911
 20
-14186.25266904255
 30
0
 40
200
 41
911.1112139685694
 71
    1
 72
    1
  1
ensuite
  7
standard
210
0
220
0
230
1
 50
0
 73
    2
 44
4
  0
MTEXT
  5
11A
100
AcDbEntity
  8
0
  6
ByLayer
 62
    1
370
   -1
100
AcDbMText
 10
3012.371061791206
 20
-13545.49284879762
 30
0
 40
200
 41
2127.777880635253
 71
    1
 72
    1
  1
master bedroom
  7
standard
210
0
220
0
230
1
 50
0
 73
    2
 44
4
  0
LINE
  5
11B
100
AcDbEntity
  8
0
  6
ByLayer
 62
    1
370
   -1
100
AcDbLine
 10
8482.541899764463
 20
-4299.120302393188
 11
8482.541899764463
 21
-1778.106414020979
  0
LINE
  5
11C
100
AcDbEntity
  8
0
  6
ByLayer
 62
    1
370
   -1
100
AcDbLine
 10
8482.520092838908
 20
-3499.142514826798
 11
10680.81729518081
 21
-3495.318772767266
  0
LINE
  5
11D
100
AcDbEntity
  8
0
  6
ByLayer
 62
    1
370
   -1
100
AcDbLine
 10
8482.541899764463
 20
-4299.120302393188
 11
14999.98559751837
 21
-4306.27926690547
  0
LINE
  5
11E
100
AcDbEntity
  8
0
  6
ByLayer
 62
    1
370
   -1
100
AcDbLine
 10
11798.07392557939
 20
-4302.886141415681
 11
11789.08910118049
 21
-12.17881105493852
  0
LINE
  5
11F
100
AcDbEntity
  8
0
  6
ByLayer
 62
    1
370
   -1
100
AcDbLine
 10
10680.50742988909
 20
-3494.771257003132
 11
10680.81530033997
 21
-4301.368379862623
  0
LINE
  5
120
100
AcDbEntity
  8
0
  6
ByLayer
 62
    1
370
   -1
100
AcDbLine
 10
13010.01034745451
 20
-7216.26931654609
 11
13005.29998889671
 21
-4309.978083969752
  0
LINE
  5
121
100
AcDbEntity
  8
0
  6
ByLayer
 62
    1
370
   -1
100
AcDbLine
 10
13001.56296596182
 20
-5405.809184633596
 11
15002.49201906414
 21
-5412.201987411209
  0
LINE
  5
122
100
AcDbEntity
  8
0
  6
ByLayer
 62
    1
370
   -1
100
AcDbLine
 10
13010.01034745451
 20
-7216.26931654609
 11
13550.33043522544
 21
-7215.408020782492
  0
LINE
  5
123
100
AcDbEntity
  8
0
  6
ByLayer
 62
    1
370
   -1
100
AcDbLine
 10
13550
 20
-7320
 11
13550.33043522544
 21
-7215.408020782492
  0
LINE
  5
124
100
AcDbEntity
  8
0
  6
ByLayer
 62
    1
370
   -1
100
AcDbLine
 10
9769.275913555348
 20
-5400.450186090129
 11
11993.09780272194
 21
-5400.305429569806
  0
LINE
  5
125
100
AcDbEntity
  8
0
  6
ByLayer
 62
    1
370
   -1
100
AcDbLine
 10
9769.532426769909
 20
-6899.21580492244
 11
11995.31799747243
 21
-6900.251083606004
  0
LINE
  5
126
100
AcDbEntity
  8
0
  6
ByLayer
 62
    1
370
   -1
100
AcDbLine
 10
9765.72276446168
 20
-7604.723440772634
 11
11997.31636182321
 21
-7604.146679148278
  0
LINE
  5
127
100
AcDbEntity
  8
0
  6
ByLayer
 62
    1
370
   -1
100
AcDbLine
 10
9762.352259477713
 20
-8799.964341699413
 11
13549.86454221114
 21
-8794.02275822557
  0
LINE
  5
128
100
AcDbEntity
  8
0
  6
ByLayer
 62
    1
370
   -1
100
AcDbLine
 10
8001.478863098605
 20
-9395.952728889763
 11
8007.568268626076
 21
-9998.803876109519
  0
LINE
  5
129
100
AcDbEntity
  8
0
  6
ByLayer
 62
    1
370
   -1
100
AcDbLine
 10
10875.08272147617
 20
-8789.573030855636
 11
10880
 21
-12850
  0
LINE
  5
12A
100
AcDbEntity
  8
0
  6
ByLayer
 62
    1
370
   -1
100
AcDbLine
 10
9533.227774844509
 20
-11210.00524473871
 11
4839.634205230504
 21
-11209.39596318768
  0
LINE
  5
12B
100
AcDbEntity
  8
0
  6
ByLayer
 62
    1
370
   -1
100
AcDbLine
 10
9533.227774844509
 20
-11210.00524473871
 11
9530.000000000002
 21
-12850
  0
LINE
  5
12C
100
AcDbEntity
  8
0
  6
ByLayer
 62
    1
370
   -1
100
AcDbLine
 10
13005.29998889671
 20
-4309.978083969752
 11
13014.29652429395
 21
-3490.767293311306
  0
LINE
  5
12D
100
AcDbEntity
  8
0
  6
ByLayer
 62
    1
370
   -1
100
AcDbLine
 10
13014.29652429395
 20
-3490.767293311306
 11
15000.29163660834
 21
-3487.097627758022
  0
MTEXT
  5
12E
100
AcDbEntity
  8
0
  6
ByLayer
 62
    1
370
   -1
100
AcDbMText
 10
2169.032963396305
 20
-2797.304580380062
 30
0
 40
200
 41
800.0000000000249
 71
    1
 72
    1
  1
lounge
  7
standard
210
0
220
0
230
1
 50
0
 73
    2
 44
4
  0
MTEXT
  5
12F
100
AcDbEntity
  8
0
  6
ByLayer
 62
    1
370
   -1
100
AcDbMText
 10
6357.510409954688
 20
-3575.164677598048
 30
0
 40
200
 41
688.8888888889256
 71
    1
 72
    1
  1
dining
  7
standard
210
0
220
0
230
1
 50
0
 73
    2
 44
4
  0
MTEXT
  5
130
100
AcDbEntity
  8
0
  6
ByLayer
 62
    1
370
   -1
100
AcDbMText
 10
7077.830610143576
 20
-7232.537290146714
 30
0
 40
200
 41
888.888888888907
 71
    1
 72
    1
  1
kitchen
  7
standard
210
0
220
0
230
1
 50
0
 73
    2
 44
4
  0
MTEXT
  5
131
100
AcDbEntity
  8
0
  6
ByLayer
 62
    1
370
   -1
100
AcDbMText
 10
9141.223171737585
 20
-3783.772122985051
 30
0
 40
200
 41
755.5556584130044
 71
    1
 72
    1
  1
closet
  7
standard
210
0
220
0
230
1
 50
0
 73
    2
 44
4
  0
MTEXT
  5
132
100
AcDbEntity
  8
0
  6
ByLayer
 62
    1
370
   -1
100
AcDbMText
 10
10217.34184891682
 20
-6017.007657346258
 30
0
 40
200
 41
1505.555658413022
 71
    1
 72
    1
  1
bonus room
  7
standard
210
0
220
0
230
1
 50
0
 73
    2
 44
4
  0
MTEXT
  5
133
100
AcDbEntity
  8
0
  6
ByLayer
 62
    1
370
   -1
100
AcDbMText
 10
9981.942872429958
 20
-7132.208393076925
 30
0
 40
200
 41
1816.666666666712
 71
    1
 72
    1
  1
hw tank/linen
  7
standard
210
0
220
0
230
1
 50
0
 73
    2
 44
4
  0
LINE
  5
134
100
AcDbEntity
  8
0
  6
ByLayer
 62
    1
370
   -1
100
AcDbLine
 10
9769.275913555348
 20
-5400.450186090129
 11
9769.532426770824
 21
-10002.26080151524
  0
MTEXT
  5
135
100
AcDbEntity
  8
0
  6
ByLayer
 62
    1
370
   -1
100
AcDbMText
 10
9855.939297527213
 20
-9214.702578472927
 30
0
 40
200
 41
977.8539721827191
 71
    1
 72
    1
  1
storage
  7
standard
210
0
220
0
230
1
 50
0
 73
    2
 44
4
  0
LINE
  5
136
100
AcDbEntity
  8
0
  6
ByLayer
 62
    1
370
   -1
100
AcDbLine
 10
13550
 20
-8600.000000000002
 11
13549.86454221114
 21
-8794.02275822557
  0
MTEXT
  5
137
100
AcDbEntity
  8
0
  6
ByLayer
 62
    1
370
   -1
100
AcDbMText
 10
-6413.219443818376
 20
-8740.98057527838
 30
0
 40
600
 41
7299.99987279886
 71
    1
 72
    1
  1
40 Sanderlane Dr.\PMotueka 7120
  7
standard
210
0
220
0
230
1
 50
0
 73
    2
 44
1
  0
LINE
  5
138
100
AcDbEntity
  8
0
  6
ByLayer
 62
    1
370
   -1
100
AcDbLine
 10
6211.775645024823
 20
-11206.2580800736
 11
6202.824959657351
 21
-15601.04459550182
  0
LINE
  5
139
100
AcDbEntity
  8
0
  6
ByLayer
 62
    1
370
   -1
100
AcDbLine
 10
6207.060362426702
 20
-13207.35527596225
 11
9543.81763408597
 21
-13201.74549271713
  0
LINE
  5
13A
100
AcDbEntity
  8
0
  6
ByLayer
 62
    1
370
   -1
100
AcDbLine
 10
6202.824959657371
 20
-9997.915555465055
 11
6196.519081166347
 21
-9383.147303546621
  0
LINE
  5
13B
100
AcDbEntity
  8
0
  6
ByLayer
 62
    1
370
   -1
100
AcDbLine
 10
6202.824959657371
 20
-9997.915555465055
 11
10870.13691302759
 21
-10004.68015243622
  0
LINE
  5
13C
100
AcDbEntity
  8
0
  6
ByLayer
 62
    1
370
   -1
100
AcDbLine
 10
4841.209619736222
 20
-9379.998566862192
 11
9770.797171992559
 21
-9383.041692225061
  0
MTEXT
  5
13D
100
AcDbEntity
  8
0
  6
ByLayer
 62
    1
370
   -1
100
AcDbMText
 10
5400.325560321145
 20
-11265.11060760868
 30
0
 40
100
 41
266.6666666666713
 71
    1
 72
    1
  1
door
  7
standard
210
0
220
0
230
1
 50
0
 73
    2
 44
1
  0
MTEXT
  5
13E
100
AcDbEntity
  8
0
  6
ByLayer
 62
    1
370
   -1
100
AcDbMText
 10
5377.100395411479
 20
-9474.193824186161
 30
0
 40
100
 41
266.6666666666713
 71
    1
 72
    1
  1
door
  7
standard
210
0
220
0
230
1
 50
0
 73
    2
 44
1
  0
MTEXT
  5
13F
100
AcDbEntity
  8
0
  6
ByLayer
 62
    1
370
   -1
100
AcDbMText
 10
11340.94539079883
 20
-4133.421488587851
 30
0
 40
100
 41
266.6666666666713
 71
    1
 72
    1
  1
door
  7
standard
210
0
220
0
230
1
 50
0
 73
    2
 44
1
  0
MTEXT
  5
140
100
AcDbEntity
  8
0
  6
ByLayer
 62
    1
370
   -1
100
AcDbMText
 10
11929.45598800145
 20
-4140.345142672587
 30
0
 40
100
 41
266.6666666666713
 71
    1
 72
    1
  1
door
  7
standard
210
0
220
0
230
1
 50
0
 73
    2
 44
1
  0
MTEXT
  5
141
100
AcDbEntity
  8
0
  6
ByLayer
 62
    1
370
   -1
100
AcDbMText
 10
13860.49384793322
 20
-8638.708105377233
 30
0
 40
100
 41
266.6666666666713
 71
    1
 72
    1
  1
door
  7
standard
210
0
220
0
230
1
 50
0
 73
    2
 44
1
  0
LINE
  5
142
100
AcDbEntity
  8
0
  6
ByLayer
 62
    1
370
   -1
100
AcDbLine
 10
11997.53596722425
 20
-6756.899572701223
 11
11997.22471418147
 21
-8801.113668277483
  0
LINE
  5
143
100
AcDbEntity
  8
0
  6
ByLayer
 62
    1
370
   -1
100
AcDbLine
 10
11993.09780272194
 20
-5400.305429569806
 11
11990.95764923797
 21
-5557.263826892287
  0
MTEXT
  5
144
100
AcDbEntity
  8
0
  6
ByLayer
 62
    1
370
   -1
100
AcDbMText
 10
11707.49646065228
 20
-8064.567516091514
 30
0
 40
100
 41
266.6666666666713
 71
    1
 72
    1
  1
door
  7
standard
210
0
220
0
230
1
 50
0
 73
    2
 44
1
  0
MTEXT
  5
145
100
AcDbEntity
  8
0
  6
ByLayer
 62
    1
370
   -1
100
AcDbMText
 10
13041.0751621784
 20
-5880.534097770795
 30
0
 40
100
 41
266.6666666666713
 71
    1
 72
    1
  1
door
  7
standard
210
0
220
0
230
1
 50
0
 73
    2
 44
1
  0
MTEXT
  5
146
100
AcDbEntity
  8
0
  6
ByLayer
 62
    1
370
   -1
100
AcDbMText
 10
13044.16429564424
 20
-4805.015934807379
 30
0
 40
100
 41
266.6666666666713
 71
    1
 72
    1
  1
door
  7
standard
210
0
220
0
230
1
 50
0
 73
    2
 44
1
  0
MTEXT
  5
147
100
AcDbEntity
  8
0
  6
ByLayer
 62
    1
370
   -1
100
AcDbMText
 10
6272.830600771599
 20
-12040.23445335741
 30
0
 40
100
 41
266.6666666666713
 71
    1
 72
    1
  1
door
  7
standard
210
0
220
0
230
1
 50
0
 73
    2
 44
1
  0
MTEXT
  5
148
100
AcDbEntity
  8
0
  6
ByLayer
 62
    1
370
   -1
100
AcDbMText
 10
6234.907331033371
 20
-15233.05930645163
 30
0
 40
100
 41
266.6666666666713
 71
    1
 72
    1
  1
door
  7
standard
210
0
220
0
230
1
 50
0
 73
    2
 44
1
  0
LINE
  5
149
100
AcDbEntity
  8
0
  6
ByLayer
 62
    3
370
   -1
100
AcDbLine
 10
1900.668720981722
 20
-15600.3141920085
 11
1899.10759677555
 21
-12059.68449247112
  0
LINE
  5
14A
100
AcDbEntity
  8
0
  6
ByLayer
 62
    3
370
   -1
100
AcDbLine
 10
9530.000000000002
 20
-15600
 11
1900.668720981722
 21
-15600.3141920085
  0
LINE
  5
14B
100
AcDbEntity
  8
0
  6
ByLayer
 62
    3
370
   -1
100
AcDbLine
 10
1899.10759677555
 20
-12059.68449247112
 11
4840
 21
-12060
  0
LINE
  5
14C
100
AcDbEntity
  8
0
  6
ByLayer
 62
    3
370
   -1
100
AcDbLine
 10
17000
 20
-8600
 11
17000
 21
-15600
  0
LINE
  5
14D
100
AcDbEntity
  8
0
  6
ByLayer
 62
    3
370
   -1
100
AcDbLine
 10
13550
 20
-8600.000000000002
 11
17000
 21
-8600
  0
LINE
  5
14E
100
AcDbEntity
  8
0
  6
ByLayer
 62
    3
370
   -1
100
AcDbLine
 10
17000
 20
-15600
 11
10880
 21
-15600
  0
MTEXT
  5
14F
100
AcDbEntity
  8
0
  6
ByLayer
 62
    3
370
   -1
100
AcDbMText
 10
13200
 20
-7900
 30
0
 40
100
 41
333.3333333333426
 71
    1
 72
    1
  1
entry
  7
standard
210
0
220
0
230
1
 50
0
 73
    2
 44
1
  0
MTEXT
  5
150
100
AcDbEntity
  8
0
  6
ByLayer
 62
    3
370
   -1
100
AcDbMText
 10
10000
 20
-12700
 30
0
 40
100
 41
333.3333333333426
 71
    1
 72
    1
  1
entry
  7
standard
210
0
220
0
230
1
 50
0
 73
    2
 44
1
  0
DIMENSION
  5
151
100
AcDbEntity
  8
0
  6
ByLayer
 62
  256
370
   25
100
AcDbDimension
  2
*D1
 10
4840
 20
-11500
 30
0
 11
3365
 21
-11312.5
 31
0
 70
   32
 71
    5
  3
Standard
 53
0
210
0
220
0
230
1
100
AcDbAlignedDimension
 13
1890
 23
-12060
 33
0
 14
4840
 24
-12060
 34
0
100
AcDbRotatedDimension
  0
DIMENSION
  5
152
100
AcDbEntity
  8
0
  6
ByLayer
 62
  256
370
   25
100
AcDbDimension
  2
*D2
 10
18000
 20
-15600
 30
0
 11
17812.5
 21
-12100
 31
0
 70
   32
 71
    5
  3
Standard
 53
0
210
0
220
0
230
1
100
AcDbAlignedDimension
 13
17250
 23
-8600
 33
0
 14
17200
 24
-15600
 34
0
 50
90
100
AcDbRotatedDimension
  0
DIMENSION
  5
153
100
AcDbEntity
  8
0
  6
ByLayer
 62
  256
370
   25
100
AcDbDimension
  2
*D3
 10
20000
 20
-3.673819061467132e-013
 30
0
 11
19812.5
 21
-7800
 31
0
 70
   32
 71
    5
  3
Standard
 53
0
210
0
220
0
230
1
100
AcDbAlignedDimension
 13
17200
 23
-15600
 33
0
 14
17000
 24
0
 34
0
 50
90
100
AcDbRotatedDimension
  0
DIMENSION
  5
154
100
AcDbEntity
  8
0
  6
ByLayer
 62
  256
370
   25
100
AcDbDimension
  2
*D4
 10
17200
 20
-8200
 30
0
 11
15375
 21
-8012.5
 31
0
 70
   32
 71
    5
 72
    0
  3
Standard
 53
0
210
0
220
0
230
1
100
AcDbAlignedDimension
 13
13550
 23
-8600.000000000002
 33
0
 14
17200
 24
-8600
 34
0
100
AcDbRotatedDimension
  0
DIMENSION
  5
155
100
AcDbEntity
  8
0
  6
ByLayer
 62
  256
370
   25
100
AcDbDimension
  2
*D5
 10
9000
 20
-16000
 30
0
 11
5725.000000000001
 21
-15812.5
 31
0
 70
   32
 71
    5
  3
Standard
 53
0
210
0
220
0
230
1
100
AcDbAlignedDimension
 13
1920
 23
-15600
 33
0
 14
9530.000000000002
 24
-15600
 34
0
100
AcDbRotatedDimension
  0
DIMENSION
  5
156
100
AcDbEntity
  8
0
  6
ByLayer
 62
  256
370
   25
100
AcDbDimension
  2
*D6
 10
4000
 20
-11000
 30
0
 11
3812.5
 21
-9090
 31
0
 70
   32
 71
    5
  3
Standard
 53
0
210
0
220
0
230
1
100
AcDbAlignedDimension
 13
4840
 23
-6120
 33
0
 14
4840
 24
-12060
 34
0
 50
90
100
AcDbRotatedDimension
  0
DIMENSION
  5
157
100
AcDbEntity
  8
0
  6
ByLayer
 62
  256
370
   25
100
AcDbDimension
  2
*D7
 10
6000
 20
-2000
 30
0
 11
5812.5
 21
-890
 31
0
 70
   32
 71
    5
  3
Standard
 53
0
210
0
220
0
230
1
100
AcDbAlignedDimension
 13
5420
 23
-2.775557561562891e-015
 33
0
 14
5420
 24
-1780
 34
0
 50
90
100
AcDbRotatedDimension
  0
DIMENSION
  5
158
100
AcDbEntity
  8
0
  6
ByLayer
 62
  256
370
   25
100
AcDbDimension
  2
*D8
 10
9000
 20
-1000
 30
0
 11
6950.000000000001
 21
-812.5
 31
0
 70
   32
 71
    5
  3
Standard
 53
0
210
0
220
0
230
1
100
AcDbAlignedDimension
 13
5420
 23
-1780
 33
0
 14
8480.000000000002
 24
-1780
 34
0
100
AcDbRotatedDimension
  0
DIMENSION
  5
159
100
AcDbEntity
  8
0
  6
ByLayer
 62
  256
370
   25
100
AcDbDimension
  2
*D9
 10
14000
 20
-9000
 30
0
 11
13812.5
 21
-7960.000000000001
 31
0
 70
   32
 71
    5
  3
Standard
 53
0
210
0
220
0
230
1
100
AcDbAlignedDimension
 13
13550
 23
-7320
 33
0
 14
13550
 24
-8600.000000000002
 34
0
 50
90
100
AcDbRotatedDimension
  0
DIMENSION
  5
15A
100
AcDbEntity
  8
0
  6
ByLayer
 62
  256
370
   25
100
AcDbDimension
  2
*D10
 10
15800
 20
-6000
 30
0
 11
15612.5
 21
-3660
 31
0
 70
   32
 71
    5
  3
Standard
 53
0
210
0
220
0
230
1
100
AcDbAlignedDimension
 13
15000
 23
0
 33
0
 14
15000
 24
-7320
 34
0
 50
90
100
AcDbRotatedDimension
  0
DIMENSION
  5
15B
100
AcDbEntity
  8
0
  6
ByLayer
 62
  256
370
   25
100
AcDbDimension
  2
*D11
 10
14492.78515537549
 20
-7776.170858577521
 30
0
 11
14275
 21
-7588.670858577521
 31
0
 70
   32
 71
    5
  3
Standard
 53
0
210
0
220
0
230
1
100
AcDbAlignedDimension
 13
13550
 23
-7320
 33
0
 14
15000
 24
-7320
 34
0
100
AcDbRotatedDimension
  0
DIMENSION
  5
15C
100
AcDbEntity
  8
0
  6
ByLayer
 62
  256
370
   25
100
AcDbDimension
  2
*D12
 10
10500
 20
-13200
 30
0
 11
10205
 21
-13012.5
 31
0
 70
   32
 71
    5
  3
Standard
 53
0
210
0
220
0
230
1
100
AcDbAlignedDimension
 13
9530.000000000002
 23
-12850
 33
0
 14
10880
 24
-12850
 34
0
100
AcDbRotatedDimension
  0
DIMENSION
  5
15D
100
AcDbEntity
  8
0
  6
ByLayer
 62
  256
370
   25
100
AcDbDimension
  2
*D13
 10
17000
 20
-16000
 30
0
 11
13940
 21
-15812.5
 31
0
 70
   32
 71
    5
  3
Standard
 53
0
210
0
220
0
230
1
100
AcDbAlignedDimension
 13
10880
 23
-15600
 33
0
 14
17000
 24
-15600
 34
0
100
AcDbRotatedDimension
  0
DIMENSION
  5
15E
100
AcDbEntity
  8
0
  6
ByLayer
 62
  256
370
   25
100
AcDbDimension
  2
*D14
 10
5300
 20
500
 30
0
 11
2710
 21
687.5
 31
0
 70
   32
 71
    5
  3
Standard
 53
0
210
0
220
0
230
1
100
AcDbAlignedDimension
 13
-1.836909530733566e-014
 23
-100
 33
0
 14
5420
 24
-100
 34
0
100
AcDbRotatedDimension
  0
DIMENSION
  5
15F
100
AcDbEntity
  8
0
  6
ByLayer
 62
  256
370
   25
100
AcDbDimension
  2
*D15
 10
14600
 20
500
 30
0
 11
11740
 21
687.5
 31
0
 70
   32
 71
    5
  3
Standard
 53
0
210
0
220
0
230
1
100
AcDbAlignedDimension
 13
8480.000000000002
 23
-100
 33
0
 14
15000
 24
-100
 34
0
100
AcDbRotatedDimension
  0
DIMENSION
  5
160
100
AcDbEntity
  8
0
  6
ByLayer
 62
  256
370
   25
100
AcDbDimension
  2
*D16
 10
14400
 20
1400
 30
0
 11
7500
 21
1587.5
 31
0
 70
   32
 71
    5
  3
Standard
 53
0
210
0
220
0
230
1
100
AcDbAlignedDimension
 13
0
 23
0
 33
0
 14
15000
 24
0
 34
0
100
AcDbRotatedDimension
  0
DIMENSION
  5
161
100
AcDbEntity
  8
0
  6
ByLayer
 62
  256
370
   25
100
AcDbDimension
  2
*D17
 10
16700
 20
-16500
 30
0
 11
9460
 21
-16312.5
 31
0
 70
   32
 71
    5
  3
Standard
 53
0
210
0
220
0
230
1
100
AcDbAlignedDimension
 13
1920
 23
-15600
 33
0
 14
17000
 24
-15600
 34
0
100
AcDbRotatedDimension
  0
DIMENSION
  5
162
100
AcDbEntity
  8
0
  6
ByLayer
 62
  256
370
   25
100
AcDbDimension
  2
*D18
 10
16400
 20
-17100
 30
0
 11
8500
 21
-16912.5
 31
0
 70
   32
 71
    5
  3
Standard
 53
0
210
0
220
0
230
1
100
AcDbAlignedDimension
 13
0
 23
-15800
 33
0
 14
17000
 24
-16600
 34
0
100
AcDbRotatedDimension
  0
DIMENSION
  5
163
100
AcDbEntity
  8
0
  6
ByLayer
 62
  256
370
   25
100
AcDbDimension
  2
*D19
 10
5000
 20
-7000
 30
0
 11
2420
 21
-6812.5
 31
0
 70
   32
 71
    5
  3
Standard
 53
0
210
0
220
0
230
1
100
AcDbAlignedDimension
 13
2.220446049250313e-014
 23
-6120
 33
0
 14
4840
 24
-6120
 34
0
100
AcDbRotatedDimension
  0
DIMENSION
  5
164
100
AcDbEntity
  8
0
  6
ByLayer
 62
  256
370
   25
100
AcDbDimension
  2
*D20
 10
-999.9999999999998
 20
1.224606353822377e-013
 30
0
 11
-1187.5
 21
-3060
 31
0
 70
   32
 71
    5
  3
Standard
 53
0
210
0
220
0
230
1
100
AcDbAlignedDimension
 13
2.220446049250313e-014
 23
-6120
 33
0
 14
0
 24
0
 34
0
 50
90
100
AcDbRotatedDimension
  0
ENDSEC
  0
SECTION
  2
OBJECTS
  0
DICTIONARY
  5
C
330
0
100
AcDbDictionary
281
    1
  3
ACAD_GROUP
350
D
  0
DICTIONARY
  5
D
330
C
100
AcDbDictionary
281
    1
  0
ENDSEC
  0
EOF
