999
dxfrw 0.6.3
  0
SECTION
  2
HEADER
  9
$ACADVER
  1
AC1021
  9
$DWGCODEPAGE
  3
ANSI_1252
  9
$INSBASE
 10
0
 20
0
 30
0
  9
$EXTMIN
 10
-6.413219443818376
 20
-17.225
 30
0
  9
$EXTMAX
 10
20.125
 20
1.7125
 30
0
  9
$LIMMIN
 10
0
 20
0
  9
$LIMMAX
 10
420
 20
297
  9
$ORTHOMODE
 70
    0
  9
$REGENMODE
 70
    1
  9
$FILLMODE
 70
    1
  9
$QTEXTMODE
 70
    0
  9
$MIRRTEXT
 70
    0
  9
$LTSCALE
 40
1
  9
$ATTMODE
 70
    0
  9
$TEXTSIZE
 40
2.5
  9
$TRACEWID
 40
15.68
  9
$TEXTSTYLE
  7
STANDARD
  9
$CLAYER
  8
0
  9
$CELTYPE
  6
BYLAYER
  9
$CECOLOR
 62
  256
  9
$CELTSCALE
 40
1
  9
$DISPSILH
 70
    0
  9
$DIMSCALE
 40
100
  9
$DIMASZ
 40
0.0025
  9
$DIMEXO
 40
0.000625
  9
$DIMDLI
 40
3.75
  9
$DIMRND
 40
0
  9
$DIMDLE
 40
0
  9
$DIMEXE
 40
0.00125
  9
$DIMTP
 40
0
  9
$DIMTM
 40
0
  9
$DIMTXT
 40
0.0025
  9
$DIMCEN
 40
2.5
  9
$DIMTSZ
 40
0
  9
$DIMTOL
 70
    0
  9
$DIMLIM
 70
    0
  9
$DIMTIH
 70
    0
  9
$DIMTOH
 70
    0
  9
$DIMSE1
 70
    0
  9
$DIMSE2
 70
    0
  9
$DIMTAD
 70
    1
  9
$DIMZIN
 70
    1
  9
$DIMBLK
  1

  9
$DIMASO
 70
    1
  9
$DIMSHO
 70
    1
  9
$DIMPOST
  1

  9
$DIMAPOST
  1

  9
$DIMALT
 70
    0
  9
$DIMALTD
 70
    3
  9
$DIMALTF
 40
0.03937
  9
$DIMLFAC
 40
1
  9
$DIMTOFL
 70
    1
  9
$DIMTVP
 40
0
  9
$DIMTIX
 70
    0
  9
$DIMSOXD
 70
    0
  9
$DIMSAH
 70
    0
  9
$DIMBLK1
  1

  9
$DIMBLK2
  1

  9
$DIMSTYLE
  2
STANDARD
  9
$DIMCLRD
 70
    0
  9
$DIMCLRE
 70
    0
  9
$DIMCLRT
 70
    0
  9
$DIMTFAC
 40
1
  9
$DIMGAP
 40
0.000625
  9
$DIMJUST
 70
    0
  9
$DIMSD1
 70
    0
  9
$DIMSD2
 70
    0
  9
$DIMTOLJ
 70
    0
  9
$DIMTZIN
 70
    8
  9
$DIMALTZ
 70
    0
  9
$DIMALTTZ
 70
    0
  9
$DIMUPT
 70
    0
  9
$DIMDEC
 70
    2
  9
$DIMTDEC
 70
    2
  9
$DIMALTU
 70
    2
  9
$DIMALTTD
 70
    3
  9
$DIMTXSTY
  7
standard
  9
$DIMAUNIT
 70
    0
  9
$DIMADEC
 70
    2
  9
$DIMALTRND
 40
0
  9
$DIMAZIN
 70
    0
  9
$DIMDSEP
 70
    0
  9
$DIMATFIT
 70
    3
  9
$DIMFRAC
 70
    0
  9
$DIMLDRBLK
  1
STANDARD
  9
$DIMLUNIT
 70
    2
  9
$DIMLWD
 70
   20
  9
$DIMLWE
 70
   25
  9
$DIMTMOVE
 70
    0
  9
$DIMFXL
 40
1
  9
$DIMFXLON
 70
    0
  9
$DIMJOGANG
 40
0.7854
  9
$DIMTFILL
 70
    0
  9
$DIMTFILLCLR
 70
    0
  9
$DIMARCSYM
 70
    0
  9
$DIMLTYPE
  6

  9
$DIMLTEX1
  6

  9
$DIMLTEX2
  6

  9
$LUNITS
 70
    2
  9
$LUPREC
 70
    4
  9
$SKETCHINC
 40
1
  9
$FILLETRAD
 40
0
  9
$AUNITS
 70
    0
  9
$AUPREC
 70
    2
  9
$MENU
  1
.
  9
$ELEVATION
 40
0
  9
$PELEVATION
 40
0
  9
$THICKNESS
 40
0
  9
$LIMCHECK
 70
    0
  9
$CHAMFERA
 40
0
  9
$CHAMFERB
 40
0
  9
$CHAMFERC
 40
0
  9
$CHAMFERD
 40
0
  9
$SKPOLY
 70
    0
  9
$USRTIMER
 70
    1
  9
$ANGBASE
 50
0
  9
$ANGDIR
 70
    0
  9
$PDMODE
 70
   34
  9
$PDSIZE
 40
0
  9
$PLINEWID
 40
0
  9
$SPLFRAME
 70
    0
  9
$SPLINETYPE
 70
    2
  9
$SPLINESEGS
 70
    8
  9
$HANDSEED
  5
20000
  9
$SURFTAB1
 70
    6
  9
$SURFTAB2
 70
    6
  9
$SURFTYPE
 70
    6
  9
$SURFU
 70
    6
  9
$SURFV
 70
    6
  9
$UCSBASE
  2

  9
$UCSNAME
  2

  9
$UCSORG
 10
0
 20
0
 30
0
  9
$UCSXDIR
 10
1
 20
0
 30
0
  9
$UCSYDIR
 10
0
 20
1
 30
0
  9
$UCSORTHOREF
  2

  9
$UCSORTHOVIEW
 70
    0
  9
$UCSORGTOP
 10
0
 20
0
 30
0
  9
$UCSORGBOTTOM
 10
0
 20
0
 30
0
  9
$UCSORGLEFT
 10
0
 20
0
 30
0
  9
$UCSORGRIGHT
 10
0
 20
0
 30
0
  9
$UCSORGFRONT
 10
0
 20
0
 30
0
  9
$UCSORGBACK
 10
0
 20
0
 30
0
  9
$PUCSBASE
  2

  9
$PUCSNAME
  2

  9
$PUCSORG
 10
0
 20
0
 30
0
  9
$PUCSXDIR
 10
1
 20
0
 30
0
  9
$PUCSYDIR
 10
0
 20
1
 30
0
  9
$PUCSORTHOREF
  2

  9
$PUCSORTHOVIEW
 70
    0
  9
$PUCSORGTOP
 10
0
 20
0
 30
0
  9
$PUCSORGBOTTOM
 10
0
 20
0
 30
0
  9
$PUCSORGLEFT
 10
0
 20
0
 30
0
  9
$PUCSORGRIGHT
 10
0
 20
0
 30
0
  9
$PUCSORGFRONT
 10
0
 20
0
 30
0
  9
$PUCSORGBACK
 10
0
 20
0
 30
0
  9
$USERI1
 70
    0
  9
$USERI2
 70
    0
  9
$USERI3
 70
    0
  9
$USERI4
 70
    0
  9
$USERI5
 70
    0
  9
$USERR1
 40
0
  9
$USERR2
 40
0
  9
$USERR3
 40
0
  9
$USERR4
 40
0
  9
$USERR5
 40
0
  9
$WORLDVIEW
 70
    1
  9
$SHADEDGE
 70
    3
  9
$SHADEDIF
 70
   70
  9
$TILEMODE
 70
    1
  9
$MAXACTVP
 70
   64
  9
$PINSBASE
 10
0.07994109721909187
 20
0.1825625
 30
0
  9
$PLIMCHECK
 70
    0
  9
$PEXTMIN
 10
0
 20
0
 30
0
  9
$PEXTMAX
 10
0
 20
0
 30
0
  9
$GRIDMODE
 70
    1
  9
$SNAPSTYLE
 70
    0
  9
$GRIDUNIT
 10
0
 20
0
  9
$PLIMMIN
 10
0
 20
0
  9
$PLIMMAX
 10
0.297
 20
0.21
  9
$UNITMODE
 70
    0
  9
$VISRETAIN
 70
    1
  9
$PLINEGEN
 70
    0
  9
$PSLTSCALE
 70
    1
  9
$TREEDEPTH
 70
 3020
  9
$CMLSTYLE
  2
Standard
  9
$CMLJUST
 70
    0
  9
$CMLSCALE
 40
20
  9
$PROXYGRAPHICS
 70
    1
  9
$MEASUREMENT
 70
    1
  9
$CELWEIGHT
370
   -1
  9
$ENDCAPS
280
    0
  9
$JOINSTYLE
280
    0
  9
$LWDISPLAY
290
    0
  9
$INSUNITS
 70
    6
  9
$HYPERLINKBASE
  1

  9
$STYLESHEET
  1

  9
$XEDIT
290
    1
  9
$CEPSNTYPE
380
    0
  9
$PSTYLEMODE
290
    1
  9
$EXTNAMES
290
    1
  9
$PSVPSCALE
 40
0.01
  9
$OLESTARTUP
290
    0
  9
$SORTENTS
280
  127
  9
$INDEXCTL
280
    0
  9
$HIDETEXT
280
    1
  9
$XCLIPFRAME
290
    0
  9
$HALOGAP
280
    0
  9
$OBSCOLOR
 70
  257
  9
$OBSLTYPE
280
    0
  9
$INTERSECTIONDISPLAY
280
    0
  9
$INTERSECTIONCOLOR
 70
  257
  9
$DIMASSOC
280
    1
  9
$PROJECTNAME
  1

  9
$CAMERADISPLAY
290
    0
  9
$LENSLENGTH
 40
50
  9
$CAMERAHEIGHT
 40
0
  9
$STEPSPERSEC
 40
2
  9
$STEPSIZE
 40
50
  9
$3DDWFPREC
 40
2
  9
$PSOLWIDTH
 40
5
  9
$PSOLHEIGHT
 40
80
  9
$LOFTANG1
 40
1.570796326794897
  9
$LOFTANG2
 40
1.570796326794897
  9
$LOFTMAG1
 40
0
  9
$LOFTMAG2
 40
0
  9
$LOFTPARAM
 70
    7
  9
$LOFTNORMALS
280
    1
  9
$LATITUDE
 40
1
  9
$LONGITUDE
 40
1
  9
$NORTHDIRECTION
 40
0
  9
$TIMEZONE
 70
-8000
  9
$LIGHTGLYPHDISPLAY
280
    1
  9
$TILEMODELIGHTSYNCH
280
    1
  9
$SOLIDHIST
280
    1
  9
$SHOWHIST
280
    1
  9
$DWFFRAME
280
    2
  9
$DGNFRAME
280
    0
  9
$REALWORLDSCALE
290
    1
  9
$INTERFERECOLOR
 62
    1
  9
$CSHADOW
280
    0
  9
$SHADOWPLANELOCATION
 40
0
  0
ENDSEC
  0
SECTION
  2
CLASSES
  0
ENDSEC
  0
SECTION
  2
TABLES
  0
TABLE
  2
VPORT
  5
8
330
0
100
AcDbSymbolTable
 70
    1
  0
VPORT
  5
31
330
2
100
AcDbSymbolTableRecord
100
AcDbViewportTableRecord
  2
*ACTIVE
 70
    0
 10
0
 20
0
 11
1
 21
1
 12
10.70674795709908
 22
0.9575140449438202
 13
0
 23
0
 14
10
 24
10
 15
10
 25
10
 16
0
 26
0
 36
1
 17
0
 27
0
 37
0
 40
19.32437436159346
 41
1.506506506506506
 42
50
 43
0
 44
0
 50
0
 51
0
 71
    0
 72
  100
 73
    1
 74
    3
 75
    0
 76
    1
 77
    0
 78
    0
281
    0
 65
    1
110
0
120
0
130
0
111
1
121
0
131
0
112
0
122
1
132
0
 79
    0
146
0
348
10020
 60
    7
 61
    5
292
1
282
    1
141
0
142
0
 63
  250
421
3358443
  0
ENDTAB
  0
TABLE
  2
LTYPE
  5
5
330
0
100
AcDbSymbolTable
 70
    4
  0
LTYPE
  5
14
330
5
100
AcDbSymbolTableRecord
100
AcDbLinetypeTableRecord
  2
ByBlock
 70
    0
  3

 72
   65
 73
    0
 40
0
  0
LTYPE
  5
15
330
5
100
AcDbSymbolTableRecord
100
AcDbLinetypeTableRecord
  2
ByLayer
 70
    0
  3

 72
   65
 73
    0
 40
0
  0
LTYPE
  5
16
330
5
100
AcDbSymbolTableRecord
100
AcDbLinetypeTableRecord
  2
Continuous
 70
    0
  3
Solid line
 72
   65
 73
    0
 40
0
  0
LTYPE
  5
32
330
5
100
AcDbSymbolTableRecord
100
AcDbLinetypeTableRecord
  2
DOT
 70
    0
  3
Dot . . . . . . . . . . . . . . . . . . . . . .
 72
   65
 73
    2
 40
6.35
 49
0
 74
    0
 49
-6.35
 74
    0
  0
LTYPE
  5
33
330
5
100
AcDbSymbolTableRecord
100
AcDbLinetypeTableRecord
  2
DOTTINY
 70
    0
  3
Dot (.15x) .....................................
 72
   65
 73
    2
 40
0.9525
 49
0
 74
    0
 49
-0.9525
 74
    0
  0
LTYPE
  5
34
330
5
100
AcDbSymbolTableRecord
100
AcDbLinetypeTableRecord
  2
DOT2
 70
    0
  3
Dot (.5x) .....................................
 72
   65
 73
    2
 40
3.175
 49
0
 74
    0
 49
-3.175
 74
    0
  0
LTYPE
  5
35
330
5
100
AcDbSymbolTableRecord
100
AcDbLinetypeTableRecord
  2
DOTX2
 70
    0
  3
Dot (2x) .  .  .  .  .  .  .  .  .  .  .  .  .
 72
   65
 73
    2
 40
12.7
 49
0
 74
    0
 49
-12.7
 74
    0
  0
LTYPE
  5
36
330
5
100
AcDbSymbolTableRecord
100
AcDbLinetypeTableRecord
  2
DASHED
 70
    0
  3
Dashed _ _ _ _ _ _ _ _ _ _ _ _ _ _ _ _ _
 72
   65
 73
    2
 40
19.05
 49
12.7
 74
    0
 49
-6.35
 74
    0
  0
LTYPE
  5
37
330
5
100
AcDbSymbolTableRecord
100
AcDbLinetypeTableRecord
  2
DASHEDTINY
 70
    0
  3
Dashed (.15x) _ _ _ _ _ _ _ _ _ _ _ _ _ _ _ _ _
 72
   65
 73
    2
 40
2.8575
 49
1.905
 74
    0
 49
-0.9525
 74
    0
  0
LTYPE
  5
38
330
5
100
AcDbSymbolTableRecord
100
AcDbLinetypeTableRecord
  2
DASHED2
 70
    0
  3
Dashed (.5x) _ _ _ _ _ _ _ _ _ _ _ _ _ _ _ _ _
 72
   65
 73
    2
 40
9.524999999999999
 49
6.35
 74
    0
 49
-3.175
 74
    0
  0
LTYPE
  5
39
330
5
100
AcDbSymbolTableRecord
100
AcDbLinetypeTableRecord
  2
DASHEDX2
 70
    0
  3
Dashed (2x) ____  ____  ____  ____  ____  ___
 72
   65
 73
    2
 40
38.09999999999999
 49
25.4
 74
    0
 49
-12.7
 74
    0
  0
LTYPE
  5
3A
330
5
100
AcDbSymbolTableRecord
100
AcDbLinetypeTableRecord
  2
DASHDOT
 70
    0
  3
Dash dot __ . __ . __ . __ . __ . __ . __ . __
 72
   65
 73
    4
 40
25.4
 49
12.7
 74
    0
 49
-6.35
 74
    0
 49
0
 74
    0
 49
-6.35
 74
    0
  0
LTYPE
  5
3B
330
5
100
AcDbSymbolTableRecord
100
AcDbLinetypeTableRecord
  2
DASHDOTTINY
 70
    0
  3
Dash dot (.15x) _._._._._._._._._._._._._._._.
 72
   65
 73
    4
 40
3.81
 49
1.905
 74
    0
 49
-0.9525
 74
    0
 49
0
 74
    0
 49
-0.9525
 74
    0
  0
LTYPE
  5
3C
330
5
100
AcDbSymbolTableRecord
100
AcDbLinetypeTableRecord
  2
DASHDOT2
 70
    0
  3
Dash dot (.5x) _._._._._._._._._._._._._._._.
 72
   65
 73
    4
 40
12.7
 49
6.35
 74
    0
 49
-3.175
 74
    0
 49
0
 74
    0
 49
-3.175
 74
    0
  0
LTYPE
  5
3D
330
5
100
AcDbSymbolTableRecord
100
AcDbLinetypeTableRecord
  2
DASHDOTX2
 70
    0
  3
Dash dot (2x) ____  .  ____  .  ____  .  ___
 72
   65
 73
    4
 40
50.8
 49
25.4
 74
    0
 49
-12.7
 74
    0
 49
0
 74
    0
 49
-12.7
 74
    0
  0
LTYPE
  5
3E
330
5
100
AcDbSymbolTableRecord
100
AcDbLinetypeTableRecord
  2
DIVIDE
 70
    0
  3
Divide ____ . . ____ . . ____ . . ____ . . ____
 72
   65
 73
    6
 40
31.75
 49
12.7
 74
    0
 49
-6.35
 74
    0
 49
0
 74
    0
 49
-6.35
 74
    0
 49
0
 74
    0
 49
-6.35
 74
    0
  0
LTYPE
  5
3F
330
5
100
AcDbSymbolTableRecord
100
AcDbLinetypeTableRecord
  2
DIVIDETINY
 70
    0
  3
Divide (.15x) __..__..__..__..__..__..__..__.._
 72
   65
 73
    6
 40
4.7625
 49
1.905
 74
    0
 49
-0.9525
 74
    0
 49
0
 74
    0
 49
-0.9525
 74
    0
 49
0
 74
    0
 49
-0.9525
 74
    0
  0
LTYPE
  5
40
330
5
100
AcDbSymbolTableRecord
100
AcDbLinetypeTableRecord
  2
DIVIDE2
 70
    0
  3
Divide (.5x) __..__..__..__..__..__..__..__.._
 72
   65
 73
    6
 40
15.875
 49
6.35
 74
    0
 49
-3.175
 74
    0
 49
0
 74
    0
 49
-3.175
 74
    0
 49
0
 74
    0
 49
-3.175
 74
    0
  0
LTYPE
  5
41
330
5
100
AcDbSymbolTableRecord
100
AcDbLinetypeTableRecord
  2
DIVIDEX2
 70
    0
  3
Divide (2x) ________  .  .  ________  .  .  _
 72
   65
 73
    6
 40
63.5
 49
25.4
 74
    0
 49
-12.7
 74
    0
 49
0
 74
    0
 49
-12.7
 74
    0
 49
0
 74
    0
 49
-12.7
 74
    0
  0
LTYPE
  5
42
330
5
100
AcDbSymbolTableRecord
100
AcDbLinetypeTableRecord
  2
BORDER
 70
    0
  3
Border __ __ . __ __ . __ __ . __ __ . __ __ .
 72
   65
 73
    6
 40
44.45
 49
12.7
 74
    0
 49
-6.35
 74
    0
 49
12.7
 74
    0
 49
-6.35
 74
    0
 49
0
 74
    0
 49
-6.35
 74
    0
  0
LTYPE
  5
43
330
5
100
AcDbSymbolTableRecord
100
AcDbLinetypeTableRecord
  2
BORDERTINY
 70
    0
  3
Border (.15x) __.__.__.__.__.__.__.__.__.__.__.
 72
   65
 73
    6
 40
6.6675
 49
1.905
 74
    0
 49
-0.9525
 74
    0
 49
1.905
 74
    0
 49
-0.9525
 74
    0
 49
0
 74
    0
 49
-0.9525
 74
    0
  0
LTYPE
  5
44
330
5
100
AcDbSymbolTableRecord
100
AcDbLinetypeTableRecord
  2
BORDER2
 70
    0
  3
Border (.5x) __.__.__.__.__.__.__.__.__.__.__.
 72
   65
 73
    6
 40
22.225
 49
6.35
 74
    0
 49
-3.175
 74
    0
 49
6.35
 74
    0
 49
-3.175
 74
    0
 49
0
 74
    0
 49
-3.175
 74
    0
  0
LTYPE
  5
45
330
5
100
AcDbSymbolTableRecord
100
AcDbLinetypeTableRecord
  2
BORDERX2
 70
    0
  3
Border (2x) ____  ____  .  ____  ____  .  ___
 72
   65
 73
    6
 40
88.89999999999999
 49
25.4
 74
    0
 49
-12.7
 74
    0
 49
25.4
 74
    0
 49
-12.7
 74
    0
 49
0
 74
    0
 49
-12.7
 74
    0
  0
LTYPE
  5
46
330
5
100
AcDbSymbolTableRecord
100
AcDbLinetypeTableRecord
  2
CENTER
 70
    0
  3
Center ____ _ ____ _ ____ _ ____ _ ____ _ ____
 72
   65
 73
    4
 40
50.8
 49
31.75
 74
    0
 49
-6.35
 74
    0
 49
6.35
 74
    0
 49
-6.35
 74
    0
  0
LTYPE
  5
47
330
5
100
AcDbSymbolTableRecord
100
AcDbLinetypeTableRecord
  2
CENTERTINY
 70
    0
  3
Center (.15x) ___ _ ___ _ ___ _ ___ _ ___ _ ___
 72
   65
 73
    4
 40
7.62
 49
4.7625
 74
    0
 49
-0.9525
 74
    0
 49
0.9525
 74
    0
 49
-0.9525
 74
    0
  0
LTYPE
  5
48
330
5
100
AcDbSymbolTableRecord
100
AcDbLinetypeTableRecord
  2
CENTER2
 70
    0
  3
Center (.5x) ___ _ ___ _ ___ _ ___ _ ___ _ ___
 72
   65
 73
    4
 40
28.575
 49
19.05
 74
    0
 49
-3.175
 74
    0
 49
3.175
 74
    0
 49
-3.175
 74
    0
  0
LTYPE
  5
49
330
5
100
AcDbSymbolTableRecord
100
AcDbLinetypeTableRecord
  2
CENTERX2
 70
    0
  3
Center (2x) ________  __  ________  __  _____
 72
   65
 73
    4
 40
101.6
 49
63.5
 74
    0
 49
-12.7
 74
    0
 49
12.7
 74
    0
 49
-12.7
 74
    0
  0
ENDTAB
  0
TABLE
  2
LAYER
  5
2
330
0
100
AcDbSymbolTable
 70
    1
  0
LAYER
  5
10
330
2
100
AcDbSymbolTableRecord
100
AcDbLayerTableRecord
  2
0
 70
    0
 62
    7
  6
CONTINUOUS
370
   25
390
F
  0
ENDTAB
  0
TABLE
  2
STYLE
  5
3
330
0
100
AcDbSymbolTable
 70
    3
  0
STYLE
  5
4A
330
2
100
AcDbSymbolTableRecord
100
AcDbTextStyleTableRecord
  2
standard
 70
    0
 40
0
 41
1
 50
0
 71
    0
 42
1
  3
standard
  4

  0
ENDTAB
  0
TABLE
  2
VIEW
  5
6
330
0
100
AcDbSymbolTable
 70
    0
  0
ENDTAB
  0
TABLE
  2
UCS
  5
7
330
0
100
AcDbSymbolTable
 70
    0
  0
ENDTAB
  0
TABLE
  2
APPID
  5
9
330
0
100
AcDbSymbolTable
 70
    1
  0
APPID
  5
12
330
9
100
AcDbSymbolTableRecord
100
AcDbRegAppTableRecord
  2
ACAD
 70
    0
  0
APPID
  5
4B
330
9
100
AcDbSymbolTableRecord
100
AcDbRegAppTableRecord
  2
LibreCad
 70
    0
  0
ENDTAB
  0
TABLE
  2
DIMSTYLE
  5
A
330
0
100
AcDbSymbolTable
 70
    1
100
AcDbDimStyleTable
 71
    1
  0
DIMSTYLE
105
4C
330
A
100
AcDbSymbolTableRecord
100
AcDbDimStyleTableRecord
  2
Standard
 70
    0
 40
100
 41
0.0025
 42
0.000625
 43
0.38
 44
0.00125
 45
0
 46
0
 47
0
 48
0
 49
1
140
0.0025
141
0.09
142
0
143
25.4
144
1
145
0
146
1
147
0.000625
148
0
 71
    0
 72
    0
 73
    0
 74
    1
 75
    0
 76
    0
 77
    0
 78
    1
 79
    0
170
    0
171
    2
172
    0
173
    0
174
    0
175
    0
176
    0
177
    0
178
    0
179
    2
271
    2
272
    4
273
    2
274
    2
275
    0
276
    0
277
    2
278
    0
279
    0
280
    0
281
    0
282
    0
283
    1
284
    0
285
    0
286
    0
288
    0
289
    3
340
standard
341

371
   20
372
   25
  0
ENDTAB
  0
TABLE
  2
BLOCK_RECORD
  5
1
330
0
100
AcDbSymbolTable
 70
    2
  0
BLOCK_RECORD
  5
1F
330
1
100
AcDbSymbolTableRecord
100
AcDbBlockTableRecord
  2
*Model_Space
 70
    0
280
    1
281
    0
  0
BLOCK_RECORD
  5
1E
330
1
100
AcDbSymbolTableRecord
100
AcDbBlockTableRecord
  2
*Paper_Space
 70
    0
280
    1
281
    0
  0
BLOCK_RECORD
  5
4D
330
1
100
AcDbSymbolTableRecord
100
AcDbBlockTableRecord
  2
*D9
 70
    0
280
    1
281
    0
  0
BLOCK_RECORD
  5
50
330
1
100
AcDbSymbolTableRecord
100
AcDbBlockTableRecord
  2
*D19
 70
    0
280
    1
281
    0
  0
BLOCK_RECORD
  5
53
330
1
100
AcDbSymbolTableRecord
100
AcDbBlockTableRecord
  2
*D13
 70
    0
280
    1
281
    0
  0
BLOCK_RECORD
  5
56
330
1
100
AcDbSymbolTableRecord
100
AcDbBlockTableRecord
  2
*D8
 70
    0
280
    1
281
    0
  0
BLOCK_RECORD
  5
59
330
1
100
AcDbSymbolTableRecord
100
AcDbBlockTableRecord
  2
*D11
 70
    0
280
    1
281
    0
  0
BLOCK_RECORD
  5
5C
330
1
100
AcDbSymbolTableRecord
100
AcDbBlockTableRecord
  2
*D10
 70
    0
280
    1
281
    0
  0
BLOCK_RECORD
  5
5F
330
1
100
AcDbSymbolTableRecord
100
AcDbBlockTableRecord
  2
*D15
 70
    0
280
    1
281
    0
  0
BLOCK_RECORD
  5
62
330
1
100
AcDbSymbolTableRecord
100
AcDbBlockTableRecord
  2
*D1
 70
    0
280
    1
281
    0
  0
BLOCK_RECORD
  5
65
330
1
100
AcDbSymbolTableRecord
100
AcDbBlockTableRecord
  2
*D6
 70
    0
280
    1
281
    0
  0
BLOCK_RECORD
  5
68
330
1
100
AcDbSymbolTableRecord
100
AcDbBlockTableRecord
  2
*D5
 70
    0
280
    1
281
    0
  0
BLOCK_RECORD
  5
6B
330
1
100
AcDbSymbolTableRecord
100
AcDbBlockTableRecord
  2
*D18
 70
    0
280
    1
281
    0
  0
BLOCK_RECORD
  5
6E
330
1
100
AcDbSymbolTableRecord
100
AcDbBlockTableRecord
  2
*D12
 70
    0
280
    1
281
    0
  0
BLOCK_RECORD
  5
71
330
1
100
AcDbSymbolTableRecord
100
AcDbBlockTableRecord
  2
*D7
 70
    0
280
    1
281
    0
  0
BLOCK_RECORD
  5
74
330
1
100
AcDbSymbolTableRecord
100
AcDbBlockTableRecord
  2
*D17
 70
    0
280
    1
281
    0
  0
BLOCK_RECORD
  5
77
330
1
100
AcDbSymbolTableRecord
100
AcDbBlockTableRecord
  2
*D2
 70
    0
280
    1
281
    0
  0
BLOCK_RECORD
  5
7A
330
1
100
AcDbSymbolTableRecord
100
AcDbBlockTableRecord
  2
*D20
 70
    0
280
    1
281
    0
  0
BLOCK_RECORD
  5
7D
330
1
100
AcDbSymbolTableRecord
100
AcDbBlockTableRecord
  2
*D16
 70
    0
280
    1
281
    0
  0
BLOCK_RECORD
  5
80
330
1
100
AcDbSymbolTableRecord
100
AcDbBlockTableRecord
  2
*D4
 70
    0
280
    1
281
    0
  0
BLOCK_RECORD
  5
83
330
1
100
AcDbSymbolTableRecord
100
AcDbBlockTableRecord
  2
*D14
 70
    0
280
    1
281
    0
  0
BLOCK_RECORD
  5
86
330
1
100
AcDbSymbolTableRecord
100
AcDbBlockTableRecord
  2
*D3
 70
    0
280
    1
281
    0
  0
ENDTAB
  0
ENDSEC
  0
SECTION
  2
BLOCKS
  0
BLOCK
  5
20
330
1F
100
AcDbEntity
  8
0
100
AcDbBlockBegin
  2
*Model_Space
 70
    0
 10
0
 20
0
 30
0
  3
*Model_Space
  1

  0
ENDBLK
  5
21
330
1F
100
AcDbEntity
  8
0
100
AcDbBlockEnd
  0
BLOCK
  5
1C
330
1B
100
AcDbEntity
  8
0
100
AcDbBlockBegin
  2
*Paper_Space
 70
    0
 10
0
 20
0
 30
0
  3
*Paper_Space
  1

  0
ENDBLK
  5
1D
330
1F
100
AcDbEntity
  8
0
100
AcDbBlockEnd
  0
BLOCK
  5
4E
330
4D
100
AcDbEntity
  8
0
100
AcDbBlockBegin
  2
*D9
 70
    1
 10
0
 20
0
  3
*D9
  1

  0
LINE
  5
89
100
AcDbEntity
  8
0
  6
ByBlock
 62
    0
370
   20
100
AcDbLine
 10
14
 20
-7.32
 11
14
 21
-8.600000000000001
  0
SOLID
  5
8A
100
AcDbEntity
  8
0
  6
ByBlock
 62
    0
370
   20
100
AcDbTrace
 10
14
 20
-7.32
 30
0
 11
14.04162846577728
 21
-7.57
 31
0
 12
13.95837153422272
 22
-7.57
 32
0
 13
13.95837153422272
 23
-7.57
 33
0
  0
SOLID
  5
8B
100
AcDbEntity
  8
0
  6
ByBlock
 62
    0
370
   20
100
AcDbTrace
 10
14
 20
-8.600000000000001
 30
0
 11
13.95837153422272
 21
-8.350000000000001
 31
0
 12
14.04162846577728
 22
-8.350000000000001
 32
0
 13
14.04162846577728
 23
-8.350000000000001
 33
0
  0
MTEXT
  5
8C
100
AcDbEntity
  8
0
  6
CONTINUOUS
 62
    0
370
   -2
100
AcDbMText
 10
13.8125
 20
-7.960000000000001
 30
0
 40
0.25
 41
0.5277777777777777
 71
    5
 72
    1
  1
1.28
  7
standard
210
0
220
0
230
1
 50
90
 73
    2
 44
1
  0
LINE
  5
8D
100
AcDbEntity
  8
0
  6
ByBlock
 62
    0
370
   25
100
AcDbLine
 10
13.6125
 20
-7.32
 11
14.125
 21
-7.32
  0
LINE
  5
8E
100
AcDbEntity
  8
0
  6
ByBlock
 62
    0
370
   25
100
AcDbLine
 10
13.6125
 20
-8.600000000000001
 11
14.125
 21
-8.600000000000001
  0
ENDBLK
  5
4F
330
4D
100
AcDbEntity
  8
0
100
AcDbBlockEnd
  0
BLOCK
  5
51
330
50
100
AcDbEntity
  8
0
100
AcDbBlockBegin
  2
*D19
 70
    1
 10
0
 20
0
  3
*D19
  1

  0
LINE
  5
8F
100
AcDbEntity
  8
0
  6
ByBlock
 62
    0
370
   20
100
AcDbLine
 10
0
 20
-7
 11
4.84
 21
-7
  0
SOLID
  5
90
100
AcDbEntity
  8
0
  6
ByBlock
 62
    0
370
   20
100
AcDbTrace
 10
0
 20
-7
 30
0
 11
0.25
 21
-6.958371534222716
 31
0
 12
0.25
 22
-7.041628465777285
 32
0
 13
0.25
 23
-7.041628465777285
 33
0
  0
SOLID
  5
91
100
AcDbEntity
  8
0
  6
ByBlock
 62
    0
370
   20
100
AcDbTrace
 10
4.84
 20
-7
 30
0
 11
4.59
 21
-7.041628465777284
 31
0
 12
4.59
 22
-6.958371534222716
 32
0
 13
4.59
 23
-6.958371534222716
 33
0
  0
MTEXT
  5
92
100
AcDbEntity
  8
0
  6
CONTINUOUS
 62
    0
370
   -2
100
AcDbMText
 10
2.42
 20
-6.8125
 30
0
 40
0.25
 41
0.6388888888888888
 71
    5
 72
    1
  1
4.84
  7
standard
210
0
220
0
230
1
 50
0
 73
    2
 44
1
  0
LINE
  5
93
100
AcDbEntity
  8
0
  6
ByBlock
 62
    0
370
   25
100
AcDbLine
 10
1.072377592541835e-017
 20
-6.1825
 11
-2.296136913416957e-017
 21
-7.125
  0
LINE
  5
94
100
AcDbEntity
  8
0
  6
ByBlock
 62
    0
370
   25
100
AcDbLine
 10
4.84
 20
-6.1825
 11
4.84
 21
-7.125
  0
ENDBLK
  5
52
330
50
100
AcDbEntity
  8
0
100
AcDbBlockEnd
  0
BLOCK
  5
54
330
53
100
AcDbEntity
  8
0
100
AcDbBlockBegin
  2
*D13
 70
    1
 10
0
 20
0
  3
*D13
  1

  0
LINE
  5
95
100
AcDbEntity
  8
0
  6
ByBlock
 62
    0
370
   20
100
AcDbLine
 10
10.88
 20
-16
 11
17
 21
-16
  0
SOLID
  5
96
100
AcDbEntity
  8
0
  6
ByBlock
 62
    0
370
   20
100
AcDbTrace
 10
10.88
 20
-16
 30
0
 11
11.13
 21
-15.95837153422272
 31
0
 12
11.13
 22
-16.04162846577728
 32
0
 13
11.13
 23
-16.04162846577728
 33
0
  0
SOLID
  5
97
100
AcDbEntity
  8
0
  6
ByBlock
 62
    0
370
   20
100
AcDbTrace
 10
17
 20
-16
 30
0
 11
16.75
 21
-16.04162846577728
 31
0
 12
16.75
 22
-15.95837153422272
 32
0
 13
16.75
 23
-15.95837153422272
 33
0
  0
MTEXT
  5
98
100
AcDbEntity
  8
0
  6
CONTINUOUS
 62
    0
370
   -2
100
AcDbMText
 10
13.94
 20
-15.8125
 30
0
 40
0.25
 41
0.5277777777777932
 71
    5
 72
    1
  1
6.12
  7
standard
210
0
220
0
230
1
 50
0
 73
    2
 44
1
  0
LINE
  5
99
100
AcDbEntity
  8
0
  6
ByBlock
 62
    0
370
   25
100
AcDbLine
 10
10.88
 20
-15.6625
 11
10.88
 21
-16.125
  0
LINE
  5
9A
100
AcDbEntity
  8
0
  6
ByBlock
 62
    0
370
   25
100
AcDbLine
 10
17
 20
-15.6625
 11
17
 21
-16.125
  0
ENDBLK
  5
55
330
53
100
AcDbEntity
  8
0
100
AcDbBlockEnd
  0
BLOCK
  5
57
330
56
100
AcDbEntity
  8
0
100
AcDbBlockBegin
  2
*D8
 70
    1
 10
0
 20
0
  3
*D8
  1

  0
LINE
  5
9B
100
AcDbEntity
  8
0
  6
ByBlock
 62
    0
370
   20
100
AcDbLine
 10
5.42
 20
-1
 11
8.480000000000002
 21
-1
  0
SOLID
  5
9C
100
AcDbEntity
  8
0
  6
ByBlock
 62
    0
370
   20
100
AcDbTrace
 10
5.42
 20
-1
 30
0
 11
5.67
 21
-0.9583715342227159
 31
0
 12
5.67
 22
-1.041628465777284
 32
0
 13
5.67
 23
-1.041628465777284
 33
0
  0
SOLID
  5
9D
100
AcDbEntity
  8
0
  6
ByBlock
 62
    0
370
   20
100
AcDbTrace
 10
8.480000000000002
 20
-1
 30
0
 11
8.230000000000002
 21
-1.041628465777284
 31
0
 12
8.230000000000002
 22
-0.9583715342227159
 32
0
 13
8.230000000000002
 23
-0.9583715342227159
 33
0
  0
MTEXT
  5
9E
100
AcDbEntity
  8
0
  6
CONTINUOUS
 62
    0
370
   -2
100
AcDbMText
 10
6.950000000000001
 20
-0.8125
 30
0
 40
0.25
 41
0.5833333333333643
 71
    5
 72
    1
  1
3.06
  7
standard
210
0
220
0
230
1
 50
0
 73
    2
 44
1
  0
LINE
  5
9F
100
AcDbEntity
  8
0
  6
ByBlock
 62
    0
370
   25
100
AcDbLine
 10
5.42
 20
-1.7175
 11
5.42
 21
-0.875
  0
LINE
  5
A0
100
AcDbEntity
  8
0
  6
ByBlock
 62
    0
370
   25
100
AcDbLine
 10
8.480000000000002
 20
-1.7175
 11
8.480000000000002
 21
-0.875
  0
ENDBLK
  5
58
330
56
100
AcDbEntity
  8
0
100
AcDbBlockEnd
  0
BLOCK
  5
5A
330
59
100
AcDbEntity
  8
0
100
AcDbBlockBegin
  2
*D11
 70
    1
 10
0
 20
0
  3
*D11
  1

  0
LINE
  5
A1
100
AcDbEntity
  8
0
  6
ByBlock
 62
    0
370
   20
100
AcDbLine
 10
13.55
 20
-7.776170858577522
 11
15
 21
-7.776170858577522
  0
SOLID
  5
A2
100
AcDbEntity
  8
0
  6
ByBlock
 62
    0
370
   20
100
AcDbTrace
 10
13.55
 20
-7.776170858577522
 30
0
 11
13.8
 21
-7.734542392800238
 31
0
 12
13.8
 22
-7.817799324354805
 32
0
 13
13.8
 23
-7.817799324354805
 33
0
  0
SOLID
  5
A3
100
AcDbEntity
  8
0
  6
ByBlock
 62
    0
370
   20
100
AcDbTrace
 10
15
 20
-7.776170858577522
 30
0
 11
14.75
 21
-7.817799324354805
 31
0
 12
14.75
 22
-7.734542392800238
 32
0
 13
14.75
 23
-7.734542392800238
 33
0
  0
MTEXT
  5
A4
100
AcDbEntity
  8
0
  6
CONTINUOUS
 62
    0
370
   -2
100
AcDbMText
 10
14.275
 20
-7.588670858577522
 30
0
 40
0.25
 41
0.5555555555555711
 71
    5
 72
    1
  1
1.45
  7
standard
210
0
220
0
230
1
 50
0
 73
    2
 44
1
  0
LINE
  5
A5
100
AcDbEntity
  8
0
  6
ByBlock
 62
    0
370
   25
100
AcDbLine
 10
13.55
 20
-7.3825
 11
13.55
 21
-7.901170858577522
  0
LINE
  5
A6
100
AcDbEntity
  8
0
  6
ByBlock
 62
    0
370
   25
100
AcDbLine
 10
15
 20
-7.3825
 11
15
 21
-7.901170858577522
  0
ENDBLK
  5
5B
330
59
100
AcDbEntity
  8
0
100
AcDbBlockEnd
  0
BLOCK
  5
5D
330
5C
100
AcDbEntity
  8
0
100
AcDbBlockBegin
  2
*D10
 70
    1
 10
0
 20
0
  3
*D10
  1

  0
LINE
  5
A7
100
AcDbEntity
  8
0
  6
ByBlock
 62
    0
370
   20
100
AcDbLine
 10
15.8
 20
0
 11
15.8
 21
-7.32
  0
SOLID
  5
A8
100
AcDbEntity
  8
0
  6
ByBlock
 62
    0
370
   20
100
AcDbTrace
 10
15.8
 20
0
 30
0
 11
15.84162846577729
 21
-0.25
 31
0
 12
15.75837153422272
 22
-0.25
 32
0
 13
15.75837153422272
 23
-0.25
 33
0
  0
SOLID
  5
A9
100
AcDbEntity
  8
0
  6
ByBlock
 62
    0
370
   20
100
AcDbTrace
 10
15.8
 20
-7.32
 30
0
 11
15.75837153422272
 21
-7.07
 31
0
 12
15.84162846577729
 22
-7.07
 32
0
 13
15.84162846577729
 23
-7.07
 33
0
  0
MTEXT
  5
AA
100
AcDbEntity
  8
0
  6
CONTINUOUS
 62
    0
370
   -2
100
AcDbMText
 10
15.6125
 20
-3.66
 30
0
 40
0.25
 41
0.5833333333333489
 71
    5
 72
    1
  1
7.32
  7
standard
210
0
220
0
230
1
 50
90
 73
    2
 44
1
  0
LINE
  5
AB
100
AcDbEntity
  8
0
  6
ByBlock
 62
    0
370
   25
100
AcDbLine
 10
15.0625
 20
0
 11
15.925
 21
0
  0
LINE
  5
AC
100
AcDbEntity
  8
0
  6
ByBlock
 62
    0
370
   25
100
AcDbLine
 10
15.0625
 20
-7.32
 11
15.925
 21
-7.32
  0
ENDBLK
  5
5E
330
5C
100
AcDbEntity
  8
0
100
AcDbBlockEnd
  0
BLOCK
  5
60
330
5F
100
AcDbEntity
  8
0
100
AcDbBlockBegin
  2
*D15
 70
    1
 10
0
 20
0
  3
*D15
  1

  0
LINE
  5
AD
100
AcDbEntity
  8
0
  6
ByBlock
 62
    0
370
   20
100
AcDbLine
 10
8.480000000000002
 20
0.5
 11
15
 21
0.5
  0
SOLID
  5
AE
100
AcDbEntity
  8
0
  6
ByBlock
 62
    0
370
   20
100
AcDbTrace
 10
8.480000000000002
 20
0.5
 30
0
 11
8.730000000000002
 21
0.5416284657772841
 31
0
 12
8.730000000000002
 22
0.4583715342227159
 32
0
 13
8.730000000000002
 23
0.4583715342227159
 33
0
  0
SOLID
  5
AF
100
AcDbEntity
  8
0
  6
ByBlock
 62
    0
370
   20
100
AcDbTrace
 10
15
 20
0.5
 30
0
 11
14.75
 21
0.458371534222716
 31
0
 12
14.75
 22
0.5416284657772841
 32
0
 13
14.75
 23
0.5416284657772841
 33
0
  0
MTEXT
  5
B0
100
AcDbEntity
  8
0
  6
CONTINUOUS
 62
    0
370
   -2
100
AcDbMText
 10
11.74
 20
0.6875
 30
0
 40
0.25
 41
0.5833333333333643
 71
    5
 72
    1
  1
6.52
  7
standard
210
0
220
0
230
1
 50
0
 73
    2
 44
1
  0
LINE
  5
B1
100
AcDbEntity
  8
0
  6
ByBlock
 62
    0
370
   25
100
AcDbLine
 10
8.480000000000002
 20
-0.03750000000000001
 11
8.480000000000002
 21
0.625
  0
LINE
  5
B2
100
AcDbEntity
  8
0
  6
ByBlock
 62
    0
370
   25
100
AcDbLine
 10
15
 20
-0.03750000000000001
 11
15
 21
0.625
  0
ENDBLK
  5
61
330
5F
100
AcDbEntity
  8
0
100
AcDbBlockEnd
  0
BLOCK
  5
63
330
62
100
AcDbEntity
  8
0
100
AcDbBlockBegin
  2
*D1
 70
    1
 10
0
 20
0
  3
*D1
  1

  0
LINE
  5
B3
100
AcDbEntity
  8
0
  6
ByBlock
 62
    0
370
   20
100
AcDbLine
 10
1.89
 20
-11.5
 11
4.84
 21
-11.5
  0
SOLID
  5
B4
100
AcDbEntity
  8
0
  6
ByBlock
 62
    0
370
   20
100
AcDbTrace
 10
1.89
 20
-11.5
 30
0
 11
2.14
 21
-11.45837153422272
 31
0
 12
2.14
 22
-11.54162846577728
 32
0
 13
2.14
 23
-11.54162846577728
 33
0
  0
SOLID
  5
B5
100
AcDbEntity
  8
0
  6
ByBlock
 62
    0
370
   20
100
AcDbTrace
 10
4.84
 20
-11.5
 30
0
 11
4.59
 21
-11.54162846577728
 31
0
 12
4.59
 22
-11.45837153422272
 32
0
 13
4.59
 23
-11.45837153422272
 33
0
  0
MTEXT
  5
B6
100
AcDbEntity
  8
0
  6
CONTINUOUS
 62
    0
370
   -2
100
AcDbMText
 10
3.365
 20
-11.3125
 30
0
 40
0.25
 41
0.5833333333333488
 71
    5
 72
    1
  1
2.95
  7
standard
210
0
220
0
230
1
 50
0
 73
    2
 44
1
  0
LINE
  5
B7
100
AcDbEntity
  8
0
  6
ByBlock
 62
    0
370
   25
100
AcDbLine
 10
1.89
 20
-11.9975
 11
1.89
 21
-11.375
  0
LINE
  5
B8
100
AcDbEntity
  8
0
  6
ByBlock
 62
    0
370
   25
100
AcDbLine
 10
4.84
 20
-11.9975
 11
4.84
 21
-11.375
  0
ENDBLK
  5
64
330
62
100
AcDbEntity
  8
0
100
AcDbBlockEnd
  0
BLOCK
  5
66
330
65
100
AcDbEntity
  8
0
100
AcDbBlockBegin
  2
*D6
 70
    1
 10
0
 20
0
  3
*D6
  1

  0
LINE
  5
B9
100
AcDbEntity
  8
0
  6
ByBlock
 62
    0
370
   20
100
AcDbLine
 10
4
 20
-6.12
 11
4
 21
-12.06
  0
SOLID
  5
BA
100
AcDbEntity
  8
0
  6
ByBlock
 62
    0
370
   20
100
AcDbTrace
 10
4
 20
-6.12
 30
0
 11
4.041628465777284
 21
-6.37
 31
0
 12
3.958371534222716
 22
-6.37
 32
0
 13
3.958371534222716
 23
-6.37
 33
0
  0
SOLID
  5
BB
100
AcDbEntity
  8
0
  6
ByBlock
 62
    0
370
   20
100
AcDbTrace
 10
4
 20
-12.06
 30
0
 11
3.958371534222716
 21
-11.81
 31
0
 12
4.041628465777285
 22
-11.81
 32
0
 13
4.041628465777285
 23
-11.81
 33
0
  0
MTEXT
  5
BC
100
AcDbEntity
  8
0
  6
CONTINUOUS
 62
    0
370
   -2
100
AcDbMText
 10
3.8125
 20
-9.09
 30
0
 40
0.25
 41
0.6111111111111266
 71
    5
 72
    1
  1
5.94
  7
standard
210
0
220
0
230
1
 50
90
 73
    2
 44
1
  0
LINE
  5
BD
100
AcDbEntity
  8
0
  6
ByBlock
 62
    0
370
   25
100
AcDbLine
 10
4.7775
 20
-6.12
 11
3.875
 21
-6.12
  0
LINE
  5
BE
100
AcDbEntity
  8
0
  6
ByBlock
 62
    0
370
   25
100
AcDbLine
 10
4.7775
 20
-12.06
 11
3.875
 21
-12.06
  0
ENDBLK
  5
67
330
65
100
AcDbEntity
  8
0
100
AcDbBlockEnd
  0
BLOCK
  5
69
330
68
100
AcDbEntity
  8
0
100
AcDbBlockBegin
  2
*D5
 70
    1
 10
0
 20
0
  3
*D5
  1

  0
LINE
  5
BF
100
AcDbEntity
  8
0
  6
ByBlock
 62
    0
370
   20
100
AcDbLine
 10
1.92
 20
-16
 11
9.530000000000001
 21
-16
  0
SOLID
  5
C0
100
AcDbEntity
  8
0
  6
ByBlock
 62
    0
370
   20
100
AcDbTrace
 10
1.92
 20
-16
 30
0
 11
2.17
 21
-15.95837153422272
 31
0
 12
2.17
 22
-16.04162846577728
 32
0
 13
2.17
 23
-16.04162846577728
 33
0
  0
SOLID
  5
C1
100
AcDbEntity
  8
0
  6
ByBlock
 62
    0
370
   20
100
AcDbTrace
 10
9.530000000000001
 20
-16
 30
0
 11
9.280000000000001
 21
-16.04162846577728
 31
0
 12
9.280000000000001
 22
-15.95837153422272
 32
0
 13
9.280000000000001
 23
-15.95837153422272
 33
0
  0
MTEXT
  5
C2
100
AcDbEntity
  8
0
  6
CONTINUOUS
 62
    0
370
   -2
100
AcDbMText
 10
5.725000000000001
 20
-15.8125
 30
0
 40
0.25
 41
0.5277777777777933
 71
    5
 72
    1
  1
7.61
  7
standard
210
0
220
0
230
1
 50
0
 73
    2
 44
1
  0
LINE
  5
C3
100
AcDbEntity
  8
0
  6
ByBlock
 62
    0
370
   25
100
AcDbLine
 10
1.92
 20
-15.6625
 11
1.92
 21
-16.125
  0
LINE
  5
C4
100
AcDbEntity
  8
0
  6
ByBlock
 62
    0
370
   25
100
AcDbLine
 10
9.530000000000001
 20
-15.6625
 11
9.530000000000001
 21
-16.125
  0
ENDBLK
  5
6A
330
68
100
AcDbEntity
  8
0
100
AcDbBlockEnd
  0
BLOCK
  5
6C
330
6B
100
AcDbEntity
  8
0
100
AcDbBlockBegin
  2
*D18
 70
    1
 10
0
 20
0
  3
*D18
  1

  0
LINE
  5
C5
100
AcDbEntity
  8
0
  6
ByBlock
 62
    0
370
   20
100
AcDbLine
 10
0
 20
-17.1
 11
17
 21
-17.1
  0
SOLID
  5
C6
100
AcDbEntity
  8
0
  6
ByBlock
 62
    0
370
   20
100
AcDbTrace
 10
0
 20
-17.1
 30
0
 11
0.25
 21
-17.05837153422272
 31
0
 12
0.25
 22
-17.14162846577728
 32
0
 13
0.25
 23
-17.14162846577728
 33
0
  0
SOLID
  5
C7
100
AcDbEntity
  8
0
  6
ByBlock
 62
    0
370
   20
100
AcDbTrace
 10
17
 20
-17.1
 30
0
 11
16.75
 21
-17.14162846577728
 31
0
 12
16.75
 22
-17.05837153422272
 32
0
 13
16.75
 23
-17.05837153422272
 33
0
  0
MTEXT
  5
C8
100
AcDbEntity
  8
0
  6
CONTINUOUS
 62
    0
370
   -2
100
AcDbMText
 10
8.5
 20
-16.9125
 30
0
 40
0.25
 41
0.7222222222222222
 71
    5
 72
    1
  1
17.00
  7
standard
210
0
220
0
230
1
 50
0
 73
    2
 44
1
  0
LINE
  5
C9
100
AcDbEntity
  8
0
  6
ByBlock
 62
    0
370
   25
100
AcDbLine
 10
-1.148068456708479e-017
 20
-15.8625
 11
-2.296136913416957e-017
 21
-17.225
  0
LINE
  5
CA
100
AcDbEntity
  8
0
  6
ByBlock
 62
    0
370
   25
100
AcDbLine
 10
17
 20
-16.6625
 11
17
 21
-17.225
  0
ENDBLK
  5
6D
330
6B
100
AcDbEntity
  8
0
100
AcDbBlockEnd
  0
BLOCK
  5
6F
330
6E
100
AcDbEntity
  8
0
100
AcDbBlockBegin
  2
*D12
 70
    1
 10
0
 20
0
  3
*D12
  1

  0
LINE
  5
CB
100
AcDbEntity
  8
0
  6
ByBlock
 62
    0
370
   20
100
AcDbLine
 10
9.530000000000001
 20
-13.2
 11
10.88
 21
-13.2
  0
SOLID
  5
CC
100
AcDbEntity
  8
0
  6
ByBlock
 62
    0
370
   20
100
AcDbTrace
 10
9.530000000000001
 20
-13.2
 30
0
 11
9.780000000000001
 21
-13.15837153422272
 31
0
 12
9.780000000000001
 22
-13.24162846577729
 32
0
 13
9.780000000000001
 23
-13.24162846577729
 33
0
  0
SOLID
  5
CD
100
AcDbEntity
  8
0
  6
ByBlock
 62
    0
370
   20
100
AcDbTrace
 10
10.88
 20
-13.2
 30
0
 11
10.63
 21
-13.24162846577729
 31
0
 12
10.63
 22
-13.15837153422272
 32
0
 13
10.63
 23
-13.15837153422272
 33
0
  0
MTEXT
  5
CE
100
AcDbEntity
  8
0
  6
CONTINUOUS
 62
    0
370
   -2
100
AcDbMText
 10
10.205
 20
-13.0125
 30
0
 40
0.25
 41
0.5277777777778088
 71
    5
 72
    1
  1
1.35
  7
standard
210
0
220
0
230
1
 50
0
 73
    2
 44
1
  0
LINE
  5
CF
100
AcDbEntity
  8
0
  6
ByBlock
 62
    0
370
   25
100
AcDbLine
 10
9.530000000000001
 20
-12.9125
 11
9.530000000000001
 21
-13.325
  0
LINE
  5
D0
100
AcDbEntity
  8
0
  6
ByBlock
 62
    0
370
   25
100
AcDbLine
 10
10.88
 20
-12.9125
 11
10.88
 21
-13.325
  0
ENDBLK
  5
70
330
6E
100
AcDbEntity
  8
0
100
AcDbBlockEnd
  0
BLOCK
  5
72
330
71
100
AcDbEntity
  8
0
100
AcDbBlockBegin
  2
*D7
 70
    1
 10
0
 20
0
  3
*D7
  1

  0
LINE
  5
D1
100
AcDbEntity
  8
0
  6
ByBlock
 62
    0
370
   20
100
AcDbLine
 10
6
 20
0
 11
6
 21
-1.78
  0
SOLID
  5
D2
100
AcDbEntity
  8
0
  6
ByBlock
 62
    0
370
   20
100
AcDbTrace
 10
6
 20
0
 30
0
 11
6.041628465777284
 21
-0.25
 31
0
 12
5.958371534222716
 22
-0.25
 32
0
 13
5.958371534222716
 23
-0.25
 33
0
  0
SOLID
  5
D3
100
AcDbEntity
  8
0
  6
ByBlock
 62
    0
370
   20
100
AcDbTrace
 10
6
 20
-1.78
 30
0
 11
5.958371534222716
 21
-1.53
 31
0
 12
6.041628465777285
 22
-1.53
 32
0
 13
6.041628465777285
 23
-1.53
 33
0
  0
MTEXT
  5
D4
100
AcDbEntity
  8
0
  6
CONTINUOUS
 62
    0
370
   -2
100
AcDbMText
 10
5.8125
 20
-0.89
 30
0
 40
0.25
 41
0.5277777777777777
 71
    5
 72
    1
  1
1.78
  7
standard
210
0
220
0
230
1
 50
90
 73
    2
 44
1
  0
LINE
  5
D5
100
AcDbEntity
  8
0
  6
ByBlock
 62
    0
370
   25
100
AcDbLine
 10
5.4825
 20
-2.477401964129377e-018
 11
6.125
 21
5.963111948670274e-019
  0
LINE
  5
D6
100
AcDbEntity
  8
0
  6
ByBlock
 62
    0
370
   25
100
AcDbLine
 10
5.4825
 20
-1.78
 11
6.125
 21
-1.78
  0
ENDBLK
  5
73
330
71
100
AcDbEntity
  8
0
100
AcDbBlockEnd
  0
BLOCK
  5
75
330
74
100
AcDbEntity
  8
0
100
AcDbBlockBegin
  2
*D17
 70
    1
 10
0
 20
0
  3
*D17
  1

  0
LINE
  5
D7
100
AcDbEntity
  8
0
  6
ByBlock
 62
    0
370
   20
100
AcDbLine
 10
1.92
 20
-16.5
 11
17
 21
-16.5
  0
SOLID
  5
D8
100
AcDbEntity
  8
0
  6
ByBlock
 62
    0
370
   20
100
AcDbTrace
 10
1.92
 20
-16.5
 30
0
 11
2.17
 21
-16.45837153422272
 31
0
 12
2.17
 22
-16.54162846577728
 32
0
 13
2.17
 23
-16.54162846577728
 33
0
  0
SOLID
  5
D9
100
AcDbEntity
  8
0
  6
ByBlock
 62
    0
370
   20
100
AcDbTrace
 10
17
 20
-16.5
 30
0
 11
16.75
 21
-16.54162846577728
 31
0
 12
16.75
 22
-16.45837153422272
 32
0
 13
16.75
 23
-16.45837153422272
 33
0
  0
MTEXT
  5
DA
100
AcDbEntity
  8
0
  6
CONTINUOUS
 62
    0
370
   -2
100
AcDbMText
 10
9.460000000000001
 20
-16.3125
 30
0
 40
0.25
 41
0.7222222222222376
 71
    5
 72
    1
  1
15.08
  7
standard
210
0
220
0
230
1
 50
0
 73
    2
 44
1
  0
LINE
  5
DB
100
AcDbEntity
  8
0
  6
ByBlock
 62
    0
370
   25
100
AcDbLine
 10
1.92
 20
-15.6625
 11
1.92
 21
-16.625
  0
LINE
  5
DC
100
AcDbEntity
  8
0
  6
ByBlock
 62
    0
370
   25
100
AcDbLine
 10
17
 20
-15.6625
 11
17
 21
-16.625
  0
ENDBLK
  5
76
330
74
100
AcDbEntity
  8
0
100
AcDbBlockEnd
  0
BLOCK
  5
78
330
77
100
AcDbEntity
  8
0
100
AcDbBlockBegin
  2
*D2
 70
    1
 10
0
 20
0
  3
*D2
  1

  0
LINE
  5
DD
100
AcDbEntity
  8
0
  6
ByBlock
 62
    0
370
   20
100
AcDbLine
 10
18
 20
-8.6
 11
18
 21
-15.6
  0
SOLID
  5
DE
100
AcDbEntity
  8
0
  6
ByBlock
 62
    0
370
   20
100
AcDbTrace
 10
18
 20
-8.6
 30
0
 11
18.04162846577728
 21
-8.85
 31
0
 12
17.95837153422272
 22
-8.85
 32
0
 13
17.95837153422272
 23
-8.85
 33
0
  0
SOLID
  5
DF
100
AcDbEntity
  8
0
  6
ByBlock
 62
    0
370
   20
100
AcDbTrace
 10
18
 20
-15.6
 30
0
 11
17.95837153422272
 21
-15.35
 31
0
 12
18.04162846577728
 22
-15.35
 32
0
 13
18.04162846577728
 23
-15.35
 33
0
  0
MTEXT
  5
E0
100
AcDbEntity
  8
0
  6
CONTINUOUS
 62
    0
370
   -2
100
AcDbMText
 10
17.8125
 20
-12.1
 30
0
 40
0.25
 41
0.5833333333333333
 71
    5
 72
    1
  1
7.00
  7
standard
210
0
220
0
230
1
 50
90
 73
    2
 44
1
  0
LINE
  5
E1
100
AcDbEntity
  8
0
  6
ByBlock
 62
    0
370
   25
100
AcDbLine
 10
17.3125
 20
-8.6
 11
18.125
 21
-8.6
  0
LINE
  5
E2
100
AcDbEntity
  8
0
  6
ByBlock
 62
    0
370
   25
100
AcDbLine
 10
17.2625
 20
-15.6
 11
18.125
 21
-15.6
  0
ENDBLK
  5
79
330
77
100
AcDbEntity
  8
0
100
AcDbBlockEnd
  0
BLOCK
  5
7B
330
7A
100
AcDbEntity
  8
0
100
AcDbBlockBegin
  2
*D20
 70
    1
 10
0
 20
0
  3
*D20
  1

  0
LINE
  5
E3
100
AcDbEntity
  8
0
  6
ByBlock
 62
    0
370
   20
100
AcDbLine
 10
-1
 20
-6.12
 11
-0.9999999999999998
 21
6.106226635438359e-017
  0
SOLID
  5
E4
100
AcDbEntity
  8
0
  6
ByBlock
 62
    0
370
   20
100
AcDbTrace
 10
-1
 20
-6.12
 30
0
 11
-1.041628465777284
 21
-5.87
 31
0
 12
-0.9583715342227161
 22
-5.87
 32
0
 13
-0.9583715342227161
 23
-5.87
 33
0
  0
SOLID
  5
E5
100
AcDbEntity
  8
0
  6
ByBlock
 62
    0
370
   20
100
AcDbTrace
 10
-0.9999999999999998
 20
6.106226635438359e-017
 30
0
 11
-0.9583715342227157
 21
-0.2499999999999999
 31
0
 12
-1.041628465777284
 22
-0.2499999999999999
 32
0
 13
-1.041628465777284
 23
-0.2499999999999999
 33
0
  0
MTEXT
  5
E6
100
AcDbEntity
  8
0
  6
CONTINUOUS
 62
    0
370
   -2
100
AcDbMText
 10
-1.1875
 20
-3.06
 30
0
 40
0.25
 41
0.5277777777777932
 71
    5
 72
    1
  1
6.12
  7
standard
210
0
220
0
230
1
 50
90
 73
    2
 44
1
  0
LINE
  5
E7
100
AcDbEntity
  8
0
  6
ByBlock
 62
    0
370
   25
100
AcDbLine
 10
-0.06249999999999998
 20
-6.12
 11
-1.125
 21
-6.12
  0
LINE
  5
E8
100
AcDbEntity
  8
0
  6
ByBlock
 62
    0
370
   25
100
AcDbLine
 10
-0.0625
 20
7.653789711389858e-018
 11
-1.125
 21
7.636984577716331e-017
  0
ENDBLK
  5
7C
330
7A
100
AcDbEntity
  8
0
100
AcDbBlockEnd
  0
BLOCK
  5
7E
330
7D
100
AcDbEntity
  8
0
100
AcDbBlockBegin
  2
*D16
 70
    1
 10
0
 20
0
  3
*D16
  1

  0
LINE
  5
E9
100
AcDbEntity
  8
0
  6
ByBlock
 62
    0
370
   20
100
AcDbLine
 10
0
 20
1.4
 11
15
 21
1.4
  0
SOLID
  5
EA
100
AcDbEntity
  8
0
  6
ByBlock
 62
    0
370
   20
100
AcDbTrace
 10
0
 20
1.4
 30
0
 11
0.25
 21
1.441628465777284
 31
0
 12
0.25
 22
1.358371534222716
 32
0
 13
0.25
 23
1.358371534222716
 33
0
  0
SOLID
  5
EB
100
AcDbEntity
  8
0
  6
ByBlock
 62
    0
370
   20
100
AcDbTrace
 10
15
 20
1.4
 30
0
 11
14.75
 21
1.358371534222716
 31
0
 12
14.75
 22
1.441628465777284
 32
0
 13
14.75
 23
1.441628465777284
 33
0
  0
MTEXT
  5
EC
100
AcDbEntity
  8
0
  6
CONTINUOUS
 62
    0
370
   -2
100
AcDbMText
 10
7.5
 20
1.5875
 30
0
 40
0.25
 41
0.7222222222222376
 71
    5
 72
    1
  1
15.00
  7
standard
210
0
220
0
230
1
 50
0
 73
    2
 44
1
  0
LINE
  5
ED
100
AcDbEntity
  8
0
  6
ByBlock
 62
    0
370
   25
100
AcDbLine
 10
3.826894855694929e-018
 20
0.0625
 11
7.653789711389858e-018
 21
1.525
  0
LINE
  5
EE
100
AcDbEntity
  8
0
  6
ByBlock
 62
    0
370
   25
100
AcDbLine
 10
15
 20
0.0625
 11
15
 21
1.525
  0
ENDBLK
  5
7F
330
7D
100
AcDbEntity
  8
0
100
AcDbBlockEnd
  0
BLOCK
  5
81
330
80
100
AcDbEntity
  8
0
100
AcDbBlockBegin
  2
*D4
 70
    1
 10
0
 20
0
  3
*D4
  1

  0
LINE
  5
EF
100
AcDbEntity
  8
0
  6
ByBlock
 62
    0
370
   20
100
AcDbLine
 10
13.55
 20
-8.199999999999999
 11
17.2
 21
-8.199999999999999
  0
SOLID
  5
F0
100
AcDbEntity
  8
0
  6
ByBlock
 62
    0
370
   20
100
AcDbTrace
 10
13.55
 20
-8.199999999999999
 30
0
 11
13.8
 21
-8.158371534222715
 31
0
 12
13.8
 22
-8.241628465777284
 32
0
 13
13.8
 23
-8.241628465777284
 33
0
  0
SOLID
  5
F1
100
AcDbEntity
  8
0
  6
ByBlock
 62
    0
370
   20
100
AcDbTrace
 10
17.2
 20
-8.199999999999999
 30
0
 11
16.95
 21
-8.241628465777284
 31
0
 12
16.95
 22
-8.158371534222715
 32
0
 13
16.95
 23
-8.158371534222715
 33
0
  0
MTEXT
  5
F2
100
AcDbEntity
  8
0
  6
CONTINUOUS
 62
    0
370
   -2
100
AcDbMText
 10
15.375
 20
-8.012499999999999
 30
0
 40
0.25
 41
0.5833333333333799
 71
    5
 72
    1
  1
3.65
  7
standard
210
0
220
0
230
1
 50
0
 73
    2
 44
1
  0
LINE
  5
F3
100
AcDbEntity
  8
0
  6
ByBlock
 62
    0
370
   25
100
AcDbLine
 10
13.55
 20
-8.537500000000001
 11
13.55
 21
-8.074999999999999
  0
LINE
  5
F4
100
AcDbEntity
  8
0
  6
ByBlock
 62
    0
370
   25
100
AcDbLine
 10
17.2
 20
-8.5375
 11
17.2
 21
-8.074999999999999
  0
ENDBLK
  5
82
330
80
100
AcDbEntity
  8
0
100
AcDbBlockEnd
  0
BLOCK
  5
84
330
83
100
AcDbEntity
  8
0
100
AcDbBlockBegin
  2
*D14
 70
    1
 10
0
 20
0
  3
*D14
  1

  0
LINE
  5
F5
100
AcDbEntity
  8
0
  6
ByBlock
 62
    0
370
   20
100
AcDbLine
 10
0
 20
0.5
 11
5.42
 21
0.5
  0
SOLID
  5
F6
100
AcDbEntity
  8
0
  6
ByBlock
 62
    0
370
   20
100
AcDbTrace
 10
0
 20
0.5
 30
0
 11
0.25
 21
0.5416284657772841
 31
0
 12
0.25
 22
0.4583715342227159
 32
0
 13
0.25
 23
0.4583715342227159
 33
0
  0
SOLID
  5
F7
100
AcDbEntity
  8
0
  6
ByBlock
 62
    0
370
   20
100
AcDbTrace
 10
5.42
 20
0.5
 30
0
 11
5.17
 21
0.458371534222716
 31
0
 12
5.17
 22
0.5416284657772841
 32
0
 13
5.17
 23
0.5416284657772841
 33
0
  0
MTEXT
  5
F8
100
AcDbEntity
  8
0
  6
CONTINUOUS
 62
    0
370
   -2
100
AcDbMText
 10
2.71
 20
0.6875
 30
0
 40
0.25
 41
0.6111111111111266
 71
    5
 72
    1
  1
5.42
  7
standard
210
0
220
0
230
1
 50
0
 73
    2
 44
1
  0
LINE
  5
F9
100
AcDbEntity
  8
0
  6
ByBlock
 62
    0
370
   25
100
AcDbLine
 10
-1.454220045164073e-017
 20
-0.03750000000000001
 11
7.653789711389858e-018
 21
0.625
  0
LINE
  5
FA
100
AcDbEntity
  8
0
  6
ByBlock
 62
    0
370
   25
100
AcDbLine
 10
5.42
 20
-0.03750000000000001
 11
5.42
 21
0.625
  0
ENDBLK
  5
85
330
83
100
AcDbEntity
  8
0
100
AcDbBlockEnd
  0
BLOCK
  5
87
330
86
100
AcDbEntity
  8
0
100
AcDbBlockBegin
  2
*D3
 70
    1
 10
0
 20
0
  3
*D3
  1

  0
LINE
  5
FB
100
AcDbEntity
  8
0
  6
ByBlock
 62
    0
370
   20
100
AcDbLine
 10
20
 20
-15.6
 11
20
 21
-2.1316282072803e-016
  0
SOLID
  5
FC
100
AcDbEntity
  8
0
  6
ByBlock
 62
    0
370
   20
100
AcDbTrace
 10
20
 20
-15.6
 30
0
 11
19.95837153422272
 21
-15.35
 31
0
 12
20.04162846577728
 22
-15.35
 32
0
 13
20.04162846577728
 23
-15.35
 33
0
  0
SOLID
  5
FD
100
AcDbEntity
  8
0
  6
ByBlock
 62
    0
370
   20
100
AcDbTrace
 10
20
 20
-2.1316282072803e-016
 30
0
 11
20.04162846577728
 21
-0.2500000000000002
 31
0
 12
19.95837153422272
 22
-0.2500000000000002
 32
0
 13
19.95837153422272
 23
-0.2500000000000002
 33
0
  0
MTEXT
  5
FE
100
AcDbEntity
  8
0
  6
CONTINUOUS
 62
    0
370
   -2
100
AcDbMText
 10
19.8125
 20
-7.8
 30
0
 40
0.25
 41
0.7222222222222532
 71
    5
 72
    1
  1
15.60
  7
standard
210
0
220
0
230
1
 50
90
 73
    2
 44
1
  0
LINE
  5
FF
100
AcDbEntity
  8
0
  6
ByBlock
 62
    0
370
   25
100
AcDbLine
 10
17.2625
 20
-15.6
 11
20.125
 21
-15.6
  0
LINE
  5
100
100
AcDbEntity
  8
0
  6
ByBlock
 62
    0
370
   25
100
AcDbLine
 10
17.0625
 20
-1.530757942277972e-017
 11
20.125
 21
-2.437779795735895e-016
  0
ENDBLK
  5
88
330
86
100
AcDbEntity
  8
0
100
AcDbBlockEnd
  0
ENDSEC
  0
SECTION
  2
ENTITIES
  0
LINE
  5
101
100
AcDbEntity
  8
0
  6
ByLayer
 62
    3
370
   -1
100
AcDbLine
 10
8.480000000000002
 20
-1.78
 11
5.42
 21
-1.78
  0
LINE
  5
102
100
AcDbEntity
  8
0
  6
ByLayer
 62
    3
370
   -1
100
AcDbLine
 10
5.42
 20
-1.78
 11
5.42
 21
-2.775557561562891e-018
  0
LINE
  5
103
100
AcDbEntity
  8
0
  6
ByLayer
 62
    3
370
   -1
100
AcDbLine
 10
8.480000000000002
 20
-1.78
 11
8.480000000000002
 21
5.551115123125783e-018
  0
LINE
  5
104
100
AcDbEntity
  8
0
  6
ByLayer
 62
    3
370
   -1
100
AcDbLine
 10
15
 20
0
 11
15
 21
-7.32
  0
LINE
  5
105
100
AcDbEntity
  8
0
  6
ByLayer
 62
    3
370
   -1
100
AcDbLine
 10
15
 20
-7.32
 11
13.55
 21
-7.32
  0
LINE
  5
106
100
AcDbEntity
  8
0
  6
ByLayer
 62
    3
370
   -1
100
AcDbLine
 10
13.55
 20
-7.32
 11
13.55
 21
-8.600000000000001
  0
LINE
  5
107
100
AcDbEntity
  8
0
  6
ByLayer
 62
    3
370
   -1
100
AcDbLine
 10
10.88
 20
-15.6
 11
10.88
 21
-12.85
  0
LINE
  5
108
100
AcDbEntity
  8
0
  6
ByLayer
 62
    3
370
   -1
100
AcDbLine
 10
10.88
 20
-12.85
 11
9.530000000000001
 21
-12.85
  0
LINE
  5
109
100
AcDbEntity
  8
0
  6
ByLayer
 62
    3
370
   -1
100
AcDbLine
 10
9.530000000000001
 20
-12.85
 11
9.530000000000001
 21
-15.6
  0
LINE
  5
10A
100
AcDbEntity
  8
0
  6
ByLayer
 62
    3
370
   -1
100
AcDbLine
 10
4.84
 20
-12.06
 11
4.84
 21
-6.12
  0
LINE
  5
10B
100
AcDbEntity
  8
0
  6
ByLayer
 62
    3
370
   -1
100
AcDbLine
 10
4.84
 20
-6.12
 11
2.220446049250313e-017
 21
-6.12
  0
LINE
  5
10C
100
AcDbEntity
  8
0
  6
ByLayer
 62
    3
370
   -1
100
AcDbLine
 10
2.220446049250313e-017
 20
-6.12
 11
0
 21
0
  0
LINE
  5
10D
100
AcDbEntity
  8
0
  6
ByLayer
 62
    3
370
   -1
100
AcDbLine
 10
0
 20
0
 11
5.42
 21
-2.775557561562891e-018
  0
LINE
  5
10E
100
AcDbEntity
  8
0
  6
ByLayer
 62
    3
370
   -1
100
AcDbLine
 10
8.480000000000002
 20
5.551115123125783e-018
 11
15
 21
0
  0
MTEXT
  5
10F
100
AcDbEntity
  8
0
  6
ByLayer
 62
    1
370
   -1
100
AcDbMText
 10
12.81973275606532
 20
-1.675390978622305
 30
0
 40
0.2
 41
1.044444444444463
 71
    1
 72
    1
  1
bedroom
  7
standard
210
0
220
0
230
1
 50
0
 73
    2
 44
4
  0
MTEXT
  5
110
100
AcDbEntity
  8
0
  6
ByLayer
 62
    1
370
   -1
100
AcDbMText
 10
9.693333519171905
 20
-1.660432130598891
 30
0
 40
0.2
 41
1.044444444444463
 71
    1
 72
    1
  1
bedroom
  7
standard
210
0
220
0
230
1
 50
0
 73
    2
 44
4
  0
MTEXT
  5
111
100
AcDbEntity
  8
0
  6
ByLayer
 62
    1
370
   -1
100
AcDbMText
 10
7.534637119761141
 20
-12.16087029487408
 30
0
 40
0.2
 41
0.7555556584130044
 71
    1
 72
    1
  1
closet
  7
standard
210
0
220
0
230
1
 50
0
 73
    2
 44
4
  0
MTEXT
  5
112
100
AcDbEntity
  8
0
  6
ByLayer
 62
    1
370
   -1
100
AcDbMText
 10
6.630279591648551
 20
-9.56935640888892
 30
0
 40
0.2
 41
0.7555556584130044
 71
    1
 72
    1
  1
closet
  7
standard
210
0
220
0
230
1
 50
0
 73
    2
 44
4
  0
MTEXT
  5
113
100
AcDbEntity
  8
0
  6
ByLayer
 62
    1
370
   -1
100
AcDbMText
 10
8.516380068853985
 20
-9.557785240317109
 30
0
 40
0.2
 41
0.7555556584130044
 71
    1
 72
    1
  1
closet
  7
standard
210
0
220
0
230
1
 50
0
 73
    2
 44
4
  0
MTEXT
  5
114
100
AcDbEntity
  8
0
  6
ByLayer
 62
    1
370
   -1
100
AcDbMText
 10
13.54017487426559
 20
-3.77865345328342
 30
0
 40
0.2
 41
0.7555556584130044
 71
    1
 72
    1
  1
closet
  7
standard
210
0
220
0
230
1
 50
0
 73
    2
 44
4
  0
MTEXT
  5
115
100
AcDbEntity
  8
0
  6
ByLayer
 62
    1
370
   -1
100
AcDbMText
 10
13.59612307187968
 20
-4.767321451586747
 30
0
 40
0.2
 41
0.6666666666666666
 71
    1
 72
    1
  1
toilet
  7
standard
210
0
220
0
230
1
 50
0
 73
    2
 44
4
  0
MTEXT
  5
116
100
AcDbEntity
  8
0
  6
ByLayer
 62
    1
370
   -1
100
AcDbMText
 10
13.31975342282406
 20
-6.187545029751602
 30
0
 40
0.2
 41
1.438888991746375
 71
    1
 72
    1
  1
guest bath
  7
standard
210
0
220
0
230
1
 50
0
 73
    2
 44
4
  0
MTEXT
  5
117
100
AcDbEntity
  8
0
  6
ByLayer
 62
    1
370
   -1
100
AcDbMText
 10
10.3648936555246
 20
-8.082468886820996
 30
0
 40
0.2
 41
0.9333333333333582
 71
    1
 72
    1
  1
laundry
  7
standard
210
0
220
0
230
1
 50
0
 73
    2
 44
4
  0
MTEXT
  5
118
100
AcDbEntity
  8
0
  6
ByLayer
 62
    1
370
   -1
100
AcDbMText
 10
13.46884021758979
 20
-12.17286933754678
 30
0
 40
0.2
 41
0.8444444444444911
 71
    1
 72
    1
  1
garage
  7
standard
210
0
220
0
230
1
 50
0
 73
    2
 44
4
  0
MTEXT
  5
119
100
AcDbEntity
  8
0
  6
ByLayer
 62
    1
370
   -1
100
AcDbMText
 10
7.486546065962911
 20
-14.18625266904255
 30
0
 40
0.2
 41
0.9111112139685694
 71
    1
 72
    1
  1
ensuite
  7
standard
210
0
220
0
230
1
 50
0
 73
    2
 44
4
  0
MTEXT
  5
11A
100
AcDbEntity
  8
0
  6
ByLayer
 62
    1
370
   -1
100
AcDbMText
 10
3.012371061791206
 20
-13.54549284879762
 30
0
 40
0.2
 41
2.127777880635255
 71
    1
 72
    1
  1
master bedroom
  7
standard
210
0
220
0
230
1
 50
0
 73
    2
 44
4
  0
LINE
  5
11B
100
AcDbEntity
  8
0
  6
ByLayer
 62
    1
370
   -1
100
AcDbLine
 10
8.482541899764463
 20
-4.299120302393189
 11
8.482541899764463
 21
-1.778106414020979
  0
LINE
  5
11C
100
AcDbEntity
  8
0
  6
ByLayer
 62
    1
370
   -1
100
AcDbLine
 10
8.482520092838907
 20
-3.499142514826798
 11
10.68081729518081
 21
-3.495318772767266
  0
LINE
  5
11D
100
AcDbEntity
  8
0
  6
ByLayer
 62
    1
370
   -1
100
AcDbLine
 10
8.482541899764463
 20
-4.299120302393189
 11
14.99998559751837
 21
-4.30627926690547
  0
LINE
  5
11E
100
AcDbEntity
  8
0
  6
ByLayer
 62
    1
370
   -1
100
AcDbLine
 10
11.79807392557939
 20
-4.302886141415681
 11
11.78908910118049
 21
-0.01217881105493852
  0
LINE
  5
11F
100
AcDbEntity
  8
0
  6
ByLayer
 62
    1
370
   -1
100
AcDbLine
 10
10.68050742988909
 20
-3.494771257003132
 11
10.68081530033997
 21
-4.301368379862623
  0
LINE
  5
120
100
AcDbEntity
  8
0
  6
ByLayer
 62
    1
370
   -1
100
AcDbLine
 10
13.01001034745451
 20
-7.216269316546089
 11
13.00529998889671
 21
-4.309978083969752
  0
LINE
  5
121
100
AcDbEntity
  8
0
  6
ByLayer
 62
    1
370
   -1
100
AcDbLine
 10
13.00156296596182
 20
-5.405809184633597
 11
15.00249201906414
 21
-5.412201987411209
  0
LINE
  5
122
100
AcDbEntity
  8
0
  6
ByLayer
 62
    1
370
   -1
100
AcDbLine
 10
13.01001034745451
 20
-7.216269316546089
 11
13.55033043522544
 21
-7.215408020782492
  0
LINE
  5
123
100
AcDbEntity
  8
0
  6
ByLayer
 62
    1
370
   -1
100
AcDbLine
 10
13.55
 20
-7.32
 11
13.55033043522544
 21
-7.215408020782492
  0
LINE
  5
124
100
AcDbEntity
  8
0
  6
ByLayer
 62
    1
370
   -1
100
AcDbLine
 10
9.769275913555347
 20
-5.400450186090129
 11
11.99309780272194
 21
-5.400305429569806
  0
LINE
  5
125
100
AcDbEntity
  8
0
  6
ByLayer
 62
    1
370
   -1
100
AcDbLine
 10
9.769532426769908
 20
-6.89921580492244
 11
11.99531799747243
 21
-6.900251083606004
  0
LINE
  5
126
100
AcDbEntity
  8
0
  6
ByLayer
 62
    1
370
   -1
100
AcDbLine
 10
9.76572276446168
 20
-7.604723440772634
 11
11.99731636182321
 21
-7.604146679148278
  0
LINE
  5
127
100
AcDbEntity
  8
0
  6
ByLayer
 62
    1
370
   -1
100
AcDbLine
 10
9.762352259477714
 20
-8.799964341699413
 11
13.54986454221114
 21
-8.794022758225571
  0
LINE
  5
128
100
AcDbEntity
  8
0
  6
ByLayer
 62
    1
370
   -1
100
AcDbLine
 10
8.001478863098605
 20
-9.395952728889762
 11
8.007568268626077
 21
-9.99880387610952
  0
LINE
  5
129
100
AcDbEntity
  8
0
  6
ByLayer
 62
    1
370
   -1
100
AcDbLine
 10
10.87508272147617
 20
-8.789573030855635
 11
10.88
 21
-12.85
  0
LINE
  5
12A
100
AcDbEntity
  8
0
  6
ByLayer
 62
    1
370
   -1
100
AcDbLine
 10
9.533227774844509
 20
-11.21000524473871
 11
4.839634205230504
 21
-11.20939596318768
  0
LINE
  5
12B
100
AcDbEntity
  8
0
  6
ByLayer
 62
    1
370
   -1
100
AcDbLine
 10
9.533227774844509
 20
-11.21000524473871
 11
9.530000000000001
 21
-12.85
  0
LINE
  5
12C
100
AcDbEntity
  8
0
  6
ByLayer
 62
    1
370
   -1
100
AcDbLine
 10
13.00529998889671
 20
-4.309978083969752
 11
13.01429652429395
 21
-3.490767293311306
  0
LINE
  5
12D
100
AcDbEntity
  8
0
  6
ByLayer
 62
    1
370
   -1
100
AcDbLine
 10
13.01429652429395
 20
-3.490767293311306
 11
15.00029163660834
 21
-3.487097627758022
  0
MTEXT
  5
12E
100
AcDbEntity
  8
0
  6
ByLayer
 62
    1
370
   -1
100
AcDbMText
 10
2.169032963396305
 20
-2.797304580380062
 30
0
 40
0.2
 41
0.8000000000000249
 71
    1
 72
    1
  1
lounge
  7
standard
210
0
220
0
230
1
 50
0
 73
    2
 44
4
  0
MTEXT
  5
12F
100
AcDbEntity
  8
0
  6
ByLayer
 62
    1
370
   -1
100
AcDbMText
 10
6.357510409954688
 20
-3.575164677598048
 30
0
 40
0.2
 41
0.6888888888889261
 71
    1
 72
    1
  1
dining
  7
standard
210
0
220
0
230
1
 50
0
 73
    2
 44
4
  0
MTEXT
  5
130
100
AcDbEntity
  8
0
  6
ByLayer
 62
    1
370
   -1
100
AcDbMText
 10
7.077830610143575
 20
-7.232537290146714
 30
0
 40
0.2
 41
0.8888888888889075
 71
    1
 72
    1
  1
kitchen
  7
standard
210
0
220
0
230
1
 50
0
 73
    2
 44
4
  0
MTEXT
  5
131
100
AcDbEntity
  8
0
  6
ByLayer
 62
    1
370
   -1
100
AcDbMText
 10
9.141223171737586
 20
-3.783772122985051
 30
0
 40
0.2
 41
0.7555556584130044
 71
    1
 72
    1
  1
closet
  7
standard
210
0
220
0
230
1
 50
0
 73
    2
 44
4
  0
MTEXT
  5
132
100
AcDbEntity
  8
0
  6
ByLayer
 62
    1
370
   -1
100
AcDbMText
 10
10.21734184891682
 20
-6.017007657346259
 30
0
 40
0.2
 41
1.505555658413023
 71
    1
 72
    1
  1
bonus room
  7
standard
210
0
220
0
230
1
 50
0
 73
    2
 44
4
  0
MTEXT
  5
133
100
AcDbEntity
  8
0
  6
ByLayer
 62
    1
370
   -1
100
AcDbMText
 10
9.981942872429958
 20
-7.132208393076925
 30
0
 40
0.2
 41
1.816666666666713
 71
    1
 72
    1
  1
hw tank/linen
  7
standard
210
0
220
0
230
1
 50
0
 73
    2
 44
4
  0
LINE
  5
134
100
AcDbEntity
  8
0
  6
ByLayer
 62
    1
370
   -1
100
AcDbLine
 10
9.769275913555347
 20
-5.400450186090129
 11
9.769532426770825
 21
-10.00226080151524
  0
MTEXT
  5
135
100
AcDbEntity
  8
0
  6
ByLayer
 62
    1
370
   -1
100
AcDbMText
 10
9.855939297527213
 20
-9.214702578472927
 30
0
 40
0.2
 41
0.9778539721827191
 71
    1
 72
    1
  1
storage
  7
standard
210
0
220
0
230
1
 50
0
 73
    2
 44
4
  0
LINE
  5
136
100
AcDbEntity
  8
0
  6
ByLayer
 62
    1
370
   -1
100
AcDbLine
 10
13.55
 20
-8.600000000000001
 11
13.54986454221114
 21
-8.794022758225571
  0
MTEXT
  5
137
100
AcDbEntity
  8
0
  6
ByLayer
 62
    1
370
   -1
100
AcDbMText
 10
-6.413219443818376
 20
-8.74098057527838
 30
0
 40
0.6
 41
7.29999987279886
 71
    1
 72
    1
  1
40 Sanderlane Dr.\PMotueka 7120
  7
standard
210
0
220
0
230
1
 50
0
 73
    2
 44
1
  0
LINE
  5
138
100
AcDbEntity
  8
0
  6
ByLayer
 62
    1
370
   -1
100
AcDbLine
 10
6.211775645024822
 20
-11.2062580800736
 11
6.202824959657351
 21
-15.60104459550182
  0
LINE
  5
139
100
AcDbEntity
  8
0
  6
ByLayer
 62
    1
370
   -1
100
AcDbLine
 10
6.207060362426702
 20
-13.20735527596225
 11
9.54381763408597
 21
-13.20174549271713
  0
LINE
  5
13A
100
AcDbEntity
  8
0
  6
ByLayer
 62
    1
370
   -1
100
AcDbLine
 10
6.202824959657371
 20
-9.997915555465056
 11
6.196519081166347
 21
-9.38314730354662
  0
LINE
  5
13B
100
AcDbEntity
  8
0
  6
ByLayer
 62
    1
370
   -1
100
AcDbLine
 10
6.202824959657371
 20
-9.997915555465056
 11
10.87013691302759
 21
-10.00468015243622
  0
LINE
  5
13C
100
AcDbEntity
  8
0
  6
ByLayer
 62
    1
370
   -1
100
AcDbLine
 10
4.841209619736222
 20
-9.379998566862191
 11
9.770797171992559
 21
-9.383041692225062
  0
MTEXT
  5
13D
100
AcDbEntity
  8
0
  6
ByLayer
 62
    1
370
   -1
100
AcDbMText
 10
5.400325560321145
 20
-11.26511060760868
 30
0
 40
0.1
 41
0.2666666666666713
 71
    1
 72
    1
  1
door
  7
standard
210
0
220
0
230
1
 50
0
 73
    2
 44
1
  0
MTEXT
  5
13E
100
AcDbEntity
  8
0
  6
ByLayer
 62
    1
370
   -1
100
AcDbMText
 10
5.377100395411478
 20
-9.474193824186161
 30
0
 40
0.1
 41
0.2666666666666713
 71
    1
 72
    1
  1
door
  7
standard
210
0
220
0
230
1
 50
0
 73
    2
 44
1
  0
MTEXT
  5
13F
100
AcDbEntity
  8
0
  6
ByLayer
 62
    1
370
   -1
100
AcDbMText
 10
11.34094539079883
 20
-4.133421488587851
 30
0
 40
0.1
 41
0.2666666666666713
 71
    1
 72
    1
  1
door
  7
standard
210
0
220
0
230
1
 50
0
 73
    2
 44
1
  0
MTEXT
  5
140
100
AcDbEntity
  8
0
  6
ByLayer
 62
    1
370
   -1
100
AcDbMText
 10
11.92945598800145
 20
-4.140345142672587
 30
0
 40
0.1
 41
0.2666666666666713
 71
    1
 72
    1
  1
door
  7
standard
210
0
220
0
230
1
 50
0
 73
    2
 44
1
  0
MTEXT
  5
141
100
AcDbEntity
  8
0
  6
ByLayer
 62
    1
370
   -1
100
AcDbMText
 10
13.86049384793322
 20
-8.638708105377233
 30
0
 40
0.1
 41
0.2666666666666713
 71
    1
 72
    1
  1
door
  7
standard
210
0
220
0
230
1
 50
0
 73
    2
 44
1
  0
LINE
  5
142
100
AcDbEntity
  8
0
  6
ByLayer
 62
    1
370
   -1
100
AcDbLine
 10
11.99753596722425
 20
-6.756899572701224
 11
11.99722471418147
 21
-8.801113668277484
  0
LINE
  5
143
100
AcDbEntity
  8
0
  6
ByLayer
 62
    1
370
   -1
100
AcDbLine
 10
11.99309780272194
 20
-5.400305429569806
 11
11.99095764923797
 21
-5.557263826892288
  0
MTEXT
  5
144
100
AcDbEntity
  8
0
  6
ByLayer
 62
    1
370
   -1
100
AcDbMText
 10
11.70749646065228
 20
-8.064567516091515
 30
0
 40
0.1
 41
0.2666666666666713
 71
    1
 72
    1
  1
door
  7
standard
210
0
220
0
230
1
 50
0
 73
    2
 44
1
  0
MTEXT
  5
145
100
AcDbEntity
  8
0
  6
ByLayer
 62
    1
370
   -1
100
AcDbMText
 10
13.0410751621784
 20
-5.880534097770795
 30
0
 40
0.1
 41
0.2666666666666713
 71
    1
 72
    1
  1
door
  7
standard
210
0
220
0
230
1
 50
0
 73
    2
 44
1
  0
MTEXT
  5
146
100
AcDbEntity
  8
0
  6
ByLayer
 62
    1
370
   -1
100
AcDbMText
 10
13.04416429564424
 20
-4.805015934807379
 30
0
 40
0.1
 41
0.2666666666666713
 71
    1
 72
    1
  1
door
  7
standard
210
0
220
0
230
1
 50
0
 73
    2
 44
1
  0
MTEXT
  5
147
100
AcDbEntity
  8
0
  6
ByLayer
 62
    1
370
   -1
100
AcDbMText
 10
6.272830600771599
 20
-12.04023445335741
 30
0
 40
0.1
 41
0.2666666666666713
 71
    1
 72
    1
  1
door
  7
standard
210
0
220
0
230
1
 50
0
 73
    2
 44
1
  0
MTEXT
  5
148
100
AcDbEntity
  8
0
  6
ByLayer
 62
    1
370
   -1
100
AcDbMText
 10
6.234907331033371
 20
-15.23305930645163
 30
0
 40
0.1
 41
0.2666666666666713
 71
    1
 72
    1
  1
door
  7
standard
210
0
220
0
230
1
 50
0
 73
    2
 44
1
  0
LINE
  5
149
100
AcDbEntity
  8
0
  6
ByLayer
 62
    3
370
   -1
100
AcDbLine
 10
1.900668720981722
 20
-15.6003141920085
 11
1.89910759677555
 21
-12.05968449247112
  0
LINE
  5
14A
100
AcDbEntity
  8
0
  6
ByLayer
 62
    3
370
   -1
100
AcDbLine
 10
9.530000000000001
 20
-15.6
 11
1.900668720981722
 21
-15.6003141920085
  0
LINE
  5
14B
100
AcDbEntity
  8
0
  6
ByLayer
 62
    3
370
   -1
100
AcDbLine
 10
1.89910759677555
 20
-12.05968449247112
 11
4.84
 21
-12.06
  0
LINE
  5
14C
100
AcDbEntity
  8
0
  6
ByLayer
 62
    3
370
   -1
100
AcDbLine
 10
17
 20
-8.6
 11
17
 21
-15.6
  0
LINE
  5
14D
100
AcDbEntity
  8
0
  6
ByLayer
 62
    3
370
   -1
100
AcDbLine
 10
13.55
 20
-8.600000000000001
 11
17
 21
-8.6
  0
LINE
  5
14E
100
AcDbEntity
  8
0
  6
ByLayer
 62
    3
370
   -1
100
AcDbLine
 10
17
 20
-15.6
 11
10.88
 21
-15.6
  0
MTEXT
  5
14F
100
AcDbEntity
  8
0
  6
ByLayer
 62
    3
370
   -1
100
AcDbMText
 10
13.2
 20
-7.9
 30
0
 40
0.1
 41
0.3333333333333427
 71
    1
 72
    1
  1
entry
  7
standard
210
0
220
0
230
1
 50
0
 73
    2
 44
1
  0
MTEXT
  5
150
100
AcDbEntity
  8
0
  6
ByLayer
 62
    3
370
   -1
100
AcDbMText
 10
10
 20
-12.7
 30
0
 40
0.1
 41
0.3333333333333427
 71
    1
 72
    1
  1
entry
  7
standard
210
0
220
0
230
1
 50
0
 73
    2
 44
1
  0
DIMENSION
  5
151
100
AcDbEntity
  8
0
  6
ByLayer
 62
  256
370
   25
100
AcDbDimension
  2
*D1
 10
4.84
 20
-11.5
 30
0
 11
3.365
 21
-11.3125
 31
0
 70
   32
 71
    5
  3
Standard
 53
0
210
0
220
0
230
1
100
AcDbAlignedDimension
 13
1.89
 23
-12.06
 33
0
 14
4.84
 24
-12.06
 34
0
100
AcDbRotatedDimension
  0
DIMENSION
  5
152
100
AcDbEntity
  8
0
  6
ByLayer
 62
  256
370
   25
100
AcDbDimension
  2
*D2
 10
18
 20
-15.6
 30
0
 11
17.8125
 21
-12.1
 31
0
 70
   32
 71
    5
  3
Standard
 53
0
210
0
220
0
230
1
100
AcDbAlignedDimension
 13
17.25
 23
-8.6
 33
0
 14
17.2
 24
-15.6
 34
0
 50
90
100
AcDbRotatedDimension
  0
DIMENSION
  5
153
100
AcDbEntity
  8
0
  6
ByLayer
 62
  256
370
   25
100
AcDbDimension
  2
*D3
 10
20
 20
-3.673819061467132e-016
 30
0
 11
19.8125
 21
-7.8
 31
0
 70
   32
 71
    5
  3
Standard
 53
0
210
0
220
0
230
1
100
AcDbAlignedDimension
 13
17.2
 23
-15.6
 33
0
 14
17
 24
0
 34
0
 50
90
100
AcDbRotatedDimension
  0
DIMENSION
  5
154
100
AcDbEntity
  8
0
  6
ByLayer
 62
  256
370
   25
100
AcDbDimension
  2
*D4
 10
17.2
 20
-8.199999999999999
 30
0
 11
15.375
 21
-8.012499999999999
 31
0
 70
   32
 71
    5
 72
    0
  3
Standard
 53
0
210
0
220
0
230
1
100
AcDbAlignedDimension
 13
13.55
 23
-8.600000000000001
 33
0
 14
17.2
 24
-8.6
 34
0
100
AcDbRotatedDimension
  0
DIMENSION
  5
155
100
AcDbEntity
  8
0
  6
ByLayer
 62
  256
370
   25
100
AcDbDimension
  2
*D5
 10
9
 20
-16
 30
0
 11
5.725000000000001
 21
-15.8125
 31
0
 70
   32
 71
    5
  3
Standard
 53
0
210
0
220
0
230
1
100
AcDbAlignedDimension
 13
1.92
 23
-15.6
 33
0
 14
9.530000000000001
 24
-15.6
 34
0
100
AcDbRotatedDimension
  0
DIMENSION
  5
156
100
AcDbEntity
  8
0
  6
ByLayer
 62
  256
370
   25
100
AcDbDimension
  2
*D6
 10
4
 20
-11
 30
0
 11
3.8125
 21
-9.09
 31
0
 70
   32
 71
    5
  3
Standard
 53
0
210
0
220
0
230
1
100
AcDbAlignedDimension
 13
4.84
 23
-6.12
 33
0
 14
4.84
 24
-12.06
 34
0
 50
90
100
AcDbRotatedDimension
  0
DIMENSION
  5
157
100
AcDbEntity
  8
0
  6
ByLayer
 62
  256
370
   25
100
AcDbDimension
  2
*D7
 10
6
 20
-2
 30
0
 11
5.8125
 21
-0.89
 31
0
 70
   32
 71
    5
  3
Standard
 53
0
210
0
220
0
230
1
100
AcDbAlignedDimension
 13
5.42
 23
-2.775557561562891e-018
 33
0
 14
5.42
 24
-1.78
 34
0
 50
90
100
AcDbRotatedDimension
  0
DIMENSION
  5
158
100
AcDbEntity
  8
0
  6
ByLayer
 62
  256
370
   25
100
AcDbDimension
  2
*D8
 10
9
 20
-1
 30
0
 11
6.950000000000001
 21
-0.8125
 31
0
 70
   32
 71
    5
  3
Standard
 53
0
210
0
220
0
230
1
100
AcDbAlignedDimension
 13
5.42
 23
-1.78
 33
0
 14
8.480000000000002
 24
-1.78
 34
0
100
AcDbRotatedDimension
  0
DIMENSION
  5
159
100
AcDbEntity
  8
0
  6
ByLayer
 62
  256
370
   25
100
AcDbDimension
  2
*D9
 10
14
 20
-9
 30
0
 11
13.8125
 21
-7.960000000000001
 31
0
 70
   32
 71
    5
  3
Standard
 53
0
210
0
220
0
230
1
100
AcDbAlignedDimension
 13
13.55
 23
-7.32
 33
0
 14
13.55
 24
-8.600000000000001
 34
0
 50
90
100
AcDbRotatedDimension
  0
DIMENSION
  5
15A
100
AcDbEntity
  8
0
  6
ByLayer
 62
  256
370
   25
100
AcDbDimension
  2
*D10
 10
15.8
 20
-6
 30
0
 11
15.6125
 21
-3.66
 31
0
 70
   32
 71
    5
  3
Standard
 53
0
210
0
220
0
230
1
100
AcDbAlignedDimension
 13
15
 23
0
 33
0
 14
15
 24
-7.32
 34
0
 50
90
100
AcDbRotatedDimension
  0
DIMENSION
  5
15B
100
AcDbEntity
  8
0
  6
ByLayer
 62
  256
370
   25
100
AcDbDimension
  2
*D11
 10
14.49278515537549
 20
-7.776170858577522
 30
0
 11
14.275
 21
-7.588670858577522
 31
0
 70
   32
 71
    5
  3
Standard
 53
0
210
0
220
0
230
1
100
AcDbAlignedDimension
 13
13.55
 23
-7.32
 33
0
 14
15
 24
-7.32
 34
0
100
AcDbRotatedDimension
  0
DIMENSION
  5
15C
100
AcDbEntity
  8
0
  6
ByLayer
 62
  256
370
   25
100
AcDbDimension
  2
*D12
 10
10.5
 20
-13.2
 30
0
 11
10.205
 21
-13.0125
 31
0
 70
   32
 71
    5
  3
Standard
 53
0
210
0
220
0
230
1
100
AcDbAlignedDimension
 13
9.530000000000001
 23
-12.85
 33
0
 14
10.88
 24
-12.85
 34
0
100
AcDbRotatedDimension
  0
DIMENSION
  5
15D
100
AcDbEntity
  8
0
  6
ByLayer
 62
  256
370
   25
100
AcDbDimension
  2
*D13
 10
17
 20
-16
 30
0
 11
13.94
 21
-15.8125
 31
0
 70
   32
 71
    5
  3
Standard
 53
0
210
0
220
0
230
1
100
AcDbAlignedDimension
 13
10.88
 23
-15.6
 33
0
 14
17
 24
-15.6
 34
0
100
AcDbRotatedDimension
  0
DIMENSION
  5
15E
100
AcDbEntity
  8
0
  6
ByLayer
 62
  256
370
   25
100
AcDbDimension
  2
*D14
 10
5.3
 20
0.5
 30
0
 11
2.71
 21
0.6875
 31
0
 70
   32
 71
    5
  3
Standard
 53
0
210
0
220
0
230
1
100
AcDbAlignedDimension
 13
-1.836909530733566e-017
 23
-0.1
 33
0
 14
5.42
 24
-0.1
 34
0
100
AcDbRotatedDimension
  0
DIMENSION
  5
15F
100
AcDbEntity
  8
0
  6
ByLayer
 62
  256
370
   25
100
AcDbDimension
  2
*D15
 10
14.6
 20
0.5
 30
0
 11
11.74
 21
0.6875
 31
0
 70
   32
 71
    5
  3
Standard
 53
0
210
0
220
0
230
1
100
AcDbAlignedDimension
 13
8.480000000000002
 23
-0.1
 33
0
 14
15
 24
-0.1
 34
0
100
AcDbRotatedDimension
  0
DIMENSION
  5
160
100
AcDbEntity
  8
0
  6
ByLayer
 62
  256
370
   25
100
AcDbDimension
  2
*D16
 10
14.4
 20
1.4
 30
0
 11
7.5
 21
1.5875
 31
0
 70
   32
 71
    5
  3
Standard
 53
0
210
0
220
0
230
1
100
AcDbAlignedDimension
 13
0
 23
0
 33
0
 14
15
 24
0
 34
0
100
AcDbRotatedDimension
  0
DIMENSION
  5
161
100
AcDbEntity
  8
0
  6
ByLayer
 62
  256
370
   25
100
AcDbDimension
  2
*D17
 10
16.7
 20
-16.5
 30
0
 11
9.460000000000001
 21
-16.3125
 31
0
 70
   32
 71
    5
  3
Standard
 53
0
210
0
220
0
230
1
100
AcDbAlignedDimension
 13
1.92
 23
-15.6
 33
0
 14
17
 24
-15.6
 34
0
100
AcDbRotatedDimension
  0
DIMENSION
  5
162
100
AcDbEntity
  8
0
  6
ByLayer
 62
  256
370
   25
100
AcDbDimension
  2
*D18
 10
16.4
 20
-17.1
 30
0
 11
8.5
 21
-16.9125
 31
0
 70
   32
 71
    5
  3
Standard
 53
0
210
0
220
0
230
1
100
AcDbAlignedDimension
 13
0
 23
-15.8
 33
0
 14
17
 24
-16.6
 34
0
100
AcDbRotatedDimension
  0
DIMENSION
  5
163
100
AcDbEntity
  8
0
  6
ByLayer
 62
  256
370
   25
100
AcDbDimension
  2
*D19
 10
5
 20
-7
 30
0
 11
2.42
 21
-6.8125
 31
0
 70
   32
 71
    5
  3
Standard
 53
0
210
0
220
0
230
1
100
AcDbAlignedDimension
 13
2.220446049250313e-017
 23
-6.12
 33
0
 14
4.84
 24
-6.12
 34
0
100
AcDbRotatedDimension
  0
DIMENSION
  5
164
100
AcDbEntity
  8
0
  6
ByLayer
 62
  256
370
   25
100
AcDbDimension
  2
*D20
 10
-0.9999999999999998
 20
1.224606353822377e-016
 30
0
 11
-1.1875
 21
-3.06
 31
0
 70
   32
 71
    5
  3
Standard
 53
0
210
0
220
0
230
1
100
AcDbAlignedDimension
 13
2.220446049250313e-017
 23
-6.12
 33
0
 14
0
 24
0
 34
0
 50
90
100
AcDbRotatedDimension
  0
ENDSEC
  0
SECTION
  2
OBJECTS
  0
DICTIONARY
  5
C
330
0
100
AcDbDictionary
281
    1
  3
ACAD_GROUP
350
D
  0
DICTIONARY
  5
D
330
C
100
AcDbDictionary
281
    1
  0
ENDSEC
  0
EOF
