999
dxfrw 0.6.3
  0
SECTION
  2
HEADER
  9
$ACADVER
  1
AC1021
  9
$DWGCODEPAGE
  3
ANSI_1252
  9
$INSBASE
 10
0
 20
0
 30
0
  9
$EXTMIN
 10
-12.5
 20
-12.5
 30
0
  9
$EXTMAX
 10
98.99131486367844
 20
95.14351407350978
 30
0
  9
$LIMMIN
 10
0
 20
0
  9
$LIMMAX
 10
420
 20
297
  9
$ORTHOMODE
 70
    0
  9
$REGENMODE
 70
    1
  9
$FILLMODE
 70
    1
  9
$QTEXTMODE
 70
    0
  9
$MIRRTEXT
 70
    0
  9
$LTSCALE
 40
1
  9
$ATTMODE
 70
    0
  9
$TEXTSIZE
 40
2.5
  9
$TRACEWID
 40
15.68
  9
$TEXTSTYLE
  7
STANDARD
  9
$CLAYER
  8
Quote
  9
$CELTYPE
  6
BYLAYER
  9
$CECOLOR
 62
  256
  9
$CELTSCALE
 40
1
  9
$DISPSILH
 70
    0
  9
$DIMSCALE
 40
1
  9
$DIMASZ
 40
2.5
  9
$DIMEXO
 40
0.625
  9
$DIMDLI
 40
3.75
  9
$DIMRND
 40
0
  9
$DIMDLE
 40
0
  9
$DIMEXE
 40
1.25
  9
$DIMTP
 40
0
  9
$DIMTM
 40
0
  9
$DIMTXT
 40
2.5
  9
$DIMCEN
 40
2.5
  9
$DIMTSZ
 40
0
  9
$DIMTOL
 70
    0
  9
$DIMLIM
 70
    0
  9
$DIMTIH
 70
    0
  9
$DIMTOH
 70
    0
  9
$DIMSE1
 70
    0
  9
$DIMSE2
 70
    0
  9
$DIMTAD
 70
    1
  9
$DIMZIN
 70
    1
  9
$DIMBLK
  1

  9
$DIMASO
 70
    1
  9
$DIMSHO
 70
    1
  9
$DIMPOST
  1

  9
$DIMAPOST
  1

  9
$DIMALT
 70
    0
  9
$DIMALTD
 70
    3
  9
$DIMALTF
 40
0.03937
  9
$DIMLFAC
 40
1
  9
$DIMTOFL
 70
    1
  9
$DIMTVP
 40
0
  9
$DIMTIX
 70
    0
  9
$DIMSOXD
 70
    0
  9
$DIMSAH
 70
    0
  9
$DIMBLK1
  1

  9
$DIMBLK2
  1

  9
$DIMSTYLE
  2
STANDARD
  9
$DIMCLRD
 70
    0
  9
$DIMCLRE
 70
    0
  9
$DIMCLRT
 70
    0
  9
$DIMTFAC
 40
1
  9
$DIMGAP
 40
0.625
  9
$DIMJUST
 70
    0
  9
$DIMSD1
 70
    0
  9
$DIMSD2
 70
    0
  9
$DIMTOLJ
 70
    0
  9
$DIMTZIN
 70
    8
  9
$DIMALTZ
 70
    0
  9
$DIMALTTZ
 70
    0
  9
$DIMUPT
 70
    0
  9
$DIMDEC
 70
    0
  9
$DIMTDEC
 70
    2
  9
$DIMALTU
 70
    2
  9
$DIMALTTD
 70
    3
  9
$DIMTXSTY
  7
standard
  9
$DIMAUNIT
 70
    0
  9
$DIMADEC
 70
    2
  9
$DIMALTRND
 40
0
  9
$DIMAZIN
 70
    0
  9
$DIMDSEP
 70
   44
  9
$DIMATFIT
 70
    3
  9
$DIMFRAC
 70
    0
  9
$DIMLDRBLK
  1
STANDARD
  9
$DIMLUNIT
 70
    2
  9
$DIMLWD
 70
   -2
  9
$DIMLWE
 70
   -2
  9
$DIMTMOVE
 70
    0
  9
$DIMFXL
 40
1
  9
$DIMFXLON
 70
    0
  9
$DIMJOGANG
 40
0.7854
  9
$DIMTFILL
 70
    0
  9
$DIMTFILLCLR
 70
    0
  9
$DIMARCSYM
 70
    0
  9
$DIMLTYPE
  6

  9
$DIMLTEX1
  6

  9
$DIMLTEX2
  6

  9
$LUNITS
 70
    2
  9
$LUPREC
 70
    4
  9
$SKETCHINC
 40
1
  9
$FILLETRAD
 40
0
  9
$AUNITS
 70
    0
  9
$AUPREC
 70
    2
  9
$MENU
  1
.
  9
$ELEVATION
 40
0
  9
$PELEVATION
 40
0
  9
$THICKNESS
 40
0
  9
$LIMCHECK
 70
    0
  9
$CHAMFERA
 40
0
  9
$CHAMFERB
 40
0
  9
$CHAMFERC
 40
0
  9
$CHAMFERD
 40
0
  9
$SKPOLY
 70
    0
  9
$USRTIMER
 70
    1
  9
$ANGBASE
 50
0
  9
$ANGDIR
 70
    0
  9
$PDMODE
 70
   34
  9
$PDSIZE
 40
0
  9
$PLINEWID
 40
0
  9
$SPLFRAME
 70
    0
  9
$SPLINETYPE
 70
    2
  9
$SPLINESEGS
 70
    8
  9
$HANDSEED
  5
20000
  9
$SURFTAB1
 70
    6
  9
$SURFTAB2
 70
    6
  9
$SURFTYPE
 70
    6
  9
$SURFU
 70
    6
  9
$SURFV
 70
    6
  9
$UCSBASE
  2

  9
$UCSNAME
  2

  9
$UCSORG
 10
0
 20
0
 30
0
  9
$UCSXDIR
 10
1
 20
0
 30
0
  9
$UCSYDIR
 10
0
 20
1
 30
0
  9
$UCSORTHOREF
  2

  9
$UCSORTHOVIEW
 70
    0
  9
$UCSORGTOP
 10
0
 20
0
 30
0
  9
$UCSORGBOTTOM
 10
0
 20
0
 30
0
  9
$UCSORGLEFT
 10
0
 20
0
 30
0
  9
$UCSORGRIGHT
 10
0
 20
0
 30
0
  9
$UCSORGFRONT
 10
0
 20
0
 30
0
  9
$UCSORGBACK
 10
0
 20
0
 30
0
  9
$PUCSBASE
  2

  9
$PUCSNAME
  2

  9
$PUCSORG
 10
0
 20
0
 30
0
  9
$PUCSXDIR
 10
1
 20
0
 30
0
  9
$PUCSYDIR
 10
0
 20
1
 30
0
  9
$PUCSORTHOREF
  2

  9
$PUCSORTHOVIEW
 70
    0
  9
$PUCSORGTOP
 10
0
 20
0
 30
0
  9
$PUCSORGBOTTOM
 10
0
 20
0
 30
0
  9
$PUCSORGLEFT
 10
0
 20
0
 30
0
  9
$PUCSORGRIGHT
 10
0
 20
0
 30
0
  9
$PUCSORGFRONT
 10
0
 20
0
 30
0
  9
$PUCSORGBACK
 10
0
 20
0
 30
0
  9
$USERI1
 70
    0
  9
$USERI2
 70
    0
  9
$USERI3
 70
    0
  9
$USERI4
 70
    0
  9
$USERI5
 70
    0
  9
$USERR1
 40
0
  9
$USERR2
 40
0
  9
$USERR3
 40
0
  9
$USERR4
 40
0
  9
$USERR5
 40
0
  9
$WORLDVIEW
 70
    1
  9
$SHADEDGE
 70
    3
  9
$SHADEDIF
 70
   70
  9
$TILEMODE
 70
    1
  9
$MAXACTVP
 70
   64
  9
$PINSBASE
 10
61.75434256816078
 20
107.1782429632451
 30
0
  9
$PLIMCHECK
 70
    0
  9
$PEXTMIN
 10
0
 20
0
 30
0
  9
$PEXTMAX
 10
0
 20
0
 30
0
  9
$GRIDMODE
 70
    1
  9
$SNAPSTYLE
 70
    0
  9
$GRIDUNIT
 10
0
 20
0
  9
$PLIMMIN
 10
0
 20
0
  9
$PLIMMAX
 10
210
 20
297
  9
$UNITMODE
 70
    0
  9
$VISRETAIN
 70
    1
  9
$PLINEGEN
 70
    0
  9
$PSLTSCALE
 70
    1
  9
$TREEDEPTH
 70
 3020
  9
$CMLSTYLE
  2
Standard
  9
$CMLJUST
 70
    0
  9
$CMLSCALE
 40
20
  9
$PROXYGRAPHICS
 70
    1
  9
$MEASUREMENT
 70
    1
  9
$CELWEIGHT
370
   -1
  9
$ENDCAPS
280
    0
  9
$JOINSTYLE
280
    0
  9
$LWDISPLAY
290
    0
  9
$INSUNITS
 70
    4
  9
$HYPERLINKBASE
  1

  9
$STYLESHEET
  1

  9
$XEDIT
290
    1
  9
$CEPSNTYPE
380
    0
  9
$PSTYLEMODE
290
    1
  9
$EXTNAMES
290
    1
  9
$PSVPSCALE
 40
1
  9
$OLESTARTUP
290
    0
  9
$SORTENTS
280
  127
  9
$INDEXCTL
280
    0
  9
$HIDETEXT
280
    1
  9
$XCLIPFRAME
290
    0
  9
$HALOGAP
280
    0
  9
$OBSCOLOR
 70
  257
  9
$OBSLTYPE
280
    0
  9
$INTERSECTIONDISPLAY
280
    0
  9
$INTERSECTIONCOLOR
 70
  257
  9
$DIMASSOC
280
    1
  9
$PROJECTNAME
  1

  9
$CAMERADISPLAY
290
    0
  9
$LENSLENGTH
 40
50
  9
$CAMERAHEIGHT
 40
0
  9
$STEPSPERSEC
 40
2
  9
$STEPSIZE
 40
50
  9
$3DDWFPREC
 40
2
  9
$PSOLWIDTH
 40
5
  9
$PSOLHEIGHT
 40
80
  9
$LOFTANG1
 40
1.570796326794897
  9
$LOFTANG2
 40
1.570796326794897
  9
$LOFTMAG1
 40
0
  9
$LOFTMAG2
 40
0
  9
$LOFTPARAM
 70
    7
  9
$LOFTNORMALS
280
    1
  9
$LATITUDE
 40
1
  9
$LONGITUDE
 40
1
  9
$NORTHDIRECTION
 40
0
  9
$TIMEZONE
 70
-8000
  9
$LIGHTGLYPHDISPLAY
280
    1
  9
$TILEMODELIGHTSYNCH
280
    1
  9
$SOLIDHIST
280
    1
  9
$SHOWHIST
280
    1
  9
$DWFFRAME
280
    2
  9
$DGNFRAME
280
    0
  9
$REALWORLDSCALE
290
    1
  9
$INTERFERECOLOR
 62
    1
  9
$CSHADOW
280
    0
  9
$SHADOWPLANELOCATION
 40
0
  0
ENDSEC
  0
SECTION
  2
CLASSES
  0
ENDSEC
  0
SECTION
  2
TABLES
  0
TABLE
  2
VPORT
  5
8
330
0
100
AcDbSymbolTable
 70
    1
  0
VPORT
  5
31
330
2
100
AcDbSymbolTableRecord
100
AcDbViewportTableRecord
  2
*ACTIVE
 70
    0
 10
0
 20
0
 11
1
 21
1
 12
46.70574039548884
 22
39.52024187310594
 13
0
 23
0
 14
10
 24
10
 15
10
 25
10
 16
0
 26
0
 36
1
 17
0
 27
0
 37
0
 40
30.20345141611794
 41
1.935483870967742
 42
50
 43
0
 44
0
 50
0
 51
0
 71
    0
 72
  100
 73
    1
 74
    3
 75
    0
 76
    1
 77
    0
 78
    0
281
    0
 65
    1
110
0
120
0
130
0
111
1
121
0
131
0
112
0
122
1
132
0
 79
    0
146
0
348
10020
 60
    7
 61
    5
292
1
282
    1
141
0
142
0
 63
  250
421
3358443
  0
ENDTAB
  0
TABLE
  2
LTYPE
  5
5
330
0
100
AcDbSymbolTable
 70
    4
  0
LTYPE
  5
14
330
5
100
AcDbSymbolTableRecord
100
AcDbLinetypeTableRecord
  2
ByBlock
 70
    0
  3

 72
   65
 73
    0
 40
0
  0
LTYPE
  5
15
330
5
100
AcDbSymbolTableRecord
100
AcDbLinetypeTableRecord
  2
ByLayer
 70
    0
  3

 72
   65
 73
    0
 40
0
  0
LTYPE
  5
16
330
5
100
AcDbSymbolTableRecord
100
AcDbLinetypeTableRecord
  2
Continuous
 70
    0
  3
Solid line
 72
   65
 73
    0
 40
0
  0
LTYPE
  5
32
330
5
100
AcDbSymbolTableRecord
100
AcDbLinetypeTableRecord
  2
DOT
 70
    0
  3
Dot . . . . . . . . . . . . . . . . . . . . . .
 72
   65
 73
    2
 40
6.35
 49
0
 74
    0
 49
-6.35
 74
    0
  0
LTYPE
  5
33
330
5
100
AcDbSymbolTableRecord
100
AcDbLinetypeTableRecord
  2
DOTTINY
 70
    0
  3
Dot (.15x) .....................................
 72
   65
 73
    2
 40
0.9525
 49
0
 74
    0
 49
-0.9525
 74
    0
  0
LTYPE
  5
34
330
5
100
AcDbSymbolTableRecord
100
AcDbLinetypeTableRecord
  2
DOT2
 70
    0
  3
Dot (.5x) .....................................
 72
   65
 73
    2
 40
3.175
 49
0
 74
    0
 49
-3.175
 74
    0
  0
LTYPE
  5
35
330
5
100
AcDbSymbolTableRecord
100
AcDbLinetypeTableRecord
  2
DOTX2
 70
    0
  3
Dot (2x) .  .  .  .  .  .  .  .  .  .  .  .  .
 72
   65
 73
    2
 40
12.7
 49
0
 74
    0
 49
-12.7
 74
    0
  0
LTYPE
  5
36
330
5
100
AcDbSymbolTableRecord
100
AcDbLinetypeTableRecord
  2
DASHED
 70
    0
  3
Dashed _ _ _ _ _ _ _ _ _ _ _ _ _ _ _ _ _
 72
   65
 73
    2
 40
19.05
 49
12.7
 74
    0
 49
-6.35
 74
    0
  0
LTYPE
  5
37
330
5
100
AcDbSymbolTableRecord
100
AcDbLinetypeTableRecord
  2
DASHEDTINY
 70
    0
  3
Dashed (.15x) _ _ _ _ _ _ _ _ _ _ _ _ _ _ _ _ _
 72
   65
 73
    2
 40
2.8575
 49
1.905
 74
    0
 49
-0.9525
 74
    0
  0
LTYPE
  5
38
330
5
100
AcDbSymbolTableRecord
100
AcDbLinetypeTableRecord
  2
DASHED2
 70
    0
  3
Dashed (.5x) _ _ _ _ _ _ _ _ _ _ _ _ _ _ _ _ _
 72
   65
 73
    2
 40
9.524999999999999
 49
6.35
 74
    0
 49
-3.175
 74
    0
  0
LTYPE
  5
39
330
5
100
AcDbSymbolTableRecord
100
AcDbLinetypeTableRecord
  2
DASHEDX2
 70
    0
  3
Dashed (2x) ____  ____  ____  ____  ____  ___
 72
   65
 73
    2
 40
38.09999999999999
 49
25.4
 74
    0
 49
-12.7
 74
    0
  0
LTYPE
  5
3A
330
5
100
AcDbSymbolTableRecord
100
AcDbLinetypeTableRecord
  2
DASHDOT
 70
    0
  3
Dash dot __ . __ . __ . __ . __ . __ . __ . __
 72
   65
 73
    4
 40
25.4
 49
12.7
 74
    0
 49
-6.35
 74
    0
 49
0
 74
    0
 49
-6.35
 74
    0
  0
LTYPE
  5
3B
330
5
100
AcDbSymbolTableRecord
100
AcDbLinetypeTableRecord
  2
DASHDOTTINY
 70
    0
  3
Dash dot (.15x) _._._._._._._._._._._._._._._.
 72
   65
 73
    4
 40
3.81
 49
1.905
 74
    0
 49
-0.9525
 74
    0
 49
0
 74
    0
 49
-0.9525
 74
    0
  0
LTYPE
  5
3C
330
5
100
AcDbSymbolTableRecord
100
AcDbLinetypeTableRecord
  2
DASHDOT2
 70
    0
  3
Dash dot (.5x) _._._._._._._._._._._._._._._.
 72
   65
 73
    4
 40
12.7
 49
6.35
 74
    0
 49
-3.175
 74
    0
 49
0
 74
    0
 49
-3.175
 74
    0
  0
LTYPE
  5
3D
330
5
100
AcDbSymbolTableRecord
100
AcDbLinetypeTableRecord
  2
DASHDOTX2
 70
    0
  3
Dash dot (2x) ____  .  ____  .  ____  .  ___
 72
   65
 73
    4
 40
50.8
 49
25.4
 74
    0
 49
-12.7
 74
    0
 49
0
 74
    0
 49
-12.7
 74
    0
  0
LTYPE
  5
3E
330
5
100
AcDbSymbolTableRecord
100
AcDbLinetypeTableRecord
  2
DIVIDE
 70
    0
  3
Divide ____ . . ____ . . ____ . . ____ . . ____
 72
   65
 73
    6
 40
31.75
 49
12.7
 74
    0
 49
-6.35
 74
    0
 49
0
 74
    0
 49
-6.35
 74
    0
 49
0
 74
    0
 49
-6.35
 74
    0
  0
LTYPE
  5
3F
330
5
100
AcDbSymbolTableRecord
100
AcDbLinetypeTableRecord
  2
DIVIDETINY
 70
    0
  3
Divide (.15x) __..__..__..__..__..__..__..__.._
 72
   65
 73
    6
 40
4.7625
 49
1.905
 74
    0
 49
-0.9525
 74
    0
 49
0
 74
    0
 49
-0.9525
 74
    0
 49
0
 74
    0
 49
-0.9525
 74
    0
  0
LTYPE
  5
40
330
5
100
AcDbSymbolTableRecord
100
AcDbLinetypeTableRecord
  2
DIVIDE2
 70
    0
  3
Divide (.5x) __..__..__..__..__..__..__..__.._
 72
   65
 73
    6
 40
15.875
 49
6.35
 74
    0
 49
-3.175
 74
    0
 49
0
 74
    0
 49
-3.175
 74
    0
 49
0
 74
    0
 49
-3.175
 74
    0
  0
LTYPE
  5
41
330
5
100
AcDbSymbolTableRecord
100
AcDbLinetypeTableRecord
  2
DIVIDEX2
 70
    0
  3
Divide (2x) ________  .  .  ________  .  .  _
 72
   65
 73
    6
 40
63.5
 49
25.4
 74
    0
 49
-12.7
 74
    0
 49
0
 74
    0
 49
-12.7
 74
    0
 49
0
 74
    0
 49
-12.7
 74
    0
  0
LTYPE
  5
42
330
5
100
AcDbSymbolTableRecord
100
AcDbLinetypeTableRecord
  2
BORDER
 70
    0
  3
Border __ __ . __ __ . __ __ . __ __ . __ __ .
 72
   65
 73
    6
 40
44.45
 49
12.7
 74
    0
 49
-6.35
 74
    0
 49
12.7
 74
    0
 49
-6.35
 74
    0
 49
0
 74
    0
 49
-6.35
 74
    0
  0
LTYPE
  5
43
330
5
100
AcDbSymbolTableRecord
100
AcDbLinetypeTableRecord
  2
BORDERTINY
 70
    0
  3
Border (.15x) __.__.__.__.__.__.__.__.__.__.__.
 72
   65
 73
    6
 40
6.6675
 49
1.905
 74
    0
 49
-0.9525
 74
    0
 49
1.905
 74
    0
 49
-0.9525
 74
    0
 49
0
 74
    0
 49
-0.9525
 74
    0
  0
LTYPE
  5
44
330
5
100
AcDbSymbolTableRecord
100
AcDbLinetypeTableRecord
  2
BORDER2
 70
    0
  3
Border (.5x) __.__.__.__.__.__.__.__.__.__.__.
 72
   65
 73
    6
 40
22.225
 49
6.35
 74
    0
 49
-3.175
 74
    0
 49
6.35
 74
    0
 49
-3.175
 74
    0
 49
0
 74
    0
 49
-3.175
 74
    0
  0
LTYPE
  5
45
330
5
100
AcDbSymbolTableRecord
100
AcDbLinetypeTableRecord
  2
BORDERX2
 70
    0
  3
Border (2x) ____  ____  .  ____  ____  .  ___
 72
   65
 73
    6
 40
88.89999999999999
 49
25.4
 74
    0
 49
-12.7
 74
    0
 49
25.4
 74
    0
 49
-12.7
 74
    0
 49
0
 74
    0
 49
-12.7
 74
    0
  0
LTYPE
  5
46
330
5
100
AcDbSymbolTableRecord
100
AcDbLinetypeTableRecord
  2
CENTER
 70
    0
  3
Center ____ _ ____ _ ____ _ ____ _ ____ _ ____
 72
   65
 73
    4
 40
50.8
 49
31.75
 74
    0
 49
-6.35
 74
    0
 49
6.35
 74
    0
 49
-6.35
 74
    0
  0
LTYPE
  5
47
330
5
100
AcDbSymbolTableRecord
100
AcDbLinetypeTableRecord
  2
CENTERTINY
 70
    0
  3
Center (.15x) ___ _ ___ _ ___ _ ___ _ ___ _ ___
 72
   65
 73
    4
 40
7.619999999999999
 49
4.7625
 74
    0
 49
-0.9525
 74
    0
 49
0.9525
 74
    0
 49
-0.9525
 74
    0
  0
LTYPE
  5
48
330
5
100
AcDbSymbolTableRecord
100
AcDbLinetypeTableRecord
  2
CENTER2
 70
    0
  3
Center (.5x) ___ _ ___ _ ___ _ ___ _ ___ _ ___
 72
   65
 73
    4
 40
28.575
 49
19.05
 74
    0
 49
-3.175
 74
    0
 49
3.175
 74
    0
 49
-3.175
 74
    0
  0
LTYPE
  5
49
330
5
100
AcDbSymbolTableRecord
100
AcDbLinetypeTableRecord
  2
CENTERX2
 70
    0
  3
Center (2x) ________  __  ________  __  _____
 72
   65
 73
    4
 40
101.6
 49
63.5
 74
    0
 49
-12.7
 74
    0
 49
12.7
 74
    0
 49
-12.7
 74
    0
  0
ENDTAB
  0
TABLE
  2
LAYER
  5
2
330
0
100
AcDbSymbolTable
 70
    1
  0
LAYER
  5
10
330
2
100
AcDbSymbolTableRecord
100
AcDbLayerTableRecord
  2
0
 70
    0
 62
    7
  6
CONTINUOUS
370
    0
390
F
  0
LAYER
  5
4A
330
2
100
AcDbSymbolTableRecord
100
AcDbLayerTableRecord
  2
Assi
 70
    0
 62
    7
  6
DASHDOT
370
   18
390
F
  0
LAYER
  5
4B
330
2
100
AcDbSymbolTableRecord
100
AcDbLayerTableRecord
  2
Geometria
 70
    0
 62
    7
  6
CONTINUOUS
370
   35
390
F
  0
LAYER
  5
4C
330
2
100
AcDbSymbolTableRecord
100
AcDbLayerTableRecord
  2
Quote
 70
    0
 62
    7
  6
CONTINUOUS
370
   18
390
F
  0
LAYER
  5
4D
330
2
100
AcDbSymbolTableRecord
100
AcDbLayerTableRecord
  2
costruzione
 70
    1
 62
    7
  6
CONTINUOUS
370
    0
390
F
1001
LibreCad
1070
    1
  0
ENDTAB
  0
TABLE
  2
STYLE
  5
3
330
0
100
AcDbSymbolTable
 70
    3
  0
STYLE
  5
4E
330
2
100
AcDbSymbolTableRecord
100
AcDbTextStyleTableRecord
  2
standard
 70
    0
 40
0
 41
1
 50
0
 71
    0
 42
1
  3
standard
  4

  0
ENDTAB
  0
TABLE
  2
VIEW
  5
6
330
0
100
AcDbSymbolTable
 70
    0
  0
ENDTAB
  0
TABLE
  2
UCS
  5
7
330
0
100
AcDbSymbolTable
 70
    0
  0
ENDTAB
  0
TABLE
  2
APPID
  5
9
330
0
100
AcDbSymbolTable
 70
    1
  0
APPID
  5
12
330
9
100
AcDbSymbolTableRecord
100
AcDbRegAppTableRecord
  2
ACAD
 70
    0
  0
APPID
  5
4F
330
9
100
AcDbSymbolTableRecord
100
AcDbRegAppTableRecord
  2
LibreCad
 70
    0
  0
ENDTAB
  0
TABLE
  2
DIMSTYLE
  5
A
330
0
100
AcDbSymbolTable
 70
    1
100
AcDbDimStyleTable
 71
    1
  0
DIMSTYLE
105
50
330
A
100
AcDbSymbolTableRecord
100
AcDbDimStyleTableRecord
  2
Standard
 70
    0
 40
1
 41
2.5
 42
0.625
 43
0.38
 44
1.25
 45
0
 46
0
 47
0
 48
0
 49
1
140
2.5
141
0.09
142
0
143
25.4
144
1
145
0
146
1
147
0.625
148
0
 71
    0
 72
    0
 73
    0
 74
    1
 75
    0
 76
    0
 77
    0
 78
    1
 79
    0
170
    0
171
    2
172
    0
173
    0
174
    0
175
    0
176
    0
177
    0
178
    0
179
    2
271
    0
272
    4
273
    2
274
    2
275
    0
276
    0
277
    2
278
   44
279
    0
280
    0
281
    0
282
    0
283
    1
284
    0
285
    0
286
    0
288
    0
289
    3
340
standard
341

371
   -2
372
   -2
  0
ENDTAB
  0
TABLE
  2
BLOCK_RECORD
  5
1
330
0
100
AcDbSymbolTable
 70
    2
  0
BLOCK_RECORD
  5
1F
330
1
100
AcDbSymbolTableRecord
100
AcDbBlockTableRecord
  2
*Model_Space
 70
    0
280
    1
281
    0
  0
BLOCK_RECORD
  5
1E
330
1
100
AcDbSymbolTableRecord
100
AcDbBlockTableRecord
  2
*Paper_Space
 70
    0
280
    1
281
    0
  0
BLOCK_RECORD
  5
51
330
1
100
AcDbSymbolTableRecord
100
AcDbBlockTableRecord
  2
*D5
 70
    0
280
    1
281
    0
  0
BLOCK_RECORD
  5
54
330
1
100
AcDbSymbolTableRecord
100
AcDbBlockTableRecord
  2
*D6
 70
    0
280
    1
281
    0
  0
BLOCK_RECORD
  5
57
330
1
100
AcDbSymbolTableRecord
100
AcDbBlockTableRecord
  2
*D2
 70
    0
280
    1
281
    0
  0
BLOCK_RECORD
  5
5A
330
1
100
AcDbSymbolTableRecord
100
AcDbBlockTableRecord
  2
*D12
 70
    0
280
    1
281
    0
  0
BLOCK_RECORD
  5
5D
330
1
100
AcDbSymbolTableRecord
100
AcDbBlockTableRecord
  2
*D11
 70
    0
280
    1
281
    0
  0
BLOCK_RECORD
  5
60
330
1
100
AcDbSymbolTableRecord
100
AcDbBlockTableRecord
  2
*D3
 70
    0
280
    1
281
    0
  0
BLOCK_RECORD
  5
63
330
1
100
AcDbSymbolTableRecord
100
AcDbBlockTableRecord
  2
*D8
 70
    0
280
    1
281
    0
  0
BLOCK_RECORD
  5
66
330
1
100
AcDbSymbolTableRecord
100
AcDbBlockTableRecord
  2
*D1
 70
    0
280
    1
281
    0
  0
BLOCK_RECORD
  5
69
330
1
100
AcDbSymbolTableRecord
100
AcDbBlockTableRecord
  2
*D10
 70
    0
280
    1
281
    0
  0
BLOCK_RECORD
  5
6C
330
1
100
AcDbSymbolTableRecord
100
AcDbBlockTableRecord
  2
*D13
 70
    0
280
    1
281
    0
  0
BLOCK_RECORD
  5
6F
330
1
100
AcDbSymbolTableRecord
100
AcDbBlockTableRecord
  2
*D14
 70
    0
280
    1
281
    0
  0
BLOCK_RECORD
  5
72
330
1
100
AcDbSymbolTableRecord
100
AcDbBlockTableRecord
  2
*D7
 70
    0
280
    1
281
    0
  0
BLOCK_RECORD
  5
75
330
1
100
AcDbSymbolTableRecord
100
AcDbBlockTableRecord
  2
*D9
 70
    0
280
    1
281
    0
  0
BLOCK_RECORD
  5
78
330
1
100
AcDbSymbolTableRecord
100
AcDbBlockTableRecord
  2
*D4
 70
    0
280
    1
281
    0
  0
ENDTAB
  0
ENDSEC
  0
SECTION
  2
BLOCKS
  0
BLOCK
  5
20
330
1F
100
AcDbEntity
  8
0
100
AcDbBlockBegin
  2
*Model_Space
 70
    0
 10
0
 20
0
 30
0
  3
*Model_Space
  1

  0
ENDBLK
  5
21
330
1F
100
AcDbEntity
  8
0
100
AcDbBlockEnd
  0
BLOCK
  5
1C
330
1B
100
AcDbEntity
  8
0
100
AcDbBlockBegin
  2
*Paper_Space
 70
    0
 10
0
 20
0
 30
0
  3
*Paper_Space
  1

  0
ENDBLK
  5
1D
330
1F
100
AcDbEntity
  8
0
100
AcDbBlockEnd
  0
BLOCK
  5
52
330
51
100
AcDbEntity
  8
0
100
AcDbBlockBegin
  2
*D5
 70
    1
 10
0
 20
0
  3
*D5
  1

  0
LINE
  5
7B
100
AcDbEntity
  8
Quote
  6
ByBlock
 62
    0
370
   -2
100
AcDbLine
 10
0
 20
90.14351407350978
 11
80
 21
90.14351407350978
  0
SOLID
  5
7C
100
AcDbEntity
  8
Quote
  6
ByBlock
 62
    0
370
   -2
100
AcDbTrace
 10
0
 20
90.14351407350978
 30
0
 11
2.5
 21
90.55979873128261
 31
0
 12
2.5
 22
89.72722941573694
 32
0
 13
2.5
 23
89.72722941573694
 33
0
  0
SOLID
  5
7D
100
AcDbEntity
  8
Quote
  6
ByBlock
 62
    0
370
   -2
100
AcDbTrace
 10
80
 20
90.14351407350978
 30
0
 11
77.5
 21
89.72722941573694
 31
0
 12
77.5
 22
90.55979873128261
 32
0
 13
77.5
 23
90.55979873128261
 33
0
  0
MTEXT
  5
7E
100
AcDbEntity
  8
Quote
  6
CONTINUOUS
 62
    0
370
   -2
100
AcDbMText
 10
40
 20
92.01851407350978
 30
0
 40
2.5
 41
3.055555555555556
 71
    5
 72
    1
  1
80
  7
standard
210
0
220
0
230
1
 50
0
 73
    2
 44
1
  0
LINE
  5
7F
100
AcDbEntity
  8
Quote
  6
ByBlock
 62
    0
370
   -2
100
AcDbLine
 10
3.827021247335479e-17
 20
80.625
 11
7.654042494670958e-17
 21
91.39351407350978
  0
LINE
  5
80
100
AcDbEntity
  8
Quote
  6
ByBlock
 62
    0
370
   -2
100
AcDbLine
 10
80
 20
80.625
 11
80
 21
91.39351407350978
  0
ENDBLK
  5
53
330
51
100
AcDbEntity
  8
0
100
AcDbBlockEnd
  0
BLOCK
  5
55
330
54
100
AcDbEntity
  8
0
100
AcDbBlockBegin
  2
*D6
 70
    1
 10
0
 20
0
  3
*D6
  1

  0
LINE
  5
81
100
AcDbEntity
  8
Quote
  6
ByBlock
 62
    0
370
   -2
100
AcDbLine
 10
90
 20
80
 11
90
 21
65
  0
SOLID
  5
82
100
AcDbEntity
  8
Quote
  6
ByBlock
 62
    0
370
   -2
100
AcDbTrace
 10
90
 20
80
 30
0
 11
90.41628465777283
 21
77.5
 31
0
 12
89.58371534222717
 22
77.5
 32
0
 13
89.58371534222717
 23
77.5
 33
0
  0
SOLID
  5
83
100
AcDbEntity
  8
Quote
  6
ByBlock
 62
    0
370
   -2
100
AcDbTrace
 10
90
 20
65
 30
0
 11
89.58371534222717
 21
67.5
 31
0
 12
90.41628465777283
 22
67.5
 32
0
 13
90.41628465777283
 23
67.5
 33
0
  0
MTEXT
  5
84
100
AcDbEntity
  8
Quote
  6
CONTINUOUS
 62
    0
370
   -2
100
AcDbMText
 10
88.125
 20
72.5
 30
0
 40
2.5
 41
2.500000000000155
 71
    5
 72
    1
  1
15
  7
standard
210
0
220
0
230
1
 50
90
 73
    2
 44
1
  0
LINE
  5
85
100
AcDbEntity
  8
Quote
  6
ByBlock
 62
    0
370
   -2
100
AcDbLine
 10
80.625
 20
80
 11
91.25
 21
80
  0
LINE
  5
86
100
AcDbEntity
  8
Quote
  6
ByBlock
 62
    0
370
   -2
100
AcDbLine
 10
73.625
 20
65
 11
91.25
 21
65
  0
ENDBLK
  5
56
330
54
100
AcDbEntity
  8
0
100
AcDbBlockEnd
  0
BLOCK
  5
58
330
57
100
AcDbEntity
  8
0
100
AcDbBlockBegin
  2
*D2
 70
    1
 10
0
 20
0
  3
*D2
  1

  0
LINE
  5
87
100
AcDbEntity
  8
Quote
  6
ByBlock
 62
    0
370
   -2
100
AcDbLine
 10
15
 20
85.86378765402802
 11
40
 21
85.86378765402802
  0
SOLID
  5
88
100
AcDbEntity
  8
Quote
  6
ByBlock
 62
    0
370
   -2
100
AcDbTrace
 10
15
 20
85.86378765402802
 30
0
 11
17.5
 21
86.28007231180085
 31
0
 12
17.5
 22
85.44750299625518
 32
0
 13
17.5
 23
85.44750299625518
 33
0
  0
SOLID
  5
89
100
AcDbEntity
  8
Quote
  6
ByBlock
 62
    0
370
   -2
100
AcDbTrace
 10
40
 20
85.86378765402802
 30
0
 11
37.5
 21
85.44750299625518
 31
0
 12
37.5
 22
86.28007231180085
 32
0
 13
37.5
 23
86.28007231180085
 33
0
  0
MTEXT
  5
8A
100
AcDbEntity
  8
Quote
  6
CONTINUOUS
 62
    0
370
   -2
100
AcDbMText
 10
27.5
 20
87.73878765402802
 30
0
 40
2.5
 41
3.055555555555711
 71
    5
 72
    1
  1
25
  7
standard
210
0
220
0
230
1
 50
0
 73
    2
 44
1
  0
LINE
  5
8B
100
AcDbEntity
  8
Quote
  6
ByBlock
 62
    0
370
   -2
100
AcDbLine
 10
15
 20
70.625
 11
15
 21
87.11378765402802
  0
LINE
  5
8C
100
AcDbEntity
  8
Quote
  6
ByBlock
 62
    0
370
   -2
100
AcDbLine
 10
40
 20
70.625
 11
40
 21
87.11378765402802
  0
ENDBLK
  5
59
330
57
100
AcDbEntity
  8
0
100
AcDbBlockEnd
  0
BLOCK
  5
5B
330
5A
100
AcDbEntity
  8
0
100
AcDbBlockBegin
  2
*D12
 70
    1
 10
0
 20
0
  3
*D12
  1

  0
LINE
  5
8D
100
AcDbEntity
  8
Quote
  6
ByBlock
 62
    0
370
   -2
100
AcDbLine
 10
-6.500000000000142
 20
80
 11
-6.500000000000144
 21
50
  0
SOLID
  5
8E
100
AcDbEntity
  8
Quote
  6
ByBlock
 62
    0
370
   -2
100
AcDbTrace
 10
-6.500000000000142
 20
80
 30
0
 11
-6.083715342227301
 21
77.5
 31
0
 12
-6.916284657772983
 22
77.5
 32
0
 13
-6.916284657772983
 23
77.5
 33
0
  0
SOLID
  5
8F
100
AcDbEntity
  8
Quote
  6
ByBlock
 62
    0
370
   -2
100
AcDbTrace
 10
-6.500000000000144
 20
50
 30
0
 11
-6.916284657772984
 21
52.5
 31
0
 12
-6.083715342227303
 22
52.5
 32
0
 13
-6.083715342227303
 23
52.5
 33
0
  0
MTEXT
  5
90
100
AcDbEntity
  8
Quote
  6
CONTINUOUS
 62
    0
370
   -2
100
AcDbMText
 10
-8.375000000000142
 20
65
 30
0
 40
2.5
 41
3.055555555555711
 71
    5
 72
    1
  1
30
  7
standard
210
0
220
0
230
1
 50
90
 73
    2
 44
1
  0
LINE
  5
91
100
AcDbEntity
  8
Quote
  6
ByBlock
 62
    0
370
   -2
100
AcDbLine
 10
-0.625
 20
80
 11
-7.750000000000142
 21
80
  0
LINE
  5
92
100
AcDbEntity
  8
Quote
  6
ByBlock
 62
    0
370
   -2
100
AcDbLine
 10
-0.625
 20
50
 11
-7.750000000000144
 21
50
  0
ENDBLK
  5
5C
330
5A
100
AcDbEntity
  8
0
100
AcDbBlockEnd
  0
BLOCK
  5
5E
330
5D
100
AcDbEntity
  8
0
100
AcDbBlockBegin
  2
*D11
 70
    1
 10
0
 20
0
  3
*D11
  1

  0
LINE
  5
93
100
AcDbEntity
  8
Quote
  6
ByBlock
 62
    0
370
   -2
100
AcDbLine
 10
50
 20
-7.250000000000159
 11
80
 21
-7.250000000000159
  0
SOLID
  5
94
100
AcDbEntity
  8
Quote
  6
ByBlock
 62
    0
370
   -2
100
AcDbTrace
 10
50
 20
-7.250000000000159
 30
0
 11
52.5
 21
-6.833715342227319
 31
0
 12
52.5
 22
-7.666284657773
 32
0
 13
52.5
 23
-7.666284657773
 33
0
  0
SOLID
  5
95
100
AcDbEntity
  8
Quote
  6
ByBlock
 62
    0
370
   -2
100
AcDbTrace
 10
80
 20
-7.250000000000159
 30
0
 11
77.5
 21
-7.666284657773
 31
0
 12
77.5
 22
-6.833715342227318
 32
0
 13
77.5
 23
-6.833715342227318
 33
0
  0
MTEXT
  5
96
100
AcDbEntity
  8
Quote
  6
CONTINUOUS
 62
    0
370
   -2
100
AcDbMText
 10
65
 20
-5.375000000000159
 30
0
 40
2.5
 41
3.055555555555711
 71
    5
 72
    1
  1
30
  7
standard
210
0
220
0
230
1
 50
0
 73
    2
 44
1
  0
LINE
  5
97
100
AcDbEntity
  8
Quote
  6
ByBlock
 62
    0
370
   -2
100
AcDbLine
 10
50
 20
-0.625
 11
50
 21
-8.50000000000016
  0
LINE
  5
98
100
AcDbEntity
  8
Quote
  6
ByBlock
 62
    0
370
   -2
100
AcDbLine
 10
80
 20
-0.625
 11
80
 21
-8.50000000000016
  0
ENDBLK
  5
5F
330
5D
100
AcDbEntity
  8
0
100
AcDbBlockEnd
  0
BLOCK
  5
61
330
60
100
AcDbEntity
  8
0
100
AcDbBlockBegin
  2
*D3
 70
    1
 10
0
 20
0
  3
*D3
  1

  0
LINE
  5
99
100
AcDbEntity
  8
Quote
  6
ByBlock
 62
    0
370
   -2
100
AcDbLine
 10
40
 20
85.86378765402802
 11
65
 21
85.86378765402802
  0
SOLID
  5
9A
100
AcDbEntity
  8
Quote
  6
ByBlock
 62
    0
370
   -2
100
AcDbTrace
 10
40
 20
85.86378765402802
 30
0
 11
42.5
 21
86.28007231180085
 31
0
 12
42.5
 22
85.44750299625518
 32
0
 13
42.5
 23
85.44750299625518
 33
0
  0
SOLID
  5
9B
100
AcDbEntity
  8
Quote
  6
ByBlock
 62
    0
370
   -2
100
AcDbTrace
 10
65
 20
85.86378765402802
 30
0
 11
62.5
 21
85.44750299625518
 31
0
 12
62.5
 22
86.28007231180085
 32
0
 13
62.5
 23
86.28007231180085
 33
0
  0
MTEXT
  5
9C
100
AcDbEntity
  8
Quote
  6
CONTINUOUS
 62
    0
370
   -2
100
AcDbMText
 10
52.5
 20
87.73878765402802
 30
0
 40
2.5
 41
3.055555555555711
 71
    5
 72
    1
  1
25
  7
standard
210
0
220
0
230
1
 50
0
 73
    2
 44
1
  0
LINE
  5
9D
100
AcDbEntity
  8
Quote
  6
ByBlock
 62
    0
370
   -2
100
AcDbLine
 10
40
 20
70.625
 11
40
 21
87.11378765402802
  0
LINE
  5
9E
100
AcDbEntity
  8
Quote
  6
ByBlock
 62
    0
370
   -2
100
AcDbLine
 10
65
 20
70.625
 11
65
 21
87.11378765402802
  0
ENDBLK
  5
62
330
60
100
AcDbEntity
  8
0
100
AcDbBlockEnd
  0
BLOCK
  5
64
330
63
100
AcDbEntity
  8
0
100
AcDbBlockBegin
  2
*D8
 70
    1
 10
0
 20
0
  3
*D8
  1

  0
LINE
  5
9F
100
AcDbEntity
  8
Quote
  6
ByBlock
 62
    0
370
   -2
100
AcDbLine
 10
90
 20
40
 11
90
 21
15
  0
SOLID
  5
A0
100
AcDbEntity
  8
Quote
  6
ByBlock
 62
    0
370
   -2
100
AcDbTrace
 10
90
 20
40
 30
0
 11
90.41628465777283
 21
37.5
 31
0
 12
89.58371534222717
 22
37.5
 32
0
 13
89.58371534222717
 23
37.5
 33
0
  0
SOLID
  5
A1
100
AcDbEntity
  8
Quote
  6
ByBlock
 62
    0
370
   -2
100
AcDbTrace
 10
90
 20
15
 30
0
 11
89.58371534222717
 21
17.5
 31
0
 12
90.41628465777283
 22
17.5
 32
0
 13
90.41628465777283
 23
17.5
 33
0
  0
MTEXT
  5
A2
100
AcDbEntity
  8
Quote
  6
CONTINUOUS
 62
    0
370
   -2
100
AcDbMText
 10
88.125
 20
27.5
 30
0
 40
2.5
 41
3.055555555555711
 71
    5
 72
    1
  1
25
  7
standard
210
0
220
0
230
1
 50
90
 73
    2
 44
1
  0
LINE
  5
A3
100
AcDbEntity
  8
Quote
  6
ByBlock
 62
    0
370
   -2
100
AcDbLine
 10
73.625
 20
40
 11
91.25
 21
40
  0
LINE
  5
A4
100
AcDbEntity
  8
Quote
  6
ByBlock
 62
    0
370
   -2
100
AcDbLine
 10
73.625
 20
15
 11
91.25
 21
15
  0
ENDBLK
  5
65
330
63
100
AcDbEntity
  8
0
100
AcDbBlockEnd
  0
BLOCK
  5
67
330
66
100
AcDbEntity
  8
0
100
AcDbBlockBegin
  2
*D1
 70
    1
 10
0
 20
0
  3
*D1
  1

  0
LINE
  5
A5
100
AcDbEntity
  8
Quote
  6
ByBlock
 62
    0
370
   -2
100
AcDbLine
 10
0
 20
85.86378765402802
 11
15
 21
85.86378765402802
  0
SOLID
  5
A6
100
AcDbEntity
  8
Quote
  6
ByBlock
 62
    0
370
   -2
100
AcDbTrace
 10
0
 20
85.86378765402802
 30
0
 11
2.5
 21
86.28007231180085
 31
0
 12
2.5
 22
85.44750299625518
 32
0
 13
2.5
 23
85.44750299625518
 33
0
  0
SOLID
  5
A7
100
AcDbEntity
  8
Quote
  6
ByBlock
 62
    0
370
   -2
100
AcDbTrace
 10
15
 20
85.86378765402802
 30
0
 11
12.5
 21
85.44750299625518
 31
0
 12
12.5
 22
86.28007231180085
 32
0
 13
12.5
 23
86.28007231180085
 33
0
  0
MTEXT
  5
A8
100
AcDbEntity
  8
Quote
  6
CONTINUOUS
 62
    0
370
   -2
100
AcDbMText
 10
7.5
 20
87.73878765402802
 30
0
 40
2.5
 41
2.500000000000155
 71
    5
 72
    1
  1
15
  7
standard
210
0
220
0
230
1
 50
0
 73
    2
 44
1
  0
LINE
  5
A9
100
AcDbEntity
  8
Quote
  6
ByBlock
 62
    0
370
   -2
100
AcDbLine
 10
3.827021247335479e-17
 20
80.625
 11
7.654042494670958e-17
 21
87.11378765402802
  0
LINE
  5
AA
100
AcDbEntity
  8
Quote
  6
ByBlock
 62
    0
370
   -2
100
AcDbLine
 10
15
 20
70.625
 11
15
 21
87.11378765402802
  0
ENDBLK
  5
68
330
66
100
AcDbEntity
  8
0
100
AcDbBlockEnd
  0
BLOCK
  5
6A
330
69
100
AcDbEntity
  8
0
100
AcDbBlockBegin
  2
*D10
 70
    1
 10
0
 20
0
  3
*D10
  1

  0
LINE
  5
AB
100
AcDbEntity
  8
Quote
  6
ByBlock
 62
    0
370
   -2
100
AcDbLine
 10
95.86631486367844
 20
80
 11
95.86631486367844
 21
0
  0
SOLID
  5
AC
100
AcDbEntity
  8
Quote
  6
ByBlock
 62
    0
370
   -2
100
AcDbTrace
 10
95.86631486367844
 20
80
 30
0
 11
96.28259952145127
 21
77.5
 31
0
 12
95.45003020590561
 22
77.5
 32
0
 13
95.45003020590561
 23
77.5
 33
0
  0
SOLID
  5
AD
100
AcDbEntity
  8
Quote
  6
ByBlock
 62
    0
370
   -2
100
AcDbTrace
 10
95.86631486367844
 20
0
 30
0
 11
95.45003020590561
 21
2.5
 31
0
 12
96.28259952145127
 22
2.5
 32
0
 13
96.28259952145127
 23
2.5
 33
0
  0
MTEXT
  5
AE
100
AcDbEntity
  8
Quote
  6
CONTINUOUS
 62
    0
370
   -2
100
AcDbMText
 10
93.99131486367844
 20
40
 30
0
 40
2.5
 41
3.055555555555556
 71
    5
 72
    1
  1
80
  7
standard
210
0
220
0
230
1
 50
90
 73
    2
 44
1
  0
LINE
  5
AF
100
AcDbEntity
  8
Quote
  6
ByBlock
 62
    0
370
   -2
100
AcDbLine
 10
80.625
 20
80
 11
97.11631486367844
 21
80
  0
LINE
  5
B0
100
AcDbEntity
  8
Quote
  6
ByBlock
 62
    0
370
   -2
100
AcDbLine
 10
80.625
 20
0
 11
97.11631486367844
 21
0
  0
ENDBLK
  5
6B
330
69
100
AcDbEntity
  8
0
100
AcDbBlockEnd
  0
BLOCK
  5
6D
330
6C
100
AcDbEntity
  8
0
100
AcDbBlockBegin
  2
*D13
 70
    1
 10
0
 20
0
  3
*D13
  1

  0
LINE
  5
B1
100
AcDbEntity
  8
Quote
  6
CONTINUOUS
 62
    7
370
    0
100
AcDbLine
 10
61.36688345447107
 20
61.46865274709872
 11
53.8359558000252
 21
54.24303297053579
  0
SOLID
  5
B2
100
AcDbEntity
  8
Quote
  6
CONTINUOUS
 62
    7
370
    0
100
AcDbTrace
 10
61.36688345447107
 20
61.46865274709872
 30
0
 11
59.8511339403821
 21
59.43744711328513
 31
0
 12
59.27472220708665
 22
60.03821427193109
 32
0
 13
59.27472220708665
 23
60.03821427193109
 33
0
  0
ENDBLK
  5
6E
330
6C
100
AcDbEntity
  8
0
100
AcDbBlockEnd
  0
BLOCK
  5
70
330
6F
100
AcDbEntity
  8
0
100
AcDbBlockBegin
  2
*D14
 70
    1
 10
0
 20
0
  3
*D14
  1

  0
LINE
  5
B3
100
AcDbEntity
  8
Quote
  6
CONTINUOUS
 62
    7
370
    0
100
AcDbLine
 10
68.592503231034
 20
68.49073393840635
 11
72.66327493613987
 21
72.45973635088458
  0
SOLID
  5
B4
100
AcDbEntity
  8
Quote
  6
CONTINUOUS
 62
    7
370
    0
100
AcDbTrace
 10
68.592503231034
 20
68.49073393840635
 30
0
 11
70.09189520382424
 21
70.53404415181724
 31
0
 12
70.67311195634396
 22
69.93792440564317
 32
0
 13
70.67311195634396
 23
69.93792440564317
 33
0
  0
ENDBLK
  5
71
330
6F
100
AcDbEntity
  8
0
100
AcDbBlockEnd
  0
BLOCK
  5
73
330
72
100
AcDbEntity
  8
0
100
AcDbBlockBegin
  2
*D7
 70
    1
 10
0
 20
0
  3
*D7
  1

  0
LINE
  5
B5
100
AcDbEntity
  8
Quote
  6
ByBlock
 62
    0
370
   -2
100
AcDbLine
 10
90
 20
65
 11
90
 21
40
  0
SOLID
  5
B6
100
AcDbEntity
  8
Quote
  6
ByBlock
 62
    0
370
   -2
100
AcDbTrace
 10
90
 20
65
 30
0
 11
90.41628465777283
 21
62.5
 31
0
 12
89.58371534222717
 22
62.5
 32
0
 13
89.58371534222717
 23
62.5
 33
0
  0
SOLID
  5
B7
100
AcDbEntity
  8
Quote
  6
ByBlock
 62
    0
370
   -2
100
AcDbTrace
 10
90
 20
40
 30
0
 11
89.58371534222717
 21
42.5
 31
0
 12
90.41628465777283
 22
42.5
 32
0
 13
90.41628465777283
 23
42.5
 33
0
  0
MTEXT
  5
B8
100
AcDbEntity
  8
Quote
  6
CONTINUOUS
 62
    0
370
   -2
100
AcDbMText
 10
88.125
 20
52.5
 30
0
 40
2.5
 41
3.055555555555711
 71
    5
 72
    1
  1
25
  7
standard
210
0
220
0
230
1
 50
90
 73
    2
 44
1
  0
LINE
  5
B9
100
AcDbEntity
  8
Quote
  6
ByBlock
 62
    0
370
   -2
100
AcDbLine
 10
73.625
 20
65
 11
91.25
 21
65
  0
LINE
  5
BA
100
AcDbEntity
  8
Quote
  6
ByBlock
 62
    0
370
   -2
100
AcDbLine
 10
73.625
 20
40
 11
91.25
 21
40
  0
ENDBLK
  5
74
330
72
100
AcDbEntity
  8
0
100
AcDbBlockEnd
  0
BLOCK
  5
76
330
75
100
AcDbEntity
  8
0
100
AcDbBlockBegin
  2
*D9
 70
    1
 10
0
 20
0
  3
*D9
  1

  0
LINE
  5
BB
100
AcDbEntity
  8
Quote
  6
ByBlock
 62
    0
370
   -2
100
AcDbLine
 10
90
 20
15
 11
90
 21
0
  0
SOLID
  5
BC
100
AcDbEntity
  8
Quote
  6
ByBlock
 62
    0
370
   -2
100
AcDbTrace
 10
90
 20
15
 30
0
 11
90.41628465777283
 21
12.5
 31
0
 12
89.58371534222717
 22
12.5
 32
0
 13
89.58371534222717
 23
12.5
 33
0
  0
SOLID
  5
BD
100
AcDbEntity
  8
Quote
  6
ByBlock
 62
    0
370
   -2
100
AcDbTrace
 10
90
 20
0
 30
0
 11
89.58371534222717
 21
2.5
 31
0
 12
90.41628465777283
 22
2.5
 32
0
 13
90.41628465777283
 23
2.5
 33
0
  0
MTEXT
  5
BE
100
AcDbEntity
  8
Quote
  6
CONTINUOUS
 62
    0
370
   -2
100
AcDbMText
 10
88.125
 20
7.500000000000001
 30
0
 40
2.5
 41
2.500000000000155
 71
    5
 72
    1
  1
15
  7
standard
210
0
220
0
230
1
 50
90
 73
    2
 44
1
  0
LINE
  5
BF
100
AcDbEntity
  8
Quote
  6
ByBlock
 62
    0
370
   -2
100
AcDbLine
 10
73.625
 20
15
 11
91.25
 21
15
  0
LINE
  5
C0
100
AcDbEntity
  8
Quote
  6
ByBlock
 62
    0
370
   -2
100
AcDbLine
 10
80.625
 20
0
 11
91.25
 21
0
  0
ENDBLK
  5
77
330
75
100
AcDbEntity
  8
0
100
AcDbBlockEnd
  0
BLOCK
  5
79
330
78
100
AcDbEntity
  8
0
100
AcDbBlockBegin
  2
*D4
 70
    1
 10
0
 20
0
  3
*D4
  1

  0
LINE
  5
C1
100
AcDbEntity
  8
Quote
  6
ByBlock
 62
    0
370
   -2
100
AcDbLine
 10
65.00780562103068
 20
85.86250597337755
 11
80.00780562103068
 21
85.86250597337755
  0
SOLID
  5
C2
100
AcDbEntity
  8
Quote
  6
ByBlock
 62
    0
370
   -2
100
AcDbTrace
 10
65.00780562103068
 20
85.86250597337755
 30
0
 11
67.50780562103068
 21
86.27879063115039
 31
0
 12
67.50780562103068
 22
85.44622131560472
 32
0
 13
67.50780562103068
 23
85.44622131560472
 33
0
  0
SOLID
  5
C3
100
AcDbEntity
  8
Quote
  6
ByBlock
 62
    0
370
   -2
100
AcDbTrace
 10
80.00780562103068
 20
85.86250597337755
 30
0
 11
77.50780562103068
 21
85.44622131560472
 31
0
 12
77.50780562103068
 22
86.27879063115039
 32
0
 13
77.50780562103068
 23
86.27879063115039
 33
0
  0
MTEXT
  5
C4
100
AcDbEntity
  8
Quote
  6
CONTINUOUS
 62
    0
370
   -2
100
AcDbMText
 10
72.50780562103068
 20
87.73750597337755
 30
0
 40
2.5
 41
2.500000000000155
 71
    5
 72
    1
  1
15
  7
standard
210
0
220
0
230
1
 50
0
 73
    2
 44
1
  0
LINE
  5
C5
100
AcDbEntity
  8
Quote
  6
ByBlock
 62
    0
370
   -2
100
AcDbLine
 10
65.00780562103068
 20
70.77330679958304
 11
65.00780562103068
 21
87.11250597337755
  0
LINE
  5
C6
100
AcDbEntity
  8
Quote
  6
ByBlock
 62
    0
370
   -2
100
AcDbLine
 10
80.00780562103068
 20
80.77330679958304
 11
80.00780562103068
 21
87.11250597337755
  0
ENDBLK
  5
7A
330
78
100
AcDbEntity
  8
0
100
AcDbBlockEnd
  0
ENDSEC
  0
SECTION
  2
ENTITIES
  0
LINE
  5
C7
100
AcDbEntity
  8
Geometria
  6
ByLayer
 62
  256
370
   -1
100
AcDbLine
 10
0
 20
80
 11
80
 21
80
  0
LINE
  5
C8
100
AcDbEntity
  8
Geometria
  6
ByLayer
 62
  256
370
   -1
100
AcDbLine
 10
80
 20
80
 11
80
 21
0
  0
LINE
  5
C9
100
AcDbEntity
  8
Geometria
  6
ByLayer
 62
  256
370
   -1
100
AcDbLine
 10
80
 20
0
 11
50
 21
0
  0
LINE
  5
CA
100
AcDbEntity
  8
Geometria
  6
ByLayer
 62
  256
370
   -1
100
AcDbLine
 10
50
 20
0
 11
0
 21
50
  0
LINE
  5
CB
100
AcDbEntity
  8
Geometria
  6
ByLayer
 62
  256
370
   -1
100
AcDbLine
 10
0
 20
50
 11
0
 21
80
  0
CIRCLE
  5
CC
100
AcDbEntity
  8
Geometria
  6
ByLayer
 62
  256
370
   -1
100
AcDbCircle
 10
15
 20
65
 40
5
  0
CIRCLE
  5
CD
100
AcDbEntity
  8
Geometria
  6
ByLayer
 62
  256
370
   -1
100
AcDbCircle
 10
40
 20
65
 40
5
  0
CIRCLE
  5
CE
100
AcDbEntity
  8
Geometria
  6
ByLayer
 62
  256
370
   -1
100
AcDbCircle
 10
65
 20
65
 40
5
  0
CIRCLE
  5
CF
100
AcDbEntity
  8
Geometria
  6
ByLayer
 62
  256
370
   -1
100
AcDbCircle
 10
65
 20
40
 40
5
  0
CIRCLE
  5
D0
100
AcDbEntity
  8
Geometria
  6
ByLayer
 62
  256
370
   -1
100
AcDbCircle
 10
65
 20
15
 40
5
  0
LINE
  5
D1
100
AcDbEntity
  8
Assi
  6
ByLayer
 62
  256
370
   -1
100
AcDbLine
 10
15
 20
65
 11
23
 21
65
  0
LINE
  5
D2
100
AcDbEntity
  8
Assi
  6
ByLayer
 62
  256
370
   -1
100
AcDbLine
 10
15
 20
65
 11
7
 21
65
  0
LINE
  5
D3
100
AcDbEntity
  8
Assi
  6
ByLayer
 62
  256
370
   -1
100
AcDbLine
 10
15
 20
65
 11
15
 21
73
  0
LINE
  5
D4
100
AcDbEntity
  8
Assi
  6
ByLayer
 62
  256
370
   -1
100
AcDbLine
 10
15
 20
65
 11
15
 21
57
  0
LINE
  5
D5
100
AcDbEntity
  8
Assi
  6
ByLayer
 62
  256
370
   -1
100
AcDbLine
 10
40
 20
65
 11
40
 21
73
  0
LINE
  5
D6
100
AcDbEntity
  8
Assi
  6
ByLayer
 62
  256
370
   -1
100
AcDbLine
 10
40
 20
65
 11
40
 21
57
  0
LINE
  5
D7
100
AcDbEntity
  8
Assi
  6
ByLayer
 62
  256
370
   -1
100
AcDbLine
 10
40
 20
65
 11
32
 21
65
  0
LINE
  5
D8
100
AcDbEntity
  8
Assi
  6
ByLayer
 62
  256
370
   -1
100
AcDbLine
 10
40
 20
65
 11
48
 21
65
  0
LINE
  5
D9
100
AcDbEntity
  8
Assi
  6
ByLayer
 62
  256
370
   -1
100
AcDbLine
 10
65
 20
65
 11
73
 21
65
  0
LINE
  5
DA
100
AcDbEntity
  8
Assi
  6
ByLayer
 62
  256
370
   -1
100
AcDbLine
 10
65
 20
65
 11
57
 21
65
  0
LINE
  5
DB
100
AcDbEntity
  8
Assi
  6
ByLayer
 62
  256
370
   -1
100
AcDbLine
 10
65
 20
65
 11
65
 21
73
  0
LINE
  5
DC
100
AcDbEntity
  8
Assi
  6
ByLayer
 62
  256
370
   -1
100
AcDbLine
 10
65
 20
65
 11
65
 21
57
  0
LINE
  5
DD
100
AcDbEntity
  8
Assi
  6
ByLayer
 62
  256
370
   -1
100
AcDbLine
 10
65
 20
40
 11
65
 21
48
  0
LINE
  5
DE
100
AcDbEntity
  8
Assi
  6
ByLayer
 62
  256
370
   -1
100
AcDbLine
 10
65
 20
40
 11
65
 21
32
  0
LINE
  5
DF
100
AcDbEntity
  8
Assi
  6
ByLayer
 62
  256
370
   -1
100
AcDbLine
 10
65
 20
40
 11
57
 21
40
  0
LINE
  5
E0
100
AcDbEntity
  8
Assi
  6
ByLayer
 62
  256
370
   -1
100
AcDbLine
 10
65
 20
40
 11
73
 21
40
  0
LINE
  5
E1
100
AcDbEntity
  8
Assi
  6
ByLayer
 62
  256
370
   -1
100
AcDbLine
 10
65
 20
15
 11
65
 21
23
  0
LINE
  5
E2
100
AcDbEntity
  8
Assi
  6
ByLayer
 62
  256
370
   -1
100
AcDbLine
 10
65
 20
15
 11
65
 21
7
  0
LINE
  5
E3
100
AcDbEntity
  8
Assi
  6
ByLayer
 62
  256
370
   -1
100
AcDbLine
 10
65
 20
15
 11
73
 21
15
  0
LINE
  5
E4
100
AcDbEntity
  8
Assi
  6
ByLayer
 62
  256
370
   -1
100
AcDbLine
 10
65
 20
15
 11
57
 21
15
  0
DIMENSION
  5
E5
100
AcDbEntity
  8
Quote
  6
ByLayer
 62
  256
370
   -1
100
AcDbDimension
  2
*D1
 10
15
 20
85.86378765402802
 30
0
 11
7.5
 21
87.73878765402802
 31
0
 70
   32
 71
    5
 72
    0
  3
Standard
 53
0
210
0
220
0
230
1
100
AcDbAlignedDimension
 13
0
 23
80
 33
0
 14
15
 24
70
 34
0
100
AcDbRotatedDimension
  0
DIMENSION
  5
E6
100
AcDbEntity
  8
Quote
  6
ByLayer
 62
  256
370
   -1
100
AcDbDimension
  2
*D2
 10
40
 20
85.86378765402802
 30
0
 11
27.5
 21
87.73878765402802
 31
0
 70
   32
 71
    5
 72
    0
  3
Standard
 53
0
210
0
220
0
230
1
100
AcDbAlignedDimension
 13
15
 23
70
 33
0
 14
40
 24
70
 34
0
100
AcDbRotatedDimension
  0
DIMENSION
  5
E7
100
AcDbEntity
  8
Quote
  6
ByLayer
 62
  256
370
   -1
100
AcDbDimension
  2
*D3
 10
65
 20
85.86378765402802
 30
0
 11
52.5
 21
87.73878765402802
 31
0
 70
   32
 71
    5
 72
    0
  3
Standard
 53
0
210
0
220
0
230
1
100
AcDbAlignedDimension
 13
40
 23
70
 33
0
 14
65
 24
70
 34
0
100
AcDbRotatedDimension
  0
DIMENSION
  5
E8
100
AcDbEntity
  8
Quote
  6
ByLayer
 62
  256
370
   -1
100
AcDbDimension
  2
*D4
 10
80.00780562103068
 20
85.86250597337755
 30
0
 11
72.50780562103068
 21
87.73750597337755
 31
0
 70
   32
 71
    5
 72
    0
  3
Standard
 53
0
210
0
220
0
230
1
100
AcDbAlignedDimension
 13
65.00780562103068
 23
70.14830679958304
 33
0
 14
80.00780562103068
 24
80.14830679958304
 34
0
100
AcDbRotatedDimension
  0
DIMENSION
  5
E9
100
AcDbEntity
  8
Quote
  6
ByLayer
 62
  256
370
   -1
100
AcDbDimension
  2
*D5
 10
80
 20
90.14351407350978
 30
0
 11
40
 21
92.01851407350978
 31
0
 70
   32
 71
    5
 72
    0
  3
Standard
 53
0
210
0
220
0
230
1
100
AcDbAlignedDimension
 13
0
 23
80
 33
0
 14
80
 24
80
 34
0
100
AcDbRotatedDimension
  0
DIMENSION
  5
EA
100
AcDbEntity
  8
Quote
  6
ByLayer
 62
  256
370
   -1
100
AcDbDimension
  2
*D6
 10
90
 20
65
 30
0
 11
88.125
 21
72.5
 31
0
 70
   32
 71
    5
 72
    0
  3
Standard
 53
0
210
0
220
0
230
1
100
AcDbAlignedDimension
 13
80
 23
80
 33
0
 14
73
 24
65
 34
0
 50
90
100
AcDbRotatedDimension
  0
DIMENSION
  5
EB
100
AcDbEntity
  8
Quote
  6
ByLayer
 62
  256
370
   -1
100
AcDbDimension
  2
*D7
 10
90
 20
40
 30
0
 11
88.125
 21
52.5
 31
0
 70
   32
 71
    5
 72
    0
  3
Standard
 53
0
210
0
220
0
230
1
100
AcDbAlignedDimension
 13
73
 23
65
 33
0
 14
73
 24
40
 34
0
 50
90
100
AcDbRotatedDimension
  0
DIMENSION
  5
EC
100
AcDbEntity
  8
Quote
  6
ByLayer
 62
  256
370
   -1
100
AcDbDimension
  2
*D8
 10
90
 20
15
 30
0
 11
88.125
 21
27.5
 31
0
 70
   32
 71
    5
 72
    0
  3
Standard
 53
0
210
0
220
0
230
1
100
AcDbAlignedDimension
 13
73
 23
40
 33
0
 14
73
 24
15
 34
0
 50
90
100
AcDbRotatedDimension
  0
DIMENSION
  5
ED
100
AcDbEntity
  8
Quote
  6
ByLayer
 62
  256
370
   -1
100
AcDbDimension
  2
*D9
 10
90
 20
-1.224646799147353e-15
 30
0
 11
88.125
 21
7.500000000000001
 31
0
 70
   32
 71
    5
 72
    0
  3
Standard
 53
0
210
0
220
0
230
1
100
AcDbAlignedDimension
 13
73
 23
15
 33
0
 14
80
 24
0
 34
0
 50
90
100
AcDbRotatedDimension
  0
DIMENSION
  5
EE
100
AcDbEntity
  8
Quote
  6
ByLayer
 62
  256
370
   -1
100
AcDbDimension
  2
*D10
 10
95.86631486367844
 20
-1.943063171206787e-15
 30
0
 11
93.99131486367844
 21
40
 31
0
 70
   32
 71
    5
 72
    0
  3
Standard
 53
0
210
0
220
0
230
1
100
AcDbAlignedDimension
 13
80
 23
80
 33
0
 14
80
 24
0
 34
0
 50
90
100
AcDbRotatedDimension
  0
DIMENSION
  5
EF
100
AcDbEntity
  8
Quote
  6
ByLayer
 62
  256
370
   -1
100
AcDbDimension
  2
*D11
 10
80
 20
-7.250000000000159
 30
0
 11
65
 21
-5.375000000000159
 31
0
 70
   32
 71
    5
 72
    0
  3
Standard
 53
0
210
0
220
0
230
1
100
AcDbAlignedDimension
 13
50
 23
0
 33
0
 14
80
 24
0
 34
0
100
AcDbRotatedDimension
  0
DIMENSION
  5
F0
100
AcDbEntity
  8
Quote
  6
ByLayer
 62
  256
370
   -1
100
AcDbDimension
  2
*D12
 10
-6.500000000000144
 20
50
 30
0
 11
-8.375000000000142
 21
65
 31
0
 70
   32
 71
    5
 72
    0
  3
Standard
 53
0
210
0
220
0
230
1
100
AcDbAlignedDimension
 13
0
 23
80
 33
0
 14
0
 24
50
 34
0
 50
90
100
AcDbRotatedDimension
  0
LINE
  5
F1
100
AcDbEntity
  8
costruzione
  6
ByLayer
 62
  256
370
   -1
100
AcDbLine
 10
65
 20
65
 11
72.19680400342291
 21
71.94305495702835
  0
LEADER
  5
F2
100
AcDbEntity
  8
Quote
  6
ByLayer
 62
  256
370
   -1
100
AcDbLeader
  3
Standard
 71
    1
 72
    0
 73
    3
 74
    0
 75
    0
 40
1
 41
10
 76
2
 76
2
 10
61.36688345447107
 20
61.46865274709872
 30
0
 10
53.8359558000252
 20
54.24303297053579
 30
0
  0
LEADER
  5
F3
100
AcDbEntity
  8
Quote
  6
ByLayer
 62
  256
370
   -1
100
AcDbLeader
  3
Standard
 71
    1
 72
    0
 73
    3
 74
    0
 75
    0
 40
1
 41
10
 76
2
 76
2
 10
68.592503231034
 20
68.49073393840635
 30
0
 10
72.66327493613987
 20
72.45973635088458
 30
0
  0
LINE
  5
F4
100
AcDbEntity
  8
Quote
  6
ByLayer
 62
  256
370
   -1
100
AcDbLine
 10
61.46865274709872
 20
61.67219133235401
 11
68.592503231034
 21
68.49073393840635
  0
MTEXT
  5
F5
100
AcDbEntity
  8
Quote
  6
ByLayer
 62
  256
370
   -1
100
AcDbMText
 10
52.00410853272756
 20
57.70318891987579
 30
0
 40
2.5
 41
5
 71
    1
 72
    1
  1
%%C10
  7
standard
210
0
220
0
230
1
 50
45
 73
    2
 44
1
  0
ENDSEC
  0
SECTION
  2
OBJECTS
  0
DICTIONARY
  5
C
330
0
100
AcDbDictionary
281
    1
  3
ACAD_GROUP
350
D
  0
DICTIONARY
  5
D
330
C
100
AcDbDictionary
281
    1
  0
ENDSEC
  0
EOF
