999
dxfrw 0.6.3
  0
SECTION
  2
HEADER
  9
$ACADVER
  1
AC1021
  9
$DWGCODEPAGE
  3
ANSI_1252
  9
$INSBASE
 10
0
 20
0
 30
0
  9
$EXTMIN
 10
-0.9326241911820887
 20
-1.330036617915218
 30
0
  9
$EXTMAX
 10
7.018078580604463
 20
15.31589384927813
 30
0
  9
$LIMMIN
 10
0
 20
0
  9
$LIMMAX
 10
420
 20
297
  9
$ORTHOMODE
 70
    0
  9
$REGENMODE
 70
    1
  9
$FILLMODE
 70
    1
  9
$QTEXTMODE
 70
    0
  9
$MIRRTEXT
 70
    0
  9
$LTSCALE
 40
1
  9
$ATTMODE
 70
    0
  9
$TEXTSIZE
 40
2.5
  9
$TRACEWID
 40
15.68
  9
$TEXTSTYLE
  7
STANDARD
  9
$CLAYER
  8
Tape dispenser
  9
$CELTYPE
  6
BYLAYER
  9
$CECOLOR
 62
  256
  9
$CELTSCALE
 40
1
  9
$DISPSILH
 70
    0
  9
$DIMSCALE
 40
1
  9
$DIMASZ
 40
0.1
  9
$DIMEXO
 40
0.025
  9
$DIMDLI
 40
3.75
  9
$DIMRND
 40
0
  9
$DIMDLE
 40
0
  9
$DIMEXE
 40
0.05
  9
$DIMTP
 40
0
  9
$DIMTM
 40
0
  9
$DIMTXT
 40
0.1
  9
$DIMCEN
 40
2.5
  9
$DIMTSZ
 40
0
  9
$DIMTOL
 70
    0
  9
$DIMLIM
 70
    0
  9
$DIMTIH
 70
    0
  9
$DIMTOH
 70
    0
  9
$DIMSE1
 70
    0
  9
$DIMSE2
 70
    0
  9
$DIMTAD
 70
    1
  9
$DIMZIN
 70
    1
  9
$DIMBLK
  1

  9
$DIMASO
 70
    1
  9
$DIMSHO
 70
    1
  9
$DIMPOST
  1

  9
$DIMAPOST
  1

  9
$DIMALT
 70
    0
  9
$DIMALTD
 70
    3
  9
$DIMALTF
 40
0.03937
  9
$DIMLFAC
 40
1
  9
$DIMTOFL
 70
    1
  9
$DIMTVP
 40
0
  9
$DIMTIX
 70
    0
  9
$DIMSOXD
 70
    0
  9
$DIMSAH
 70
    0
  9
$DIMBLK1
  1

  9
$DIMBLK2
  1

  9
$DIMSTYLE
  2
STANDARD
  9
$DIMCLRD
 70
    0
  9
$DIMCLRE
 70
    0
  9
$DIMCLRT
 70
    0
  9
$DIMTFAC
 40
1
  9
$DIMGAP
 40
0.025
  9
$DIMJUST
 70
    0
  9
$DIMSD1
 70
    0
  9
$DIMSD2
 70
    0
  9
$DIMTOLJ
 70
    0
  9
$DIMTZIN
 70
    8
  9
$DIMALTZ
 70
    0
  9
$DIMALTTZ
 70
    0
  9
$DIMUPT
 70
    0
  9
$DIMDEC
 70
    4
  9
$DIMTDEC
 70
    2
  9
$DIMALTU
 70
    2
  9
$DIMALTTD
 70
    3
  9
$DIMTXSTY
  7
standard
  9
$DIMAUNIT
 70
    0
  9
$DIMADEC
 70
    2
  9
$DIMALTRND
 40
0
  9
$DIMAZIN
 70
    0
  9
$DIMDSEP
 70
    0
  9
$DIMATFIT
 70
    3
  9
$DIMFRAC
 70
    0
  9
$DIMLDRBLK
  1
STANDARD
  9
$DIMLUNIT
 70
    2
  9
$DIMLWD
 70
   -2
  9
$DIMLWE
 70
   -2
  9
$DIMTMOVE
 70
    0
  9
$DIMFXL
 40
0.04
  9
$DIMFXLON
 70
    0
  9
$DIMJOGANG
 40
0.7854
  9
$DIMTFILL
 70
    0
  9
$DIMTFILLCLR
 70
    0
  9
$DIMARCSYM
 70
    0
  9
$DIMLTYPE
  6

  9
$DIMLTEX1
  6

  9
$DIMLTEX2
  6

  9
$LUNITS
 70
    2
  9
$LUPREC
 70
    4
  9
$SKETCHINC
 40
1
  9
$FILLETRAD
 40
0
  9
$AUNITS
 70
    0
  9
$AUPREC
 70
    2
  9
$MENU
  1
.
  9
$ELEVATION
 40
0
  9
$PELEVATION
 40
0
  9
$THICKNESS
 40
0
  9
$LIMCHECK
 70
    0
  9
$CHAMFERA
 40
0
  9
$CHAMFERB
 40
0
  9
$CHAMFERC
 40
0
  9
$CHAMFERD
 40
0
  9
$SKPOLY
 70
    0
  9
$USRTIMER
 70
    1
  9
$ANGBASE
 50
0
  9
$ANGDIR
 70
    0
  9
$PDMODE
 70
   34
  9
$PDSIZE
 40
0
  9
$PLINEWID
 40
0
  9
$SPLFRAME
 70
    0
  9
$SPLINETYPE
 70
    2
  9
$SPLINESEGS
 70
    8
  9
$HANDSEED
  5
20000
  9
$SURFTAB1
 70
    6
  9
$SURFTAB2
 70
    6
  9
$SURFTYPE
 70
    6
  9
$SURFU
 70
    6
  9
$SURFV
 70
    6
  9
$UCSBASE
  2

  9
$UCSNAME
  2

  9
$UCSORG
 10
0
 20
0
 30
0
  9
$UCSXDIR
 10
1
 20
0
 30
0
  9
$UCSYDIR
 10
0
 20
1
 30
0
  9
$UCSORTHOREF
  2

  9
$UCSORTHOVIEW
 70
    0
  9
$UCSORGTOP
 10
0
 20
0
 30
0
  9
$UCSORGBOTTOM
 10
0
 20
0
 30
0
  9
$UCSORGLEFT
 10
0
 20
0
 30
0
  9
$UCSORGRIGHT
 10
0
 20
0
 30
0
  9
$UCSORGFRONT
 10
0
 20
0
 30
0
  9
$UCSORGBACK
 10
0
 20
0
 30
0
  9
$PUCSBASE
  2

  9
$PUCSNAME
  2

  9
$PUCSORG
 10
0
 20
0
 30
0
  9
$PUCSXDIR
 10
1
 20
0
 30
0
  9
$PUCSYDIR
 10
0
 20
1
 30
0
  9
$PUCSORTHOREF
  2

  9
$PUCSORTHOVIEW
 70
    0
  9
$PUCSORGTOP
 10
0
 20
0
 30
0
  9
$PUCSORGBOTTOM
 10
0
 20
0
 30
0
  9
$PUCSORGLEFT
 10
0
 20
0
 30
0
  9
$PUCSORGRIGHT
 10
0
 20
0
 30
0
  9
$PUCSORGFRONT
 10
0
 20
0
 30
0
  9
$PUCSORGBACK
 10
0
 20
0
 30
0
  9
$USERI1
 70
    0
  9
$USERI2
 70
    0
  9
$USERI3
 70
    0
  9
$USERI4
 70
    0
  9
$USERI5
 70
    0
  9
$USERR1
 40
0
  9
$USERR2
 40
0
  9
$USERR3
 40
0
  9
$USERR4
 40
0
  9
$USERR5
 40
0
  9
$WORLDVIEW
 70
    1
  9
$SHADEDGE
 70
    3
  9
$SHADEDIF
 70
   70
  9
$TILEMODE
 70
    1
  9
$MAXACTVP
 70
   64
  9
$PINSBASE
 10
0
 20
0
 30
0
  9
$PLIMCHECK
 70
    0
  9
$PEXTMIN
 10
0
 20
0
 30
0
  9
$PEXTMAX
 10
0
 20
0
 30
0
  9
$GRIDMODE
 70
    1
  9
$SNAPSTYLE
 70
    0
  9
$GRIDUNIT
 10
0
 20
0
  9
$PLIMMIN
 10
0
 20
0
  9
$PLIMMAX
 10
11
 20
8.5
  9
$UNITMODE
 70
    0
  9
$VISRETAIN
 70
    1
  9
$PLINEGEN
 70
    0
  9
$PSLTSCALE
 70
    1
  9
$TREEDEPTH
 70
 3020
  9
$CMLSTYLE
  2
Standard
  9
$CMLJUST
 70
    0
  9
$CMLSCALE
 40
20
  9
$PROXYGRAPHICS
 70
    1
  9
$MEASUREMENT
 70
    1
  9
$CELWEIGHT
370
   -1
  9
$ENDCAPS
280
    0
  9
$JOINSTYLE
280
    0
  9
$LWDISPLAY
290
    0
  9
$INSUNITS
 70
    1
  9
$HYPERLINKBASE
  1

  9
$STYLESHEET
  1

  9
$XEDIT
290
    1
  9
$CEPSNTYPE
380
    0
  9
$PSTYLEMODE
290
    1
  9
$EXTNAMES
290
    1
  9
$PSVPSCALE
 40
1
  9
$OLESTARTUP
290
    0
  9
$SORTENTS
280
  127
  9
$INDEXCTL
280
    0
  9
$HIDETEXT
280
    1
  9
$XCLIPFRAME
290
    0
  9
$HALOGAP
280
    0
  9
$OBSCOLOR
 70
  257
  9
$OBSLTYPE
280
    0
  9
$INTERSECTIONDISPLAY
280
    0
  9
$INTERSECTIONCOLOR
 70
  257
  9
$DIMASSOC
280
    1
  9
$PROJECTNAME
  1

  9
$CAMERADISPLAY
290
    0
  9
$LENSLENGTH
 40
50
  9
$CAMERAHEIGHT
 40
0
  9
$STEPSPERSEC
 40
2
  9
$STEPSIZE
 40
50
  9
$3DDWFPREC
 40
2
  9
$PSOLWIDTH
 40
5
  9
$PSOLHEIGHT
 40
80
  9
$LOFTANG1
 40
1.570796326794897
  9
$LOFTANG2
 40
1.570796326794897
  9
$LOFTMAG1
 40
0
  9
$LOFTMAG2
 40
0
  9
$LOFTPARAM
 70
    7
  9
$LOFTNORMALS
280
    1
  9
$LATITUDE
 40
1
  9
$LONGITUDE
 40
1
  9
$NORTHDIRECTION
 40
0
  9
$TIMEZONE
 70
-8000
  9
$LIGHTGLYPHDISPLAY
280
    1
  9
$TILEMODELIGHTSYNCH
280
    1
  9
$SOLIDHIST
280
    1
  9
$SHOWHIST
280
    1
  9
$DWFFRAME
280
    2
  9
$DGNFRAME
280
    0
  9
$REALWORLDSCALE
290
    1
  9
$INTERFERECOLOR
 62
    1
  9
$CSHADOW
280
    0
  9
$SHADOWPLANELOCATION
 40
0
  0
ENDSEC
  0
SECTION
  2
CLASSES
  0
ENDSEC
  0
SECTION
  2
TABLES
  0
TABLE
  2
VPORT
  5
8
330
0
100
AcDbSymbolTable
 70
    1
  0
VPORT
  5
31
330
2
100
AcDbSymbolTableRecord
100
AcDbViewportTableRecord
  2
*ACTIVE
 70
    0
 10
0
 20
0
 11
1
 21
1
 12
4.402370261307478
 22
2.427548140543662
 13
0
 23
0
 14
10
 24
10
 15
10
 25
10
 16
0
 26
0
 36
1
 17
0
 27
0
 37
0
 40
6.291330550733736
 41
1.74317617866005
 42
50
 43
0
 44
0
 50
0
 51
0
 71
    0
 72
  100
 73
    1
 74
    3
 75
    0
 76
    1
 77
    0
 78
    0
281
    0
 65
    1
110
0
120
0
130
0
111
1
121
0
131
0
112
0
122
1
132
0
 79
    0
146
0
348
10020
 60
    7
 61
    5
292
1
282
    1
141
0
142
0
 63
  250
421
3358443
  0
ENDTAB
  0
TABLE
  2
LTYPE
  5
5
330
0
100
AcDbSymbolTable
 70
    4
  0
LTYPE
  5
14
330
5
100
AcDbSymbolTableRecord
100
AcDbLinetypeTableRecord
  2
ByBlock
 70
    0
  3

 72
   65
 73
    0
 40
0
  0
LTYPE
  5
15
330
5
100
AcDbSymbolTableRecord
100
AcDbLinetypeTableRecord
  2
ByLayer
 70
    0
  3

 72
   65
 73
    0
 40
0
  0
LTYPE
  5
16
330
5
100
AcDbSymbolTableRecord
100
AcDbLinetypeTableRecord
  2
Continuous
 70
    0
  3
Solid line
 72
   65
 73
    0
 40
0
  0
LTYPE
  5
32
330
5
100
AcDbSymbolTableRecord
100
AcDbLinetypeTableRecord
  2
DOT
 70
    0
  3
Dot . . . . . . . . . . . . . . . . . . . . . .
 72
   65
 73
    2
 40
6.35
 49
0
 74
    0
 49
-6.35
 74
    0
  0
LTYPE
  5
33
330
5
100
AcDbSymbolTableRecord
100
AcDbLinetypeTableRecord
  2
DOTTINY
 70
    0
  3
Dot (.15x) .....................................
 72
   65
 73
    2
 40
0.9525
 49
0
 74
    0
 49
-0.9525
 74
    0
  0
LTYPE
  5
34
330
5
100
AcDbSymbolTableRecord
100
AcDbLinetypeTableRecord
  2
DOT2
 70
    0
  3
Dot (.5x) .....................................
 72
   65
 73
    2
 40
3.175
 49
0
 74
    0
 49
-3.175
 74
    0
  0
LTYPE
  5
35
330
5
100
AcDbSymbolTableRecord
100
AcDbLinetypeTableRecord
  2
DOTX2
 70
    0
  3
Dot (2x) .  .  .  .  .  .  .  .  .  .  .  .  .
 72
   65
 73
    2
 40
12.7
 49
0
 74
    0
 49
-12.7
 74
    0
  0
LTYPE
  5
36
330
5
100
AcDbSymbolTableRecord
100
AcDbLinetypeTableRecord
  2
DASHED
 70
    0
  3
Dashed _ _ _ _ _ _ _ _ _ _ _ _ _ _ _ _ _
 72
   65
 73
    2
 40
19.05
 49
12.7
 74
    0
 49
-6.35
 74
    0
  0
LTYPE
  5
37
330
5
100
AcDbSymbolTableRecord
100
AcDbLinetypeTableRecord
  2
DASHEDTINY
 70
    0
  3
Dashed (.15x) _ _ _ _ _ _ _ _ _ _ _ _ _ _ _ _ _
 72
   65
 73
    2
 40
2.8575
 49
1.905
 74
    0
 49
-0.9525
 74
    0
  0
LTYPE
  5
38
330
5
100
AcDbSymbolTableRecord
100
AcDbLinetypeTableRecord
  2
DASHED2
 70
    0
  3
Dashed (.5x) _ _ _ _ _ _ _ _ _ _ _ _ _ _ _ _ _
 72
   65
 73
    2
 40
9.524999999999999
 49
6.35
 74
    0
 49
-3.175
 74
    0
  0
LTYPE
  5
39
330
5
100
AcDbSymbolTableRecord
100
AcDbLinetypeTableRecord
  2
DASHEDX2
 70
    0
  3
Dashed (2x) ____  ____  ____  ____  ____  ___
 72
   65
 73
    2
 40
38.09999999999999
 49
25.4
 74
    0
 49
-12.7
 74
    0
  0
LTYPE
  5
3A
330
5
100
AcDbSymbolTableRecord
100
AcDbLinetypeTableRecord
  2
DASHDOT
 70
    0
  3
Dash dot __ . __ . __ . __ . __ . __ . __ . __
 72
   65
 73
    4
 40
25.4
 49
12.7
 74
    0
 49
-6.35
 74
    0
 49
0
 74
    0
 49
-6.35
 74
    0
  0
LTYPE
  5
3B
330
5
100
AcDbSymbolTableRecord
100
AcDbLinetypeTableRecord
  2
DASHDOTTINY
 70
    0
  3
Dash dot (.15x) _._._._._._._._._._._._._._._.
 72
   65
 73
    4
 40
3.81
 49
1.905
 74
    0
 49
-0.9525
 74
    0
 49
0
 74
    0
 49
-0.9525
 74
    0
  0
LTYPE
  5
3C
330
5
100
AcDbSymbolTableRecord
100
AcDbLinetypeTableRecord
  2
DASHDOT2
 70
    0
  3
Dash dot (.5x) _._._._._._._._._._._._._._._.
 72
   65
 73
    4
 40
12.7
 49
6.35
 74
    0
 49
-3.175
 74
    0
 49
0
 74
    0
 49
-3.175
 74
    0
  0
LTYPE
  5
3D
330
5
100
AcDbSymbolTableRecord
100
AcDbLinetypeTableRecord
  2
DASHDOTX2
 70
    0
  3
Dash dot (2x) ____  .  ____  .  ____  .  ___
 72
   65
 73
    4
 40
50.8
 49
25.4
 74
    0
 49
-12.7
 74
    0
 49
0
 74
    0
 49
-12.7
 74
    0
  0
LTYPE
  5
3E
330
5
100
AcDbSymbolTableRecord
100
AcDbLinetypeTableRecord
  2
DIVIDE
 70
    0
  3
Divide ____ . . ____ . . ____ . . ____ . . ____
 72
   65
 73
    6
 40
31.75
 49
12.7
 74
    0
 49
-6.35
 74
    0
 49
0
 74
    0
 49
-6.35
 74
    0
 49
0
 74
    0
 49
-6.35
 74
    0
  0
LTYPE
  5
3F
330
5
100
AcDbSymbolTableRecord
100
AcDbLinetypeTableRecord
  2
DIVIDETINY
 70
    0
  3
Divide (.15x) __..__..__..__..__..__..__..__.._
 72
   65
 73
    6
 40
4.7625
 49
1.905
 74
    0
 49
-0.9525
 74
    0
 49
0
 74
    0
 49
-0.9525
 74
    0
 49
0
 74
    0
 49
-0.9525
 74
    0
  0
LTYPE
  5
40
330
5
100
AcDbSymbolTableRecord
100
AcDbLinetypeTableRecord
  2
DIVIDE2
 70
    0
  3
Divide (.5x) __..__..__..__..__..__..__..__.._
 72
   65
 73
    6
 40
15.875
 49
6.35
 74
    0
 49
-3.175
 74
    0
 49
0
 74
    0
 49
-3.175
 74
    0
 49
0
 74
    0
 49
-3.175
 74
    0
  0
LTYPE
  5
41
330
5
100
AcDbSymbolTableRecord
100
AcDbLinetypeTableRecord
  2
DIVIDEX2
 70
    0
  3
Divide (2x) ________  .  .  ________  .  .  _
 72
   65
 73
    6
 40
63.5
 49
25.4
 74
    0
 49
-12.7
 74
    0
 49
0
 74
    0
 49
-12.7
 74
    0
 49
0
 74
    0
 49
-12.7
 74
    0
  0
LTYPE
  5
42
330
5
100
AcDbSymbolTableRecord
100
AcDbLinetypeTableRecord
  2
BORDER
 70
    0
  3
Border __ __ . __ __ . __ __ . __ __ . __ __ .
 72
   65
 73
    6
 40
44.45
 49
12.7
 74
    0
 49
-6.35
 74
    0
 49
12.7
 74
    0
 49
-6.35
 74
    0
 49
0
 74
    0
 49
-6.35
 74
    0
  0
LTYPE
  5
43
330
5
100
AcDbSymbolTableRecord
100
AcDbLinetypeTableRecord
  2
BORDERTINY
 70
    0
  3
Border (.15x) __.__.__.__.__.__.__.__.__.__.__.
 72
   65
 73
    6
 40
6.6675
 49
1.905
 74
    0
 49
-0.9525
 74
    0
 49
1.905
 74
    0
 49
-0.9525
 74
    0
 49
0
 74
    0
 49
-0.9525
 74
    0
  0
LTYPE
  5
44
330
5
100
AcDbSymbolTableRecord
100
AcDbLinetypeTableRecord
  2
BORDER2
 70
    0
  3
Border (.5x) __.__.__.__.__.__.__.__.__.__.__.
 72
   65
 73
    6
 40
22.225
 49
6.35
 74
    0
 49
-3.175
 74
    0
 49
6.35
 74
    0
 49
-3.175
 74
    0
 49
0
 74
    0
 49
-3.175
 74
    0
  0
LTYPE
  5
45
330
5
100
AcDbSymbolTableRecord
100
AcDbLinetypeTableRecord
  2
BORDERX2
 70
    0
  3
Border (2x) ____  ____  .  ____  ____  .  ___
 72
   65
 73
    6
 40
88.89999999999999
 49
25.4
 74
    0
 49
-12.7
 74
    0
 49
25.4
 74
    0
 49
-12.7
 74
    0
 49
0
 74
    0
 49
-12.7
 74
    0
  0
LTYPE
  5
46
330
5
100
AcDbSymbolTableRecord
100
AcDbLinetypeTableRecord
  2
CENTER
 70
    0
  3
Center ____ _ ____ _ ____ _ ____ _ ____ _ ____
 72
   65
 73
    4
 40
50.8
 49
31.75
 74
    0
 49
-6.35
 74
    0
 49
6.35
 74
    0
 49
-6.35
 74
    0
  0
LTYPE
  5
47
330
5
100
AcDbSymbolTableRecord
100
AcDbLinetypeTableRecord
  2
CENTERTINY
 70
    0
  3
Center (.15x) ___ _ ___ _ ___ _ ___ _ ___ _ ___
 72
   65
 73
    4
 40
7.62
 49
4.7625
 74
    0
 49
-0.9525
 74
    0
 49
0.9525
 74
    0
 49
-0.9525
 74
    0
  0
LTYPE
  5
48
330
5
100
AcDbSymbolTableRecord
100
AcDbLinetypeTableRecord
  2
CENTER2
 70
    0
  3
Center (.5x) ___ _ ___ _ ___ _ ___ _ ___ _ ___
 72
   65
 73
    4
 40
28.575
 49
19.05
 74
    0
 49
-3.175
 74
    0
 49
3.175
 74
    0
 49
-3.175
 74
    0
  0
LTYPE
  5
49
330
5
100
AcDbSymbolTableRecord
100
AcDbLinetypeTableRecord
  2
CENTERX2
 70
    0
  3
Center (2x) ________  __  ________  __  _____
 72
   65
 73
    4
 40
101.6
 49
63.5
 74
    0
 49
-12.7
 74
    0
 49
12.7
 74
    0
 49
-12.7
 74
    0
  0
ENDTAB
  0
TABLE
  2
LAYER
  5
2
330
0
100
AcDbSymbolTable
 70
    1
  0
LAYER
  5
10
330
2
100
AcDbSymbolTableRecord
100
AcDbLayerTableRecord
  2
0
 70
    0
 62
    7
  6
CONTINUOUS
370
    0
390
F
  0
LAYER
  5
4A
330
2
100
AcDbSymbolTableRecord
100
AcDbLayerTableRecord
  2
Tape dispenser
 70
    0
 62
    7
  6
CONTINUOUS
370
   35
390
F
  0
ENDTAB
  0
TABLE
  2
STYLE
  5
3
330
0
100
AcDbSymbolTable
 70
    3
  0
STYLE
  5
4B
330
2
100
AcDbSymbolTableRecord
100
AcDbTextStyleTableRecord
  2
Standard
 70
    0
 40
0
 41
1
 50
0
 71
    0
 42
1
  3
txt
  4

  0
ENDTAB
  0
TABLE
  2
VIEW
  5
6
330
0
100
AcDbSymbolTable
 70
    0
  0
ENDTAB
  0
TABLE
  2
UCS
  5
7
330
0
100
AcDbSymbolTable
 70
    0
  0
ENDTAB
  0
TABLE
  2
APPID
  5
9
330
0
100
AcDbSymbolTable
 70
    1
  0
APPID
  5
12
330
9
100
AcDbSymbolTableRecord
100
AcDbRegAppTableRecord
  2
ACAD
 70
    0
  0
APPID
  5
4C
330
9
100
AcDbSymbolTableRecord
100
AcDbRegAppTableRecord
  2
LibreCad
 70
    0
  0
ENDTAB
  0
TABLE
  2
DIMSTYLE
  5
A
330
0
100
AcDbSymbolTable
 70
    1
100
AcDbDimStyleTable
 71
    1
  0
DIMSTYLE
105
4D
330
A
100
AcDbSymbolTableRecord
100
AcDbDimStyleTableRecord
  2
Standard
 70
    0
 40
1
 41
0.1
 42
0.025
 43
0.38
 44
0.05
 45
0
 46
0
 47
0
 48
0
 49
0.04
140
0.1
141
0.09
142
0
143
25.4
144
1
145
0
146
1
147
0.025
148
0
 71
    0
 72
    0
 73
    0
 74
    1
 75
    0
 76
    0
 77
    0
 78
    1
 79
    0
170
    0
171
    2
172
    0
173
    0
174
    0
175
    0
176
    0
177
    0
178
    0
179
    2
271
    4
272
    4
273
    2
274
    2
275
    0
276
    0
277
    2
278
    0
279
    0
280
    0
281
    0
282
    0
283
    1
284
    0
285
    0
286
    0
288
    0
289
    3
340
standard
341

371
   -2
372
   -2
  0
ENDTAB
  0
TABLE
  2
BLOCK_RECORD
  5
1
330
0
100
AcDbSymbolTable
 70
    2
  0
BLOCK_RECORD
  5
1F
330
1
100
AcDbSymbolTableRecord
100
AcDbBlockTableRecord
  2
*Model_Space
 70
    0
280
    1
281
    0
  0
BLOCK_RECORD
  5
1E
330
1
100
AcDbSymbolTableRecord
100
AcDbBlockTableRecord
  2
*Paper_Space
 70
    0
280
    1
281
    0
  0
BLOCK_RECORD
  5
4E
330
1
100
AcDbSymbolTableRecord
100
AcDbBlockTableRecord
  2
*D9
 70
    0
280
    1
281
    0
  0
BLOCK_RECORD
  5
51
330
1
100
AcDbSymbolTableRecord
100
AcDbBlockTableRecord
  2
*D11
 70
    0
280
    1
281
    0
  0
BLOCK_RECORD
  5
54
330
1
100
AcDbSymbolTableRecord
100
AcDbBlockTableRecord
  2
*D3
 70
    0
280
    1
281
    0
  0
BLOCK_RECORD
  5
57
330
1
100
AcDbSymbolTableRecord
100
AcDbBlockTableRecord
  2
*D2
 70
    0
280
    1
281
    0
  0
BLOCK_RECORD
  5
5A
330
1
100
AcDbSymbolTableRecord
100
AcDbBlockTableRecord
  2
*D8
 70
    0
280
    1
281
    0
  0
BLOCK_RECORD
  5
5D
330
1
100
AcDbSymbolTableRecord
100
AcDbBlockTableRecord
  2
*D1
 70
    0
280
    1
281
    0
  0
BLOCK_RECORD
  5
60
330
1
100
AcDbSymbolTableRecord
100
AcDbBlockTableRecord
  2
*D10
 70
    0
280
    1
281
    0
  0
BLOCK_RECORD
  5
63
330
1
100
AcDbSymbolTableRecord
100
AcDbBlockTableRecord
  2
*D5
 70
    0
280
    1
281
    0
  0
BLOCK_RECORD
  5
66
330
1
100
AcDbSymbolTableRecord
100
AcDbBlockTableRecord
  2
*D6
 70
    0
280
    1
281
    0
  0
BLOCK_RECORD
  5
69
330
1
100
AcDbSymbolTableRecord
100
AcDbBlockTableRecord
  2
*D4
 70
    0
280
    1
281
    0
  0
BLOCK_RECORD
  5
6C
330
1
100
AcDbSymbolTableRecord
100
AcDbBlockTableRecord
  2
*D7
 70
    0
280
    1
281
    0
  0
ENDTAB
  0
ENDSEC
  0
SECTION
  2
BLOCKS
  0
BLOCK
  5
20
330
1F
100
AcDbEntity
  8
0
100
AcDbBlockBegin
  2
*Model_Space
 70
    0
 10
0
 20
0
 30
0
  3
*Model_Space
  1

  0
ENDBLK
  5
21
330
1F
100
AcDbEntity
  8
0
100
AcDbBlockEnd
  0
BLOCK
  5
1C
330
1B
100
AcDbEntity
  8
0
100
AcDbBlockBegin
  2
*Paper_Space
 70
    0
 10
0
 20
0
 30
0
  3
*Paper_Space
  1

  0
ENDBLK
  5
1D
330
1F
100
AcDbEntity
  8
0
100
AcDbBlockEnd
  0
BLOCK
  5
4F
330
4E
100
AcDbEntity
  8
0
100
AcDbBlockBegin
  2
*D9
 70
    1
 10
0
 20
0
  3
*D9
  1

  0
LINE
  5
6F
100
AcDbEntity
  8
Tape dispenser
  6
ByBlock
 62
    0
370
   -2
100
AcDbLine
 10
5.799663825360546
 20
2.892438238842275
 11
6.205826466375692
 21
2.892438238842275
  0
SOLID
  5
70
100
AcDbEntity
  8
Tape dispenser
  6
ByBlock
 62
    0
370
   -2
100
AcDbTrace
 10
5.799663825360546
 20
2.892438238842275
 30
0
 11
5.899663825360546
 21
2.909089625153188
 31
0
 12
5.899663825360546
 22
2.875786852531361
 32
0
 13
5.899663825360546
 23
2.875786852531361
 33
0
  0
SOLID
  5
71
100
AcDbEntity
  8
Tape dispenser
  6
ByBlock
 62
    0
370
   -2
100
AcDbTrace
 10
6.205826466375692
 20
2.892438238842275
 30
0
 11
6.105826466375692
 21
2.875786852531361
 31
0
 12
6.105826466375692
 22
2.909089625153188
 32
0
 13
6.105826466375692
 23
2.909089625153188
 33
0
  0
MTEXT
  5
72
100
AcDbEntity
  8
Tape dispenser
  6
CONTINUOUS
 62
    0
370
   -2
100
AcDbMText
 10
6.002745145868118
 20
2.967438238842275
 30
0
 40
0.1
 41
0.4000000000000061
 71
    5
 72
    1
  1
0.4062
  7
standard
210
0
220
0
230
1
 50
0
 73
    2
 44
1
  0
LINE
  5
73
100
AcDbEntity
  8
Tape dispenser
  6
ByBlock
 62
    0
370
   -2
100
AcDbLine
 10
5.799663825360546
 20
2.610120351657046
 11
5.799663825360546
 21
2.942438238842275
  0
LINE
  5
74
100
AcDbEntity
  8
Tape dispenser
  6
ByBlock
 62
    0
370
   -2
100
AcDbLine
 10
6.205826466375692
 20
2.610120351657046
 11
6.205826466375692
 21
2.942438238842275
  0
ENDBLK
  5
50
330
4E
100
AcDbEntity
  8
0
100
AcDbBlockEnd
  0
BLOCK
  5
52
330
51
100
AcDbEntity
  8
0
100
AcDbBlockBegin
  2
*D11
 70
    1
 10
0
 20
0
  3
*D11
  1

  0
SOLID
  5
75
100
AcDbEntity
  8
Tape dispenser
  6
ByBlock
 62
    0
370
   -2
100
AcDbTrace
 10
5.312090766951219
 20
1.860205268038594
 30
0
 11
5.235417841381843
 21
1.926526691053395
 31
0
 12
5.261045927521562
 22
1.947793469491049
 32
0
 13
5.261045927521562
 23
1.947793469491049
 33
0
  0
LINE
  5
76
100
AcDbEntity
  8
Tape dispenser
  6
ByBlock
 62
    0
370
   -2
100
AcDbLine
 10
4.354207529458467
 20
3.01452745154301
 11
5.312090766951219
 21
1.860205268038594
  0
MTEXT
  5
77
100
AcDbEntity
  8
Tape dispenser
  6
CONTINUOUS
 62
    0
370
   -2
100
AcDbMText
 10
4.890865257380064
 20
2.48526052166544
 30
0
 40
0.1
 41
0.3666666666666729
 71
    5
 72
    1
  1
1.5000
  7
standard
210
0
220
0
230
1
 50
309.6866720407854
 73
    2
 44
1
  0
ENDBLK
  5
53
330
51
100
AcDbEntity
  8
0
100
AcDbBlockEnd
  0
BLOCK
  5
55
330
54
100
AcDbEntity
  8
0
100
AcDbBlockBegin
  2
*D3
 70
    1
 10
0
 20
0
  3
*D3
  1

  0
LINE
  5
78
100
AcDbEntity
  8
Tape dispenser
  6
ByBlock
 62
    0
370
   -2
100
AcDbLine
 10
5.948603221872427
 20
0.9823655794440088
 11
6.449677599772716
 21
0.8940126472784785
  0
LINE
  5
79
100
AcDbEntity
  8
Tape dispenser
  6
ByBlock
 62
    0
370
   -2
100
AcDbLine
 10
6.230446660200997
 20
2.580779147215373
 11
6.731521038101286
 21
2.492426215049842
  0
LINE
  5
7A
100
AcDbEntity
  8
Tape dispenser
  6
ByBlock
 62
    0
370
   -2
100
AcDbLine
 10
6.400437212122106
 20
0.902695056161825
 11
6.682280650450676
 21
2.501108623933189
  0
SOLID
  5
7B
100
AcDbEntity
  8
Tape dispenser
  6
ByBlock
 62
    0
370
   -2
100
AcDbTrace
 10
6.400437212122106
 20
0.902695056161825
 30
0
 11
6.40140361555141
 21
1.004067314351564
 31
0
 12
6.434200444226188
 22
0.9982843485745276
 32
0
 13
6.434200444226188
 23
0.9982843485745276
 33
0
  0
SOLID
  5
7C
100
AcDbEntity
  8
Tape dispenser
  6
ByBlock
 62
    0
370
   -2
100
AcDbTrace
 10
6.682280650450676
 20
2.501108623933189
 30
0
 11
6.681314247021372
 21
2.39973636574345
 31
0
 12
6.648517418346594
 22
2.405519331520487
 32
0
 13
6.648517418346594
 23
2.405519331520487
 33
0
  0
MTEXT
  5
7D
100
AcDbEntity
  8
Tape dispenser
  6
CONTINUOUS
 62
    0
370
   -2
100
AcDbMText
 10
6.467498349810476
 20
1.714925453372527
 30
0
 40
0.1
 41
0.3444444444444569
 71
    5
 72
    1
  1
1.6231
  7
standard
210
0
220
0
230
1
 50
80
 73
    2
 44
1
  0
ENDBLK
  5
56
330
54
100
AcDbEntity
  8
0
100
AcDbBlockEnd
  0
BLOCK
  5
58
330
57
100
AcDbEntity
  8
0
100
AcDbBlockBegin
  2
*D2
 70
    1
 10
0
 20
0
  3
*D2
  1

  0
LINE
  5
7E
100
AcDbEntity
  8
Tape dispenser
  6
ByBlock
 62
    0
370
   -2
100
AcDbLine
 10
-0.1765623492838694
 20
0.8573655794440087
 11
-0.4650136713359733
 21
0.8065038287451963
  0
LINE
  5
7F
100
AcDbEntity
  8
Tape dispenser
  6
ByBlock
 62
    0
370
   -2
100
AcDbLine
 10
-0.02462019382530521
 20
-0.00434120444167324
 11
-0.3130715158774091
 21
-0.05520295514048555
  0
LINE
  5
80
100
AcDbEntity
  8
Tape dispenser
  6
ByBlock
 62
    0
370
   -2
100
AcDbLine
 10
-0.4157732836853629
 20
0.8151862376285428
 11
-0.2638311282267987
 21
-0.04652054625713907
  0
SOLID
  5
81
100
AcDbEntity
  8
Tape dispenser
  6
ByBlock
 62
    0
370
   -2
100
AcDbTrace
 10
-0.4157732836853629
 20
0.8151862376285428
 30
0
 11
-0.3820100515812808
 21
0.7195969452158402
 31
0
 12
-0.4148068802560589
 22
0.7138139794388038
 32
0
 13
-0.4148068802560589
 23
0.7138139794388038
 33
0
  0
SOLID
  5
82
100
AcDbEntity
  8
Tape dispenser
  6
ByBlock
 62
    0
370
   -2
100
AcDbTrace
 10
-0.2638311282267987
 20
-0.04652054625713907
 30
0
 11
-0.2975943603308808
 21
0.04906874615556354
 31
0
 12
-0.2647975316561026
 22
0.05485171193259997
 32
0
 13
-0.2647975316561026
 23
0.05485171193259997
 33
0
  0
MTEXT
  5
83
100
AcDbEntity
  8
Tape dispenser
  6
CONTINUOUS
 62
    0
370
   -2
100
AcDbMText
 10
-0.2659416244801652
 20
0.3973564590107216
 30
0
 40
0.1
 41
0.3888888888888951
 71
    5
 72
    1
  1
0.8750
  7
standard
210
0
220
0
230
1
 50
280
 73
    2
 44
1
  0
ENDBLK
  5
59
330
57
100
AcDbEntity
  8
0
100
AcDbBlockEnd
  0
BLOCK
  5
5B
330
5A
100
AcDbEntity
  8
0
100
AcDbBlockBegin
  2
*D8
 70
    1
 10
0
 20
0
  3
*D8
  1

  0
LINE
  5
84
100
AcDbEntity
  8
Tape dispenser
  6
ByBlock
 62
    0
370
   -2
100
AcDbLine
 10
-0.1519421554585643
 20
-1.280036617915218
 11
5.868942155458564
 21
-1.280036617915218
  0
SOLID
  5
85
100
AcDbEntity
  8
Tape dispenser
  6
ByBlock
 62
    0
370
   -2
100
AcDbTrace
 10
-0.1519421554585643
 20
-1.280036617915218
 30
0
 11
-0.05194215545856425
 21
-1.263385231604304
 31
0
 12
-0.05194215545856426
 22
-1.296688004226132
 32
0
 13
-0.05194215545856426
 23
-1.296688004226132
 33
0
  0
SOLID
  5
86
100
AcDbEntity
  8
Tape dispenser
  6
ByBlock
 62
    0
370
   -2
100
AcDbTrace
 10
5.868942155458564
 20
-1.280036617915218
 30
0
 11
5.768942155458564
 21
-1.296688004226132
 31
0
 12
5.768942155458564
 22
-1.263385231604304
 32
0
 13
5.768942155458564
 23
-1.263385231604304
 33
0
  0
MTEXT
  5
87
100
AcDbEntity
  8
Tape dispenser
  6
CONTINUOUS
 62
    0
370
   -2
100
AcDbMText
 10
2.8585
 20
-1.205036617915218
 30
0
 40
0.1
 41
0.3888888888888951
 71
    5
 72
    1
  1
6.0209
  7
standard
210
0
220
0
230
1
 50
0
 73
    2
 44
1
  0
LINE
  5
88
100
AcDbEntity
  8
Tape dispenser
  6
ByBlock
 62
    0
370
   -2
100
AcDbLine
 10
-0.1519421554585642
 20
0.8367067838856819
 11
-0.1519421554585643
 21
-1.330036617915218
  0
LINE
  5
89
100
AcDbEntity
  8
Tape dispenser
  6
ByBlock
 62
    0
370
   -2
100
AcDbLine
 10
5.868942155458564
 20
0.836706783885682
 11
5.868942155458564
 21
-1.330036617915218
  0
ENDBLK
  5
5C
330
5A
100
AcDbEntity
  8
0
100
AcDbBlockEnd
  0
BLOCK
  5
5E
330
5D
100
AcDbEntity
  8
0
100
AcDbBlockBegin
  2
*D1
 70
    1
 10
0
 20
0
  3
*D1
  1

  0
LINE
  5
8A
100
AcDbEntity
  8
Tape dispenser
  6
ByBlock
 62
    0
370
   -2
100
AcDbLine
 10
0.3176736632143395
 20
2.608258504569354
 11
0.04539586126751848
 21
2.691502182504622
  0
LINE
  5
8B
100
AcDbEntity
  8
Tape dispenser
  6
ByBlock
 62
    0
370
   -2
100
AcDbLine
 10
-0.1758497743576401
 20
0.9940160765037503
 11
-0.4481275763044612
 21
1.077259754439018
  0
LINE
  5
8C
100
AcDbEntity
  8
Tape dispenser
  6
ByBlock
 62
    0
370
   -2
100
AcDbLine
 10
0.09321109906567024
 20
2.676883597268485
 11
-0.4003123385063094
 21
1.062641169202881
  0
SOLID
  5
8D
100
AcDbEntity
  8
Tape dispenser
  6
ByBlock
 62
    0
370
   -2
100
AcDbTrace
 10
0.09321109906567024
 20
2.676883597268485
 30
0
 11
0.07989772851590105
 21
2.576384727470463
 31
0
 12
0.04805012867089208
 22
2.5861215158739
 32
0
 13
0.04805012867089208
 23
2.5861215158739
 33
0
  0
SOLID
  5
8E
100
AcDbEntity
  8
Tape dispenser
  6
ByBlock
 62
    0
370
   -2
100
AcDbTrace
 10
-0.4003123385063094
 20
1.062641169202881
 30
0
 11
-0.3869989679565402
 21
1.163140039000904
 31
0
 12
-0.3551513681115312
 22
1.153403250597466
 32
0
 13
-0.3551513681115312
 23
1.153403250597466
 33
0
  0
MTEXT
  5
8F
100
AcDbEntity
  8
Tape dispenser
  6
CONTINUOUS
 62
    0
370
   -2
100
AcDbMText
 10
-0.2252734764175472
 20
1.891690261089889
 30
0
 40
0.1
 41
0.3666666666666729
 71
    5
 72
    1
  1
1.6880
  7
standard
210
0
220
0
230
1
 50
72.99999999999999
 73
    2
 44
1
  0
ENDBLK
  5
5F
330
5D
100
AcDbEntity
  8
0
100
AcDbBlockEnd
  0
BLOCK
  5
61
330
60
100
AcDbEntity
  8
0
100
AcDbBlockBegin
  2
*D10
 70
    1
 10
0
 20
0
  3
*D10
  1

  0
LINE
  5
90
100
AcDbEntity
  8
Tape dispenser
  6
ByBlock
 62
    0
370
   -2
100
AcDbLine
 10
0.341581282113415
 20
4.135967373924174
 11
5.799663825360546
 21
4.135967373924174
  0
SOLID
  5
91
100
AcDbEntity
  8
Tape dispenser
  6
ByBlock
 62
    0
370
   -2
100
AcDbTrace
 10
0.341581282113415
 20
4.135967373924174
 30
0
 11
0.441581282113415
 21
4.152618760235088
 31
0
 12
0.441581282113415
 22
4.119315987613261
 32
0
 13
0.441581282113415
 23
4.119315987613261
 33
0
  0
SOLID
  5
92
100
AcDbEntity
  8
Tape dispenser
  6
ByBlock
 62
    0
370
   -2
100
AcDbTrace
 10
5.799663825360546
 20
4.135967373924174
 30
0
 11
5.699663825360546
 21
4.119315987613261
 31
0
 12
5.699663825360546
 22
4.152618760235088
 32
0
 13
5.699663825360546
 23
4.152618760235088
 33
0
  0
MTEXT
  5
93
100
AcDbEntity
  8
Tape dispenser
  6
CONTINUOUS
 62
    0
370
   -2
100
AcDbMText
 10
3.07062255373698
 20
4.210967373924174
 30
0
 40
0.1
 41
0.3777777777777902
 71
    5
 72
    1
  1
5.4581
  7
standard
210
0
220
0
230
1
 50
0
 73
    2
 44
1
  0
LINE
  5
94
100
AcDbEntity
  8
Tape dispenser
  6
ByBlock
 62
    0
370
   -2
100
AcDbLine
 10
0.3415812821134154
 20
2.625949211951286
 11
0.341581282113415
 21
4.185967373924174
  0
LINE
  5
95
100
AcDbEntity
  8
Tape dispenser
  6
ByBlock
 62
    0
370
   -2
100
AcDbLine
 10
5.799663825360546
 20
2.610120351657046
 11
5.799663825360546
 21
4.185967373924174
  0
ENDBLK
  5
62
330
60
100
AcDbEntity
  8
0
100
AcDbBlockEnd
  0
BLOCK
  5
64
330
63
100
AcDbEntity
  8
0
100
AcDbBlockBegin
  2
*D5
 70
    1
 10
0
 20
0
  3
*D5
  1

  0
LINE
  5
96
100
AcDbEntity
  8
Tape dispenser
  6
ByBlock
 62
    0
370
   -2
100
AcDbLine
 10
-0.8076241911820888
 20
4.440892098500626e-016
 11
-0.8076241911820887
 21
2.600949211951286
  0
SOLID
  5
97
100
AcDbEntity
  8
Tape dispenser
  6
ByBlock
 62
    0
370
   -2
100
AcDbTrace
 10
-0.8076241911820888
 20
4.440892098500626e-016
 30
0
 11
-0.8242755774930024
 21
0.1000000000000004
 31
0
 12
-0.7909728048711752
 22
0.1000000000000004
 32
0
 13
-0.7909728048711752
 23
0.1000000000000004
 33
0
  0
SOLID
  5
98
100
AcDbEntity
  8
Tape dispenser
  6
ByBlock
 62
    0
370
   -2
100
AcDbTrace
 10
-0.8076241911820887
 20
2.600949211951286
 30
0
 11
-0.7909728048711752
 21
2.500949211951286
 31
0
 12
-0.8242755774930024
 22
2.500949211951286
 32
0
 13
-0.8242755774930024
 23
2.500949211951286
 33
0
  0
MTEXT
  5
99
100
AcDbEntity
  8
Tape dispenser
  6
CONTINUOUS
 62
    0
370
   -2
100
AcDbMText
 10
-0.8826241911820887
 20
1.300474605975643
 30
0
 40
0.1
 41
0.3888888888888952
 71
    5
 72
    1
  1
2.6009
  7
standard
210
0
220
0
230
1
 50
90
 73
    2
 44
1
  0
LINE
  5
9A
100
AcDbEntity
  8
Tape dispenser
  6
ByBlock
 62
    0
370
   -2
100
AcDbLine
 10
-0.025
 20
1.416374613080751e-017
 11
-0.8576241911820889
 21
4.724167021116776e-016
  0
LINE
  5
9B
100
AcDbEntity
  8
Tape dispenser
  6
ByBlock
 62
    0
370
   -2
100
AcDbLine
 10
0.3165812821134154
 20
2.600949211951286
 11
-0.8576241911820888
 21
2.600949211951286
  0
ENDBLK
  5
65
330
63
100
AcDbEntity
  8
0
100
AcDbBlockEnd
  0
BLOCK
  5
67
330
66
100
AcDbEntity
  8
0
100
AcDbBlockBegin
  2
*D6
 70
    1
 10
0
 20
0
  3
*D6
  1

  0
LINE
  5
9C
100
AcDbEntity
  8
Tape dispenser
  6
ByBlock
 62
    0
370
   -2
100
AcDbLine
 10
0.2601220514497311
 20
0.6562350860220316
 11
0.2601220514497312
 21
1.182683305476762
  0
SOLID
  5
9D
100
AcDbEntity
  8
Tape dispenser
  6
ByBlock
 62
    0
370
   -2
100
AcDbTrace
 10
0.2601220514497312
 20
0.8562350860220317
 30
0
 11
0.2767734377606448
 21
0.7562350860220317
 31
0
 12
0.2434706651388175
 22
0.7562350860220317
 32
0
 13
0.2434706651388175
 23
0.7562350860220317
 33
0
  0
SOLID
  5
9E
100
AcDbEntity
  8
Tape dispenser
  6
ByBlock
 62
    0
370
   -2
100
AcDbTrace
 10
0.2601220514497312
 20
0.9826833054767622
 30
0
 11
0.2434706651388176
 21
1.082683305476762
 31
0
 12
0.2767734377606448
 22
1.082683305476762
 32
0
 13
0.2767734377606448
 23
1.082683305476762
 33
0
  0
MTEXT
  5
9F
100
AcDbEntity
  8
Tape dispenser
  6
CONTINUOUS
 62
    0
370
   -2
100
AcDbMText
 10
0.1851220514497312
 20
1.196572194365654
 30
0
 40
0.1
 41
0.377777777777784
 71
    5
 72
    1
  1
0.1264
  7
standard
210
0
220
0
230
1
 50
89.99999999999999
 73
    2
 44
1
  0
LINE
  5
A0
100
AcDbEntity
  8
Tape dispenser
  6
ByBlock
 62
    0
370
   -2
100
AcDbLine
 10
0.1478354131845953
 20
0.8562350860220317
 11
0.3101220514497312
 21
0.8562350860220317
  0
LINE
  5
A1
100
AcDbEntity
  8
Tape dispenser
  6
ByBlock
 62
    0
370
   -2
100
AcDbLine
 10
0.1550610257248656
 20
0.9826833054767622
 11
0.3101220514497312
 21
0.9826833054767622
  0
ENDBLK
  5
68
330
66
100
AcDbEntity
  8
0
100
AcDbBlockEnd
  0
BLOCK
  5
6A
330
69
100
AcDbEntity
  8
0
100
AcDbBlockBegin
  2
*D4
 70
    1
 10
0
 20
0
  3
*D4
  1

  0
LINE
  5
A2
100
AcDbEntity
  8
Tape dispenser
  6
ByBlock
 62
    0
370
   -2
100
AcDbLine
 10
6.968078580604463
 20
0
 11
6.968078580604463
 21
2.585120351657046
  0
SOLID
  5
A3
100
AcDbEntity
  8
Tape dispenser
  6
ByBlock
 62
    0
370
   -2
100
AcDbTrace
 10
6.968078580604463
 20
0
 30
0
 11
6.95142719429355
 21
0.1
 31
0
 12
6.984729966915377
 22
0.1
 32
0
 13
6.984729966915377
 23
0.1
 33
0
  0
SOLID
  5
A4
100
AcDbEntity
  8
Tape dispenser
  6
ByBlock
 62
    0
370
   -2
100
AcDbTrace
 10
6.968078580604463
 20
2.585120351657046
 30
0
 11
6.984729966915377
 21
2.485120351657046
 31
0
 12
6.95142719429355
 22
2.485120351657046
 32
0
 13
6.95142719429355
 23
2.485120351657046
 33
0
  0
MTEXT
  5
A5
100
AcDbEntity
  8
Tape dispenser
  6
CONTINUOUS
 62
    0
370
   -2
100
AcDbMText
 10
6.893078580604463
 20
1.292560175828523
 30
0
 40
0.1
 41
0.3666666666666791
 71
    5
 72
    1
  1
2.5851
  7
standard
210
0
220
0
230
1
 50
90
 73
    2
 44
1
  0
LINE
  5
A6
100
AcDbEntity
  8
Tape dispenser
  6
ByBlock
 62
    0
370
   -2
100
AcDbLine
 10
5.775
 20
0
 11
7.018078580604463
 21
0
  0
LINE
  5
A7
100
AcDbEntity
  8
Tape dispenser
  6
ByBlock
 62
    0
370
   -2
100
AcDbLine
 10
6.230826466375692
 20
2.585120351657046
 11
7.018078580604463
 21
2.585120351657046
  0
ENDBLK
  5
6B
330
69
100
AcDbEntity
  8
0
100
AcDbBlockEnd
  0
BLOCK
  5
6D
330
6C
100
AcDbEntity
  8
0
100
AcDbBlockBegin
  2
*D7
 70
    1
 10
0
 20
0
  3
*D7
  1

  0
LINE
  5
A8
100
AcDbEntity
  8
Tape dispenser
  6
ByBlock
 62
    0
370
   -2
100
AcDbLine
 10
0
 20
-1.002292823461916
 11
5.75
 21
-1.002292823461916
  0
SOLID
  5
A9
100
AcDbEntity
  8
Tape dispenser
  6
ByBlock
 62
    0
370
   -2
100
AcDbTrace
 10
0
 20
-1.002292823461916
 30
0
 11
0.1
 21
-0.9856414371510022
 31
0
 12
0.1
 22
-1.018944209772829
 32
0
 13
0.1
 23
-1.018944209772829
 33
0
  0
SOLID
  5
AA
100
AcDbEntity
  8
Tape dispenser
  6
ByBlock
 62
    0
370
   -2
100
AcDbTrace
 10
5.75
 20
-1.002292823461916
 30
0
 11
5.65
 21
-1.018944209772829
 31
0
 12
5.65
 22
-0.9856414371510021
 32
0
 13
5.65
 23
-0.9856414371510021
 33
0
  0
MTEXT
  5
AB
100
AcDbEntity
  8
Tape dispenser
  6
CONTINUOUS
 62
    0
370
   -2
100
AcDbMText
 10
2.875
 20
-0.9272928234619158
 30
0
 40
0.1
 41
0.3888888888889013
 71
    5
 72
    1
  1
5.7500
  7
standard
210
0
220
0
230
1
 50
0
 73
    2
 44
1
  0
LINE
  5
AC
100
AcDbEntity
  8
Tape dispenser
  6
ByBlock
 62
    0
370
   -2
100
AcDbLine
 10
-4.592273826833915e-018
 20
-0.025
 11
-9.18454765366783e-018
 21
-1.052292823461916
  0
LINE
  5
AD
100
AcDbEntity
  8
Tape dispenser
  6
ByBlock
 62
    0
370
   -2
100
AcDbLine
 10
5.75
 20
-0.025
 11
5.75
 21
-1.052292823461916
  0
ENDBLK
  5
6E
330
6C
100
AcDbEntity
  8
0
100
AcDbBlockEnd
  0
ENDSEC
  0
SECTION
  2
ENTITIES
  0
LINE
  5
AE
100
AcDbEntity
  8
Tape dispenser
  6
ByLayer
 62
  256
370
   -1
100
AcDbLine
 10
0
 20
0
 11
5.75
 21
0
  0
LINE
  5
AF
100
AcDbEntity
  8
Tape dispenser
  6
ByLayer
 62
  256
370
   -1
100
AcDbLine
 10
-8.326672684688674e-017
 20
-1.110223024625157e-016
 11
-0.1519421554585642
 21
0.8617067838856819
  0
LINE
  5
B0
100
AcDbEntity
  8
Tape dispenser
  6
ByLayer
 62
  256
370
   -1
100
AcDbLine
 10
-0.1519421554585642
 20
0.8617067838856819
 11
5.901942155458564
 21
0.861706783885682
  0
LINE
  5
B1
100
AcDbEntity
  8
Tape dispenser
  6
ByLayer
 62
  256
370
   -1
100
AcDbLine
 10
-0.1519421554585642
 20
0.9867067838856819
 11
5.923983028047122
 21
0.9867067838856821
  0
LINE
  5
B2
100
AcDbEntity
  8
Tape dispenser
  6
ByLayer
 62
  256
370
   -1
100
AcDbLine
 10
-0.08894215545856418
 20
0.9867067838856819
 11
-0.08894215545856418
 21
0.8617067838856819
  0
LINE
  5
B3
100
AcDbEntity
  8
Tape dispenser
  6
ByLayer
 62
  256
370
   -1
100
AcDbLine
 10
5.868942155458564
 20
0.861706783885682
 11
5.868942155458564
 21
0.986706783885682
  0
LINE
  5
B4
100
AcDbEntity
  8
Tape dispenser
  6
ByLayer
 62
  256
370
   -1
100
AcDbLine
 10
5.901942155458564
 20
0.861706783885682
 11
5.75
 21
0
  0
LINE
  5
B5
100
AcDbEntity
  8
Tape dispenser
  6
ByLayer
 62
  256
370
   -1
100
AcDbLine
 10
5.923983028047122
 20
0.9867067838856821
 11
6.205826466375692
 21
2.585120351657046
  0
LINE
  5
B6
100
AcDbEntity
  8
Tape dispenser
  6
ByLayer
 62
  256
370
   -1
100
AcDbLine
 10
-0.1519421554585642
 20
0.9867067838856819
 11
0.3415812821134154
 21
2.600949211951286
  0
LINE
  5
B7
100
AcDbEntity
  8
Tape dispenser
  6
ByLayer
 62
  256
370
   -1
100
AcDbLine
 10
6.205826466375692
 20
2.585120351657046
 11
5.799663825360546
 21
2.585120351657046
  0
ARC
  5
B8
100
AcDbEntity
  8
Tape dispenser
  6
ByLayer
 62
  256
370
   -1
100
AcDbCircle
 10
5.965743986748756
 20
15.31589384927813
 40
13.90327383239277
100
AcDbArc
 50
246.1389018825042
 51
263.3671649182144
  0
ARC
  5
B9
100
AcDbEntity
  8
Tape dispenser
  6
ByLayer
 62
  256
370
   -1
100
AcDbCircle
 10
4.359826684374577
 20
3.005678323210732
 40
1.5
100
AcDbArc
 50
269.9999999999996
 51
343.7175930537493
  0
DIMENSION
  5
BA
100
AcDbEntity
  8
Tape dispenser
  6
ByLayer
 62
  256
370
   -1
100
AcDbDimension
  2
*D1
 10
-0.4003123385063094
 20
1.062641169202881
 30
0
 11
-0.2252734764175472
 21
1.891690261089889
 31
0
 70
   33
 71
    5
  3
Standard
 53
0
210
0
220
0
230
1
100
AcDbAlignedDimension
 13
0.3415812821134154
 23
2.600949211951286
 33
0
 14
-0.1519421554585642
 24
0.9867067838856819
 34
0
  0
DIMENSION
  5
BB
100
AcDbEntity
  8
Tape dispenser
  6
ByLayer
 62
  256
370
   -1
100
AcDbDimension
  2
*D2
 10
-0.2638311282267987
 20
-0.04652054625713916
 30
0
 11
-0.2659416244801652
 21
0.3973564590107216
 31
0
 70
   33
 71
    5
  3
Standard
 53
0
210
0
220
0
230
1
100
AcDbAlignedDimension
 13
-0.1519421554585642
 23
0.8617067838856819
 33
0
 14
0
 24
0
 34
0
  0
DIMENSION
  5
BC
100
AcDbEntity
  8
Tape dispenser
  6
ByLayer
 62
  256
370
   -1
100
AcDbDimension
  2
*D3
 10
6.682280650450676
 20
2.501108623933189
 30
0
 11
6.467498349810476
 21
1.714925453372527
 31
0
 70
   33
 71
    5
  3
Standard
 53
0
210
0
220
0
230
1
100
AcDbAlignedDimension
 13
5.923983028047122
 23
0.9867067838856821
 33
0
 14
6.205826466375692
 24
2.585120351657046
 34
0
  0
DIMENSION
  5
BD
100
AcDbEntity
  8
Tape dispenser
  6
ByLayer
 62
  256
370
   -1
100
AcDbDimension
  2
*D4
 10
6.968078580604463
 20
2.585120351657046
 30
0
 11
6.893078580604463
 21
1.292560175828523
 31
0
 70
   32
 71
    5
  3
Standard
 53
0
210
0
220
0
230
1
100
AcDbAlignedDimension
 13
5.75
 23
0
 33
0
 14
6.205826466375692
 24
2.585120351657046
 34
0
 50
90
100
AcDbRotatedDimension
  0
DIMENSION
  5
BE
100
AcDbEntity
  8
Tape dispenser
  6
ByLayer
 62
  256
370
   -1
100
AcDbDimension
  2
*D5
 10
-0.8076241911820887
 20
2.600949211951286
 30
0
 11
-0.8826241911820887
 21
1.300474605975643
 31
0
 70
   32
 71
    5
  3
Standard
 53
0
210
0
220
0
230
1
100
AcDbAlignedDimension
 13
0
 23
0
 33
0
 14
0.3415812821134154
 24
2.600949211951286
 34
0
 50
90
100
AcDbRotatedDimension
  0
DIMENSION
  5
BF
100
AcDbEntity
  8
Tape dispenser
  6
ByLayer
 62
  256
370
   -1
100
AcDbDimension
  2
*D6
 10
0.2601220514497312
 20
0.9826833054767622
 30
0
 11
0.1851220514497312
 21
0.9194591957493969
 31
0
 70
   32
 71
    5
  3
Standard
 53
0
210
0
220
0
230
1
100
AcDbAlignedDimension
 13
0.1228354131845953
 23
0.8562350860220317
 33
0
 14
0.1300610257248656
 24
0.9826833054767622
 34
0
 50
90
100
AcDbRotatedDimension
  0
DIMENSION
  5
C0
100
AcDbEntity
  8
Tape dispenser
  6
ByLayer
 62
  256
370
   -1
100
AcDbDimension
  2
*D7
 10
5.75
 20
-1.002292823461916
 30
0
 11
2.875
 21
-0.9272928234619158
 31
0
 70
   32
 71
    5
  3
Standard
 53
0
210
0
220
0
230
1
100
AcDbAlignedDimension
 13
0
 23
0
 33
0
 14
5.75
 24
0
 34
0
100
AcDbRotatedDimension
  0
DIMENSION
  5
C1
100
AcDbEntity
  8
Tape dispenser
  6
ByLayer
 62
  256
370
   -1
100
AcDbDimension
  2
*D8
 10
5.868942155458564
 20
-1.280036617915218
 30
0
 11
2.8585
 21
-1.205036617915218
 31
0
 70
   32
 71
    5
  3
Standard
 53
0
210
0
220
0
230
1
100
AcDbAlignedDimension
 13
-0.1519421554585642
 23
0.8617067838856819
 33
0
 14
5.868942155458564
 24
0.861706783885682
 34
0
100
AcDbRotatedDimension
  0
DIMENSION
  5
C2
100
AcDbEntity
  8
Tape dispenser
  6
ByLayer
 62
  256
370
   -1
100
AcDbDimension
  2
*D9
 10
6.205826466375692
 20
2.892438238842275
 30
0
 11
6.002745145868118
 21
2.967438238842275
 31
0
 70
   32
 71
    5
  3
Standard
 53
0
210
0
220
0
230
1
100
AcDbAlignedDimension
 13
5.799663825360546
 23
2.585120351657046
 33
0
 14
6.205826466375692
 24
2.585120351657046
 34
0
100
AcDbRotatedDimension
  0
DIMENSION
  5
C3
100
AcDbEntity
  8
Tape dispenser
  6
ByLayer
 62
  256
370
   -1
100
AcDbDimension
  2
*D10
 10
5.799663825360546
 20
4.135967373924174
 30
0
 11
3.07062255373698
 21
4.210967373924174
 31
0
 70
   32
 71
    5
  3
Standard
 53
0
210
0
220
0
230
1
100
AcDbAlignedDimension
 13
0.3415812821134154
 23
2.600949211951286
 33
0
 14
5.799663825360546
 24
2.585120351657046
 34
0
100
AcDbRotatedDimension
  0
DIMENSION
  5
C4
100
AcDbEntity
  8
Tape dispenser
  6
ByLayer
 62
  256
370
   -1
100
AcDbDimension
  2
*D11
 10
4.354207529458467
 20
3.01452745154301
 30
0
 11
4.890865257380064
 21
2.48526052166544
 31
0
 70
   36
 71
    5
  3
Standard
 53
0
210
0
220
0
230
1
100
AcDbRadialDimension
 15
5.312090766951219
 25
1.860205268038594
 35
0
 40
0
  0
ENDSEC
  0
SECTION
  2
OBJECTS
  0
DICTIONARY
  5
C
330
0
100
AcDbDictionary
281
    1
  3
ACAD_GROUP
350
D
  0
DICTIONARY
  5
D
330
C
100
AcDbDictionary
281
    1
  0
ENDSEC
  0
EOF
