999
dxfrw 0.6.3
  0
SECTION
  2
HEADER
  9
$ACADVER
  1
AC1021
  9
$DWGCODEPAGE
  3
ANSI_1252
  9
$INSBASE
 10
0
 20
0
 30
0
  9
$EXTMIN
 10
-3.194444444444445
 20
-5.5
 30
0
  9
$EXTMAX
 10
15.90623219373221
 20
3.66
 30
0
  9
$LIMMIN
 10
0
 20
0
  9
$LIMMAX
 10
420
 20
297
  9
$ORTHOMODE
 70
    0
  9
$REGENMODE
 70
    1
  9
$FILLMODE
 70
    1
  9
$QTEXTMODE
 70
    0
  9
$MIRRTEXT
 70
    0
  9
$LTSCALE
 40
1
  9
$ATTMODE
 70
    0
  9
$TEXTSIZE
 40
2.5
  9
$TRACEWID
 40
15.68
  9
$TEXTSTYLE
  7
STANDARD
  9
$CLAYER
  8
Dimensions
  9
$CELTYPE
  6
BYLAYER
  9
$CECOLOR
 62
  256
  9
$CELTSCALE
 40
1
  9
$DISPSILH
 70
    0
  9
$DIMSCALE
 40
2.5
  9
$DIMASZ
 40
2.5
  9
$DIMEXO
 40
0.625
  9
$DIMDLI
 40
3.75
  9
$DIMRND
 40
0
  9
$DIMDLE
 40
0
  9
$DIMEXE
 40
1.25
  9
$DIMTP
 40
0
  9
$DIMTM
 40
0
  9
$DIMTXT
 40
2.5
  9
$DIMCEN
 40
2.5
  9
$DIMTSZ
 40
0
  9
$DIMTOL
 70
    0
  9
$DIMLIM
 70
    0
  9
$DIMTIH
 70
    0
  9
$DIMTOH
 70
    0
  9
$DIMSE1
 70
    0
  9
$DIMSE2
 70
    0
  9
$DIMTAD
 70
    1
  9
$DIMZIN
 70
    8
  9
$DIMBLK
  1

  9
$DIMASO
 70
    1
  9
$DIMSHO
 70
    1
  9
$DIMPOST
  1

  9
$DIMAPOST
  1

  9
$DIMALT
 70
    0
  9
$DIMALTD
 70
    3
  9
$DIMALTF
 40
0.03937
  9
$DIMLFAC
 40
1
  9
$DIMTOFL
 70
    1
  9
$DIMTVP
 40
0
  9
$DIMTIX
 70
    0
  9
$DIMSOXD
 70
    0
  9
$DIMSAH
 70
    0
  9
$DIMBLK1
  1

  9
$DIMBLK2
  1

  9
$DIMSTYLE
  2
STANDARD
  9
$DIMCLRD
 70
    0
  9
$DIMCLRE
 70
    0
  9
$DIMCLRT
 70
    0
  9
$DIMTFAC
 40
1
  9
$DIMGAP
 40
0.625
  9
$DIMJUST
 70
    0
  9
$DIMSD1
 70
    0
  9
$DIMSD2
 70
    0
  9
$DIMTOLJ
 70
    0
  9
$DIMTZIN
 70
    8
  9
$DIMALTZ
 70
    0
  9
$DIMALTTZ
 70
    0
  9
$DIMUPT
 70
    0
  9
$DIMDEC
 70
    3
  9
$DIMTDEC
 70
    2
  9
$DIMALTU
 70
    2
  9
$DIMALTTD
 70
    3
  9
$DIMTXSTY
  7
standard
  9
$DIMAUNIT
 70
    0
  9
$DIMADEC
 70
    0
  9
$DIMALTRND
 40
0
  9
$DIMAZIN
 70
    0
  9
$DIMDSEP
 70
   44
  9
$DIMATFIT
 70
    3
  9
$DIMFRAC
 70
    0
  9
$DIMLDRBLK
  1
STANDARD
  9
$DIMLUNIT
 70
    2
  9
$DIMLWD
 70
   -2
  9
$DIMLWE
 70
   -2
  9
$DIMTMOVE
 70
    0
  9
$DIMFXL
 40
1
  9
$DIMFXLON
 70
    0
  9
$DIMJOGANG
 40
0.7854
  9
$DIMTFILL
 70
    0
  9
$DIMTFILLCLR
 70
    0
  9
$DIMARCSYM
 70
    0
  9
$DIMLTYPE
  6

  9
$DIMLTEX1
  6

  9
$DIMLTEX2
  6

  9
$LUNITS
 70
    2
  9
$LUPREC
 70
    4
  9
$SKETCHINC
 40
1
  9
$FILLETRAD
 40
0
  9
$AUNITS
 70
    0
  9
$AUPREC
 70
    2
  9
$MENU
  1
.
  9
$ELEVATION
 40
0
  9
$PELEVATION
 40
0
  9
$THICKNESS
 40
0
  9
$LIMCHECK
 70
    0
  9
$CHAMFERA
 40
0
  9
$CHAMFERB
 40
0
  9
$CHAMFERC
 40
0
  9
$CHAMFERD
 40
0
  9
$SKPOLY
 70
    0
  9
$USRTIMER
 70
    1
  9
$ANGBASE
 50
0
  9
$ANGDIR
 70
    0
  9
$PDMODE
 70
   34
  9
$PDSIZE
 40
0
  9
$PLINEWID
 40
0
  9
$SPLFRAME
 70
    0
  9
$SPLINETYPE
 70
    2
  9
$SPLINESEGS
 70
    8
  9
$HANDSEED
  5
20000
  9
$SURFTAB1
 70
    6
  9
$SURFTAB2
 70
    6
  9
$SURFTYPE
 70
    6
  9
$SURFU
 70
    6
  9
$SURFV
 70
    6
  9
$UCSBASE
  2

  9
$UCSNAME
  2

  9
$UCSORG
 10
0
 20
0
 30
0
  9
$UCSXDIR
 10
1
 20
0
 30
0
  9
$UCSYDIR
 10
0
 20
1
 30
0
  9
$UCSORTHOREF
  2

  9
$UCSORTHOVIEW
 70
    0
  9
$UCSORGTOP
 10
0
 20
0
 30
0
  9
$UCSORGBOTTOM
 10
0
 20
0
 30
0
  9
$UCSORGLEFT
 10
0
 20
0
 30
0
  9
$UCSORGRIGHT
 10
0
 20
0
 30
0
  9
$UCSORGFRONT
 10
0
 20
0
 30
0
  9
$UCSORGBACK
 10
0
 20
0
 30
0
  9
$PUCSBASE
  2

  9
$PUCSNAME
  2

  9
$PUCSORG
 10
0
 20
0
 30
0
  9
$PUCSXDIR
 10
1
 20
0
 30
0
  9
$PUCSYDIR
 10
0
 20
1
 30
0
  9
$PUCSORTHOREF
  2

  9
$PUCSORTHOVIEW
 70
    0
  9
$PUCSORGTOP
 10
0
 20
0
 30
0
  9
$PUCSORGBOTTOM
 10
0
 20
0
 30
0
  9
$PUCSORGLEFT
 10
0
 20
0
 30
0
  9
$PUCSORGRIGHT
 10
0
 20
0
 30
0
  9
$PUCSORGFRONT
 10
0
 20
0
 30
0
  9
$PUCSORGBACK
 10
0
 20
0
 30
0
  9
$USERI1
 70
    0
  9
$USERI2
 70
    0
  9
$USERI3
 70
    0
  9
$USERI4
 70
    0
  9
$USERI5
 70
    0
  9
$USERR1
 40
0
  9
$USERR2
 40
0
  9
$USERR3
 40
0
  9
$USERR4
 40
0
  9
$USERR5
 40
0
  9
$WORLDVIEW
 70
    1
  9
$SHADEDGE
 70
    3
  9
$SHADEDIF
 70
   70
  9
$TILEMODE
 70
    1
  9
$MAXACTVP
 70
   64
  9
$PINSBASE
 10
0
 20
0
 30
0
  9
$PLIMCHECK
 70
    0
  9
$PEXTMIN
 10
0
 20
0
 30
0
  9
$PEXTMAX
 10
0
 20
0
 30
0
  9
$GRIDMODE
 70
    1
  9
$PLIMMIN
 10
0
 20
0
  9
$PLIMMAX
 10
297
 20
210
  9
$UNITMODE
 70
    0
  9
$VISRETAIN
 70
    1
  9
$PLINEGEN
 70
    0
  9
$PSLTSCALE
 70
    1
  9
$TREEDEPTH
 70
 3020
  9
$CMLSTYLE
  2
Standard
  9
$CMLJUST
 70
    0
  9
$CMLSCALE
 40
20
  9
$PROXYGRAPHICS
 70
    1
  9
$MEASUREMENT
 70
    1
  9
$CELWEIGHT
370
   -1
  9
$ENDCAPS
280
    0
  9
$JOINSTYLE
280
    0
  9
$LWDISPLAY
290
    0
  9
$INSUNITS
 70
    0
  9
$HYPERLINKBASE
  1

  9
$STYLESHEET
  1

  9
$XEDIT
290
    1
  9
$CEPSNTYPE
380
    0
  9
$PSTYLEMODE
290
    1
  9
$EXTNAMES
290
    1
  9
$PSVPSCALE
 40
0
  9
$OLESTARTUP
290
    0
  9
$SORTENTS
280
  127
  9
$INDEXCTL
280
    0
  9
$HIDETEXT
280
    1
  9
$XCLIPFRAME
290
    0
  9
$HALOGAP
280
    0
  9
$OBSCOLOR
 70
  257
  9
$OBSLTYPE
280
    0
  9
$INTERSECTIONDISPLAY
280
    0
  9
$INTERSECTIONCOLOR
 70
  257
  9
$DIMASSOC
280
    1
  9
$PROJECTNAME
  1

  9
$CAMERADISPLAY
290
    0
  9
$LENSLENGTH
 40
50
  9
$CAMERAHEIGHT
 40
0
  9
$STEPSPERSEC
 40
2
  9
$STEPSIZE
 40
50
  9
$3DDWFPREC
 40
2
  9
$PSOLWIDTH
 40
5
  9
$PSOLHEIGHT
 40
80
  9
$LOFTANG1
 40
1.570796326794897
  9
$LOFTANG2
 40
1.570796326794897
  9
$LOFTMAG1
 40
0
  9
$LOFTMAG2
 40
0
  9
$LOFTPARAM
 70
    7
  9
$LOFTNORMALS
280
    1
  9
$LATITUDE
 40
1
  9
$LONGITUDE
 40
1
  9
$NORTHDIRECTION
 40
0
  9
$TIMEZONE
 70
-8000
  9
$LIGHTGLYPHDISPLAY
280
    1
  9
$TILEMODELIGHTSYNCH
280
    1
  9
$SOLIDHIST
280
    1
  9
$SHOWHIST
280
    1
  9
$DWFFRAME
280
    2
  9
$DGNFRAME
280
    0
  9
$REALWORLDSCALE
290
    1
  9
$INTERFERECOLOR
 62
    1
  9
$CSHADOW
280
    0
  9
$SHADOWPLANELOCATION
 40
0
  0
ENDSEC
  0
SECTION
  2
CLASSES
  0
ENDSEC
  0
SECTION
  2
TABLES
  0
TABLE
  2
VPORT
  5
8
330
0
100
AcDbSymbolTable
 70
    1
  0
VPORT
  5
31
330
2
100
AcDbSymbolTableRecord
100
AcDbViewportTableRecord
  2
*ACTIVE
 70
    0
 10
0
 20
0
 11
1
 21
1
 12
8.000912801585883
 22
2.110424411770567
 13
0
 23
0
 14
10
 24
10
 15
10
 25
10
 16
0
 26
0
 36
1
 17
0
 27
0
 37
0
 40
10.2760749838955
 41
1.876083188908146
 42
50
 43
0
 44
0
 50
0
 51
0
 71
    0
 72
  100
 73
    1
 74
    3
 75
    0
 76
    1
 77
    0
 78
    0
281
    0
 65
    1
110
0
120
0
130
0
111
1
121
0
131
0
112
0
122
1
132
0
 79
    0
146
0
348
10020
 60
    7
 61
    5
292
1
282
    1
141
0
142
0
 63
  250
421
3358443
  0
ENDTAB
  0
TABLE
  2
LTYPE
  5
5
330
0
100
AcDbSymbolTable
 70
    4
  0
LTYPE
  5
14
330
5
100
AcDbSymbolTableRecord
100
AcDbLinetypeTableRecord
  2
ByBlock
 70
    0
  3

 72
   65
 73
    0
 40
0
  0
LTYPE
  5
15
330
5
100
AcDbSymbolTableRecord
100
AcDbLinetypeTableRecord
  2
ByLayer
 70
    0
  3

 72
   65
 73
    0
 40
0
  0
LTYPE
  5
16
330
5
100
AcDbSymbolTableRecord
100
AcDbLinetypeTableRecord
  2
Continuous
 70
    0
  3
Solid line
 72
   65
 73
    0
 40
0
  0
LTYPE
  5
32
330
5
100
AcDbSymbolTableRecord
100
AcDbLinetypeTableRecord
  2
DOT
 70
    0
  3
Dot . . . . . . . . . . . . . . . . . . . . . .
 72
   65
 73
    2
 40
6.35
 49
0
 74
    0
 49
-6.35
 74
    0
  0
LTYPE
  5
33
330
5
100
AcDbSymbolTableRecord
100
AcDbLinetypeTableRecord
  2
DOTTINY
 70
    0
  3
Dot (.15x) .....................................
 72
   65
 73
    2
 40
0.9525
 49
0
 74
    0
 49
-0.9525
 74
    0
  0
LTYPE
  5
34
330
5
100
AcDbSymbolTableRecord
100
AcDbLinetypeTableRecord
  2
DOT2
 70
    0
  3
Dot (.5x) .....................................
 72
   65
 73
    2
 40
3.175
 49
0
 74
    0
 49
-3.175
 74
    0
  0
LTYPE
  5
35
330
5
100
AcDbSymbolTableRecord
100
AcDbLinetypeTableRecord
  2
DOTX2
 70
    0
  3
Dot (2x) .  .  .  .  .  .  .  .  .  .  .  .  .
 72
   65
 73
    2
 40
12.7
 49
0
 74
    0
 49
-12.7
 74
    0
  0
LTYPE
  5
36
330
5
100
AcDbSymbolTableRecord
100
AcDbLinetypeTableRecord
  2
DASHED
 70
    0
  3
Dashed _ _ _ _ _ _ _ _ _ _ _ _ _ _ _ _ _
 72
   65
 73
    2
 40
19.05
 49
12.7
 74
    0
 49
-6.35
 74
    0
  0
LTYPE
  5
37
330
5
100
AcDbSymbolTableRecord
100
AcDbLinetypeTableRecord
  2
DASHEDTINY
 70
    0
  3
Dashed (.15x) _ _ _ _ _ _ _ _ _ _ _ _ _ _ _ _ _
 72
   65
 73
    2
 40
2.8575
 49
1.905
 74
    0
 49
-0.9525
 74
    0
  0
LTYPE
  5
38
330
5
100
AcDbSymbolTableRecord
100
AcDbLinetypeTableRecord
  2
DASHED2
 70
    0
  3
Dashed (.5x) _ _ _ _ _ _ _ _ _ _ _ _ _ _ _ _ _
 72
   65
 73
    2
 40
9.524999999999999
 49
6.35
 74
    0
 49
-3.175
 74
    0
  0
LTYPE
  5
39
330
5
100
AcDbSymbolTableRecord
100
AcDbLinetypeTableRecord
  2
DASHEDX2
 70
    0
  3
Dashed (2x) ____  ____  ____  ____  ____  ___
 72
   65
 73
    2
 40
38.09999999999999
 49
25.4
 74
    0
 49
-12.7
 74
    0
  0
LTYPE
  5
3A
330
5
100
AcDbSymbolTableRecord
100
AcDbLinetypeTableRecord
  2
DASHDOT
 70
    0
  3
Dash dot __ . __ . __ . __ . __ . __ . __ . __
 72
   65
 73
    4
 40
25.4
 49
12.7
 74
    0
 49
-6.35
 74
    0
 49
0
 74
    0
 49
-6.35
 74
    0
  0
LTYPE
  5
3B
330
5
100
AcDbSymbolTableRecord
100
AcDbLinetypeTableRecord
  2
DASHDOTTINY
 70
    0
  3
Dash dot (.15x) _._._._._._._._._._._._._._._.
 72
   65
 73
    4
 40
3.81
 49
1.905
 74
    0
 49
-0.9525
 74
    0
 49
0
 74
    0
 49
-0.9525
 74
    0
  0
LTYPE
  5
3C
330
5
100
AcDbSymbolTableRecord
100
AcDbLinetypeTableRecord
  2
DASHDOT2
 70
    0
  3
Dash dot (.5x) _._._._._._._._._._._._._._._.
 72
   65
 73
    4
 40
12.7
 49
6.35
 74
    0
 49
-3.175
 74
    0
 49
0
 74
    0
 49
-3.175
 74
    0
  0
LTYPE
  5
3D
330
5
100
AcDbSymbolTableRecord
100
AcDbLinetypeTableRecord
  2
DASHDOTX2
 70
    0
  3
Dash dot (2x) ____  .  ____  .  ____  .  ___
 72
   65
 73
    4
 40
50.8
 49
25.4
 74
    0
 49
-12.7
 74
    0
 49
0
 74
    0
 49
-12.7
 74
    0
  0
LTYPE
  5
3E
330
5
100
AcDbSymbolTableRecord
100
AcDbLinetypeTableRecord
  2
DIVIDE
 70
    0
  3
Divide ____ . . ____ . . ____ . . ____ . . ____
 72
   65
 73
    6
 40
31.75
 49
12.7
 74
    0
 49
-6.35
 74
    0
 49
0
 74
    0
 49
-6.35
 74
    0
 49
0
 74
    0
 49
-6.35
 74
    0
  0
LTYPE
  5
3F
330
5
100
AcDbSymbolTableRecord
100
AcDbLinetypeTableRecord
  2
DIVIDETINY
 70
    0
  3
Divide (.15x) __..__..__..__..__..__..__..__.._
 72
   65
 73
    6
 40
4.7625
 49
1.905
 74
    0
 49
-0.9525
 74
    0
 49
0
 74
    0
 49
-0.9525
 74
    0
 49
0
 74
    0
 49
-0.9525
 74
    0
  0
LTYPE
  5
40
330
5
100
AcDbSymbolTableRecord
100
AcDbLinetypeTableRecord
  2
DIVIDE2
 70
    0
  3
Divide (.5x) __..__..__..__..__..__..__..__.._
 72
   65
 73
    6
 40
15.875
 49
6.35
 74
    0
 49
-3.175
 74
    0
 49
0
 74
    0
 49
-3.175
 74
    0
 49
0
 74
    0
 49
-3.175
 74
    0
  0
LTYPE
  5
41
330
5
100
AcDbSymbolTableRecord
100
AcDbLinetypeTableRecord
  2
DIVIDEX2
 70
    0
  3
Divide (2x) ________  .  .  ________  .  .  _
 72
   65
 73
    6
 40
63.5
 49
25.4
 74
    0
 49
-12.7
 74
    0
 49
0
 74
    0
 49
-12.7
 74
    0
 49
0
 74
    0
 49
-12.7
 74
    0
  0
LTYPE
  5
42
330
5
100
AcDbSymbolTableRecord
100
AcDbLinetypeTableRecord
  2
BORDER
 70
    0
  3
Border __ __ . __ __ . __ __ . __ __ . __ __ .
 72
   65
 73
    6
 40
44.45
 49
12.7
 74
    0
 49
-6.35
 74
    0
 49
12.7
 74
    0
 49
-6.35
 74
    0
 49
0
 74
    0
 49
-6.35
 74
    0
  0
LTYPE
  5
43
330
5
100
AcDbSymbolTableRecord
100
AcDbLinetypeTableRecord
  2
BORDERTINY
 70
    0
  3
Border (.15x) __.__.__.__.__.__.__.__.__.__.__.
 72
   65
 73
    6
 40
6.6675
 49
1.905
 74
    0
 49
-0.9525
 74
    0
 49
1.905
 74
    0
 49
-0.9525
 74
    0
 49
0
 74
    0
 49
-0.9525
 74
    0
  0
LTYPE
  5
44
330
5
100
AcDbSymbolTableRecord
100
AcDbLinetypeTableRecord
  2
BORDER2
 70
    0
  3
Border (.5x) __.__.__.__.__.__.__.__.__.__.__.
 72
   65
 73
    6
 40
22.225
 49
6.35
 74
    0
 49
-3.175
 74
    0
 49
6.35
 74
    0
 49
-3.175
 74
    0
 49
0
 74
    0
 49
-3.175
 74
    0
  0
LTYPE
  5
45
330
5
100
AcDbSymbolTableRecord
100
AcDbLinetypeTableRecord
  2
BORDERX2
 70
    0
  3
Border (2x) ____  ____  .  ____  ____  .  ___
 72
   65
 73
    6
 40
88.89999999999999
 49
25.4
 74
    0
 49
-12.7
 74
    0
 49
25.4
 74
    0
 49
-12.7
 74
    0
 49
0
 74
    0
 49
-12.7
 74
    0
  0
LTYPE
  5
46
330
5
100
AcDbSymbolTableRecord
100
AcDbLinetypeTableRecord
  2
CENTER
 70
    0
  3
Center ____ _ ____ _ ____ _ ____ _ ____ _ ____
 72
   65
 73
    4
 40
50.8
 49
31.75
 74
    0
 49
-6.35
 74
    0
 49
6.35
 74
    0
 49
-6.35
 74
    0
  0
LTYPE
  5
47
330
5
100
AcDbSymbolTableRecord
100
AcDbLinetypeTableRecord
  2
CENTERTINY
 70
    0
  3
Center (.15x) ___ _ ___ _ ___ _ ___ _ ___ _ ___
 72
   65
 73
    4
 40
7.619999999999999
 49
4.7625
 74
    0
 49
-0.9525
 74
    0
 49
0.9525
 74
    0
 49
-0.9525
 74
    0
  0
LTYPE
  5
48
330
5
100
AcDbSymbolTableRecord
100
AcDbLinetypeTableRecord
  2
CENTER2
 70
    0
  3
Center (.5x) ___ _ ___ _ ___ _ ___ _ ___ _ ___
 72
   65
 73
    4
 40
28.575
 49
19.05
 74
    0
 49
-3.175
 74
    0
 49
3.175
 74
    0
 49
-3.175
 74
    0
  0
LTYPE
  5
49
330
5
100
AcDbSymbolTableRecord
100
AcDbLinetypeTableRecord
  2
CENTERX2
 70
    0
  3
Center (2x) ________  __  ________  __  _____
 72
   65
 73
    4
 40
101.6
 49
63.5
 74
    0
 49
-12.7
 74
    0
 49
12.7
 74
    0
 49
-12.7
 74
    0
  0
ENDTAB
  0
TABLE
  2
LAYER
  5
2
330
0
100
AcDbSymbolTable
 70
    1
  0
LAYER
  5
10
330
2
100
AcDbSymbolTableRecord
100
AcDbLayerTableRecord
  2
0
 70
    0
 62
    7
  6
CONTINUOUS
370
    0
390
F
  0
LAYER
  5
4A
330
2
100
AcDbSymbolTableRecord
100
AcDbLayerTableRecord
  2
Dimensions
 70
    0
 62
    7
  6
CONTINUOUS
370
    0
390
F
  0
ENDTAB
  0
TABLE
  2
STYLE
  5
3
330
0
100
AcDbSymbolTable
 70
    3
  0
STYLE
  5
4B
330
2
100
AcDbSymbolTableRecord
100
AcDbTextStyleTableRecord
  2
standard
 70
    0
 40
0
 41
1
 50
0
 71
    0
 42
1
  3
standard
  4

  0
STYLE
  5
4C
330
2
100
AcDbSymbolTableRecord
100
AcDbTextStyleTableRecord
  2
iso
 70
    0
 40
0
 41
1
 50
0
 71
    0
 42
1
  3
iso
  4

  0
ENDTAB
  0
TABLE
  2
VIEW
  5
6
330
0
100
AcDbSymbolTable
 70
    0
  0
ENDTAB
  0
TABLE
  2
UCS
  5
7
330
0
100
AcDbSymbolTable
 70
    0
  0
ENDTAB
  0
TABLE
  2
APPID
  5
9
330
0
100
AcDbSymbolTable
 70
    1
  0
APPID
  5
12
330
9
100
AcDbSymbolTableRecord
100
AcDbRegAppTableRecord
  2
ACAD
 70
    0
  0
APPID
  5
4D
330
9
100
AcDbSymbolTableRecord
100
AcDbRegAppTableRecord
  2
LibreCad
 70
    0
  0
ENDTAB
  0
TABLE
  2
DIMSTYLE
  5
A
330
0
100
AcDbSymbolTable
 70
    1
100
AcDbDimStyleTable
 71
    1
  0
DIMSTYLE
105
4E
330
A
100
AcDbSymbolTableRecord
100
AcDbDimStyleTableRecord
  2
Standard
 70
    0
 40
0.05
 41
2.5
 42
0.625
 43
0.38
 44
1.25
 45
0
 46
0
 47
0
 48
0
 49
1
140
2.5
141
0.09
142
0
143
25.4
144
1
145
0
146
1
147
1
148
0
 71
    0
 72
    0
 73
    1
 74
    1
 75
    0
 76
    0
 77
    0
 78
    1
 79
    0
170
    0
171
    2
172
    0
173
    0
174
    0
175
    0
176
    0
177
    0
178
    0
179
    2
271
    3
272
    4
273
    2
274
    2
275
    0
276
    0
277
    2
278
    0
279
    0
280
    0
281
    0
282
    0
283
    1
284
    0
285
    0
286
    0
288
    0
289
    3
340
standard
341

371
   -2
372
   -2
  0
ENDTAB
  0
TABLE
  2
BLOCK_RECORD
  5
1
330
0
100
AcDbSymbolTable
 70
    2
  0
BLOCK_RECORD
  5
1F
330
1
100
AcDbSymbolTableRecord
100
AcDbBlockTableRecord
  2
*Model_Space
 70
    0
280
    1
281
    0
  0
BLOCK_RECORD
  5
1E
330
1
100
AcDbSymbolTableRecord
100
AcDbBlockTableRecord
  2
*Paper_Space
 70
    0
280
    1
281
    0
  0
BLOCK_RECORD
  5
4F
330
1
100
AcDbSymbolTableRecord
100
AcDbBlockTableRecord
  2
*D1
 70
    0
280
    1
281
    0
  0
BLOCK_RECORD
  5
52
330
1
100
AcDbSymbolTableRecord
100
AcDbBlockTableRecord
  2
*D2
 70
    0
280
    1
281
    0
  0
BLOCK_RECORD
  5
55
330
1
100
AcDbSymbolTableRecord
100
AcDbBlockTableRecord
  2
*D25
 70
    0
280
    1
281
    0
  0
BLOCK_RECORD
  5
58
330
1
100
AcDbSymbolTableRecord
100
AcDbBlockTableRecord
  2
*D22
 70
    0
280
    1
281
    0
  0
BLOCK_RECORD
  5
5B
330
1
100
AcDbSymbolTableRecord
100
AcDbBlockTableRecord
  2
*D9
 70
    0
280
    1
281
    0
  0
BLOCK_RECORD
  5
5E
330
1
100
AcDbSymbolTableRecord
100
AcDbBlockTableRecord
  2
*D26
 70
    0
280
    1
281
    0
  0
BLOCK_RECORD
  5
61
330
1
100
AcDbSymbolTableRecord
100
AcDbBlockTableRecord
  2
*D10
 70
    0
280
    1
281
    0
  0
BLOCK_RECORD
  5
64
330
1
100
AcDbSymbolTableRecord
100
AcDbBlockTableRecord
  2
*D12
 70
    0
280
    1
281
    0
  0
BLOCK_RECORD
  5
67
330
1
100
AcDbSymbolTableRecord
100
AcDbBlockTableRecord
  2
*D11
 70
    0
280
    1
281
    0
  0
BLOCK_RECORD
  5
6A
330
1
100
AcDbSymbolTableRecord
100
AcDbBlockTableRecord
  2
*D20
 70
    0
280
    1
281
    0
  0
BLOCK_RECORD
  5
6D
330
1
100
AcDbSymbolTableRecord
100
AcDbBlockTableRecord
  2
*D19
 70
    0
280
    1
281
    0
  0
BLOCK_RECORD
  5
70
330
1
100
AcDbSymbolTableRecord
100
AcDbBlockTableRecord
  2
*D17
 70
    0
280
    1
281
    0
  0
BLOCK_RECORD
  5
73
330
1
100
AcDbSymbolTableRecord
100
AcDbBlockTableRecord
  2
*D14
 70
    0
280
    1
281
    0
  0
BLOCK_RECORD
  5
76
330
1
100
AcDbSymbolTableRecord
100
AcDbBlockTableRecord
  2
*D5
 70
    0
280
    1
281
    0
  0
BLOCK_RECORD
  5
79
330
1
100
AcDbSymbolTableRecord
100
AcDbBlockTableRecord
  2
*D13
 70
    0
280
    1
281
    0
  0
BLOCK_RECORD
  5
7C
330
1
100
AcDbSymbolTableRecord
100
AcDbBlockTableRecord
  2
*D23
 70
    0
280
    1
281
    0
  0
BLOCK_RECORD
  5
7F
330
1
100
AcDbSymbolTableRecord
100
AcDbBlockTableRecord
  2
*D6
 70
    0
280
    1
281
    0
  0
BLOCK_RECORD
  5
82
330
1
100
AcDbSymbolTableRecord
100
AcDbBlockTableRecord
  2
*D8
 70
    0
280
    1
281
    0
  0
BLOCK_RECORD
  5
85
330
1
100
AcDbSymbolTableRecord
100
AcDbBlockTableRecord
  2
*D7
 70
    0
280
    1
281
    0
  0
BLOCK_RECORD
  5
88
330
1
100
AcDbSymbolTableRecord
100
AcDbBlockTableRecord
  2
*D15
 70
    0
280
    1
281
    0
  0
BLOCK_RECORD
  5
8B
330
1
100
AcDbSymbolTableRecord
100
AcDbBlockTableRecord
  2
*D24
 70
    0
280
    1
281
    0
  0
BLOCK_RECORD
  5
8E
330
1
100
AcDbSymbolTableRecord
100
AcDbBlockTableRecord
  2
*D16
 70
    0
280
    1
281
    0
  0
BLOCK_RECORD
  5
91
330
1
100
AcDbSymbolTableRecord
100
AcDbBlockTableRecord
  2
*D3
 70
    0
280
    1
281
    0
  0
BLOCK_RECORD
  5
94
330
1
100
AcDbSymbolTableRecord
100
AcDbBlockTableRecord
  2
*D18
 70
    0
280
    1
281
    0
  0
BLOCK_RECORD
  5
97
330
1
100
AcDbSymbolTableRecord
100
AcDbBlockTableRecord
  2
*D21
 70
    0
280
    1
281
    0
  0
BLOCK_RECORD
  5
9A
330
1
100
AcDbSymbolTableRecord
100
AcDbBlockTableRecord
  2
*D4
 70
    0
280
    1
281
    0
  0
ENDTAB
  0
ENDSEC
  0
SECTION
  2
BLOCKS
  0
BLOCK
  5
20
330
1F
100
AcDbEntity
  8
0
100
AcDbBlockBegin
  2
*Model_Space
 70
    0
 10
0
 20
0
 30
0
  3
*Model_Space
  1

  0
ENDBLK
  5
21
330
1F
100
AcDbEntity
  8
0
100
AcDbBlockEnd
  0
BLOCK
  5
1C
330
1B
100
AcDbEntity
  8
0
100
AcDbBlockBegin
  2
*Paper_Space
 70
    0
 10
0
 20
0
 30
0
  3
*Paper_Space
  1

  0
ENDBLK
  5
1D
330
1F
100
AcDbEntity
  8
0
100
AcDbBlockEnd
  0
BLOCK
  5
50
330
4F
100
AcDbEntity
  8
0
100
AcDbBlockBegin
  2
*D1
 70
    1
 10
0
 20
0
  3
*D1
  1

  0
LINE
  5
9D
100
AcDbEntity
  8
Dimensions
  6
ByBlock
 62
    0
370
   -2
100
AcDbLine
 10
0
 20
-1.899999999999999
 11
0.2305555555555517
 21
-1.899999999999999
  0
SOLID
  5
9E
100
AcDbEntity
  8
Dimensions
  6
ByBlock
 62
    0
370
   -2
100
AcDbTrace
 10
0
 20
-1.899999999999999
 30
0
 11
0.125
 21
-1.879185767111357
 31
0
 12
0.125
 22
-1.920814232888642
 32
0
 13
0.125
 23
-1.920814232888642
 33
0
  0
SOLID
  5
9F
100
AcDbEntity
  8
Dimensions
  6
ByBlock
 62
    0
370
   -2
100
AcDbTrace
 10
0.95
 20
-1.899999999999999
 30
0
 11
0.825
 21
-1.920814232888642
 31
0
 12
0.825
 22
-1.879185767111357
 32
0
 13
0.825
 23
-1.879185767111357
 33
0
  0
LINE
  5
A0
100
AcDbEntity
  8
Dimensions
  6
ByBlock
 62
    0
370
   -2
100
AcDbLine
 10
0.7194444444444483
 20
-1.899999999999999
 11
0.95
 21
-1.899999999999999
  0
MTEXT
  5
A1
100
AcDbEntity
  8
Dimensions
  6
CONTINUOUS
 62
    0
370
   -2
100
AcDbMText
 10
0.475
 20
-1.899999999999999
 30
0
 40
0.125
 41
0.3888888888888966
 71
    5
 72
    1
  1
0.950
  7
standard
210
0
220
0
230
1
 50
0
 73
    2
 44
1
  0
LINE
  5
A2
100
AcDbEntity
  8
Dimensions
  6
ByBlock
 62
    0
370
   -2
100
AcDbLine
 10
1.913510623667739e-18
 20
-2.21875
 11
3.827021247335479e-18
 21
-1.837499999999999
  0
LINE
  5
A3
100
AcDbEntity
  8
Dimensions
  6
ByBlock
 62
    0
370
   -2
100
AcDbLine
 10
0.95
 20
-2.06875
 11
0.95
 21
-1.837499999999999
  0
ENDBLK
  5
51
330
4F
100
AcDbEntity
  8
0
100
AcDbBlockEnd
  0
BLOCK
  5
53
330
52
100
AcDbEntity
  8
0
100
AcDbBlockBegin
  2
*D2
 70
    1
 10
0
 20
0
  3
*D2
  1

  0
LINE
  5
A4
100
AcDbEntity
  8
Dimensions
  6
ByBlock
 62
    0
370
   -2
100
AcDbLine
 10
0
 20
-1.5
 11
1.730555555555548
 21
-1.5
  0
SOLID
  5
A5
100
AcDbEntity
  8
Dimensions
  6
ByBlock
 62
    0
370
   -2
100
AcDbTrace
 10
0
 20
-1.5
 30
0
 11
0.125
 21
-1.479185767111358
 31
0
 12
0.125
 22
-1.520814232888642
 32
0
 13
0.125
 23
-1.520814232888642
 33
0
  0
SOLID
  5
A6
100
AcDbEntity
  8
Dimensions
  6
ByBlock
 62
    0
370
   -2
100
AcDbTrace
 10
3.95
 20
-1.5
 30
0
 11
3.825
 21
-1.520814232888642
 31
0
 12
3.825
 22
-1.479185767111358
 32
0
 13
3.825
 23
-1.479185767111358
 33
0
  0
LINE
  5
A7
100
AcDbEntity
  8
Dimensions
  6
ByBlock
 62
    0
370
   -2
100
AcDbLine
 10
2.219444444444452
 20
-1.5
 11
3.95
 21
-1.5
  0
MTEXT
  5
A8
100
AcDbEntity
  8
Dimensions
  6
CONTINUOUS
 62
    0
370
   -2
100
AcDbMText
 10
1.975
 20
-1.5
 30
0
 40
0.125
 41
0.3888888888889044
 71
    5
 72
    1
  1
3.950
  7
standard
210
0
220
0
230
1
 50
0
 73
    2
 44
1
  0
LINE
  5
A9
100
AcDbEntity
  8
Dimensions
  6
ByBlock
 62
    0
370
   -2
100
AcDbLine
 10
1.913510623667739e-18
 20
-2.21875
 11
3.827021247335479e-18
 21
-1.4375
  0
LINE
  5
AA
100
AcDbEntity
  8
Dimensions
  6
ByBlock
 62
    0
370
   -2
100
AcDbLine
 10
3.95
 20
-2.06875
 11
3.95
 21
-1.4375
  0
ENDBLK
  5
54
330
52
100
AcDbEntity
  8
0
100
AcDbBlockEnd
  0
BLOCK
  5
56
330
55
100
AcDbEntity
  8
0
100
AcDbBlockBegin
  2
*D25
 70
    1
 10
0
 20
0
  3
*D25
  1

  0
LINE
  5
AB
100
AcDbEntity
  8
Dimensions
  6
CONTINUOUS
 62
    7
370
    0
100
AcDbLine
 10
1.556129521675449
 20
1.767518638367859
 11
3.680208115910023
 21
-0.2241234008305066
  0
SOLID
  5
AC
100
AcDbEntity
  8
Dimensions
  6
CONTINUOUS
 62
    7
370
    0
100
AcDbTrace
 10
1.556129521675449
 20
1.767518638367859
 30
0
 11
1.661551773765318
 21
1.697202345412081
 31
0
 12
1.633077931587698
 22
1.666835101964338
 32
0
 13
1.633077931587698
 23
1.666835101964338
 33
0
  0
LINE
  5
AD
100
AcDbEntity
  8
Dimensions
  6
CONTINUOUS
 62
    7
370
    0
100
AcDbLine
 10
3.680208115910023
 20
-0.2241234008305066
 11
3.835566382394807
 21
-0.2241234008305066
  0
ENDBLK
  5
57
330
55
100
AcDbEntity
  8
0
100
AcDbBlockEnd
  0
BLOCK
  5
59
330
58
100
AcDbEntity
  8
0
100
AcDbBlockBegin
  2
*D22
 70
    1
 10
0
 20
0
  3
*D22
  1

  0
LINE
  5
AE
100
AcDbEntity
  8
Dimensions
  6
ByBlock
 62
    0
370
   -2
100
AcDbLine
 10
15.6
 20
2.175
 11
15.6
 21
2.3875
  0
SOLID
  5
AF
100
AcDbEntity
  8
Dimensions
  6
ByBlock
 62
    0
370
   -2
100
AcDbTrace
 10
15.6
 20
2.175
 30
0
 11
15.57918576711136
 21
2.3
 31
0
 12
15.62081423288864
 22
2.3
 32
0
 13
15.62081423288864
 23
2.3
 33
0
  0
SOLID
  5
B0
100
AcDbEntity
  8
Dimensions
  6
ByBlock
 62
    0
370
   -2
100
AcDbTrace
 10
15.6
 20
2.825
 30
0
 11
15.62081423288864
 21
2.7
 31
0
 12
15.57918576711136
 22
2.7
 32
0
 13
15.57918576711136
 23
2.7
 33
0
  0
LINE
  5
B1
100
AcDbEntity
  8
Dimensions
  6
ByBlock
 62
    0
370
   -2
100
AcDbLine
 10
15.6
 20
2.6125
 11
15.6
 21
2.825
  0
MTEXT
  5
B2
100
AcDbEntity
  8
Dimensions
  6
CONTINUOUS
 62
    0
370
   -2
100
AcDbMText
 10
15.6
 20
2.5
 30
0
 40
0.125
 41
0.3888888888889044
 71
    5
 72
    1
  1
0.650
  7
standard
210
0
220
0
230
1
 50
0
 73
    2
 44
1
  0
LINE
  5
B3
100
AcDbEntity
  8
Dimensions
  6
ByBlock
 62
    0
370
   -2
100
AcDbLine
 10
13.73125
 20
2.175
 11
15.6625
 21
2.175
  0
LINE
  5
B4
100
AcDbEntity
  8
Dimensions
  6
ByBlock
 62
    0
370
   -2
100
AcDbLine
 10
13.73125
 20
2.825
 11
15.6625
 21
2.825
  0
ENDBLK
  5
5A
330
58
100
AcDbEntity
  8
0
100
AcDbBlockEnd
  0
BLOCK
  5
5C
330
5B
100
AcDbEntity
  8
0
100
AcDbBlockBegin
  2
*D9
 70
    1
 10
0
 20
0
  3
*D9
  1

  0
LINE
  5
B5
100
AcDbEntity
  8
Dimensions
  6
ByBlock
 62
    0
370
   -2
100
AcDbLine
 10
8.925000000000001
 20
-0.2999999999999994
 11
10.25694444444444
 21
-0.2999999999999994
  0
SOLID
  5
B6
100
AcDbEntity
  8
Dimensions
  6
ByBlock
 62
    0
370
   -2
100
AcDbTrace
 10
8.925000000000001
 20
-0.2999999999999994
 30
0
 11
9.050000000000001
 21
-0.2791857671113573
 31
0
 12
9.050000000000001
 22
-0.3208142328886414
 32
0
 13
9.050000000000001
 23
-0.3208142328886414
 33
0
  0
SOLID
  5
B7
100
AcDbEntity
  8
Dimensions
  6
ByBlock
 62
    0
370
   -2
100
AcDbTrace
 10
12.05
 20
-0.2999999999999994
 30
0
 11
11.925
 21
-0.3208142328886414
 31
0
 12
11.925
 22
-0.2791857671113573
 32
0
 13
11.925
 23
-0.2791857671113573
 33
0
  0
LINE
  5
B8
100
AcDbEntity
  8
Dimensions
  6
ByBlock
 62
    0
370
   -2
100
AcDbLine
 10
10.71805555555556
 20
-0.2999999999999994
 11
12.05
 21
-0.2999999999999994
  0
MTEXT
  5
B9
100
AcDbEntity
  8
Dimensions
  6
CONTINUOUS
 62
    0
370
   -2
100
AcDbMText
 10
10.4875
 20
-0.2999999999999994
 30
0
 40
0.125
 41
0.3611111111111266
 71
    5
 72
    1
  1
3.125
  7
standard
210
0
220
0
230
1
 50
0
 73
    2
 44
1
  0
LINE
  5
BA
100
AcDbEntity
  8
Dimensions
  6
ByBlock
 62
    0
370
   -2
100
AcDbLine
 10
8.925000000000001
 20
-2.06875
 11
8.925000000000001
 21
-0.2374999999999994
  0
LINE
  5
BB
100
AcDbEntity
  8
Dimensions
  6
ByBlock
 62
    0
370
   -2
100
AcDbLine
 10
12.05
 20
-2.06875
 11
12.05
 21
-0.2374999999999994
  0
ENDBLK
  5
5D
330
5B
100
AcDbEntity
  8
0
100
AcDbBlockEnd
  0
BLOCK
  5
5F
330
5E
100
AcDbEntity
  8
0
100
AcDbBlockBegin
  2
*D26
 70
    1
 10
0
 20
0
  3
*D26
  1

  0
LINE
  5
BC
100
AcDbEntity
  8
Dimensions
  6
CONTINUOUS
 62
    7
370
    0
100
AcDbLine
 10
13.85355339059327
 20
1.646446609406726
 11
14.55372183372184
 21
1.088873348873349
  0
SOLID
  5
BD
100
AcDbEntity
  8
Dimensions
  6
CONTINUOUS
 62
    7
370
    0
100
AcDbTrace
 10
13.85355339059327
 20
1.646446609406726
 30
0
 11
13.96430244429883
 21
1.584860252199416
 31
0
 12
13.93837005520716
 22
1.552295848950332
 32
0
 13
13.93837005520716
 23
1.552295848950332
 33
0
  0
LINE
  5
BE
100
AcDbEntity
  8
Dimensions
  6
CONTINUOUS
 62
    7
370
    0
100
AcDbLine
 10
14.55372183372184
 20
1.088873348873349
 11
14.79274281274282
 21
1.088873348873349
  0
ENDBLK
  5
60
330
5E
100
AcDbEntity
  8
0
100
AcDbBlockEnd
  0
BLOCK
  5
62
330
61
100
AcDbEntity
  8
0
100
AcDbBlockBegin
  2
*D10
 70
    1
 10
0
 20
0
  3
*D10
  1

  0
LINE
  5
BF
100
AcDbEntity
  8
Dimensions
  6
ByBlock
 62
    0
370
   -2
100
AcDbLine
 10
8.925000000000001
 20
0.1000000000000005
 11
10.55555555555555
 21
0.1000000000000005
  0
SOLID
  5
C0
100
AcDbEntity
  8
Dimensions
  6
ByBlock
 62
    0
370
   -2
100
AcDbTrace
 10
8.925000000000001
 20
0.1000000000000005
 30
0
 11
9.050000000000001
 21
0.1208142328886425
 31
0
 12
9.050000000000001
 22
0.0791857671113585
 32
0
 13
9.050000000000001
 23
0.0791857671113585
 33
0
  0
SOLID
  5
C1
100
AcDbEntity
  8
Dimensions
  6
ByBlock
 62
    0
370
   -2
100
AcDbTrace
 10
12.675
 20
0.1000000000000005
 30
0
 11
12.55
 21
0.07918576711135851
 31
0
 12
12.55
 22
0.1208142328886426
 32
0
 13
12.55
 23
0.1208142328886426
 33
0
  0
LINE
  5
C2
100
AcDbEntity
  8
Dimensions
  6
ByBlock
 62
    0
370
   -2
100
AcDbLine
 10
11.04444444444445
 20
0.1000000000000005
 11
12.675
 21
0.1000000000000005
  0
MTEXT
  5
C3
100
AcDbEntity
  8
Dimensions
  6
CONTINUOUS
 62
    0
370
   -2
100
AcDbMText
 10
10.8
 20
0.1000000000000005
 30
0
 40
0.125
 41
0.3888888888889044
 71
    5
 72
    1
  1
3.750
  7
standard
210
0
220
0
230
1
 50
0
 73
    2
 44
1
  0
LINE
  5
C4
100
AcDbEntity
  8
Dimensions
  6
ByBlock
 62
    0
370
   -2
100
AcDbLine
 10
8.925000000000001
 20
-2.06875
 11
8.925000000000001
 21
0.1625000000000005
  0
LINE
  5
C5
100
AcDbEntity
  8
Dimensions
  6
ByBlock
 62
    0
370
   -2
100
AcDbLine
 10
12.675
 20
-2.06875
 11
12.675
 21
0.1625000000000005
  0
ENDBLK
  5
63
330
61
100
AcDbEntity
  8
0
100
AcDbBlockEnd
  0
BLOCK
  5
65
330
64
100
AcDbEntity
  8
0
100
AcDbBlockBegin
  2
*D12
 70
    1
 10
0
 20
0
  3
*D12
  1

  0
LINE
  5
C6
100
AcDbEntity
  8
Dimensions
  6
ByBlock
 62
    0
370
   -2
100
AcDbLine
 10
0
 20
0.5
 11
4.218055555555552
 21
0.5
  0
SOLID
  5
C7
100
AcDbEntity
  8
Dimensions
  6
ByBlock
 62
    0
370
   -2
100
AcDbTrace
 10
0
 20
0.5
 30
0
 11
0.125
 21
0.520814232888642
 31
0
 12
0.125
 22
0.479185767111358
 32
0
 13
0.125
 23
0.479185767111358
 33
0
  0
SOLID
  5
C8
100
AcDbEntity
  8
Dimensions
  6
ByBlock
 62
    0
370
   -2
100
AcDbTrace
 10
8.925000000000001
 20
0.5
 30
0
 11
8.800000000000001
 21
0.479185767111358
 31
0
 12
8.800000000000001
 22
0.520814232888642
 32
0
 13
8.800000000000001
 23
0.520814232888642
 33
0
  0
LINE
  5
C9
100
AcDbEntity
  8
Dimensions
  6
ByBlock
 62
    0
370
   -2
100
AcDbLine
 10
4.706944444444448
 20
0.5
 11
8.925000000000001
 21
0.5
  0
MTEXT
  5
CA
100
AcDbEntity
  8
Dimensions
  6
CONTINUOUS
 62
    0
370
   -2
100
AcDbMText
 10
4.4625
 20
0.5
 30
0
 40
0.125
 41
0.3888888888888966
 71
    5
 72
    1
  1
8.925
  7
standard
210
0
220
0
230
1
 50
0
 73
    2
 44
1
  0
LINE
  5
CB
100
AcDbEntity
  8
Dimensions
  6
ByBlock
 62
    0
370
   -2
100
AcDbLine
 10
-5.259252743352272e-17
 20
-2.21875
 11
3.827021247335479e-18
 21
0.5625
  0
LINE
  5
CC
100
AcDbEntity
  8
Dimensions
  6
ByBlock
 62
    0
370
   -2
100
AcDbLine
 10
8.925000000000001
 20
-2.06875
 11
8.925000000000001
 21
0.5625
  0
ENDBLK
  5
66
330
64
100
AcDbEntity
  8
0
100
AcDbBlockEnd
  0
BLOCK
  5
68
330
67
100
AcDbEntity
  8
0
100
AcDbBlockBegin
  2
*D11
 70
    1
 10
0
 20
0
  3
*D11
  1

  0
LINE
  5
CD
100
AcDbEntity
  8
Dimensions
  6
ByBlock
 62
    0
370
   -2
100
AcDbLine
 10
8.925000000000001
 20
0.5000000000000004
 11
10.8611111111111
 21
0.5000000000000004
  0
SOLID
  5
CE
100
AcDbEntity
  8
Dimensions
  6
ByBlock
 62
    0
370
   -2
100
AcDbTrace
 10
8.925000000000001
 20
0.5000000000000004
 30
0
 11
9.050000000000001
 21
0.5208142328886425
 31
0
 12
9.050000000000001
 22
0.4791857671113584
 32
0
 13
9.050000000000001
 23
0.4791857671113584
 33
0
  0
SOLID
  5
CF
100
AcDbEntity
  8
Dimensions
  6
ByBlock
 62
    0
370
   -2
100
AcDbTrace
 10
13.3
 20
0.5000000000000004
 30
0
 11
13.175
 21
0.4791857671113584
 31
0
 12
13.175
 22
0.5208142328886425
 32
0
 13
13.175
 23
0.5208142328886425
 33
0
  0
LINE
  5
D0
100
AcDbEntity
  8
Dimensions
  6
ByBlock
 62
    0
370
   -2
100
AcDbLine
 10
11.3638888888889
 20
0.5000000000000004
 11
13.3
 21
0.5000000000000004
  0
MTEXT
  5
D1
100
AcDbEntity
  8
Dimensions
  6
CONTINUOUS
 62
    0
370
   -2
100
AcDbMText
 10
11.1125
 20
0.5000000000000004
 30
0
 40
0.125
 41
0.4027777777777933
 71
    5
 72
    1
  1
4.375
  7
standard
210
0
220
0
230
1
 50
0
 73
    2
 44
1
  0
LINE
  5
D2
100
AcDbEntity
  8
Dimensions
  6
ByBlock
 62
    0
370
   -2
100
AcDbLine
 10
8.925000000000001
 20
-2.06875
 11
8.925000000000001
 21
0.5625000000000004
  0
LINE
  5
D3
100
AcDbEntity
  8
Dimensions
  6
ByBlock
 62
    0
370
   -2
100
AcDbLine
 10
13.3
 20
-2.06875
 11
13.3
 21
0.5625000000000004
  0
ENDBLK
  5
69
330
67
100
AcDbEntity
  8
0
100
AcDbBlockEnd
  0
BLOCK
  5
6B
330
6A
100
AcDbEntity
  8
0
100
AcDbBlockBegin
  2
*D20
 70
    1
 10
0
 20
0
  3
*D20
  1

  0
LINE
  5
D4
100
AcDbEntity
  8
Dimensions
  6
ByBlock
 62
    0
370
   -2
100
AcDbLine
 10
14.5
 20
2.5
 11
14.5
 21
2.55
  0
SOLID
  5
D5
100
AcDbEntity
  8
Dimensions
  6
ByBlock
 62
    0
370
   -2
100
AcDbTrace
 10
14.5
 20
2.5
 30
0
 11
14.47918576711136
 21
2.625
 31
0
 12
14.52081423288864
 22
2.625
 32
0
 13
14.52081423288864
 23
2.625
 33
0
  0
SOLID
  5
D6
100
AcDbEntity
  8
Dimensions
  6
ByBlock
 62
    0
370
   -2
100
AcDbTrace
 10
14.5
 20
2.825
 30
0
 11
14.52081423288864
 21
2.7
 31
0
 12
14.47918576711136
 22
2.7
 32
0
 13
14.47918576711136
 23
2.7
 33
0
  0
LINE
  5
D7
100
AcDbEntity
  8
Dimensions
  6
ByBlock
 62
    0
370
   -2
100
AcDbLine
 10
14.5
 20
2.774999999999999
 11
14.5
 21
2.825
  0
MTEXT
  5
D8
100
AcDbEntity
  8
Dimensions
  6
CONTINUOUS
 62
    0
370
   -2
100
AcDbMText
 10
14.90694444444445
 20
2.6625
 30
0
 40
0.125
 41
0.3888888888889044
 71
    5
 72
    1
  1
0.325
  7
standard
210
0
220
0
230
1
 50
0
 73
    2
 44
1
  0
LINE
  5
D9
100
AcDbEntity
  8
Dimensions
  6
ByBlock
 62
    0
370
   -2
100
AcDbLine
 10
14.53125
 20
2.5
 11
14.5625
 21
2.5
  0
LINE
  5
DA
100
AcDbEntity
  8
Dimensions
  6
ByBlock
 62
    0
370
   -2
100
AcDbLine
 10
13.73125
 20
2.825
 11
14.5625
 21
2.825
  0
ENDBLK
  5
6C
330
6A
100
AcDbEntity
  8
0
100
AcDbBlockEnd
  0
BLOCK
  5
6E
330
6D
100
AcDbEntity
  8
0
100
AcDbBlockBegin
  2
*D19
 70
    1
 10
0
 20
0
  3
*D19
  1

  0
LINE
  5
DB
100
AcDbEntity
  8
Dimensions
  6
ByBlock
 62
    0
370
   -2
100
AcDbLine
 10
-3
 20
-2.25
 11
-3
 21
-2.7625
  0
SOLID
  5
DC
100
AcDbEntity
  8
Dimensions
  6
ByBlock
 62
    0
370
   -2
100
AcDbTrace
 10
-3
 20
-2.25
 30
0
 11
-2.979185767111358
 21
-2.375
 31
0
 12
-3.020814232888642
 22
-2.375
 32
0
 13
-3.020814232888642
 23
-2.375
 33
0
  0
SOLID
  5
DD
100
AcDbEntity
  8
Dimensions
  6
ByBlock
 62
    0
370
   -2
100
AcDbTrace
 10
-3
 20
-3.5
 30
0
 11
-3.020814232888642
 21
-3.375
 31
0
 12
-2.979185767111358
 22
-3.375
 32
0
 13
-2.979185767111358
 23
-3.375
 33
0
  0
LINE
  5
DE
100
AcDbEntity
  8
Dimensions
  6
ByBlock
 62
    0
370
   -2
100
AcDbLine
 10
-3
 20
-2.9875
 11
-3
 21
-3.5
  0
MTEXT
  5
DF
100
AcDbEntity
  8
Dimensions
  6
CONTINUOUS
 62
    0
370
   -2
100
AcDbMText
 10
-3
 20
-2.875
 30
0
 40
0.125
 41
0.3611111111111188
 71
    5
 72
    1
  1
1.250
  7
standard
210
0
220
0
230
1
 50
0
 73
    2
 44
1
  0
LINE
  5
E0
100
AcDbEntity
  8
Dimensions
  6
ByBlock
 62
    0
370
   -2
100
AcDbLine
 10
-0.03125000000000006
 20
-2.25
 11
-3.0625
 21
-2.25
  0
LINE
  5
E1
100
AcDbEntity
  8
Dimensions
  6
ByBlock
 62
    0
370
   -2
100
AcDbLine
 10
-0.03125000000000013
 20
-3.5
 11
-3.0625
 21
-3.5
  0
ENDBLK
  5
6F
330
6D
100
AcDbEntity
  8
0
100
AcDbBlockEnd
  0
BLOCK
  5
71
330
70
100
AcDbEntity
  8
0
100
AcDbBlockBegin
  2
*D17
 70
    1
 10
0
 20
0
  3
*D17
  1

  0
LINE
  5
E2
100
AcDbEntity
  8
Dimensions
  6
ByBlock
 62
    0
370
   -2
100
AcDbLine
 10
-1.004378051096359
 20
-2.25
 11
-1.004378051096359
 21
-2.5125
  0
SOLID
  5
E3
100
AcDbEntity
  8
Dimensions
  6
ByBlock
 62
    0
370
   -2
100
AcDbTrace
 10
-1.004378051096359
 20
-2.25
 30
0
 11
-0.9835638182077171
 21
-2.375
 31
0
 12
-1.025192283985001
 22
-2.375
 32
0
 13
-1.025192283985001
 23
-2.375
 33
0
  0
SOLID
  5
E4
100
AcDbEntity
  8
Dimensions
  6
ByBlock
 62
    0
370
   -2
100
AcDbTrace
 10
-1.004378051096359
 20
-3
 30
0
 11
-1.025192283985001
 21
-2.875
 31
0
 12
-0.9835638182077171
 22
-2.875
 32
0
 13
-0.9835638182077171
 23
-2.875
 33
0
  0
LINE
  5
E5
100
AcDbEntity
  8
Dimensions
  6
ByBlock
 62
    0
370
   -2
100
AcDbLine
 10
-1.004378051096359
 20
-2.7375
 11
-1.004378051096359
 21
-3
  0
MTEXT
  5
E6
100
AcDbEntity
  8
Dimensions
  6
CONTINUOUS
 62
    0
370
   -2
100
AcDbMText
 10
-1.004378051096359
 20
-2.625
 30
0
 40
0.125
 41
0.3888888888888966
 71
    5
 72
    1
  1
0.750
  7
standard
210
0
220
0
230
1
 50
0
 73
    2
 44
1
  0
LINE
  5
E7
100
AcDbEntity
  8
Dimensions
  6
ByBlock
 62
    0
370
   -2
100
AcDbLine
 10
-0.03125000000000006
 20
-2.25
 11
-1.066878051096359
 21
-2.25
  0
LINE
  5
E8
100
AcDbEntity
  8
Dimensions
  6
ByBlock
 62
    0
370
   -2
100
AcDbLine
 10
-0.0312500000000001
 20
-3
 11
-1.066878051096359
 21
-3
  0
ENDBLK
  5
72
330
70
100
AcDbEntity
  8
0
100
AcDbBlockEnd
  0
BLOCK
  5
74
330
73
100
AcDbEntity
  8
0
100
AcDbBlockBegin
  2
*D14
 70
    1
 10
0
 20
0
  3
*D14
  1

  0
LINE
  5
E9
100
AcDbEntity
  8
Dimensions
  6
ByBlock
 62
    0
370
   -2
100
AcDbLine
 10
-1.9
 20
3.125
 11
-1.9
 21
2.925
  0
SOLID
  5
EA
100
AcDbEntity
  8
Dimensions
  6
ByBlock
 62
    0
370
   -2
100
AcDbTrace
 10
-1.9
 20
3.125
 30
0
 11
-1.879185767111358
 21
3
 31
0
 12
-1.920814232888642
 22
3
 32
0
 13
-1.920814232888642
 23
3
 33
0
  0
SOLID
  5
EB
100
AcDbEntity
  8
Dimensions
  6
ByBlock
 62
    0
370
   -2
100
AcDbTrace
 10
-1.9
 20
2.5
 30
0
 11
-1.920814232888642
 21
2.625
 31
0
 12
-1.879185767111358
 22
2.625
 32
0
 13
-1.879185767111358
 23
2.625
 33
0
  0
LINE
  5
EC
100
AcDbEntity
  8
Dimensions
  6
ByBlock
 62
    0
370
   -2
100
AcDbLine
 10
-1.9
 20
2.7
 11
-1.9
 21
2.5
  0
MTEXT
  5
ED
100
AcDbEntity
  8
Dimensions
  6
CONTINUOUS
 62
    0
370
   -2
100
AcDbMText
 10
-1.9
 20
2.8125
 30
0
 40
0.125
 41
0.3888888888889044
 71
    5
 72
    1
  1
0.625
  7
standard
210
0
220
0
230
1
 50
0
 73
    2
 44
1
  0
LINE
  5
EE
100
AcDbEntity
  8
Dimensions
  6
ByBlock
 62
    0
370
   -2
100
AcDbLine
 10
0.5687500000000003
 20
3.125
 11
-1.9625
 21
3.125
  0
LINE
  5
EF
100
AcDbEntity
  8
Dimensions
  6
ByBlock
 62
    0
370
   -2
100
AcDbLine
 10
-0.53125
 20
2.5
 11
-1.9625
 21
2.5
  0
ENDBLK
  5
75
330
73
100
AcDbEntity
  8
0
100
AcDbBlockEnd
  0
BLOCK
  5
77
330
76
100
AcDbEntity
  8
0
100
AcDbBlockBegin
  2
*D5
 70
    1
 10
0
 20
0
  3
*D5
  1

  0
LINE
  5
F0
100
AcDbEntity
  8
Dimensions
  6
ByBlock
 62
    0
370
   -2
100
AcDbLine
 10
6.2
 20
-1.5
 11
6.54583333333333
 21
-1.5
  0
SOLID
  5
F1
100
AcDbEntity
  8
Dimensions
  6
ByBlock
 62
    0
370
   -2
100
AcDbTrace
 10
6.2
 20
-1.5
 30
0
 11
6.325
 21
-1.479185767111358
 31
0
 12
6.325
 22
-1.520814232888642
 32
0
 13
6.325
 23
-1.520814232888642
 33
0
  0
SOLID
  5
F2
100
AcDbEntity
  8
Dimensions
  6
ByBlock
 62
    0
370
   -2
100
AcDbTrace
 10
7.325
 20
-1.5
 30
0
 11
7.2
 21
-1.520814232888642
 31
0
 12
7.2
 22
-1.479185767111358
 32
0
 13
7.2
 23
-1.479185767111358
 33
0
  0
LINE
  5
F3
100
AcDbEntity
  8
Dimensions
  6
ByBlock
 62
    0
370
   -2
100
AcDbLine
 10
6.979166666666671
 20
-1.5
 11
7.325
 21
-1.5
  0
MTEXT
  5
F4
100
AcDbEntity
  8
Dimensions
  6
CONTINUOUS
 62
    0
370
   -2
100
AcDbMText
 10
6.7625
 20
-1.5
 30
0
 40
0.125
 41
0.3333333333333411
 71
    5
 72
    1
  1
1.125
  7
standard
210
0
220
0
230
1
 50
0
 73
    2
 44
1
  0
LINE
  5
F5
100
AcDbEntity
  8
Dimensions
  6
ByBlock
 62
    0
370
   -2
100
AcDbLine
 10
6.2
 20
-2.06875
 11
6.2
 21
-1.4375
  0
LINE
  5
F6
100
AcDbEntity
  8
Dimensions
  6
ByBlock
 62
    0
370
   -2
100
AcDbLine
 10
7.325
 20
-2.06875
 11
7.325
 21
-1.4375
  0
ENDBLK
  5
78
330
76
100
AcDbEntity
  8
0
100
AcDbBlockEnd
  0
BLOCK
  5
7A
330
79
100
AcDbEntity
  8
0
100
AcDbBlockBegin
  2
*D13
 70
    1
 10
0
 20
0
  3
*D13
  1

  0
LINE
  5
F7
100
AcDbEntity
  8
Dimensions
  6
ByBlock
 62
    0
370
   -2
100
AcDbLine
 10
0
 20
0.8999999999999999
 11
6.713888888888889
 21
0.8999999999999998
  0
SOLID
  5
F8
100
AcDbEntity
  8
Dimensions
  6
ByBlock
 62
    0
370
   -2
100
AcDbTrace
 10
0
 20
0.8999999999999999
 30
0
 11
0.125
 21
0.9208142328886419
 31
0
 12
0.125
 22
0.8791857671113579
 32
0
 13
0.125
 23
0.8791857671113579
 33
0
  0
SOLID
  5
F9
100
AcDbEntity
  8
Dimensions
  6
ByBlock
 62
    0
370
   -2
100
AcDbTrace
 10
14
 20
0.8999999999999999
 30
0
 11
13.875
 21
0.8791857671113579
 31
0
 12
13.875
 22
0.9208142328886419
 32
0
 13
13.875
 23
0.9208142328886419
 33
0
  0
LINE
  5
FA
100
AcDbEntity
  8
Dimensions
  6
ByBlock
 62
    0
370
   -2
100
AcDbLine
 10
7.286111111111111
 20
0.8999999999999998
 11
14
 21
0.8999999999999999
  0
MTEXT
  5
FB
100
AcDbEntity
  8
Dimensions
  6
CONTINUOUS
 62
    0
370
   -2
100
AcDbMText
 10
7
 20
0.8999999999999999
 30
0
 40
0.125
 41
0.4722222222222222
 71
    5
 72
    1
  1
14.000
  7
standard
210
0
220
0
230
1
 50
0
 73
    2
 44
1
  0
LINE
  5
FC
100
AcDbEntity
  8
Dimensions
  6
ByBlock
 62
    0
370
   -2
100
AcDbLine
 10
1.913510623667739e-18
 20
-2.21875
 11
3.827021247335479e-18
 21
0.9624999999999999
  0
LINE
  5
FD
100
AcDbEntity
  8
Dimensions
  6
ByBlock
 62
    0
370
   -2
100
AcDbLine
 10
14
 20
-2.21875
 11
14
 21
0.9624999999999999
  0
ENDBLK
  5
7B
330
79
100
AcDbEntity
  8
0
100
AcDbBlockEnd
  0
BLOCK
  5
7D
330
7C
100
AcDbEntity
  8
0
100
AcDbBlockBegin
  2
*D23
 70
    1
 10
0
 20
0
  3
*D23
  1

  0
LINE
  5
FE
100
AcDbEntity
  8
Dimensions
  6
CONTINUOUS
 62
    7
370
    0
100
AcDbLine
 10
-1.157383780145581e-16
 20
-3.25
 11
0.7
 21
-4.199999999999999
  0
LINE
  5
FF
100
AcDbEntity
  8
Dimensions
  6
CONTINUOUS
 62
    7
370
    0
100
AcDbLine
 10
0.7
 20
-4.199999999999999
 11
1.6
 21
-4.199999999999999
  0
SOLID
  5
100
100
AcDbEntity
  8
Dimensions
  6
CONTINUOUS
 62
    7
370
    0
100
AcDbTrace
 10
-1.157383780145581e-16
 20
-3.25
 30
0
 11
0.0909064994432649
 21
-3.338284996741883
 31
0
 12
0.05739326006919748
 22
-3.362978962596459
 32
0
 13
0.05739326006919748
 23
-3.362978962596459
 33
0
  0
ENDBLK
  5
7E
330
7C
100
AcDbEntity
  8
0
100
AcDbBlockEnd
  0
BLOCK
  5
80
330
7F
100
AcDbEntity
  8
0
100
AcDbBlockBegin
  2
*D6
 70
    1
 10
0
 20
0
  3
*D6
  1

  0
LINE
  5
101
100
AcDbEntity
  8
Dimensions
  6
ByBlock
 62
    0
370
   -2
100
AcDbLine
 10
8.925000000000001
 20
-1.5
 11
9.319444444444441
 21
-1.5
  0
SOLID
  5
102
100
AcDbEntity
  8
Dimensions
  6
ByBlock
 62
    0
370
   -2
100
AcDbTrace
 10
8.925000000000001
 20
-1.5
 30
0
 11
9.050000000000001
 21
-1.479185767111358
 31
0
 12
9.050000000000001
 22
-1.520814232888642
 32
0
 13
9.050000000000001
 23
-1.520814232888642
 33
0
  0
SOLID
  5
103
100
AcDbEntity
  8
Dimensions
  6
ByBlock
 62
    0
370
   -2
100
AcDbTrace
 10
10.175
 20
-1.5
 30
0
 11
10.05
 21
-1.520814232888642
 31
0
 12
10.05
 22
-1.479185767111358
 32
0
 13
10.05
 23
-1.479185767111358
 33
0
  0
LINE
  5
104
100
AcDbEntity
  8
Dimensions
  6
ByBlock
 62
    0
370
   -2
100
AcDbLine
 10
9.78055555555556
 20
-1.5
 11
10.175
 21
-1.5
  0
MTEXT
  5
105
100
AcDbEntity
  8
Dimensions
  6
CONTINUOUS
 62
    0
370
   -2
100
AcDbMText
 10
9.550000000000001
 20
-1.5
 30
0
 40
0.125
 41
0.3611111111111188
 71
    5
 72
    1
  1
1.250
  7
standard
210
0
220
0
230
1
 50
0
 73
    2
 44
1
  0
LINE
  5
106
100
AcDbEntity
  8
Dimensions
  6
ByBlock
 62
    0
370
   -2
100
AcDbLine
 10
8.925000000000001
 20
-2.06875
 11
8.925000000000001
 21
-1.4375
  0
LINE
  5
107
100
AcDbEntity
  8
Dimensions
  6
ByBlock
 62
    0
370
   -2
100
AcDbLine
 10
10.175
 20
-2.06875
 11
10.175
 21
-1.4375
  0
ENDBLK
  5
81
330
7F
100
AcDbEntity
  8
0
100
AcDbBlockEnd
  0
BLOCK
  5
83
330
82
100
AcDbEntity
  8
0
100
AcDbBlockBegin
  2
*D8
 70
    1
 10
0
 20
0
  3
*D8
  1

  0
LINE
  5
108
100
AcDbEntity
  8
Dimensions
  6
ByBlock
 62
    0
370
   -2
100
AcDbLine
 10
8.925000000000001
 20
-0.6999999999999995
 11
9.930555555555552
 21
-0.6999999999999995
  0
SOLID
  5
109
100
AcDbEntity
  8
Dimensions
  6
ByBlock
 62
    0
370
   -2
100
AcDbTrace
 10
8.925000000000001
 20
-0.6999999999999995
 30
0
 11
9.050000000000001
 21
-0.6791857671113575
 31
0
 12
9.050000000000001
 22
-0.7208142328886415
 32
0
 13
9.050000000000001
 23
-0.7208142328886415
 33
0
  0
SOLID
  5
10A
100
AcDbEntity
  8
Dimensions
  6
ByBlock
 62
    0
370
   -2
100
AcDbTrace
 10
11.425
 20
-0.6999999999999995
 30
0
 11
11.3
 21
-0.7208142328886415
 31
0
 12
11.3
 22
-0.6791857671113575
 32
0
 13
11.3
 23
-0.6791857671113575
 33
0
  0
LINE
  5
10B
100
AcDbEntity
  8
Dimensions
  6
ByBlock
 62
    0
370
   -2
100
AcDbLine
 10
10.41944444444445
 20
-0.6999999999999995
 11
11.425
 21
-0.6999999999999995
  0
MTEXT
  5
10C
100
AcDbEntity
  8
Dimensions
  6
CONTINUOUS
 62
    0
370
   -2
100
AcDbMText
 10
10.175
 20
-0.6999999999999995
 30
0
 40
0.125
 41
0.3888888888888967
 71
    5
 72
    1
  1
2.500
  7
standard
210
0
220
0
230
1
 50
0
 73
    2
 44
1
  0
LINE
  5
10D
100
AcDbEntity
  8
Dimensions
  6
ByBlock
 62
    0
370
   -2
100
AcDbLine
 10
8.925000000000001
 20
-2.06875
 11
8.925000000000001
 21
-0.6374999999999995
  0
LINE
  5
10E
100
AcDbEntity
  8
Dimensions
  6
ByBlock
 62
    0
370
   -2
100
AcDbLine
 10
11.425
 20
-2.06875
 11
11.425
 21
-0.6374999999999995
  0
ENDBLK
  5
84
330
82
100
AcDbEntity
  8
0
100
AcDbBlockEnd
  0
BLOCK
  5
86
330
85
100
AcDbEntity
  8
0
100
AcDbBlockBegin
  2
*D7
 70
    1
 10
0
 20
0
  3
*D7
  1

  0
LINE
  5
10F
100
AcDbEntity
  8
Dimensions
  6
ByBlock
 62
    0
370
   -2
100
AcDbLine
 10
8.925000000000001
 20
-1.1
 11
9.631944444444441
 21
-1.099999999999999
  0
SOLID
  5
110
100
AcDbEntity
  8
Dimensions
  6
ByBlock
 62
    0
370
   -2
100
AcDbTrace
 10
8.925000000000001
 20
-1.1
 30
0
 11
9.050000000000001
 21
-1.079185767111358
 31
0
 12
9.050000000000001
 22
-1.120814232888642
 32
0
 13
9.050000000000001
 23
-1.120814232888642
 33
0
  0
SOLID
  5
111
100
AcDbEntity
  8
Dimensions
  6
ByBlock
 62
    0
370
   -2
100
AcDbTrace
 10
10.8
 20
-1.1
 30
0
 11
10.675
 21
-1.120814232888642
 31
0
 12
10.675
 22
-1.079185767111358
 32
0
 13
10.675
 23
-1.079185767111358
 33
0
  0
LINE
  5
112
100
AcDbEntity
  8
Dimensions
  6
ByBlock
 62
    0
370
   -2
100
AcDbLine
 10
10.09305555555556
 20
-1.099999999999999
 11
10.8
 21
-1.1
  0
MTEXT
  5
113
100
AcDbEntity
  8
Dimensions
  6
CONTINUOUS
 62
    0
370
   -2
100
AcDbMText
 10
9.862500000000001
 20
-1.1
 30
0
 40
0.125
 41
0.3611111111111188
 71
    5
 72
    1
  1
1.875
  7
standard
210
0
220
0
230
1
 50
0
 73
    2
 44
1
  0
LINE
  5
114
100
AcDbEntity
  8
Dimensions
  6
ByBlock
 62
    0
370
   -2
100
AcDbLine
 10
8.925000000000001
 20
-2.06875
 11
8.925000000000001
 21
-1.0375
  0
LINE
  5
115
100
AcDbEntity
  8
Dimensions
  6
ByBlock
 62
    0
370
   -2
100
AcDbLine
 10
10.8
 20
-2.06875
 11
10.8
 21
-1.0375
  0
ENDBLK
  5
87
330
85
100
AcDbEntity
  8
0
100
AcDbBlockEnd
  0
BLOCK
  5
89
330
88
100
AcDbEntity
  8
0
100
AcDbBlockBegin
  2
*D15
 70
    1
 10
0
 20
0
  3
*D15
  1

  0
LINE
  5
116
100
AcDbEntity
  8
Dimensions
  6
ByBlock
 62
    0
370
   -2
100
AcDbLine
 10
-2.4
 20
3.125
 11
-2.4
 21
2.6125
  0
SOLID
  5
117
100
AcDbEntity
  8
Dimensions
  6
ByBlock
 62
    0
370
   -2
100
AcDbTrace
 10
-2.4
 20
3.125
 30
0
 11
-2.379185767111359
 21
3
 31
0
 12
-2.420814232888642
 22
3
 32
0
 13
-2.420814232888642
 23
3
 33
0
  0
SOLID
  5
118
100
AcDbEntity
  8
Dimensions
  6
ByBlock
 62
    0
370
   -2
100
AcDbTrace
 10
-2.4
 20
1.875
 30
0
 11
-2.420814232888642
 21
2
 31
0
 12
-2.379185767111358
 22
2
 32
0
 13
-2.379185767111358
 23
2
 33
0
  0
LINE
  5
119
100
AcDbEntity
  8
Dimensions
  6
ByBlock
 62
    0
370
   -2
100
AcDbLine
 10
-2.4
 20
2.3875
 11
-2.4
 21
1.875
  0
MTEXT
  5
11A
100
AcDbEntity
  8
Dimensions
  6
CONTINUOUS
 62
    0
370
   -2
100
AcDbMText
 10
-2.4
 20
2.5
 30
0
 40
0.125
 41
0.3611111111111188
 71
    5
 72
    1
  1
1.250
  7
standard
210
0
220
0
230
1
 50
0
 73
    2
 44
1
  0
LINE
  5
11B
100
AcDbEntity
  8
Dimensions
  6
ByBlock
 62
    0
370
   -2
100
AcDbLine
 10
0.5687500000000003
 20
3.125
 11
-2.4625
 21
3.125
  0
LINE
  5
11C
100
AcDbEntity
  8
Dimensions
  6
ByBlock
 62
    0
370
   -2
100
AcDbLine
 10
0.5687500000000003
 20
1.875
 11
-2.4625
 21
1.875
  0
ENDBLK
  5
8A
330
88
100
AcDbEntity
  8
0
100
AcDbBlockEnd
  0
BLOCK
  5
8C
330
8B
100
AcDbEntity
  8
0
100
AcDbBlockBegin
  2
*D24
 70
    1
 10
0
 20
0
  3
*D24
  1

  0
LINE
  5
11D
100
AcDbEntity
  8
Dimensions
  6
CONTINUOUS
 62
    7
370
    0
100
AcDbLine
 10
1.479723816846868
 20
1.810815204437389
 11
2.111344310096477
 21
-0.6443547773877065
  0
SOLID
  5
11E
100
AcDbEntity
  8
Dimensions
  6
CONTINUOUS
 62
    7
370
    0
100
AcDbTrace
 10
1.479723816846868
 20
1.810815204437389
 30
0
 11
1.53102526931342
 21
1.694942889946115
 31
0
 12
1.49070954746986
 22
1.684571210467689
 32
0
 13
1.49070954746986
 23
1.684571210467689
 33
0
  0
LINE
  5
11F
100
AcDbEntity
  8
Dimensions
  6
CONTINUOUS
 62
    7
370
    0
100
AcDbLine
 10
2.111344310096477
 20
-0.6443547773877065
 11
2.30999914265079
 21
-0.6443547773877065
  0
ENDBLK
  5
8D
330
8B
100
AcDbEntity
  8
0
100
AcDbBlockEnd
  0
BLOCK
  5
8F
330
8E
100
AcDbEntity
  8
0
100
AcDbBlockBegin
  2
*D16
 70
    1
 10
0
 20
0
  3
*D16
  1

  0
LINE
  5
120
100
AcDbEntity
  8
Dimensions
  6
ByBlock
 62
    0
370
   -2
100
AcDbLine
 10
-3
 20
3.5
 11
-3
 21
2.6125
  0
SOLID
  5
121
100
AcDbEntity
  8
Dimensions
  6
ByBlock
 62
    0
370
   -2
100
AcDbTrace
 10
-3
 20
3.5
 30
0
 11
-2.979185767111359
 21
3.375
 31
0
 12
-3.020814232888642
 22
3.375
 32
0
 13
-3.020814232888642
 23
3.375
 33
0
  0
SOLID
  5
122
100
AcDbEntity
  8
Dimensions
  6
ByBlock
 62
    0
370
   -2
100
AcDbTrace
 10
-3
 20
1.5
 30
0
 11
-3.020814232888642
 21
1.625
 31
0
 12
-2.979185767111358
 22
1.625
 32
0
 13
-2.979185767111358
 23
1.625
 33
0
  0
LINE
  5
123
100
AcDbEntity
  8
Dimensions
  6
ByBlock
 62
    0
370
   -2
100
AcDbLine
 10
-3
 20
2.3875
 11
-3
 21
1.5
  0
MTEXT
  5
124
100
AcDbEntity
  8
Dimensions
  6
CONTINUOUS
 62
    0
370
   -2
100
AcDbMText
 10
-3
 20
2.5
 30
0
 40
0.125
 41
0.3888888888888888
 71
    5
 72
    1
  1
2.000
  7
standard
210
0
220
0
230
1
 50
0
 73
    2
 44
1
  0
LINE
  5
125
100
AcDbEntity
  8
Dimensions
  6
ByBlock
 62
    0
370
   -2
100
AcDbLine
 10
0.4687500000000004
 20
3.5
 11
-3.0625
 21
3.5
  0
LINE
  5
126
100
AcDbEntity
  8
Dimensions
  6
ByBlock
 62
    0
370
   -2
100
AcDbLine
 10
0.4687500000000004
 20
1.5
 11
-3.0625
 21
1.5
  0
ENDBLK
  5
90
330
8E
100
AcDbEntity
  8
0
100
AcDbBlockEnd
  0
BLOCK
  5
92
330
91
100
AcDbEntity
  8
0
100
AcDbBlockBegin
  2
*D3
 70
    1
 10
0
 20
0
  3
*D3
  1

  0
LINE
  5
127
100
AcDbEntity
  8
Dimensions
  6
ByBlock
 62
    0
370
   -2
100
AcDbLine
 10
3.95
 20
-1.5
 11
4.344444444444441
 21
-1.5
  0
SOLID
  5
128
100
AcDbEntity
  8
Dimensions
  6
ByBlock
 62
    0
370
   -2
100
AcDbTrace
 10
3.95
 20
-1.5
 30
0
 11
4.075
 21
-1.479185767111358
 31
0
 12
4.075
 22
-1.520814232888642
 32
0
 13
4.075
 23
-1.520814232888642
 33
0
  0
SOLID
  5
129
100
AcDbEntity
  8
Dimensions
  6
ByBlock
 62
    0
370
   -2
100
AcDbTrace
 10
5.2
 20
-1.5
 30
0
 11
5.075
 21
-1.520814232888642
 31
0
 12
5.075
 22
-1.479185767111358
 32
0
 13
5.075
 23
-1.479185767111358
 33
0
  0
LINE
  5
12A
100
AcDbEntity
  8
Dimensions
  6
ByBlock
 62
    0
370
   -2
100
AcDbLine
 10
4.80555555555556
 20
-1.5
 11
5.2
 21
-1.5
  0
MTEXT
  5
12B
100
AcDbEntity
  8
Dimensions
  6
CONTINUOUS
 62
    0
370
   -2
100
AcDbMText
 10
4.575
 20
-1.5
 30
0
 40
0.125
 41
0.3611111111111188
 71
    5
 72
    1
  1
1.250
  7
standard
210
0
220
0
230
1
 50
0
 73
    2
 44
1
  0
LINE
  5
12C
100
AcDbEntity
  8
Dimensions
  6
ByBlock
 62
    0
370
   -2
100
AcDbLine
 10
3.95
 20
-2.06875
 11
3.95
 21
-1.4375
  0
LINE
  5
12D
100
AcDbEntity
  8
Dimensions
  6
ByBlock
 62
    0
370
   -2
100
AcDbLine
 10
5.2
 20
-2.06875
 11
5.2
 21
-1.4375
  0
ENDBLK
  5
93
330
91
100
AcDbEntity
  8
0
100
AcDbBlockEnd
  0
BLOCK
  5
95
330
94
100
AcDbEntity
  8
0
100
AcDbBlockBegin
  2
*D18
 70
    1
 10
0
 20
0
  3
*D18
  1

  0
LINE
  5
12E
100
AcDbEntity
  8
Dimensions
  6
ByBlock
 62
    0
370
   -2
100
AcDbLine
 10
-2
 20
-2.75
 11
-2
 21
-3.0125
  0
SOLID
  5
12F
100
AcDbEntity
  8
Dimensions
  6
ByBlock
 62
    0
370
   -2
100
AcDbTrace
 10
-2
 20
-3
 30
0
 11
-2.020814232888642
 21
-2.875
 31
0
 12
-1.979185767111358
 22
-2.875
 32
0
 13
-1.979185767111358
 23
-2.875
 33
0
  0
SOLID
  5
130
100
AcDbEntity
  8
Dimensions
  6
ByBlock
 62
    0
370
   -2
100
AcDbTrace
 10
-2
 20
-3.25
 30
0
 11
-1.979185767111358
 21
-3.375
 31
0
 12
-2.020814232888642
 22
-3.375
 32
0
 13
-2.020814232888642
 23
-3.375
 33
0
  0
LINE
  5
131
100
AcDbEntity
  8
Dimensions
  6
ByBlock
 62
    0
370
   -2
100
AcDbLine
 10
-2
 20
-3.2375
 11
-2
 21
-3.5
  0
MTEXT
  5
132
100
AcDbEntity
  8
Dimensions
  6
CONTINUOUS
 62
    0
370
   -2
100
AcDbMText
 10
-1.630555555555552
 20
-3.125
 30
0
 40
0.125
 41
0.3888888888888966
 71
    5
 72
    1
  1
0.250
  7
standard
210
0
220
0
230
1
 50
0
 73
    2
 44
1
  0
LINE
  5
133
100
AcDbEntity
  8
Dimensions
  6
ByBlock
 62
    0
370
   -2
100
AcDbLine
 10
-0.0312500000000001
 20
-3
 11
-2.0625
 21
-3
  0
LINE
  5
134
100
AcDbEntity
  8
Dimensions
  6
ByBlock
 62
    0
370
   -2
100
AcDbLine
 10
-0.03125000000000012
 20
-3.25
 11
-2.0625
 21
-3.25
  0
ENDBLK
  5
96
330
94
100
AcDbEntity
  8
0
100
AcDbBlockEnd
  0
BLOCK
  5
98
330
97
100
AcDbEntity
  8
0
100
AcDbBlockBegin
  2
*D21
 70
    1
 10
0
 20
0
  3
*D21
  1

  0
LINE
  5
135
100
AcDbEntity
  8
Dimensions
  6
ByBlock
 62
    0
370
   -2
100
AcDbLine
 10
14.5
 20
1.499999999999999
 11
14.5
 21
1.887499999999999
  0
SOLID
  5
136
100
AcDbEntity
  8
Dimensions
  6
ByBlock
 62
    0
370
   -2
100
AcDbTrace
 10
14.5
 20
1.499999999999999
 30
0
 11
14.47918576711136
 21
1.624999999999999
 31
0
 12
14.52081423288864
 22
1.624999999999999
 32
0
 13
14.52081423288864
 23
1.624999999999999
 33
0
  0
SOLID
  5
137
100
AcDbEntity
  8
Dimensions
  6
ByBlock
 62
    0
370
   -2
100
AcDbTrace
 10
14.5
 20
2.5
 30
0
 11
14.52081423288864
 21
2.375
 31
0
 12
14.47918576711136
 22
2.375
 32
0
 13
14.47918576711136
 23
2.375
 33
0
  0
LINE
  5
138
100
AcDbEntity
  8
Dimensions
  6
ByBlock
 62
    0
370
   -2
100
AcDbLine
 10
14.5
 20
2.112499999999999
 11
14.5
 21
2.5
  0
MTEXT
  5
139
100
AcDbEntity
  8
Dimensions
  6
CONTINUOUS
 62
    0
370
   -2
100
AcDbMText
 10
14.5
 20
1.999999999999999
 30
0
 40
0.125
 41
0.3611111111111111
 71
    5
 72
    1
  1
1.000
  7
standard
210
0
220
0
230
1
 50
0
 73
    2
 44
1
  0
LINE
  5
13A
100
AcDbEntity
  8
Dimensions
  6
ByBlock
 62
    0
370
   -2
100
AcDbLine
 10
13.53125012893753
 20
1.499999999999999
 11
14.5625
 21
1.499999999999999
  0
LINE
  5
13B
100
AcDbEntity
  8
Dimensions
  6
ByBlock
 62
    0
370
   -2
100
AcDbLine
 10
14.19125
 20
2.5
 11
14.5625
 21
2.5
  0
ENDBLK
  5
99
330
97
100
AcDbEntity
  8
0
100
AcDbBlockEnd
  0
BLOCK
  5
9B
330
9A
100
AcDbEntity
  8
0
100
AcDbBlockBegin
  2
*D4
 70
    1
 10
0
 20
0
  3
*D4
  1

  0
LINE
  5
13C
100
AcDbEntity
  8
Dimensions
  6
ByBlock
 62
    0
370
   -2
100
AcDbLine
 10
5.2
 20
-1.5
 11
5.469444444444445
 21
-1.5
  0
SOLID
  5
13D
100
AcDbEntity
  8
Dimensions
  6
ByBlock
 62
    0
370
   -2
100
AcDbTrace
 10
5.2
 20
-1.5
 30
0
 11
5.325
 21
-1.479185767111358
 31
0
 12
5.325
 22
-1.520814232888642
 32
0
 13
5.325
 23
-1.520814232888642
 33
0
  0
SOLID
  5
13E
100
AcDbEntity
  8
Dimensions
  6
ByBlock
 62
    0
370
   -2
100
AcDbTrace
 10
6.2
 20
-1.5
 30
0
 11
6.075
 21
-1.520814232888642
 31
0
 12
6.075
 22
-1.479185767111358
 32
0
 13
6.075
 23
-1.479185767111358
 33
0
  0
LINE
  5
13F
100
AcDbEntity
  8
Dimensions
  6
ByBlock
 62
    0
370
   -2
100
AcDbLine
 10
5.930555555555555
 20
-1.5
 11
6.2
 21
-1.5
  0
MTEXT
  5
140
100
AcDbEntity
  8
Dimensions
  6
CONTINUOUS
 62
    0
370
   -2
100
AcDbMText
 10
5.7
 20
-1.5
 30
0
 40
0.125
 41
0.3611111111111111
 71
    5
 72
    1
  1
1.000
  7
standard
210
0
220
0
230
1
 50
0
 73
    2
 44
1
  0
LINE
  5
141
100
AcDbEntity
  8
Dimensions
  6
ByBlock
 62
    0
370
   -2
100
AcDbLine
 10
5.2
 20
-2.06875
 11
5.2
 21
-1.4375
  0
LINE
  5
142
100
AcDbEntity
  8
Dimensions
  6
ByBlock
 62
    0
370
   -2
100
AcDbLine
 10
6.2
 20
-2.06875
 11
6.2
 21
-1.4375
  0
ENDBLK
  5
9C
330
9A
100
AcDbEntity
  8
0
100
AcDbBlockEnd
  0
ENDSEC
  0
SECTION
  2
ENTITIES
  0
HATCH
  5
143
100
AcDbEntity
  8
Dimensions
  6
CONTINUOUS
 62
  256
370
    5
100
AcDbHatch
 10
0
 20
0
 30
0
210
0
220
0
230
1
  2
ansi31
 70
    0
 71
    0
 91
    1
 92
    0
 93
    4
 72
    1
 10
-1.004302930252162e-16
 20
-3
 11
-1.157383780145581e-16
 21
-3.25
 72
    1
 10
-1.157383780145581e-16
 20
-3.25
 11
0.8
 21
-3.25
 72
    1
 10
0.8
 20
-3.25
 11
0.8
 21
-3
 72
    1
 10
0.8
 20
-3
 11
-1.004302930252162e-16
 21
-3
 97
    0
 75
    0
 76
    1
 52
1.570796326794897
 41
0.05
 77
    0
 78
    0
 98
    0
  0
HATCH
  5
144
100
AcDbEntity
  8
Dimensions
  6
CONTINUOUS
 62
  256
370
    5
100
AcDbHatch
 10
0
 20
0
 30
0
210
0
220
0
230
1
  2
ansi31
 70
    0
 71
    0
 91
    1
 92
    0
 93
    4
 72
    1
 10
1.1
 20
-3
 11
1.3
 21
-3
 72
    1
 10
1.3
 20
-3
 11
1.3
 21
-3.25
 72
    1
 10
1.3
 20
-3.25
 11
1.1
 21
-3.25
 72
    1
 10
1.1
 20
-3.25
 11
1.1
 21
-3
 97
    0
 75
    0
 76
    1
 52
1.570796326794897
 41
0.05
 77
    0
 78
    0
 98
    0
  0
HATCH
  5
145
100
AcDbEntity
  8
Dimensions
  6
CONTINUOUS
 62
  256
370
    5
100
AcDbHatch
 10
0
 20
0
 30
0
210
0
220
0
230
1
  2
ansi31
 70
    0
 71
    0
 91
    1
 92
    0
 93
    4
 72
    1
 10
1.6
 20
-3
 11
3.800000000000001
 21
-3
 72
    1
 10
3.800000000000001
 20
-3
 11
3.800000000000001
 21
-3.25
 72
    1
 10
3.800000000000001
 20
-3.25
 11
1.6
 21
-3.25
 72
    1
 10
1.6
 20
-3.25
 11
1.6
 21
-3
 97
    0
 75
    0
 76
    1
 52
1.570796326794897
 41
0.05
 77
    0
 78
    0
 98
    0
  0
HATCH
  5
146
100
AcDbEntity
  8
Dimensions
  6
CONTINUOUS
 62
  256
370
    5
100
AcDbHatch
 10
0
 20
0
 30
0
210
0
220
0
230
1
  2
ansi31
 70
    0
 71
    0
 91
    1
 92
    0
 93
    4
 72
    1
 10
4.100000000000001
 20
-3
 11
5.050000000000001
 21
-3
 72
    1
 10
5.050000000000001
 20
-3
 11
5.050000000000001
 21
-3.25
 72
    1
 10
5.050000000000001
 20
-3.25
 11
4.100000000000001
 21
-3.25
 72
    1
 10
4.100000000000001
 20
-3.25
 11
4.100000000000001
 21
-3
 97
    0
 75
    0
 76
    1
 52
1.570796326794897
 41
0.05
 77
    0
 78
    0
 98
    0
  0
HATCH
  5
147
100
AcDbEntity
  8
Dimensions
  6
CONTINUOUS
 62
  256
370
    5
100
AcDbHatch
 10
0
 20
0
 30
0
210
0
220
0
230
1
  2
ansi31
 70
    0
 71
    0
 91
    1
 92
    0
 93
    4
 72
    1
 10
5.35
 20
-3
 11
6.050000000000001
 21
-3
 72
    1
 10
6.050000000000001
 20
-3
 11
6.050000000000001
 21
-3.25
 72
    1
 10
6.050000000000001
 20
-3.250000000000001
 11
5.35
 21
-3.25
 72
    1
 10
5.35
 20
-3.25
 11
5.35
 21
-3
 97
    0
 75
    0
 76
    1
 52
1.570796326794897
 41
0.05
 77
    0
 78
    0
 98
    0
  0
HATCH
  5
148
100
AcDbEntity
  8
Dimensions
  6
CONTINUOUS
 62
  256
370
    5
100
AcDbHatch
 10
0
 20
0
 30
0
210
0
220
0
230
1
  2
ansi31
 70
    0
 71
    0
 91
    1
 92
    0
 93
    4
 72
    1
 10
6.35
 20
-3
 11
7.175000000000001
 21
-3
 72
    1
 10
7.175000000000001
 20
-3
 11
7.175000000000001
 21
-3.25
 72
    1
 10
7.175000000000001
 20
-3.25
 11
6.35
 21
-3.25
 72
    1
 10
6.35
 20
-3.25
 11
6.35
 21
-3
 97
    0
 75
    0
 76
    1
 52
1.570796326794897
 41
0.05
 77
    0
 78
    0
 98
    0
  0
HATCH
  5
149
100
AcDbEntity
  8
Dimensions
  6
CONTINUOUS
 62
  256
370
    5
100
AcDbHatch
 10
0
 20
0
 30
0
210
0
220
0
230
1
  2
ansi31
 70
    0
 71
    0
 91
    1
 92
    0
 93
    4
 72
    1
 10
7.475
 20
-3
 11
8.775000000000002
 21
-3
 72
    1
 10
8.775000000000002
 20
-3
 11
8.775000000000002
 21
-3.25
 72
    1
 10
8.775000000000002
 20
-3.25
 11
7.475
 21
-3.25
 72
    1
 10
7.475
 20
-3.25
 11
7.475
 21
-3
 97
    0
 75
    0
 76
    1
 52
1.570796326794897
 41
0.05
 77
    0
 78
    0
 98
    0
  0
HATCH
  5
14A
100
AcDbEntity
  8
Dimensions
  6
CONTINUOUS
 62
  256
370
    5
100
AcDbHatch
 10
0
 20
0
 30
0
210
0
220
0
230
1
  2
ansi31
 70
    0
 71
    0
 91
    1
 92
    0
 93
    4
 72
    1
 10
9.074999999999999
 20
-3
 11
9.400000000000002
 21
-3
 72
    1
 10
9.400000000000002
 20
-3
 11
9.400000000000002
 21
-3.250000000000001
 72
    1
 10
9.400000000000002
 20
-3.250000000000001
 11
9.074999999999999
 21
-3.25
 72
    1
 10
9.074999999999999
 20
-3.25
 11
9.074999999999999
 21
-3
 97
    0
 75
    0
 76
    1
 52
1.570796326794897
 41
0.05
 77
    0
 78
    0
 98
    0
  0
HATCH
  5
14B
100
AcDbEntity
  8
Dimensions
  6
CONTINUOUS
 62
  256
370
    5
100
AcDbHatch
 10
0
 20
0
 30
0
210
0
220
0
230
1
  2
ansi31
 70
    0
 71
    0
 91
    1
 92
    0
 93
    4
 72
    1
 10
9.699999999999999
 20
-3
 11
10.025
 21
-3
 72
    1
 10
10.025
 20
-3
 11
10.025
 21
-3.25
 72
    1
 10
10.025
 20
-3.25
 11
9.699999999999999
 21
-3.25
 72
    1
 10
9.699999999999999
 20
-3.25
 11
9.699999999999999
 21
-3
 97
    0
 75
    0
 76
    1
 52
1.570796326794897
 41
0.05
 77
    0
 78
    0
 98
    0
  0
HATCH
  5
14C
100
AcDbEntity
  8
Dimensions
  6
CONTINUOUS
 62
  256
370
    5
100
AcDbHatch
 10
0
 20
0
 30
0
210
0
220
0
230
1
  2
ansi31
 70
    0
 71
    0
 91
    1
 92
    0
 93
    4
 72
    1
 10
10.325
 20
-3
 11
10.65
 21
-3
 72
    1
 10
10.65
 20
-3
 11
10.65
 21
-3.250000000000001
 72
    1
 10
10.65
 20
-3.250000000000001
 11
10.325
 21
-3.25
 72
    1
 10
10.325
 20
-3.25
 11
10.325
 21
-3
 97
    0
 75
    0
 76
    1
 52
1.570796326794897
 41
0.05
 77
    0
 78
    0
 98
    0
  0
HATCH
  5
14D
100
AcDbEntity
  8
Dimensions
  6
CONTINUOUS
 62
  256
370
    5
100
AcDbHatch
 10
0
 20
0
 30
0
210
0
220
0
230
1
  2
ansi31
 70
    0
 71
    0
 91
    1
 92
    0
 93
    4
 72
    1
 10
11.575
 20
-3
 11
11.9
 21
-3
 72
    1
 10
11.9
 20
-3
 11
11.9
 21
-3.250000000000001
 72
    1
 10
11.9
 20
-3.250000000000001
 11
11.575
 21
-3.249999999999999
 72
    1
 10
11.575
 20
-3.249999999999999
 11
11.575
 21
-3
 97
    0
 75
    0
 76
    1
 52
1.570796326794897
 41
0.05
 77
    0
 78
    0
 98
    0
  0
HATCH
  5
14E
100
AcDbEntity
  8
Dimensions
  6
CONTINUOUS
 62
  256
370
    5
100
AcDbHatch
 10
0
 20
0
 30
0
210
0
220
0
230
1
  2
ansi31
 70
    0
 71
    0
 91
    1
 92
    0
 93
    4
 72
    1
 10
10.95
 20
-3
 11
11.275
 21
-3
 72
    1
 10
11.275
 20
-3
 11
11.275
 21
-3.250000000000001
 72
    1
 10
11.275
 20
-3.250000000000001
 11
10.95
 21
-3.25
 72
    1
 10
10.95
 20
-3.25
 11
10.95
 21
-3
 97
    0
 75
    0
 76
    1
 52
1.570796326794897
 41
0.05
 77
    0
 78
    0
 98
    0
  0
HATCH
  5
14F
100
AcDbEntity
  8
Dimensions
  6
CONTINUOUS
 62
  256
370
    5
100
AcDbHatch
 10
0
 20
0
 30
0
210
0
220
0
230
1
  2
ansi31
 70
    0
 71
    0
 91
    1
 92
    0
 93
    4
 72
    1
 10
12.2
 20
-3
 11
12.525
 21
-3
 72
    1
 10
12.525
 20
-3
 11
12.525
 21
-3.25
 72
    1
 10
12.525
 20
-3.25
 11
12.2
 21
-3.25
 72
    1
 10
12.2
 20
-3.25
 11
12.2
 21
-3
 97
    0
 75
    0
 76
    1
 52
1.570796326794897
 41
0.05
 77
    0
 78
    0
 98
    0
  0
HATCH
  5
150
100
AcDbEntity
  8
Dimensions
  6
CONTINUOUS
 62
  256
370
    5
100
AcDbHatch
 10
0
 20
0
 30
0
210
0
220
0
230
1
  2
ansi31
 70
    0
 71
    0
 91
    1
 92
    0
 93
    4
 72
    1
 10
12.825
 20
-3.25
 11
13.15
 21
-3.250000000000001
 72
    1
 10
13.15
 20
-3.250000000000001
 11
13.15
 21
-3
 72
    1
 10
13.15
 20
-3
 11
12.825
 21
-3
 72
    1
 10
12.825
 20
-3
 11
12.825
 21
-3.25
 97
    0
 75
    0
 76
    1
 52
1.570796326794897
 41
0.05
 77
    0
 78
    0
 98
    0
  0
HATCH
  5
151
100
AcDbEntity
  8
Dimensions
  6
CONTINUOUS
 62
  256
370
    5
100
AcDbHatch
 10
0
 20
0
 30
0
210
0
220
0
230
1
  2
ansi31
 70
    0
 71
    0
 91
    1
 92
    0
 93
    4
 72
    1
 10
14
 20
-3
 11
14
 21
-3.250000000000001
 72
    1
 10
14
 20
-3.250000000000001
 11
13.45
 21
-3.25
 72
    1
 10
13.45
 20
-3.25
 11
13.45
 21
-3
 72
    1
 10
13.45
 20
-3
 11
14
 21
-3
 97
    0
 75
    0
 76
    1
 52
1.570796326794897
 41
0.05
 77
    0
 78
    0
 98
    0
  0
HATCH
  5
152
100
AcDbEntity
  8
Dimensions
  6
CONTINUOUS
 62
  256
370
    5
100
AcDbHatch
 10
0
 20
0
 30
0
210
0
220
0
230
1
  2
ansi31
 70
    0
 71
    0
 91
    1
 92
    0
 93
    7
 72
    1
 10
13.4
 20
-2.7
 11
13.4
 21
-3.5
 72
    1
 10
13.4
 20
-3.5
 11
13.45
 21
-3.5
 72
    1
 10
13.45
 20
-3.5
 11
13.45
 21
-2.425
 72
    1
 10
13.45
 20
-2.425
 11
13.4
 21
-2.275
 72
    1
 10
13.4
 20
-2.275
 11
13.375
 21
-2.25
 72
    1
 10
13.375
 20
-2.25
 11
13.375
 21
-2.684978484524311
 72
    1
 10
13.375
 20
-2.684978484524311
 11
13.4
 21
-2.7
 97
    0
 75
    0
 76
    1
 52
0
 41
0.05
 77
    0
 78
    0
 98
    0
  0
HATCH
  5
153
100
AcDbEntity
  8
Dimensions
  6
CONTINUOUS
 62
  256
370
    5
100
AcDbHatch
 10
0
 20
0
 30
0
210
0
220
0
230
1
  2
ansi31
 70
    0
 71
    0
 91
    1
 92
    0
 93
    7
 72
    1
 10
13.2
 20
-2.7
 11
13.2
 21
-3.5
 72
    1
 10
13.2
 20
-3.5
 11
13.15
 21
-3.5
 72
    1
 10
13.15
 20
-3.5
 11
13.15
 21
-2.424999999999999
 72
    1
 10
13.15
 20
-2.424999999999999
 11
13.2
 21
-2.275
 72
    1
 10
13.2
 20
-2.275
 11
13.225
 21
-2.25
 72
    1
 10
13.225
 20
-2.25
 11
13.225
 21
-2.684978484524311
 72
    1
 10
13.225
 20
-2.684978484524311
 11
13.2
 21
-2.7
 97
    0
 75
    0
 76
    1
 52
0
 41
0.05
 77
    0
 78
    0
 98
    0
  0
HATCH
  5
154
100
AcDbEntity
  8
Dimensions
  6
CONTINUOUS
 62
  256
370
    5
100
AcDbHatch
 10
0
 20
0
 30
0
210
0
220
0
230
1
  2
ansi31
 70
    0
 71
    0
 91
    1
 92
    0
 93
    7
 72
    1
 10
12.775
 20
-2.7
 11
12.775
 21
-3.5
 72
    1
 10
12.775
 20
-3.5
 11
12.825
 21
-3.5
 72
    1
 10
12.825
 20
-3.5
 11
12.825
 21
-2.425
 72
    1
 10
12.825
 20
-2.425
 11
12.775
 21
-2.275
 72
    1
 10
12.775
 20
-2.275
 11
12.75
 21
-2.25
 72
    1
 10
12.75
 20
-2.25
 11
12.75
 21
-2.684978484524311
 72
    1
 10
12.75
 20
-2.684978484524311
 11
12.775
 21
-2.7
 97
    0
 75
    0
 76
    1
 52
0
 41
0.05
 77
    0
 78
    0
 98
    0
  0
HATCH
  5
155
100
AcDbEntity
  8
Dimensions
  6
CONTINUOUS
 62
  256
370
    5
100
AcDbHatch
 10
0
 20
0
 30
0
210
0
220
0
230
1
  2
ansi31
 70
    0
 71
    0
 91
    1
 92
    0
 93
    7
 72
    1
 10
12.575
 20
-2.7
 11
12.575
 21
-3.5
 72
    1
 10
12.575
 20
-3.5
 11
12.525
 21
-3.5
 72
    1
 10
12.525
 20
-3.5
 11
12.525
 21
-2.424999999999999
 72
    1
 10
12.525
 20
-2.424999999999999
 11
12.575
 21
-2.275
 72
    1
 10
12.575
 20
-2.275
 11
12.6
 21
-2.25
 72
    1
 10
12.6
 20
-2.25
 11
12.6
 21
-2.684978484524311
 72
    1
 10
12.6
 20
-2.684978484524311
 11
12.575
 21
-2.7
 97
    0
 75
    0
 76
    1
 52
0
 41
0.05
 77
    0
 78
    0
 98
    0
  0
HATCH
  5
156
100
AcDbEntity
  8
Dimensions
  6
CONTINUOUS
 62
  256
370
    5
100
AcDbHatch
 10
0
 20
0
 30
0
210
0
220
0
230
1
  2
ansi31
 70
    0
 71
    0
 91
    1
 92
    0
 93
    7
 72
    1
 10
12.15
 20
-2.7
 11
12.15
 21
-3.5
 72
    1
 10
12.15
 20
-3.5
 11
12.2
 21
-3.5
 72
    1
 10
12.2
 20
-3.5
 11
12.2
 21
-2.425
 72
    1
 10
12.2
 20
-2.425
 11
12.15
 21
-2.275
 72
    1
 10
12.15
 20
-2.275
 11
12.125
 21
-2.25
 72
    1
 10
12.125
 20
-2.25
 11
12.125
 21
-2.684978484524311
 72
    1
 10
12.125
 20
-2.684978484524311
 11
12.15
 21
-2.7
 97
    0
 75
    0
 76
    1
 52
0
 41
0.05
 77
    0
 78
    0
 98
    0
  0
HATCH
  5
157
100
AcDbEntity
  8
Dimensions
  6
CONTINUOUS
 62
  256
370
    5
100
AcDbHatch
 10
0
 20
0
 30
0
210
0
220
0
230
1
  2
ansi31
 70
    0
 71
    0
 91
    1
 92
    0
 93
    7
 72
    1
 10
11.95
 20
-2.7
 11
11.95
 21
-3.5
 72
    1
 10
11.95
 20
-3.5
 11
11.9
 21
-3.5
 72
    1
 10
11.9
 20
-3.5
 11
11.9
 21
-2.424999999999999
 72
    1
 10
11.9
 20
-2.424999999999999
 11
11.95
 21
-2.275
 72
    1
 10
11.95
 20
-2.275
 11
11.975
 21
-2.25
 72
    1
 10
11.975
 20
-2.25
 11
11.975
 21
-2.684978484524311
 72
    1
 10
11.975
 20
-2.684978484524311
 11
11.95
 21
-2.7
 97
    0
 75
    0
 76
    1
 52
0
 41
0.05
 77
    0
 78
    0
 98
    0
  0
HATCH
  5
158
100
AcDbEntity
  8
Dimensions
  6
CONTINUOUS
 62
  256
370
    5
100
AcDbHatch
 10
0
 20
0
 30
0
210
0
220
0
230
1
  2
ansi31
 70
    0
 71
    0
 91
    1
 92
    0
 93
    7
 72
    1
 10
11.525
 20
-2.7
 11
11.525
 21
-3.5
 72
    1
 10
11.525
 20
-3.5
 11
11.575
 21
-3.5
 72
    1
 10
11.575
 20
-3.5
 11
11.575
 21
-2.425
 72
    1
 10
11.575
 20
-2.425
 11
11.525
 21
-2.275
 72
    1
 10
11.525
 20
-2.275
 11
11.5
 21
-2.25
 72
    1
 10
11.5
 20
-2.25
 11
11.5
 21
-2.684978484524311
 72
    1
 10
11.5
 20
-2.684978484524311
 11
11.525
 21
-2.7
 97
    0
 75
    0
 76
    1
 52
0
 41
0.05
 77
    0
 78
    0
 98
    0
  0
HATCH
  5
159
100
AcDbEntity
  8
Dimensions
  6
CONTINUOUS
 62
  256
370
    5
100
AcDbHatch
 10
0
 20
0
 30
0
210
0
220
0
230
1
  2
ansi31
 70
    0
 71
    0
 91
    1
 92
    0
 93
    7
 72
    1
 10
11.325
 20
-2.7
 11
11.325
 21
-3.5
 72
    1
 10
11.325
 20
-3.5
 11
11.275
 21
-3.5
 72
    1
 10
11.275
 20
-3.5
 11
11.275
 21
-2.424999999999999
 72
    1
 10
11.275
 20
-2.424999999999999
 11
11.325
 21
-2.275
 72
    1
 10
11.325
 20
-2.275
 11
11.35
 21
-2.25
 72
    1
 10
11.35
 20
-2.25
 11
11.35
 21
-2.684978484524311
 72
    1
 10
11.35
 20
-2.684978484524311
 11
11.325
 21
-2.7
 97
    0
 75
    0
 76
    1
 52
0
 41
0.05
 77
    0
 78
    0
 98
    0
  0
HATCH
  5
15A
100
AcDbEntity
  8
Dimensions
  6
CONTINUOUS
 62
  256
370
    5
100
AcDbHatch
 10
0
 20
0
 30
0
210
0
220
0
230
1
  2
ansi31
 70
    0
 71
    0
 91
    1
 92
    0
 93
    7
 72
    1
 10
10.9
 20
-2.7
 11
10.9
 21
-3.5
 72
    1
 10
10.9
 20
-3.5
 11
10.95
 21
-3.5
 72
    1
 10
10.95
 20
-3.5
 11
10.95
 21
-2.425
 72
    1
 10
10.95
 20
-2.425
 11
10.9
 21
-2.275
 72
    1
 10
10.9
 20
-2.275
 11
10.875
 21
-2.25
 72
    1
 10
10.875
 20
-2.25
 11
10.875
 21
-2.684978484524311
 72
    1
 10
10.875
 20
-2.684978484524311
 11
10.9
 21
-2.7
 97
    0
 75
    0
 76
    1
 52
0
 41
0.05
 77
    0
 78
    0
 98
    0
  0
HATCH
  5
15B
100
AcDbEntity
  8
Dimensions
  6
CONTINUOUS
 62
  256
370
    5
100
AcDbHatch
 10
0
 20
0
 30
0
210
0
220
0
230
1
  2
ansi31
 70
    0
 71
    0
 91
    1
 92
    0
 93
    7
 72
    1
 10
10.7
 20
-2.7
 11
10.7
 21
-3.5
 72
    1
 10
10.7
 20
-3.5
 11
10.65
 21
-3.5
 72
    1
 10
10.65
 20
-3.5
 11
10.65
 21
-2.424999999999999
 72
    1
 10
10.65
 20
-2.424999999999999
 11
10.7
 21
-2.275
 72
    1
 10
10.7
 20
-2.275
 11
10.725
 21
-2.25
 72
    1
 10
10.725
 20
-2.25
 11
10.725
 21
-2.684978484524311
 72
    1
 10
10.725
 20
-2.684978484524311
 11
10.7
 21
-2.7
 97
    0
 75
    0
 76
    1
 52
0
 41
0.05
 77
    0
 78
    0
 98
    0
  0
HATCH
  5
15C
100
AcDbEntity
  8
Dimensions
  6
CONTINUOUS
 62
  256
370
    5
100
AcDbHatch
 10
0
 20
0
 30
0
210
0
220
0
230
1
  2
ansi31
 70
    0
 71
    0
 91
    1
 92
    0
 93
    7
 72
    1
 10
10.275
 20
-2.7
 11
10.275
 21
-3.5
 72
    1
 10
10.275
 20
-3.5
 11
10.325
 21
-3.5
 72
    1
 10
10.325
 20
-3.5
 11
10.325
 21
-2.425
 72
    1
 10
10.325
 20
-2.425
 11
10.275
 21
-2.275
 72
    1
 10
10.275
 20
-2.275
 11
10.25
 21
-2.25
 72
    1
 10
10.25
 20
-2.25
 11
10.25
 21
-2.684978484524311
 72
    1
 10
10.25
 20
-2.684978484524311
 11
10.275
 21
-2.7
 97
    0
 75
    0
 76
    1
 52
0
 41
0.05
 77
    0
 78
    0
 98
    0
  0
HATCH
  5
15D
100
AcDbEntity
  8
Dimensions
  6
CONTINUOUS
 62
  256
370
    5
100
AcDbHatch
 10
0
 20
0
 30
0
210
0
220
0
230
1
  2
ansi31
 70
    0
 71
    0
 91
    1
 92
    0
 93
    7
 72
    1
 10
10.075
 20
-2.7
 11
10.075
 21
-3.5
 72
    1
 10
10.075
 20
-3.5
 11
10.025
 21
-3.5
 72
    1
 10
10.025
 20
-3.5
 11
10.025
 21
-2.424999999999999
 72
    1
 10
10.025
 20
-2.424999999999999
 11
10.075
 21
-2.275
 72
    1
 10
10.075
 20
-2.275
 11
10.1
 21
-2.25
 72
    1
 10
10.1
 20
-2.25
 11
10.1
 21
-2.684978484524311
 72
    1
 10
10.1
 20
-2.684978484524311
 11
10.075
 21
-2.7
 97
    0
 75
    0
 76
    1
 52
0
 41
0.05
 77
    0
 78
    0
 98
    0
  0
HATCH
  5
15E
100
AcDbEntity
  8
Dimensions
  6
CONTINUOUS
 62
  256
370
    5
100
AcDbHatch
 10
0
 20
0
 30
0
210
0
220
0
230
1
  2
ansi31
 70
    0
 71
    0
 91
    1
 92
    0
 93
    7
 72
    1
 10
9.650000000000002
 20
-2.7
 11
9.650000000000002
 21
-3.5
 72
    1
 10
9.650000000000002
 20
-3.5
 11
9.699999999999999
 21
-3.5
 72
    1
 10
9.699999999999999
 20
-3.5
 11
9.699999999999999
 21
-2.425
 72
    1
 10
9.699999999999999
 20
-2.425
 11
9.650000000000002
 21
-2.275
 72
    1
 10
9.650000000000002
 20
-2.275
 11
9.625
 21
-2.25
 72
    1
 10
9.625
 20
-2.25
 11
9.625
 21
-2.684978484524311
 72
    1
 10
9.625
 20
-2.684978484524311
 11
9.650000000000002
 21
-2.7
 97
    0
 75
    0
 76
    1
 52
0
 41
0.05
 77
    0
 78
    0
 98
    0
  0
HATCH
  5
15F
100
AcDbEntity
  8
Dimensions
  6
CONTINUOUS
 62
  256
370
    5
100
AcDbHatch
 10
0
 20
0
 30
0
210
0
220
0
230
1
  2
ansi31
 70
    0
 71
    0
 91
    1
 92
    0
 93
    7
 72
    1
 10
9.450000000000001
 20
-2.7
 11
9.450000000000001
 21
-3.5
 72
    1
 10
9.450000000000001
 20
-3.5
 11
9.400000000000002
 21
-3.5
 72
    1
 10
9.400000000000002
 20
-3.5
 11
9.400000000000002
 21
-2.424999999999999
 72
    1
 10
9.400000000000002
 20
-2.424999999999999
 11
9.450000000000003
 21
-2.275
 72
    1
 10
9.450000000000003
 20
-2.275
 11
9.475000000000001
 21
-2.25
 72
    1
 10
9.475000000000001
 20
-2.25
 11
9.475000000000001
 21
-2.684978484524311
 72
    1
 10
9.475000000000001
 20
-2.684978484524311
 11
9.450000000000001
 21
-2.7
 97
    0
 75
    0
 76
    1
 52
0
 41
0.05
 77
    0
 78
    0
 98
    0
  0
HATCH
  5
160
100
AcDbEntity
  8
Dimensions
  6
CONTINUOUS
 62
  256
370
    5
100
AcDbHatch
 10
0
 20
0
 30
0
210
0
220
0
230
1
  2
ansi31
 70
    0
 71
    0
 91
    1
 92
    0
 93
    7
 72
    1
 10
9.025000000000002
 20
-2.7
 11
9.025000000000002
 21
-3.5
 72
    1
 10
9.025000000000002
 20
-3.5
 11
9.074999999999999
 21
-3.5
 72
    1
 10
9.074999999999999
 20
-3.5
 11
9.074999999999999
 21
-2.425
 72
    1
 10
9.074999999999999
 20
-2.425
 11
9.025000000000002
 21
-2.275
 72
    1
 10
9.025000000000002
 20
-2.275
 11
9
 21
-2.25
 72
    1
 10
9
 20
-2.25
 11
9
 21
-2.684978484524311
 72
    1
 10
9
 20
-2.684978484524311
 11
9.025000000000002
 21
-2.7
 97
    0
 75
    0
 76
    1
 52
0
 41
0.05
 77
    0
 78
    0
 98
    0
  0
HATCH
  5
161
100
AcDbEntity
  8
Dimensions
  6
CONTINUOUS
 62
  256
370
    5
100
AcDbHatch
 10
0
 20
0
 30
0
210
0
220
0
230
1
  2
ansi31
 70
    0
 71
    0
 91
    1
 92
    0
 93
    7
 72
    1
 10
8.825000000000001
 20
-2.7
 11
8.825000000000001
 21
-3.5
 72
    1
 10
8.825000000000001
 20
-3.5
 11
8.775000000000002
 21
-3.5
 72
    1
 10
8.775000000000002
 20
-3.5
 11
8.775000000000002
 21
-2.424999999999999
 72
    1
 10
8.775000000000002
 20
-2.424999999999999
 11
8.825000000000003
 21
-2.275
 72
    1
 10
8.825000000000003
 20
-2.275
 11
8.850000000000001
 21
-2.25
 72
    1
 10
8.850000000000001
 20
-2.25
 11
8.850000000000001
 21
-2.684978484524311
 72
    1
 10
8.850000000000001
 20
-2.684978484524311
 11
8.825000000000001
 21
-2.7
 97
    0
 75
    0
 76
    1
 52
0
 41
0.05
 77
    0
 78
    0
 98
    0
  0
HATCH
  5
162
100
AcDbEntity
  8
Dimensions
  6
CONTINUOUS
 62
  256
370
    5
100
AcDbHatch
 10
0
 20
0
 30
0
210
0
220
0
230
1
  2
ansi31
 70
    0
 71
    0
 91
    1
 92
    0
 93
    7
 72
    1
 10
7.425000000000001
 20
-2.7
 11
7.425000000000001
 21
-3.5
 72
    1
 10
7.425000000000001
 20
-3.5
 11
7.475
 21
-3.5
 72
    1
 10
7.475
 20
-3.5
 11
7.475
 21
-2.425
 72
    1
 10
7.475
 20
-2.425
 11
7.425000000000001
 21
-2.275
 72
    1
 10
7.425000000000001
 20
-2.275
 11
7.4
 21
-2.25
 72
    1
 10
7.4
 20
-2.25
 11
7.4
 21
-2.684978484524311
 72
    1
 10
7.4
 20
-2.684978484524311
 11
7.425000000000001
 21
-2.7
 97
    0
 75
    0
 76
    1
 52
0
 41
0.05
 77
    0
 78
    0
 98
    0
  0
HATCH
  5
163
100
AcDbEntity
  8
Dimensions
  6
CONTINUOUS
 62
  256
370
    5
100
AcDbHatch
 10
0
 20
0
 30
0
210
0
220
0
230
1
  2
ansi31
 70
    0
 71
    0
 91
    1
 92
    0
 93
    7
 72
    1
 10
7.225000000000001
 20
-2.7
 11
7.225000000000001
 21
-3.5
 72
    1
 10
7.225000000000001
 20
-3.5
 11
7.175000000000001
 21
-3.5
 72
    1
 10
7.175000000000001
 20
-3.5
 11
7.175000000000001
 21
-2.424999999999999
 72
    1
 10
7.175000000000001
 20
-2.424999999999999
 11
7.225000000000001
 21
-2.275
 72
    1
 10
7.225000000000001
 20
-2.275
 11
7.250000000000001
 21
-2.25
 72
    1
 10
7.250000000000001
 20
-2.25
 11
7.250000000000001
 21
-2.684978484524311
 72
    1
 10
7.250000000000001
 20
-2.684978484524311
 11
7.225000000000001
 21
-2.7
 97
    0
 75
    0
 76
    1
 52
0
 41
0.05
 77
    0
 78
    0
 98
    0
  0
HATCH
  5
164
100
AcDbEntity
  8
Dimensions
  6
CONTINUOUS
 62
  256
370
    5
100
AcDbHatch
 10
0
 20
0
 30
0
210
0
220
0
230
1
  2
ansi31
 70
    0
 71
    0
 91
    1
 92
    0
 93
    7
 72
    1
 10
6.300000000000001
 20
-2.7
 11
6.300000000000001
 21
-3.5
 72
    1
 10
6.300000000000001
 20
-3.5
 11
6.35
 21
-3.5
 72
    1
 10
6.35
 20
-3.5
 11
6.35
 21
-2.425
 72
    1
 10
6.35
 20
-2.425
 11
6.300000000000001
 21
-2.275
 72
    1
 10
6.300000000000001
 20
-2.275
 11
6.275
 21
-2.25
 72
    1
 10
6.275
 20
-2.25
 11
6.275
 21
-2.684978484524311
 72
    1
 10
6.275
 20
-2.684978484524311
 11
6.300000000000001
 21
-2.7
 97
    0
 75
    0
 76
    1
 52
0
 41
0.05
 77
    0
 78
    0
 98
    0
  0
HATCH
  5
165
100
AcDbEntity
  8
Dimensions
  6
CONTINUOUS
 62
  256
370
    5
100
AcDbHatch
 10
0
 20
0
 30
0
210
0
220
0
230
1
  2
ansi31
 70
    0
 71
    0
 91
    1
 92
    0
 93
    7
 72
    1
 10
6.100000000000001
 20
-2.7
 11
6.100000000000001
 21
-3.5
 72
    1
 10
6.100000000000001
 20
-3.5
 11
6.050000000000001
 21
-3.5
 72
    1
 10
6.050000000000001
 20
-3.5
 11
6.050000000000001
 21
-2.424999999999999
 72
    1
 10
6.050000000000001
 20
-2.424999999999999
 11
6.100000000000001
 21
-2.275
 72
    1
 10
6.100000000000001
 20
-2.275
 11
6.125000000000001
 21
-2.25
 72
    1
 10
6.125000000000001
 20
-2.25
 11
6.125000000000001
 21
-2.684978484524311
 72
    1
 10
6.125000000000001
 20
-2.684978484524311
 11
6.100000000000001
 21
-2.7
 97
    0
 75
    0
 76
    1
 52
0
 41
0.05
 77
    0
 78
    0
 98
    0
  0
HATCH
  5
166
100
AcDbEntity
  8
Dimensions
  6
CONTINUOUS
 62
  256
370
    5
100
AcDbHatch
 10
0
 20
0
 30
0
210
0
220
0
230
1
  2
ansi31
 70
    0
 71
    0
 91
    1
 92
    0
 93
    7
 72
    1
 10
5.300000000000001
 20
-2.7
 11
5.300000000000001
 21
-3.5
 72
    1
 10
5.300000000000001
 20
-3.5
 11
5.35
 21
-3.5
 72
    1
 10
5.35
 20
-3.5
 11
5.35
 21
-2.425
 72
    1
 10
5.35
 20
-2.425
 11
5.300000000000001
 21
-2.275
 72
    1
 10
5.300000000000001
 20
-2.275
 11
5.275
 21
-2.25
 72
    1
 10
5.275
 20
-2.25
 11
5.275
 21
-2.684978484524311
 72
    1
 10
5.275
 20
-2.684978484524311
 11
5.300000000000001
 21
-2.7
 97
    0
 75
    0
 76
    1
 52
0
 41
0.05
 77
    0
 78
    0
 98
    0
  0
HATCH
  5
167
100
AcDbEntity
  8
Dimensions
  6
CONTINUOUS
 62
  256
370
    5
100
AcDbHatch
 10
0
 20
0
 30
0
210
0
220
0
230
1
  2
ansi31
 70
    0
 71
    0
 91
    1
 92
    0
 93
    7
 72
    1
 10
5.100000000000001
 20
-2.7
 11
5.100000000000001
 21
-3.5
 72
    1
 10
5.100000000000001
 20
-3.5
 11
5.050000000000001
 21
-3.5
 72
    1
 10
5.050000000000001
 20
-3.5
 11
5.050000000000001
 21
-2.424999999999999
 72
    1
 10
5.050000000000001
 20
-2.424999999999999
 11
5.100000000000001
 21
-2.275
 72
    1
 10
5.100000000000001
 20
-2.275
 11
5.125000000000001
 21
-2.25
 72
    1
 10
5.125000000000001
 20
-2.25
 11
5.125000000000001
 21
-2.684978484524311
 72
    1
 10
5.125000000000001
 20
-2.684978484524311
 11
5.100000000000001
 21
-2.7
 97
    0
 75
    0
 76
    1
 52
0
 41
0.05
 77
    0
 78
    0
 98
    0
  0
HATCH
  5
168
100
AcDbEntity
  8
Dimensions
  6
CONTINUOUS
 62
  256
370
    5
100
AcDbHatch
 10
0
 20
0
 30
0
210
0
220
0
230
1
  2
ansi31
 70
    0
 71
    0
 91
    1
 92
    0
 93
    7
 72
    1
 10
4.050000000000001
 20
-2.7
 11
4.050000000000001
 21
-3.5
 72
    1
 10
4.050000000000001
 20
-3.5
 11
4.100000000000001
 21
-3.5
 72
    1
 10
4.100000000000001
 20
-3.5
 11
4.100000000000001
 21
-2.425
 72
    1
 10
4.100000000000001
 20
-2.425
 11
4.050000000000001
 21
-2.275
 72
    1
 10
4.050000000000001
 20
-2.275
 11
4.025
 21
-2.25
 72
    1
 10
4.025000000000001
 20
-2.25
 11
4.025000000000001
 21
-2.684978484524311
 72
    1
 10
4.025000000000001
 20
-2.684978484524311
 11
4.050000000000001
 21
-2.7
 97
    0
 75
    0
 76
    1
 52
0
 41
0.05
 77
    0
 78
    0
 98
    0
  0
HATCH
  5
169
100
AcDbEntity
  8
Dimensions
  6
CONTINUOUS
 62
  256
370
    5
100
AcDbHatch
 10
0
 20
0
 30
0
210
0
220
0
230
1
  2
ansi31
 70
    0
 71
    0
 91
    1
 92
    0
 93
    7
 72
    1
 10
3.850000000000001
 20
-2.7
 11
3.850000000000001
 21
-3.5
 72
    1
 10
3.850000000000001
 20
-3.5
 11
3.800000000000001
 21
-3.5
 72
    1
 10
3.800000000000001
 20
-3.5
 11
3.800000000000001
 21
-2.424999999999999
 72
    1
 10
3.800000000000001
 20
-2.424999999999999
 11
3.850000000000001
 21
-2.275
 72
    1
 10
3.850000000000001
 20
-2.275
 11
3.875000000000001
 21
-2.25
 72
    1
 10
3.875000000000001
 20
-2.25
 11
3.875000000000001
 21
-2.684978484524311
 72
    1
 10
3.875000000000001
 20
-2.684978484524311
 11
3.850000000000001
 21
-2.7
 97
    0
 75
    0
 76
    1
 52
0
 41
0.05
 77
    0
 78
    0
 98
    0
  0
HATCH
  5
16A
100
AcDbEntity
  8
Dimensions
  6
CONTINUOUS
 62
  256
370
    5
100
AcDbHatch
 10
0
 20
0
 30
0
210
0
220
0
230
1
  2
ansi31
 70
    0
 71
    0
 91
    1
 92
    0
 93
    7
 72
    1
 10
1.55
 20
-2.7
 11
1.55
 21
-3.5
 72
    1
 10
1.55
 20
-3.5
 11
1.6
 21
-3.5
 72
    1
 10
1.6
 20
-3.5
 11
1.6
 21
-2.425
 72
    1
 10
1.6
 20
-2.425
 11
1.55
 21
-2.275
 72
    1
 10
1.55
 20
-2.275
 11
1.525
 21
-2.25
 72
    1
 10
1.525
 20
-2.25
 11
1.525
 21
-2.684978484524311
 72
    1
 10
1.525
 20
-2.684978484524311
 11
1.55
 21
-2.7
 97
    0
 75
    0
 76
    1
 52
0
 41
0.05
 77
    0
 78
    0
 98
    0
  0
HATCH
  5
16B
100
AcDbEntity
  8
Dimensions
  6
CONTINUOUS
 62
  256
370
    5
100
AcDbHatch
 10
0
 20
0
 30
0
210
0
220
0
230
1
  2
ansi31
 70
    0
 71
    0
 91
    1
 92
    0
 93
    7
 72
    1
 10
1.35
 20
-2.7
 11
1.35
 21
-3.5
 72
    1
 10
1.35
 20
-3.5
 11
1.3
 21
-3.5
 72
    1
 10
1.3
 20
-3.5
 11
1.3
 21
-2.424999999999999
 72
    1
 10
1.3
 20
-2.424999999999999
 11
1.35
 21
-2.275
 72
    1
 10
1.35
 20
-2.275
 11
1.375
 21
-2.25
 72
    1
 10
1.375
 20
-2.25
 11
1.375
 21
-2.684978484524311
 72
    1
 10
1.375
 20
-2.684978484524311
 11
1.35
 21
-2.7
 97
    0
 75
    0
 76
    1
 52
0
 41
0.05
 77
    0
 78
    0
 98
    0
  0
HATCH
  5
16C
100
AcDbEntity
  8
Dimensions
  6
CONTINUOUS
 62
  256
370
    5
100
AcDbHatch
 10
0
 20
0
 30
0
210
0
220
0
230
1
  2
ansi31
 70
    0
 71
    0
 91
    1
 92
    0
 93
    7
 72
    1
 10
1.05
 20
-2.7
 11
1.05
 21
-3.5
 72
    1
 10
1.05
 20
-3.5
 11
1.1
 21
-3.5
 72
    1
 10
1.1
 20
-3.5
 11
1.1
 21
-2.425
 72
    1
 10
1.1
 20
-2.425
 11
1.05
 21
-2.275
 72
    1
 10
1.05
 20
-2.275
 11
1.025
 21
-2.25
 72
    1
 10
1.025
 20
-2.25
 11
1.025
 21
-2.684978484524311
 72
    1
 10
1.025
 20
-2.684978484524311
 11
1.05
 21
-2.7
 97
    0
 75
    0
 76
    1
 52
0
 41
0.05
 77
    0
 78
    0
 98
    0
  0
HATCH
  5
16D
100
AcDbEntity
  8
Dimensions
  6
CONTINUOUS
 62
  256
370
    5
100
AcDbHatch
 10
0
 20
0
 30
0
210
0
220
0
230
1
  2
ansi31
 70
    0
 71
    0
 91
    1
 92
    0
 93
    7
 72
    1
 10
0.8500000000000001
 20
-2.7
 11
0.8500000000000001
 21
-3.5
 72
    1
 10
0.8500000000000001
 20
-3.5
 11
0.8
 21
-3.5
 72
    1
 10
0.8
 20
-3.5
 11
0.8000000000000003
 21
-2.424999999999999
 72
    1
 10
0.8000000000000003
 20
-2.424999999999999
 11
0.8500000000000002
 21
-2.275
 72
    1
 10
0.8500000000000002
 20
-2.275
 11
0.8750000000000002
 21
-2.25
 72
    1
 10
0.8750000000000002
 20
-2.25
 11
0.8750000000000002
 21
-2.684978484524311
 72
    1
 10
0.8750000000000002
 20
-2.684978484524311
 11
0.8500000000000001
 21
-2.7
 97
    0
 75
    0
 76
    1
 52
0
 41
0.05
 77
    0
 78
    0
 98
    0
  0
HATCH
  5
16E
100
AcDbEntity
  8
0
  6
CONTINUOUS
 62
  256
370
   -1
100
AcDbHatch
 10
0
 20
0
 30
0
210
0
220
0
230
1
  2
ansi31
 70
    0
 71
    0
 91
    1
 92
    0
 93
    5
 72
    1
 10
14
 20
-3.5
 11
14
 21
-2.25
 72
    1
 10
14
 20
-2.25
 11
14.05
 21
-2.3
 72
    1
 10
14.05
 20
-2.3
 11
14.16
 21
-2.75
 72
    1
 10
14.16
 20
-2.75
 11
14.16
 21
-3.5
 72
    1
 10
14.16
 20
-3.5
 11
14
 21
-3.5
 97
    0
 75
    0
 76
    1
 52
0
 41
0.05
 77
    0
 78
    0
 98
    0
  0
HATCH
  5
16F
100
AcDbEntity
  8
0
  6
CONTINUOUS
 62
  256
370
   -1
100
AcDbHatch
 10
0
 20
0
 30
0
210
0
220
0
230
1
  2
ansi31
 70
    0
 71
    0
 91
    1
 92
    0
 93
    5
 72
    1
 10
-1.310464630039e-16
 20
-3.5
 11
-5.450603805719046e-17
 21
-2.25
 72
    1
 10
-5.450603805719046e-17
 20
-2.25
 11
-0.04999999999999938
 21
-2.3
 72
    1
 10
-0.04999999999999938
 20
-2.3
 11
-0.1600000000000004
 21
-2.75
 72
    1
 10
-0.1600000000000004
 20
-2.75
 11
-0.1600000000000004
 21
-3.5
 72
    1
 10
-0.1600000000000004
 20
-3.5
 11
-1.310464630039e-16
 21
-3.5
 97
    0
 75
    0
 76
    1
 52
0
 41
0.05
 77
    0
 78
    0
 98
    0
  0
LINE
  5
170
100
AcDbEntity
  8
0
  6
CONTINUOUS
 62
  256
370
   -1
100
AcDbLine
 10
-1.310464630039e-16
 20
-3.5
 11
-5.450603805719046e-17
 21
-2.25
  0
LINE
  5
171
100
AcDbEntity
  8
0
  6
CONTINUOUS
 62
  256
370
   -1
100
AcDbLine
 10
14
 20
-3.5
 11
14
 21
-2.25
  0
LINE
  5
172
100
AcDbEntity
  8
0
  6
CONTINUOUS
 62
  256
370
   -1
100
AcDbLine
 10
-5.450603805719046e-17
 20
-2.25
 11
14
 21
-2.25
  0
LINE
  5
173
100
AcDbEntity
  8
0
  6
CONTINUOUS
 62
  256
370
   -1
100
AcDbLine
 10
0.8500000000000001
 20
-2.7
 11
0.8500000000000001
 21
-3.5
  0
LINE
  5
174
100
AcDbEntity
  8
0
  6
CONTINUOUS
 62
  256
370
   -1
100
AcDbLine
 10
1.05
 20
-2.7
 11
1.05
 21
-3.5
  0
LINE
  5
175
100
AcDbEntity
  8
0
  6
CONTINUOUS
 62
  256
370
   -1
100
AcDbLine
 10
1.05
 20
-2.7
 11
0.8500000000000001
 21
-2.7
  0
LINE
  5
176
100
AcDbEntity
  8
0
  6
CONTINUOUS
 62
  256
370
   -1
100
AcDbLine
 10
0.8750000000000002
 20
-2.25
 11
0.8750000000000002
 21
-2.684978484524311
  0
LINE
  5
177
100
AcDbEntity
  8
0
  6
CONTINUOUS
 62
  256
370
   -1
100
AcDbLine
 10
1.025
 20
-2.25
 11
1.025
 21
-2.684978484524311
  0
LINE
  5
178
100
AcDbEntity
  8
0
  6
CONTINUOUS
 62
  256
370
   -1
100
AcDbLine
 10
0.8500000000000002
 20
-2.275
 11
0.8750000000000002
 21
-2.25
  0
LINE
  5
179
100
AcDbEntity
  8
0
  6
CONTINUOUS
 62
  256
370
   -1
100
AcDbLine
 10
1.05
 20
-2.275
 11
1.025
 21
-2.25
  0
LINE
  5
17A
100
AcDbEntity
  8
0
  6
CONTINUOUS
 62
  256
370
   -1
100
AcDbLine
 10
0.8500000000000001
 20
-2.7
 11
0.8750000000000002
 21
-2.684978484524311
  0
LINE
  5
17B
100
AcDbEntity
  8
0
  6
CONTINUOUS
 62
  256
370
   -1
100
AcDbLine
 10
1.05
 20
-2.7
 11
1.025
 21
-2.684978484524311
  0
LINE
  5
17C
100
AcDbEntity
  8
0
  6
CONTINUOUS
 62
  256
370
   -1
100
AcDbLine
 10
0.8750000000000002
 20
-2.684978484524311
 11
1.025
 21
-2.684978484524311
  0
LINE
  5
17D
100
AcDbEntity
  8
0
  6
CONTINUOUS
 62
  256
370
   -1
100
AcDbLine
 10
-1.004302930252162e-16
 20
-3
 11
-1.157383780145581e-16
 21
-3.25
  0
LINE
  5
17E
100
AcDbEntity
  8
0
  6
CONTINUOUS
 62
  256
370
   -1
100
AcDbLine
 10
-1.310464630039e-16
 20
-3.5
 11
-0.1600000000000004
 21
-3.5
  0
LINE
  5
17F
100
AcDbEntity
  8
0
  6
CONTINUOUS
 62
  256
370
   -1
100
AcDbLine
 10
14
 20
-3
 11
14
 21
-3.250000000000001
  0
LINE
  5
180
100
AcDbEntity
  8
0
  6
CONTINUOUS
 62
  256
370
   -1
100
AcDbLine
 10
14.16
 20
-3.5
 11
14
 21
-3.5
  0
LINE
  5
181
100
AcDbEntity
  8
0
  6
CONTINUOUS
 62
  256
370
   -1
100
AcDbLine
 10
-0.1600000000000004
 20
-2.75
 11
-0.1600000000000004
 21
-3.5
  0
LINE
  5
182
100
AcDbEntity
  8
0
  6
CONTINUOUS
 62
  256
370
   -1
100
AcDbLine
 10
14.16
 20
-2.75
 11
14.16
 21
-3.5
  0
LINE
  5
183
100
AcDbEntity
  8
0
  6
CONTINUOUS
 62
  256
370
   -1
100
AcDbLine
 10
-5.450603805719046e-17
 20
-2.25
 11
-0.04999999999999938
 21
-2.3
  0
LINE
  5
184
100
AcDbEntity
  8
0
  6
CONTINUOUS
 62
  256
370
   -1
100
AcDbLine
 10
-0.04999999999999938
 20
-2.3
 11
-0.1600000000000004
 21
-2.75
  0
LINE
  5
185
100
AcDbEntity
  8
0
  6
CONTINUOUS
 62
  256
370
   -1
100
AcDbLine
 10
14
 20
-2.25
 11
14.05
 21
-2.3
  0
LINE
  5
186
100
AcDbEntity
  8
0
  6
CONTINUOUS
 62
  256
370
   -1
100
AcDbLine
 10
14.05
 20
-2.3
 11
14.16
 21
-2.75
  0
LINE
  5
187
100
AcDbEntity
  8
0
  6
CENTER2
 62
  256
370
   15
100
AcDbLine
 10
0.95
 20
-2.1
 11
0.95
 21
-3.6
  0
LINE
  5
188
100
AcDbEntity
  8
0
  6
CENTER2
 62
  256
370
   15
100
AcDbLine
 10
1.45
 20
-2.1
 11
1.45
 21
-3.6
  0
LINE
  5
189
100
AcDbEntity
  8
0
  6
CENTER2
 62
  256
370
   15
100
AcDbLine
 10
3.95
 20
-2.1
 11
3.95
 21
-3.6
  0
LINE
  5
18A
100
AcDbEntity
  8
0
  6
CENTER2
 62
  256
370
   15
100
AcDbLine
 10
5.2
 20
-2.1
 11
5.2
 21
-3.6
  0
LINE
  5
18B
100
AcDbEntity
  8
0
  6
CENTER2
 62
  256
370
   15
100
AcDbLine
 10
6.2
 20
-2.1
 11
6.2
 21
-3.6
  0
LINE
  5
18C
100
AcDbEntity
  8
0
  6
CENTER2
 62
  256
370
   15
100
AcDbLine
 10
7.325
 20
-2.1
 11
7.325
 21
-3.6
  0
LINE
  5
18D
100
AcDbEntity
  8
0
  6
CENTER2
 62
  256
370
   15
100
AcDbLine
 10
8.925000000000001
 20
-2.1
 11
8.925000000000001
 21
-3.6
  0
LINE
  5
18E
100
AcDbEntity
  8
0
  6
CENTER2
 62
  256
370
   15
100
AcDbLine
 10
9.550000000000001
 20
-2.1
 11
9.550000000000001
 21
-3.6
  0
LINE
  5
18F
100
AcDbEntity
  8
0
  6
CENTER2
 62
  256
370
   15
100
AcDbLine
 10
10.175
 20
-2.1
 11
10.175
 21
-3.6
  0
LINE
  5
190
100
AcDbEntity
  8
0
  6
CENTER2
 62
  256
370
   15
100
AcDbLine
 10
10.8
 20
-2.1
 11
10.8
 21
-3.6
  0
LINE
  5
191
100
AcDbEntity
  8
0
  6
CENTER2
 62
  256
370
   15
100
AcDbLine
 10
11.425
 20
-2.1
 11
11.425
 21
-3.6
  0
LINE
  5
192
100
AcDbEntity
  8
0
  6
CENTER2
 62
  256
370
   15
100
AcDbLine
 10
12.05
 20
-2.1
 11
12.05
 21
-3.6
  0
LINE
  5
193
100
AcDbEntity
  8
0
  6
CENTER2
 62
  256
370
   15
100
AcDbLine
 10
12.675
 20
-2.1
 11
12.675
 21
-3.6
  0
LINE
  5
194
100
AcDbEntity
  8
0
  6
CENTER2
 62
  256
370
   15
100
AcDbLine
 10
13.3
 20
-2.1
 11
13.3
 21
-3.6
  0
DIMENSION
  5
195
100
AcDbEntity
  8
Dimensions
  6
CONTINUOUS
 62
  256
370
   15
100
AcDbDimension
  2
*D1
 10
0.95
 20
-1.899999999999999
 30
0
 11
0.475
 21
-1.899999999999999
 31
0
 70
   32
 71
    5
  3
Standard
 53
0
210
0
220
0
230
1
100
AcDbAlignedDimension
 13
0
 23
-2.25
 33
0
 14
0.95
 24
-2.1
 34
0
100
AcDbRotatedDimension
  0
DIMENSION
  5
196
100
AcDbEntity
  8
Dimensions
  6
CONTINUOUS
 62
  256
370
   15
100
AcDbDimension
  2
*D2
 10
3.95
 20
-1.5
 30
0
 11
1.975
 21
-1.5
 31
0
 70
   32
 71
    5
  3
Standard
 53
0
210
0
220
0
230
1
100
AcDbAlignedDimension
 13
0
 23
-2.25
 33
0
 14
3.95
 24
-2.1
 34
0
100
AcDbRotatedDimension
  0
DIMENSION
  5
197
100
AcDbEntity
  8
Dimensions
  6
CONTINUOUS
 62
  256
370
   15
100
AcDbDimension
  2
*D3
 10
5.2
 20
-1.5
 30
0
 11
4.575
 21
-1.5
 31
0
 70
   32
 71
    5
  3
Standard
 53
0
210
0
220
0
230
1
100
AcDbAlignedDimension
 13
3.95
 23
-2.1
 33
0
 14
5.2
 24
-2.1
 34
0
100
AcDbRotatedDimension
  0
DIMENSION
  5
198
100
AcDbEntity
  8
Dimensions
  6
CONTINUOUS
 62
  256
370
   15
100
AcDbDimension
  2
*D4
 10
6.2
 20
-1.5
 30
0
 11
5.7
 21
-1.5
 31
0
 70
   32
 71
    5
  3
Standard
 53
0
210
0
220
0
230
1
100
AcDbAlignedDimension
 13
5.2
 23
-2.1
 33
0
 14
6.2
 24
-2.1
 34
0
100
AcDbRotatedDimension
  0
DIMENSION
  5
199
100
AcDbEntity
  8
Dimensions
  6
CONTINUOUS
 62
  256
370
   15
100
AcDbDimension
  2
*D5
 10
7.325
 20
-1.5
 30
0
 11
6.7625
 21
-1.5
 31
0
 70
   32
 71
    5
  3
Standard
 53
0
210
0
220
0
230
1
100
AcDbAlignedDimension
 13
6.2
 23
-2.1
 33
0
 14
7.325
 24
-2.1
 34
0
100
AcDbRotatedDimension
  0
DIMENSION
  5
19A
100
AcDbEntity
  8
Dimensions
  6
CONTINUOUS
 62
  256
370
   15
100
AcDbDimension
  2
*D6
 10
10.175
 20
-1.5
 30
0
 11
9.550000000000001
 21
-1.5
 31
0
 70
   32
 71
    5
  3
Standard
 53
0
210
0
220
0
230
1
100
AcDbAlignedDimension
 13
8.925000000000001
 23
-2.1
 33
0
 14
10.175
 24
-2.1
 34
0
100
AcDbRotatedDimension
  0
DIMENSION
  5
19B
100
AcDbEntity
  8
Dimensions
  6
CONTINUOUS
 62
  256
370
   15
100
AcDbDimension
  2
*D7
 10
10.8
 20
-1.1
 30
0
 11
9.862500000000001
 21
-1.1
 31
0
 70
   32
 71
    5
  3
Standard
 53
0
210
0
220
0
230
1
100
AcDbAlignedDimension
 13
8.925000000000001
 23
-2.1
 33
0
 14
10.8
 24
-2.1
 34
0
100
AcDbRotatedDimension
  0
DIMENSION
  5
19C
100
AcDbEntity
  8
Dimensions
  6
CONTINUOUS
 62
  256
370
   15
100
AcDbDimension
  2
*D8
 10
11.425
 20
-0.6999999999999995
 30
0
 11
10.175
 21
-0.6999999999999995
 31
0
 70
   32
 71
    5
  3
Standard
 53
0
210
0
220
0
230
1
100
AcDbAlignedDimension
 13
8.925000000000001
 23
-2.1
 33
0
 14
11.425
 24
-2.1
 34
0
100
AcDbRotatedDimension
  0
DIMENSION
  5
19D
100
AcDbEntity
  8
Dimensions
  6
CONTINUOUS
 62
  256
370
   15
100
AcDbDimension
  2
*D9
 10
12.05
 20
-0.2999999999999994
 30
0
 11
10.4875
 21
-0.2999999999999994
 31
0
 70
   32
 71
    5
  3
Standard
 53
0
210
0
220
0
230
1
100
AcDbAlignedDimension
 13
8.925000000000001
 23
-2.1
 33
0
 14
12.05
 24
-2.1
 34
0
100
AcDbRotatedDimension
  0
DIMENSION
  5
19E
100
AcDbEntity
  8
Dimensions
  6
CONTINUOUS
 62
  256
370
   15
100
AcDbDimension
  2
*D10
 10
12.675
 20
0.1000000000000005
 30
0
 11
10.8
 21
0.1000000000000005
 31
0
 70
   32
 71
    5
  3
Standard
 53
0
210
0
220
0
230
1
100
AcDbAlignedDimension
 13
8.925000000000001
 23
-2.1
 33
0
 14
12.675
 24
-2.1
 34
0
100
AcDbRotatedDimension
  0
DIMENSION
  5
19F
100
AcDbEntity
  8
Dimensions
  6
CONTINUOUS
 62
  256
370
   15
100
AcDbDimension
  2
*D11
 10
13.3
 20
0.5000000000000004
 30
0
 11
11.1125
 21
0.5000000000000004
 31
0
 70
   32
 71
    5
  3
Standard
 53
0
210
0
220
0
230
1
100
AcDbAlignedDimension
 13
8.925000000000001
 23
-2.1
 33
0
 14
13.3
 24
-2.1
 34
0
100
AcDbRotatedDimension
  0
DIMENSION
  5
1A0
100
AcDbEntity
  8
Dimensions
  6
CONTINUOUS
 62
  256
370
   15
100
AcDbDimension
  2
*D12
 10
8.925000000000001
 20
0.5
 30
0
 11
4.4625
 21
0.5
 31
0
 70
   32
 71
    5
  3
Standard
 53
0
210
0
220
0
230
1
100
AcDbAlignedDimension
 13
-5.450603805719046e-17
 23
-2.25
 33
0
 14
8.925000000000001
 24
-2.1
 34
0
100
AcDbRotatedDimension
  0
DIMENSION
  5
1A1
100
AcDbEntity
  8
Dimensions
  6
CONTINUOUS
 62
  256
370
   15
100
AcDbDimension
  2
*D13
 10
14
 20
0.8999999999999999
 30
0
 11
7
 21
0.8999999999999999
 31
0
 70
   32
 71
    5
  3
Standard
 53
0
210
0
220
0
230
1
100
AcDbAlignedDimension
 13
0
 23
-2.25
 33
0
 14
14
 24
-2.25
 34
0
100
AcDbRotatedDimension
  0
ARC
  5
1A2
100
AcDbEntity
  8
0
  6
CONTINUOUS
 62
  256
370
   -1
100
AcDbCircle
 10
13.3
 20
2.824999999999999
 40
0.07500000000000107
100
AcDbArc
 50
0
 51
180
  0
ARC
  5
1A3
100
AcDbEntity
  8
0
  6
CONTINUOUS
 62
  256
370
   -1
100
AcDbCircle
 10
13.3
 20
2.175000000000001
 40
0.07500000000000107
100
AcDbArc
 50
180
 51
0
  0
LINE
  5
1A4
100
AcDbEntity
  8
0
  6
CONTINUOUS
 62
  256
370
   -1
100
AcDbLine
 10
13.375
 20
2.824999999999999
 11
13.375
 21
2.175000000000001
  0
LINE
  5
1A5
100
AcDbEntity
  8
0
  6
CONTINUOUS
 62
  256
370
   -1
100
AcDbLine
 10
13.225
 20
2.175000000000001
 11
13.225
 21
2.824999999999999
  0
ARC
  5
1A6
100
AcDbEntity
  8
0
  6
CONTINUOUS
 62
  256
370
   -1
100
AcDbCircle
 10
12.675
 20
2.824999999999999
 40
0.07500000000000107
100
AcDbArc
 50
0
 51
180
  0
ARC
  5
1A7
100
AcDbEntity
  8
0
  6
CONTINUOUS
 62
  256
370
   -1
100
AcDbCircle
 10
12.675
 20
2.175000000000001
 40
0.07500000000000107
100
AcDbArc
 50
180
 51
0
  0
LINE
  5
1A8
100
AcDbEntity
  8
0
  6
CONTINUOUS
 62
  256
370
   -1
100
AcDbLine
 10
12.75
 20
2.824999999999999
 11
12.75
 21
2.175000000000001
  0
LINE
  5
1A9
100
AcDbEntity
  8
0
  6
CONTINUOUS
 62
  256
370
   -1
100
AcDbLine
 10
12.6
 20
2.175000000000001
 11
12.6
 21
2.824999999999999
  0
ARC
  5
1AA
100
AcDbEntity
  8
0
  6
CONTINUOUS
 62
  256
370
   -1
100
AcDbCircle
 10
12.05
 20
2.824999999999999
 40
0.07500000000000107
100
AcDbArc
 50
0
 51
180
  0
ARC
  5
1AB
100
AcDbEntity
  8
0
  6
CONTINUOUS
 62
  256
370
   -1
100
AcDbCircle
 10
12.05
 20
2.175000000000001
 40
0.07500000000000107
100
AcDbArc
 50
180
 51
0
  0
LINE
  5
1AC
100
AcDbEntity
  8
0
  6
CONTINUOUS
 62
  256
370
   -1
100
AcDbLine
 10
12.12500000000001
 20
2.824999999999999
 11
12.12500000000001
 21
2.175000000000001
  0
LINE
  5
1AD
100
AcDbEntity
  8
0
  6
CONTINUOUS
 62
  256
370
   -1
100
AcDbLine
 10
11.975
 20
2.175000000000001
 11
11.975
 21
2.824999999999999
  0
ARC
  5
1AE
100
AcDbEntity
  8
0
  6
CONTINUOUS
 62
  256
370
   -1
100
AcDbCircle
 10
11.42500000000001
 20
2.824999999999999
 40
0.07500000000000107
100
AcDbArc
 50
0
 51
180
  0
ARC
  5
1AF
100
AcDbEntity
  8
0
  6
CONTINUOUS
 62
  256
370
   -1
100
AcDbCircle
 10
11.42500000000001
 20
2.175000000000001
 40
0.07500000000000107
100
AcDbArc
 50
180
 51
0
  0
LINE
  5
1B0
100
AcDbEntity
  8
0
  6
CONTINUOUS
 62
  256
370
   -1
100
AcDbLine
 10
11.50000000000001
 20
2.824999999999999
 11
11.50000000000001
 21
2.175000000000001
  0
LINE
  5
1B1
100
AcDbEntity
  8
0
  6
CONTINUOUS
 62
  256
370
   -1
100
AcDbLine
 10
11.35
 20
2.175000000000001
 11
11.35
 21
2.824999999999999
  0
ARC
  5
1B2
100
AcDbEntity
  8
0
  6
CONTINUOUS
 62
  256
370
   -1
100
AcDbCircle
 10
10.80000000000001
 20
2.824999999999999
 40
0.07500000000000107
100
AcDbArc
 50
0
 51
180
  0
ARC
  5
1B3
100
AcDbEntity
  8
0
  6
CONTINUOUS
 62
  256
370
   -1
100
AcDbCircle
 10
10.80000000000001
 20
2.175000000000001
 40
0.07500000000000107
100
AcDbArc
 50
180
 51
0
  0
LINE
  5
1B4
100
AcDbEntity
  8
0
  6
CONTINUOUS
 62
  256
370
   -1
100
AcDbLine
 10
10.87500000000001
 20
2.824999999999999
 11
10.87500000000001
 21
2.175000000000001
  0
LINE
  5
1B5
100
AcDbEntity
  8
0
  6
CONTINUOUS
 62
  256
370
   -1
100
AcDbLine
 10
10.72500000000001
 20
2.175000000000001
 11
10.72500000000001
 21
2.824999999999999
  0
ARC
  5
1B6
100
AcDbEntity
  8
0
  6
CONTINUOUS
 62
  256
370
   -1
100
AcDbCircle
 10
10.17500000000001
 20
2.824999999999999
 40
0.07500000000000107
100
AcDbArc
 50
0
 51
180
  0
ARC
  5
1B7
100
AcDbEntity
  8
0
  6
CONTINUOUS
 62
  256
370
   -1
100
AcDbCircle
 10
10.17500000000001
 20
2.175000000000001
 40
0.07500000000000107
100
AcDbArc
 50
180
 51
0
  0
LINE
  5
1B8
100
AcDbEntity
  8
0
  6
CONTINUOUS
 62
  256
370
   -1
100
AcDbLine
 10
10.25000000000001
 20
2.824999999999999
 11
10.25000000000001
 21
2.175000000000001
  0
LINE
  5
1B9
100
AcDbEntity
  8
0
  6
CONTINUOUS
 62
  256
370
   -1
100
AcDbLine
 10
10.10000000000001
 20
2.175000000000001
 11
10.10000000000001
 21
2.824999999999999
  0
ARC
  5
1BA
100
AcDbEntity
  8
0
  6
CONTINUOUS
 62
  256
370
   -1
100
AcDbCircle
 10
9.550000000000011
 20
2.824999999999999
 40
0.07500000000000107
100
AcDbArc
 50
0
 51
180
  0
ARC
  5
1BB
100
AcDbEntity
  8
0
  6
CONTINUOUS
 62
  256
370
   -1
100
AcDbCircle
 10
9.550000000000011
 20
2.175000000000001
 40
0.07500000000000107
100
AcDbArc
 50
180
 51
0
  0
LINE
  5
1BC
100
AcDbEntity
  8
0
  6
CONTINUOUS
 62
  256
370
   -1
100
AcDbLine
 10
9.625000000000012
 20
2.824999999999999
 11
9.625000000000012
 21
2.175000000000001
  0
LINE
  5
1BD
100
AcDbEntity
  8
0
  6
CONTINUOUS
 62
  256
370
   -1
100
AcDbLine
 10
9.47500000000001
 20
2.175000000000001
 11
9.47500000000001
 21
2.824999999999999
  0
ARC
  5
1BE
100
AcDbEntity
  8
0
  6
CONTINUOUS
 62
  256
370
   -1
100
AcDbCircle
 10
8.925000000000013
 20
2.824999999999999
 40
0.07500000000000107
100
AcDbArc
 50
0
 51
180
  0
ARC
  5
1BF
100
AcDbEntity
  8
0
  6
CONTINUOUS
 62
  256
370
   -1
100
AcDbCircle
 10
8.925000000000013
 20
2.175000000000001
 40
0.07500000000000107
100
AcDbArc
 50
180
 51
0
  0
LINE
  5
1C0
100
AcDbEntity
  8
0
  6
CONTINUOUS
 62
  256
370
   -1
100
AcDbLine
 10
9.000000000000014
 20
2.824999999999999
 11
9.000000000000014
 21
2.175000000000001
  0
LINE
  5
1C1
100
AcDbEntity
  8
0
  6
CONTINUOUS
 62
  256
370
   -1
100
AcDbLine
 10
8.850000000000012
 20
2.175000000000001
 11
8.850000000000012
 21
2.824999999999999
  0
CIRCLE
  5
1C2
100
AcDbEntity
  8
0
  6
CONTINUOUS
 62
  256
370
   -1
100
AcDbCircle
 10
0.9500000000000004
 20
3.125
 40
0.075
  0
CIRCLE
  5
1C3
100
AcDbEntity
  8
0
  6
CONTINUOUS
 62
  256
370
   -1
100
AcDbCircle
 10
0.9500000000000004
 20
1.875
 40
0.075
  0
CIRCLE
  5
1C4
100
AcDbEntity
  8
0
  6
CONTINUOUS
 62
  256
370
   -1
100
AcDbCircle
 10
1.45
 20
3.125
 40
0.075
  0
CIRCLE
  5
1C5
100
AcDbEntity
  8
0
  6
CONTINUOUS
 62
  256
370
   -1
100
AcDbCircle
 10
1.45
 20
1.875
 40
0.075
  0
ARC
  5
1C6
100
AcDbEntity
  8
0
  6
CONTINUOUS
 62
  256
370
   -1
100
AcDbCircle
 10
0.5000000000000004
 20
3
 40
0.5
100
AcDbArc
 50
90
 51
180
  0
LINE
  5
1C7
100
AcDbEntity
  8
0
  6
CONTINUOUS
 62
  256
370
   -1
100
AcDbLine
 10
3.914386529818597e-16
 20
2
 11
4.526709929392273e-16
 21
3
  0
ARC
  5
1C8
100
AcDbEntity
  8
0
  6
CONTINUOUS
 62
  256
370
   -1
100
AcDbCircle
 10
0.5000000000000004
 20
2
 40
0.5
100
AcDbArc
 50
180
 51
270
  0
LINE
  5
1C9
100
AcDbEntity
  8
0
  6
CONTINUOUS
 62
  256
370
   -1
100
AcDbLine
 10
0.5000000000000004
 20
3.5
 11
13.5
 21
3.5
  0
ARC
  5
1CA
100
AcDbEntity
  8
0
  6
CONTINUOUS
 62
  256
370
   -1
100
AcDbCircle
 10
13.5
 20
3
 40
0.5
100
AcDbArc
 50
0
 51
90
  0
LINE
  5
1CB
100
AcDbEntity
  8
0
  6
CONTINUOUS
 62
  256
370
   -1
100
AcDbLine
 10
14
 20
3
 11
14
 21
2
  0
LINE
  5
1CC
100
AcDbEntity
  8
0
  6
CONTINUOUS
 62
  256
370
   -1
100
AcDbLine
 10
0.5000000000000004
 20
1.5
 11
13.5
 21
1.5
  0
ARC
  5
1CD
100
AcDbEntity
  8
0
  6
CONTINUOUS
 62
  256
370
   -1
100
AcDbCircle
 10
13.5
 20
2
 40
0.5
100
AcDbArc
 50
270
 51
0
  0
CIRCLE
  5
1CE
100
AcDbEntity
  8
0
  6
CONTINUOUS
 62
  256
370
   -1
100
AcDbCircle
 10
3.95
 20
2.75
 40
0.075
  0
CIRCLE
  5
1CF
100
AcDbEntity
  8
0
  6
CONTINUOUS
 62
  256
370
   -1
100
AcDbCircle
 10
3.95
 20
2.25
 40
0.075
  0
CIRCLE
  5
1D0
100
AcDbEntity
  8
0
  6
CONTINUOUS
 62
  256
370
   -1
100
AcDbCircle
 10
5.2
 20
2.75
 40
0.075
  0
CIRCLE
  5
1D1
100
AcDbEntity
  8
0
  6
CONTINUOUS
 62
  256
370
   -1
100
AcDbCircle
 10
5.2
 20
2.25
 40
0.075
  0
CIRCLE
  5
1D2
100
AcDbEntity
  8
0
  6
CONTINUOUS
 62
  256
370
   -1
100
AcDbCircle
 10
6.2
 20
2.75
 40
0.075
  0
CIRCLE
  5
1D3
100
AcDbEntity
  8
0
  6
CONTINUOUS
 62
  256
370
   -1
100
AcDbCircle
 10
6.2
 20
2.25
 40
0.075
  0
CIRCLE
  5
1D4
100
AcDbEntity
  8
0
  6
CONTINUOUS
 62
  256
370
   -1
100
AcDbCircle
 10
7.325
 20
2.75
 40
0.075
  0
CIRCLE
  5
1D5
100
AcDbEntity
  8
0
  6
CONTINUOUS
 62
  256
370
   -1
100
AcDbCircle
 10
7.325
 20
2.25
 40
0.075
  0
ARC
  5
1D6
100
AcDbEntity
  8
0
  6
CONTINUOUS
 62
  256
370
   -1
100
AcDbCircle
 10
0.5000000000000002
 20
3
 40
0.66
100
AcDbArc
 50
90
 51
180
  0
LINE
  5
1D7
100
AcDbEntity
  8
0
  6
CONTINUOUS
 62
  256
370
   -1
100
AcDbLine
 10
-0.1599999999999999
 20
2
 11
-0.1599999999999999
 21
3
  0
ARC
  5
1D8
100
AcDbEntity
  8
0
  6
CONTINUOUS
 62
  256
370
   -1
100
AcDbCircle
 10
0.5000000000000002
 20
2
 40
0.66
100
AcDbArc
 50
180
 51
270
  0
LINE
  5
1D9
100
AcDbEntity
  8
0
  6
CONTINUOUS
 62
  256
370
   -1
100
AcDbLine
 10
0.5000000000000002
 20
1.34
 11
13.5
 21
1.34
  0
ARC
  5
1DA
100
AcDbEntity
  8
0
  6
CONTINUOUS
 62
  256
370
   -1
100
AcDbCircle
 10
13.5
 20
2
 40
0.66
100
AcDbArc
 50
270
 51
0
  0
LINE
  5
1DB
100
AcDbEntity
  8
0
  6
CONTINUOUS
 62
  256
370
   -1
100
AcDbLine
 10
14.16
 20
2
 11
14.16
 21
3
  0
LINE
  5
1DC
100
AcDbEntity
  8
0
  6
CONTINUOUS
 62
  256
370
   -1
100
AcDbLine
 10
0.5000000000000002
 20
3.66
 11
13.5
 21
3.66
  0
ARC
  5
1DD
100
AcDbEntity
  8
0
  6
CONTINUOUS
 62
  256
370
   -1
100
AcDbCircle
 10
13.5
 20
3
 40
0.66
100
AcDbArc
 50
0
 51
90
  0
CIRCLE
  5
1DE
100
AcDbEntity
  8
0
  6
CONTINUOUS
 62
  256
370
   -1
100
AcDbCircle
 10
0.9500000000000004
 20
1.875
 40
0.09999999999999976
  0
CIRCLE
  5
1DF
100
AcDbEntity
  8
0
  6
CONTINUOUS
 62
  256
370
   -1
100
AcDbCircle
 10
1.45
 20
1.875
 40
0.09999999999999976
  0
CIRCLE
  5
1E0
100
AcDbEntity
  8
0
  6
CONTINUOUS
 62
  256
370
   -1
100
AcDbCircle
 10
0.9500000000000004
 20
3.125
 40
0.09999999999999976
  0
CIRCLE
  5
1E1
100
AcDbEntity
  8
0
  6
CONTINUOUS
 62
  256
370
   -1
100
AcDbCircle
 10
1.45
 20
3.125
 40
0.09999999999999976
  0
CIRCLE
  5
1E2
100
AcDbEntity
  8
0
  6
CONTINUOUS
 62
  256
370
   -1
100
AcDbCircle
 10
3.95
 20
2.25
 40
0.09999999999999976
  0
CIRCLE
  5
1E3
100
AcDbEntity
  8
0
  6
CONTINUOUS
 62
  256
370
   -1
100
AcDbCircle
 10
3.95
 20
2.75
 40
0.09999999999999976
  0
CIRCLE
  5
1E4
100
AcDbEntity
  8
0
  6
CONTINUOUS
 62
  256
370
   -1
100
AcDbCircle
 10
5.2
 20
2.25
 40
0.09999999999999976
  0
CIRCLE
  5
1E5
100
AcDbEntity
  8
0
  6
CONTINUOUS
 62
  256
370
   -1
100
AcDbCircle
 10
5.2
 20
2.75
 40
0.09999999999999976
  0
CIRCLE
  5
1E6
100
AcDbEntity
  8
0
  6
CONTINUOUS
 62
  256
370
   -1
100
AcDbCircle
 10
6.2
 20
2.25
 40
0.09999999999999976
  0
CIRCLE
  5
1E7
100
AcDbEntity
  8
0
  6
CONTINUOUS
 62
  256
370
   -1
100
AcDbCircle
 10
6.2
 20
2.75
 40
0.09999999999999976
  0
CIRCLE
  5
1E8
100
AcDbEntity
  8
0
  6
CONTINUOUS
 62
  256
370
   -1
100
AcDbCircle
 10
7.325
 20
2.25
 40
0.09999999999999976
  0
CIRCLE
  5
1E9
100
AcDbEntity
  8
0
  6
CONTINUOUS
 62
  256
370
   -1
100
AcDbCircle
 10
7.325
 20
2.75
 40
0.09999999999999976
  0
LINE
  5
1EA
100
AcDbEntity
  8
0
  6
CONTINUOUS
 62
  256
370
   -1
100
AcDbLine
 10
9.025000000000013
 20
2.175000000000001
 11
9.025000000000013
 21
2.824999999999999
  0
LINE
  5
1EB
100
AcDbEntity
  8
0
  6
CONTINUOUS
 62
  256
370
   -1
100
AcDbLine
 10
8.825000000000014
 20
2.175000000000001
 11
8.825000000000014
 21
2.824999999999999
  0
ARC
  5
1EC
100
AcDbEntity
  8
0
  6
CONTINUOUS
 62
  256
370
   -1
100
AcDbCircle
 10
8.925000000000011
 20
2.824999999999999
 40
0.07500000000023428
100
AcDbArc
 50
0
 51
179.9999519497239
  0
ARC
  5
1ED
100
AcDbEntity
  8
0
  6
CONTINUOUS
 62
  256
370
   -1
100
AcDbCircle
 10
8.925000000000011
 20
2.175000000000001
 40
0.1000000000000014
100
AcDbArc
 50
0
 51
0.0001271594969227695
  0
ARC
  5
1EE
100
AcDbEntity
  8
0
  6
CONTINUOUS
 62
  256
370
   -1
100
AcDbCircle
 10
8.925000000000011
 20
2.175000000000001
 40
0.1000000000002302
100
AcDbArc
 50
180.0001297479473
 51
359.9999558639317
  0
ARC
  5
1EF
100
AcDbEntity
  8
0
  6
CONTINUOUS
 62
  256
370
   -1
100
AcDbCircle
 10
8.925000000000011
 20
2.824999999999999
 40
0.1000000000002302
100
AcDbArc
 50
4.41360682725814e-05
 51
179.9998702520527
  0
LINE
  5
1F0
100
AcDbEntity
  8
0
  6
CONTINUOUS
 62
  256
370
   -1
100
AcDbLine
 10
9.650000000000013
 20
2.175000000000001
 11
9.650000000000013
 21
2.824999999999999
  0
LINE
  5
1F1
100
AcDbEntity
  8
0
  6
CONTINUOUS
 62
  256
370
   -1
100
AcDbLine
 10
9.450000000000014
 20
2.175000000000001
 11
9.450000000000014
 21
2.824999999999999
  0
ARC
  5
1F2
100
AcDbEntity
  8
0
  6
CONTINUOUS
 62
  256
370
   -1
100
AcDbCircle
 10
9.550000000000011
 20
2.175000000000001
 40
0.1000000000002302
100
AcDbArc
 50
180.0001297479473
 51
359.9999558639317
  0
ARC
  5
1F3
100
AcDbEntity
  8
0
  6
CONTINUOUS
 62
  256
370
   -1
100
AcDbCircle
 10
9.550000000000011
 20
2.824999999999999
 40
0.1000000000002302
100
AcDbArc
 50
4.41360682725814e-05
 51
179.9998702520527
  0
LINE
  5
1F4
100
AcDbEntity
  8
0
  6
CONTINUOUS
 62
  256
370
   -1
100
AcDbLine
 10
10.27500000000001
 20
2.175000000000001
 11
10.27500000000001
 21
2.824999999999999
  0
LINE
  5
1F5
100
AcDbEntity
  8
0
  6
CONTINUOUS
 62
  256
370
   -1
100
AcDbLine
 10
10.07500000000001
 20
2.175000000000001
 11
10.07500000000001
 21
2.824999999999999
  0
ARC
  5
1F6
100
AcDbEntity
  8
0
  6
CONTINUOUS
 62
  256
370
   -1
100
AcDbCircle
 10
10.17500000000001
 20
2.175000000000001
 40
0.1000000000002302
100
AcDbArc
 50
180.0001297479473
 51
359.9999558639317
  0
ARC
  5
1F7
100
AcDbEntity
  8
0
  6
CONTINUOUS
 62
  256
370
   -1
100
AcDbCircle
 10
10.17500000000001
 20
2.824999999999999
 40
0.1000000000002302
100
AcDbArc
 50
4.41360682725814e-05
 51
179.9998702520527
  0
LINE
  5
1F8
100
AcDbEntity
  8
0
  6
CONTINUOUS
 62
  256
370
   -1
100
AcDbLine
 10
10.90000000000001
 20
2.175000000000001
 11
10.90000000000001
 21
2.824999999999999
  0
LINE
  5
1F9
100
AcDbEntity
  8
0
  6
CONTINUOUS
 62
  256
370
   -1
100
AcDbLine
 10
10.70000000000001
 20
2.175000000000001
 11
10.70000000000001
 21
2.824999999999999
  0
ARC
  5
1FA
100
AcDbEntity
  8
0
  6
CONTINUOUS
 62
  256
370
   -1
100
AcDbCircle
 10
10.80000000000001
 20
2.175000000000001
 40
0.1000000000002302
100
AcDbArc
 50
180.0001297479473
 51
359.9999558639317
  0
ARC
  5
1FB
100
AcDbEntity
  8
0
  6
CONTINUOUS
 62
  256
370
   -1
100
AcDbCircle
 10
10.80000000000001
 20
2.824999999999999
 40
0.1000000000002302
100
AcDbArc
 50
4.41360682725814e-05
 51
179.9998702520527
  0
LINE
  5
1FC
100
AcDbEntity
  8
0
  6
CONTINUOUS
 62
  256
370
   -1
100
AcDbLine
 10
11.52500000000001
 20
2.175000000000001
 11
11.52500000000001
 21
2.824999999999999
  0
LINE
  5
1FD
100
AcDbEntity
  8
0
  6
CONTINUOUS
 62
  256
370
   -1
100
AcDbLine
 10
11.32500000000001
 20
2.175000000000001
 11
11.32500000000001
 21
2.824999999999999
  0
ARC
  5
1FE
100
AcDbEntity
  8
0
  6
CONTINUOUS
 62
  256
370
   -1
100
AcDbCircle
 10
11.42500000000001
 20
2.175000000000001
 40
0.1000000000002302
100
AcDbArc
 50
180.0001297479473
 51
359.9999558639317
  0
ARC
  5
1FF
100
AcDbEntity
  8
0
  6
CONTINUOUS
 62
  256
370
   -1
100
AcDbCircle
 10
11.42500000000001
 20
2.824999999999999
 40
0.1000000000002302
100
AcDbArc
 50
4.41360682725814e-05
 51
179.9998702520527
  0
LINE
  5
200
100
AcDbEntity
  8
0
  6
CONTINUOUS
 62
  256
370
   -1
100
AcDbLine
 10
12.15000000000001
 20
2.175000000000001
 11
12.15000000000001
 21
2.824999999999999
  0
LINE
  5
201
100
AcDbEntity
  8
0
  6
CONTINUOUS
 62
  256
370
   -1
100
AcDbLine
 10
11.95000000000001
 20
2.175000000000001
 11
11.95000000000001
 21
2.824999999999999
  0
ARC
  5
202
100
AcDbEntity
  8
0
  6
CONTINUOUS
 62
  256
370
   -1
100
AcDbCircle
 10
12.05000000000001
 20
2.175000000000001
 40
0.1000000000002302
100
AcDbArc
 50
180.0001297479473
 51
359.9999558639317
  0
ARC
  5
203
100
AcDbEntity
  8
0
  6
CONTINUOUS
 62
  256
370
   -1
100
AcDbCircle
 10
12.05000000000001
 20
2.824999999999999
 40
0.1000000000002302
100
AcDbArc
 50
4.41360682725814e-05
 51
179.9998702520527
  0
LINE
  5
204
100
AcDbEntity
  8
0
  6
CONTINUOUS
 62
  256
370
   -1
100
AcDbLine
 10
12.77500000000001
 20
2.175000000000001
 11
12.77500000000001
 21
2.824999999999999
  0
LINE
  5
205
100
AcDbEntity
  8
0
  6
CONTINUOUS
 62
  256
370
   -1
100
AcDbLine
 10
12.57500000000001
 20
2.175000000000001
 11
12.57500000000001
 21
2.824999999999999
  0
ARC
  5
206
100
AcDbEntity
  8
0
  6
CONTINUOUS
 62
  256
370
   -1
100
AcDbCircle
 10
12.67500000000001
 20
2.175000000000001
 40
0.1000000000002302
100
AcDbArc
 50
180.0001297479473
 51
359.9999558639317
  0
ARC
  5
207
100
AcDbEntity
  8
0
  6
CONTINUOUS
 62
  256
370
   -1
100
AcDbCircle
 10
12.67500000000001
 20
2.824999999999999
 40
0.1000000000002302
100
AcDbArc
 50
4.41360682725814e-05
 51
179.9998702520527
  0
LINE
  5
208
100
AcDbEntity
  8
0
  6
CONTINUOUS
 62
  256
370
   -1
100
AcDbLine
 10
13.40000000000001
 20
2.175000000000001
 11
13.40000000000001
 21
2.824999999999999
  0
LINE
  5
209
100
AcDbEntity
  8
0
  6
CONTINUOUS
 62
  256
370
   -1
100
AcDbLine
 10
13.20000000000001
 20
2.175000000000001
 11
13.20000000000001
 21
2.824999999999999
  0
ARC
  5
20A
100
AcDbEntity
  8
0
  6
CONTINUOUS
 62
  256
370
   -1
100
AcDbCircle
 10
13.30000000000001
 20
2.175000000000001
 40
0.1000000000002302
100
AcDbArc
 50
180.0001297479473
 51
359.9999558639317
  0
ARC
  5
20B
100
AcDbEntity
  8
0
  6
CONTINUOUS
 62
  256
370
   -1
100
AcDbCircle
 10
13.30000000000001
 20
2.824999999999999
 40
0.1000000000002302
100
AcDbArc
 50
4.41360682725814e-05
 51
179.9998702520527
  0
LINE
  5
20C
100
AcDbEntity
  8
0
  6
CENTER2
 62
  256
370
   15
100
AcDbLine
 10
0.9500000000000002
 20
1.6
 11
0.9500000000000002
 21
3.4
  0
LINE
  5
20D
100
AcDbEntity
  8
0
  6
CENTER2
 62
  256
370
   15
100
AcDbLine
 10
1.45
 20
1.6
 11
1.45
 21
3.4
  0
LINE
  5
20E
100
AcDbEntity
  8
0
  6
CENTER2
 62
  256
370
   15
100
AcDbLine
 10
0.6000000000000003
 20
3.125
 11
1.8
 21
3.125
  0
LINE
  5
20F
100
AcDbEntity
  8
0
  6
CENTER2
 62
  256
370
   15
100
AcDbLine
 10
3.600000000000001
 20
2.75
 11
7.7
 21
2.75
  0
LINE
  5
210
100
AcDbEntity
  8
0
  6
CENTER2
 62
  256
370
   15
100
AcDbLine
 10
3.600000000000001
 20
2.25
 11
7.7
 21
2.25
  0
LINE
  5
211
100
AcDbEntity
  8
0
  6
CENTER2
 62
  256
370
   15
100
AcDbLine
 10
0.6000000000000003
 20
1.875
 11
1.8
 21
1.875
  0
LINE
  5
212
100
AcDbEntity
  8
0
  6
CENTER2
 62
  256
370
   15
100
AcDbLine
 10
8.5
 20
2.175
 11
13.7
 21
2.175
  0
LINE
  5
213
100
AcDbEntity
  8
0
  6
CENTER2
 62
  256
370
   15
100
AcDbLine
 10
8.5
 20
2.825
 11
13.7
 21
2.825
  0
LINE
  5
214
100
AcDbEntity
  8
0
  6
CENTER2
 62
  256
370
   15
100
AcDbLine
 10
7.325
 20
1.9
 11
7.325
 21
3.1
  0
LINE
  5
215
100
AcDbEntity
  8
0
  6
CENTER2
 62
  256
370
   15
100
AcDbLine
 10
6.2
 20
1.9
 11
6.2
 21
3.1
  0
LINE
  5
216
100
AcDbEntity
  8
0
  6
CENTER2
 62
  256
370
   15
100
AcDbLine
 10
5.2
 20
1.9
 11
5.2
 21
3.1
  0
LINE
  5
217
100
AcDbEntity
  8
0
  6
CENTER2
 62
  256
370
   15
100
AcDbLine
 10
3.95
 20
1.9
 11
3.95
 21
3.1
  0
LINE
  5
218
100
AcDbEntity
  8
0
  6
CENTER2
 62
  256
370
   15
100
AcDbLine
 10
8.925000000000001
 20
1.9
 11
8.925000000000001
 21
3.1
  0
LINE
  5
219
100
AcDbEntity
  8
0
  6
CENTER2
 62
  256
370
   15
100
AcDbLine
 10
10.175
 20
1.9
 11
10.175
 21
3.1
  0
LINE
  5
21A
100
AcDbEntity
  8
0
  6
CENTER2
 62
  256
370
   15
100
AcDbLine
 10
9.550000000000001
 20
1.9
 11
9.550000000000001
 21
3.1
  0
LINE
  5
21B
100
AcDbEntity
  8
0
  6
CENTER2
 62
  256
370
   15
100
AcDbLine
 10
10.8
 20
1.9
 11
10.8
 21
3.1
  0
LINE
  5
21C
100
AcDbEntity
  8
0
  6
CENTER2
 62
  256
370
   15
100
AcDbLine
 10
11.425
 20
1.9
 11
11.425
 21
3.1
  0
LINE
  5
21D
100
AcDbEntity
  8
0
  6
CENTER2
 62
  256
370
   15
100
AcDbLine
 10
12.05
 20
1.9
 11
12.05
 21
3.1
  0
LINE
  5
21E
100
AcDbEntity
  8
0
  6
CENTER2
 62
  256
370
   15
100
AcDbLine
 10
12.675
 20
1.9
 11
12.675
 21
3.1
  0
LINE
  5
21F
100
AcDbEntity
  8
0
  6
CENTER2
 62
  256
370
   15
100
AcDbLine
 10
13.3
 20
1.9
 11
13.3
 21
3.1
  0
LINE
  5
220
100
AcDbEntity
  8
0
  6
CONTINUOUS
 62
  256
370
   -1
100
AcDbLine
 10
-0.04999999999999906
 20
2
 11
-0.049999999999999
 21
3
  0
ARC
  5
221
100
AcDbEntity
  8
0
  6
CONTINUOUS
 62
  256
370
   -1
100
AcDbCircle
 10
0.5000000000000002
 20
3
 40
0.5499999999999994
100
AcDbArc
 50
90
 51
180
  0
ARC
  5
222
100
AcDbEntity
  8
0
  6
CONTINUOUS
 62
  256
370
   -1
100
AcDbCircle
 10
0.5000000000000002
 20
2
 40
0.5499999999999993
100
AcDbArc
 50
180
 51
269.9999989463277
  0
LINE
  5
223
100
AcDbEntity
  8
0
  6
CONTINUOUS
 62
  256
370
   -1
100
AcDbLine
 10
0.5000000000000002
 20
3.549999999999999
 11
13.5
 21
3.549999999999999
  0
LINE
  5
224
100
AcDbEntity
  8
0
  6
CONTINUOUS
 62
  256
370
   -1
100
AcDbLine
 10
0.5
 20
1.450000000000001
 11
13.5
 21
1.450000000000001
  0
LINE
  5
225
100
AcDbEntity
  8
0
  6
CONTINUOUS
 62
  256
370
   -1
100
AcDbLine
 10
14.05
 20
2
 11
14.05
 21
3
  0
ARC
  5
226
100
AcDbEntity
  8
0
  6
CONTINUOUS
 62
  256
370
   -1
100
AcDbCircle
 10
13.5
 20
3
 40
0.5499999999999992
100
AcDbArc
 50
0
 51
90
  0
ARC
  5
227
100
AcDbEntity
  8
0
  6
CONTINUOUS
 62
  256
370
   -1
100
AcDbCircle
 10
13.5
 20
2
 40
0.5499999999999989
100
AcDbArc
 50
270
 51
360
  0
LINE
  5
228
100
AcDbEntity
  8
Dimensions
  6
CENTER2
 62
  256
370
   15
100
AcDbLine
 10
-0.4999999999999999
 20
2.5
 11
14.5
 21
2.5
  0
DIMENSION
  5
229
100
AcDbEntity
  8
Dimensions
  6
CONTINUOUS
 62
  256
370
   15
100
AcDbDimension
  2
*D14
 10
-1.9
 20
2.5
 30
0
 11
-1.9
 21
2.8125
 31
0
 70
   32
 71
    5
  3
Standard
 53
0
210
0
220
0
230
1
100
AcDbAlignedDimension
 13
0.6000000000000003
 23
3.125
 33
0
 14
-0.4999999999999999
 24
2.5
 34
0
 50
90
100
AcDbRotatedDimension
  0
DIMENSION
  5
22A
100
AcDbEntity
  8
Dimensions
  6
CONTINUOUS
 62
  256
370
   15
100
AcDbDimension
  2
*D15
 10
-2.4
 20
1.875
 30
0
 11
-2.4
 21
2.5
 31
0
 70
   32
 71
    5
  3
Standard
 53
0
210
0
220
0
230
1
100
AcDbAlignedDimension
 13
0.6000000000000003
 23
3.125
 33
0
 14
0.6000000000000003
 24
1.875
 34
0
 50
90
100
AcDbRotatedDimension
  0
DIMENSION
  5
22B
100
AcDbEntity
  8
Dimensions
  6
CONTINUOUS
 62
  256
370
   15
100
AcDbDimension
  2
*D16
 10
-3
 20
1.5
 30
0
 11
-3
 21
2.5
 31
0
 70
   32
 71
    5
  3
Standard
 53
0
210
0
220
0
230
1
100
AcDbAlignedDimension
 13
0.5000000000000004
 23
3.5
 33
0
 14
0.5000000000000004
 24
1.5
 34
0
 50
90
100
AcDbRotatedDimension
  0
DIMENSION
  5
22C
100
AcDbEntity
  8
Dimensions
  6
CONTINUOUS
 62
  256
370
   15
100
AcDbDimension
  2
*D17
 10
-1.004378051096359
 20
-3
 30
0
 11
-1.004378051096359
 21
-2.625
 31
0
 70
   32
 71
    5
  3
Standard
 53
0
210
0
220
0
230
1
100
AcDbAlignedDimension
 13
-5.450603805719046e-17
 23
-2.25
 33
0
 14
-1.004302930252162e-16
 24
-3
 34
0
 50
90
100
AcDbRotatedDimension
  0
DIMENSION
  5
22D
100
AcDbEntity
  8
Dimensions
  6
CONTINUOUS
 62
  256
370
   15
100
AcDbDimension
  2
*D18
 10
-2
 20
-3.25
 30
0
 11
-2
 21
-3.125
 31
0
 70
   32
 71
    5
  3
Standard
 53
0
210
0
220
0
230
1
100
AcDbAlignedDimension
 13
-1.004302930252162e-16
 23
-3
 33
0
 14
-1.157383780145581e-16
 24
-3.25
 34
0
 50
90
100
AcDbRotatedDimension
  0
DIMENSION
  5
22E
100
AcDbEntity
  8
Dimensions
  6
CONTINUOUS
 62
  256
370
   15
100
AcDbDimension
  2
*D19
 10
-3
 20
-3.5
 30
0
 11
-3
 21
-2.875
 31
0
 70
   32
 71
    5
  3
Standard
 53
0
210
0
220
0
230
1
100
AcDbAlignedDimension
 13
-5.450603805719046e-17
 23
-2.25
 33
0
 14
-1.310464630039e-16
 24
-3.5
 34
0
 50
90
100
AcDbRotatedDimension
  0
DIMENSION
  5
22F
100
AcDbEntity
  8
Dimensions
  6
CONTINUOUS
 62
  256
370
   15
100
AcDbDimension
  2
*D20
 10
14.5
 20
2.825
 30
0
 11
14.5
 21
2.6625
 31
0
 70
   32
 71
    5
  3
Standard
 53
0
210
0
220
0
230
1
100
AcDbAlignedDimension
 13
14.5
 23
2.5
 33
0
 14
13.7
 24
2.825
 34
0
 50
90
100
AcDbRotatedDimension
  0
DIMENSION
  5
230
100
AcDbEntity
  8
Dimensions
  6
CONTINUOUS
 62
  256
370
   15
100
AcDbDimension
  2
*D21
 10
14.5
 20
2.5
 30
0
 11
14.5
 21
1.999999999999999
 31
0
 70
   32
 71
    5
  3
Standard
 53
0
210
0
220
0
230
1
100
AcDbAlignedDimension
 13
13.50000012893753
 23
1.499999999999999
 33
0
 14
14.16
 24
2.5
 34
0
 50
90
100
AcDbRotatedDimension
  0
DIMENSION
  5
231
100
AcDbEntity
  8
Dimensions
  6
CONTINUOUS
 62
  256
370
   15
100
AcDbDimension
  2
*D22
 10
15.6
 20
2.825
 30
0
 11
15.6
 21
2.5
 31
0
 70
   32
 71
    5
  3
Standard
 53
0
210
0
220
0
230
1
100
AcDbAlignedDimension
 13
13.7
 23
2.175
 33
0
 14
13.7
 24
2.825
 34
0
 50
90
100
AcDbRotatedDimension
  0
LEADER
  5
232
100
AcDbEntity
  8
Dimensions
  6
CONTINUOUS
 62
  256
370
   15
100
AcDbLeader
  3
Standard
 71
    1
 72
    0
 73
    3
 74
    0
 75
    0
 40
1
 41
10
 76
3
 76
3
 10
-1.157383780145581e-16
 20
-3.25
 30
0
 10
0.7
 20
-4.199999999999999
 30
0
 10
1.6
 20
-4.199999999999999
 30
0
  0
MTEXT
  5
233
100
AcDbEntity
  8
Dimensions
  6
CONTINUOUS
 62
  256
370
   15
100
AcDbMText
 10
0.820701598933835
 20
-4.036564056330089
 30
0
 40
0.125
 41
0.22222222222223
 71
    1
 72
    1
  1
1-3
  7

210
0
220
0
230
1
 50
0
 73
    2
 44
1
  0
MTEXT
  5
234
100
AcDbEntity
  8
Dimensions
  6
CONTINUOUS
 62
  256
370
   15
100
AcDbMText
 10
0.820701598933835
 20
-4.229204624568577
 30
0
 40
0.125
 41
0.22222222222223
 71
    1
 72
    1
  1
1-3
  7

210
0
220
0
230
1
 50
0
 73
    2
 44
1
  0
MTEXT
  5
235
100
AcDbEntity
  8
Dimensions
  6
CONTINUOUS
 62
  256
370
   15
100
AcDbMText
 10
1.340567241988386
 20
-4.034896285433549
 30
0
 40
0.125
 41
0.2222222222222222
 71
    1
 72
    1
  1
1/8
  7

210
0
220
0
230
1
 50
0
 73
    2
 44
1
  0
MTEXT
  5
236
100
AcDbEntity
  8
Dimensions
  6
CONTINUOUS
 62
  256
370
   15
100
AcDbMText
 10
1.340567241988386
 20
-4.22489794177836
 30
0
 40
0.125
 41
0.2222222222222222
 71
    1
 72
    1
  1
1/8
  7

210
0
220
0
230
1
 50
0
 73
    2
 44
1
  0
LINE
  5
237
100
AcDbEntity
  8
Dimensions
  6
CONTINUOUS
 62
  256
370
   15
100
AcDbLine
 10
1.274594444646438
 20
-4.029618461646193
 11
1.102580639079772
 21
-4.201632267212859
  0
LINE
  5
238
100
AcDbEntity
  8
Dimensions
  6
CONTINUOUS
 62
  256
370
   15
100
AcDbLine
 10
1.274594444646438
 20
-4.373646072779525
 11
1.102580639079772
 21
-4.201632267212859
  0
LINE
  5
239
100
AcDbEntity
  8
Dimensions
  6
CONTINUOUS
 62
  256
370
   15
100
AcDbLine
 10
1.274594444646438
 20
-4.373646072779525
 11
1.274594444646438
 21
-4.029618461646193
  0
LINE
  5
23A
100
AcDbEntity
  8
Dimensions
  6
CONTINUOUS
 62
  256
370
    5
100
AcDbLine
 10
1.1
 20
-3.5
 11
1.1
 21
-2.425
  0
LINE
  5
23B
100
AcDbEntity
  8
0
  6
CONTINUOUS
 62
  256
370
   -1
100
AcDbLine
 10
1.1
 20
-2.425
 11
1.05
 21
-2.275
  0
LINE
  5
23C
100
AcDbEntity
  8
0
  6
CONTINUOUS
 62
  256
370
   -1
100
AcDbLine
 10
0.8000000000000003
 20
-2.424999999999999
 11
0.8500000000000002
 21
-2.275
  0
LINE
  5
23D
100
AcDbEntity
  8
Dimensions
  6
CONTINUOUS
 62
  256
370
    5
100
AcDbLine
 10
0.8
 20
-3.5
 11
0.8000000000000003
 21
-2.424999999999999
  0
LINE
  5
23E
100
AcDbEntity
  8
0
  6
CONTINUOUS
 62
  256
370
   -1
100
AcDbLine
 10
0.8
 20
-3
 11
-1.004302930252162e-16
 21
-3
  0
LINE
  5
23F
100
AcDbEntity
  8
0
  6
CONTINUOUS
 62
  256
370
   -1
100
AcDbLine
 10
0.8
 20
-3.25
 11
-1.157383780145581e-16
 21
-3.25
  0
LINE
  5
240
100
AcDbEntity
  8
Dimensions
  6
CONTINUOUS
 62
  256
370
    5
100
AcDbLine
 10
0.8
 20
-3.5
 11
0.8500000000000001
 21
-3.5
  0
LINE
  5
241
100
AcDbEntity
  8
Dimensions
  6
CONTINUOUS
 62
  256
370
    5
100
AcDbLine
 10
1.05
 20
-3.5
 11
1.1
 21
-3.5
  0
LINE
  5
242
100
AcDbEntity
  8
0
  6
CONTINUOUS
 62
  256
370
   -1
100
AcDbLine
 10
1.35
 20
-2.7
 11
1.35
 21
-3.5
  0
LINE
  5
243
100
AcDbEntity
  8
0
  6
CONTINUOUS
 62
  256
370
   -1
100
AcDbLine
 10
1.55
 20
-2.7
 11
1.55
 21
-3.5
  0
LINE
  5
244
100
AcDbEntity
  8
0
  6
CONTINUOUS
 62
  256
370
   -1
100
AcDbLine
 10
1.55
 20
-2.7
 11
1.35
 21
-2.7
  0
LINE
  5
245
100
AcDbEntity
  8
0
  6
CONTINUOUS
 62
  256
370
   -1
100
AcDbLine
 10
1.375
 20
-2.25
 11
1.375
 21
-2.684978484524311
  0
LINE
  5
246
100
AcDbEntity
  8
0
  6
CONTINUOUS
 62
  256
370
   -1
100
AcDbLine
 10
1.525
 20
-2.25
 11
1.525
 21
-2.684978484524311
  0
LINE
  5
247
100
AcDbEntity
  8
0
  6
CONTINUOUS
 62
  256
370
   -1
100
AcDbLine
 10
1.35
 20
-2.275
 11
1.375
 21
-2.25
  0
LINE
  5
248
100
AcDbEntity
  8
0
  6
CONTINUOUS
 62
  256
370
   -1
100
AcDbLine
 10
1.55
 20
-2.275
 11
1.525
 21
-2.25
  0
LINE
  5
249
100
AcDbEntity
  8
0
  6
CONTINUOUS
 62
  256
370
   -1
100
AcDbLine
 10
1.35
 20
-2.7
 11
1.375
 21
-2.684978484524311
  0
LINE
  5
24A
100
AcDbEntity
  8
0
  6
CONTINUOUS
 62
  256
370
   -1
100
AcDbLine
 10
1.55
 20
-2.7
 11
1.525
 21
-2.684978484524311
  0
LINE
  5
24B
100
AcDbEntity
  8
0
  6
CONTINUOUS
 62
  256
370
   -1
100
AcDbLine
 10
1.375
 20
-2.684978484524311
 11
1.525
 21
-2.684978484524311
  0
LINE
  5
24C
100
AcDbEntity
  8
Dimensions
  6
CONTINUOUS
 62
  256
370
    5
100
AcDbLine
 10
1.6
 20
-3.5
 11
1.6
 21
-2.425
  0
LINE
  5
24D
100
AcDbEntity
  8
0
  6
CONTINUOUS
 62
  256
370
   -1
100
AcDbLine
 10
1.6
 20
-2.425
 11
1.55
 21
-2.275
  0
LINE
  5
24E
100
AcDbEntity
  8
0
  6
CONTINUOUS
 62
  256
370
   -1
100
AcDbLine
 10
1.3
 20
-2.424999999999999
 11
1.35
 21
-2.275
  0
LINE
  5
24F
100
AcDbEntity
  8
Dimensions
  6
CONTINUOUS
 62
  256
370
    5
100
AcDbLine
 10
1.3
 20
-3.5
 11
1.3
 21
-2.424999999999999
  0
LINE
  5
250
100
AcDbEntity
  8
Dimensions
  6
CONTINUOUS
 62
  256
370
    5
100
AcDbLine
 10
1.3
 20
-3.5
 11
1.35
 21
-3.5
  0
LINE
  5
251
100
AcDbEntity
  8
Dimensions
  6
CONTINUOUS
 62
  256
370
    5
100
AcDbLine
 10
1.55
 20
-3.5
 11
1.6
 21
-3.5
  0
LINE
  5
252
100
AcDbEntity
  8
0
  6
CONTINUOUS
 62
  256
370
   -1
100
AcDbLine
 10
1.1
 20
-3
 11
1.3
 21
-3
  0
LINE
  5
253
100
AcDbEntity
  8
0
  6
CONTINUOUS
 62
  256
370
   -1
100
AcDbLine
 10
1.1
 20
-3.25
 11
1.3
 21
-3.25
  0
LINE
  5
254
100
AcDbEntity
  8
0
  6
CONTINUOUS
 62
  256
370
   -1
100
AcDbLine
 10
3.850000000000001
 20
-2.7
 11
3.850000000000001
 21
-3.5
  0
LINE
  5
255
100
AcDbEntity
  8
0
  6
CONTINUOUS
 62
  256
370
   -1
100
AcDbLine
 10
4.050000000000001
 20
-2.7
 11
4.050000000000001
 21
-3.5
  0
LINE
  5
256
100
AcDbEntity
  8
0
  6
CONTINUOUS
 62
  256
370
   -1
100
AcDbLine
 10
4.050000000000001
 20
-2.7
 11
3.850000000000001
 21
-2.7
  0
LINE
  5
257
100
AcDbEntity
  8
0
  6
CONTINUOUS
 62
  256
370
   -1
100
AcDbLine
 10
3.875000000000001
 20
-2.25
 11
3.875000000000001
 21
-2.684978484524311
  0
LINE
  5
258
100
AcDbEntity
  8
0
  6
CONTINUOUS
 62
  256
370
   -1
100
AcDbLine
 10
4.025000000000001
 20
-2.25
 11
4.025000000000001
 21
-2.684978484524311
  0
LINE
  5
259
100
AcDbEntity
  8
0
  6
CONTINUOUS
 62
  256
370
   -1
100
AcDbLine
 10
3.850000000000001
 20
-2.275
 11
3.875000000000001
 21
-2.25
  0
LINE
  5
25A
100
AcDbEntity
  8
0
  6
CONTINUOUS
 62
  256
370
   -1
100
AcDbLine
 10
4.050000000000001
 20
-2.275
 11
4.025
 21
-2.25
  0
LINE
  5
25B
100
AcDbEntity
  8
0
  6
CONTINUOUS
 62
  256
370
   -1
100
AcDbLine
 10
3.850000000000001
 20
-2.7
 11
3.875000000000001
 21
-2.684978484524311
  0
LINE
  5
25C
100
AcDbEntity
  8
0
  6
CONTINUOUS
 62
  256
370
   -1
100
AcDbLine
 10
4.050000000000001
 20
-2.7
 11
4.025000000000001
 21
-2.684978484524311
  0
LINE
  5
25D
100
AcDbEntity
  8
0
  6
CONTINUOUS
 62
  256
370
   -1
100
AcDbLine
 10
3.875000000000001
 20
-2.684978484524311
 11
4.025000000000001
 21
-2.684978484524311
  0
LINE
  5
25E
100
AcDbEntity
  8
Dimensions
  6
CONTINUOUS
 62
  256
370
    5
100
AcDbLine
 10
4.100000000000001
 20
-3.5
 11
4.100000000000001
 21
-2.425
  0
LINE
  5
25F
100
AcDbEntity
  8
0
  6
CONTINUOUS
 62
  256
370
   -1
100
AcDbLine
 10
4.100000000000001
 20
-2.425
 11
4.050000000000001
 21
-2.275
  0
LINE
  5
260
100
AcDbEntity
  8
0
  6
CONTINUOUS
 62
  256
370
   -1
100
AcDbLine
 10
3.800000000000001
 20
-2.424999999999999
 11
3.850000000000001
 21
-2.275
  0
LINE
  5
261
100
AcDbEntity
  8
Dimensions
  6
CONTINUOUS
 62
  256
370
    5
100
AcDbLine
 10
3.800000000000001
 20
-3.5
 11
3.800000000000001
 21
-2.424999999999999
  0
LINE
  5
262
100
AcDbEntity
  8
Dimensions
  6
CONTINUOUS
 62
  256
370
    5
100
AcDbLine
 10
3.800000000000001
 20
-3.5
 11
3.850000000000001
 21
-3.5
  0
LINE
  5
263
100
AcDbEntity
  8
Dimensions
  6
CONTINUOUS
 62
  256
370
    5
100
AcDbLine
 10
4.050000000000001
 20
-3.5
 11
4.100000000000001
 21
-3.5
  0
LINE
  5
264
100
AcDbEntity
  8
0
  6
CONTINUOUS
 62
  256
370
   -1
100
AcDbLine
 10
5.100000000000001
 20
-2.7
 11
5.100000000000001
 21
-3.5
  0
LINE
  5
265
100
AcDbEntity
  8
0
  6
CONTINUOUS
 62
  256
370
   -1
100
AcDbLine
 10
5.300000000000001
 20
-2.7
 11
5.300000000000001
 21
-3.5
  0
LINE
  5
266
100
AcDbEntity
  8
0
  6
CONTINUOUS
 62
  256
370
   -1
100
AcDbLine
 10
5.300000000000001
 20
-2.7
 11
5.100000000000001
 21
-2.7
  0
LINE
  5
267
100
AcDbEntity
  8
0
  6
CONTINUOUS
 62
  256
370
   -1
100
AcDbLine
 10
5.125000000000001
 20
-2.25
 11
5.125000000000001
 21
-2.684978484524311
  0
LINE
  5
268
100
AcDbEntity
  8
0
  6
CONTINUOUS
 62
  256
370
   -1
100
AcDbLine
 10
5.275
 20
-2.25
 11
5.275
 21
-2.684978484524311
  0
LINE
  5
269
100
AcDbEntity
  8
0
  6
CONTINUOUS
 62
  256
370
   -1
100
AcDbLine
 10
5.100000000000001
 20
-2.275
 11
5.125000000000001
 21
-2.25
  0
LINE
  5
26A
100
AcDbEntity
  8
0
  6
CONTINUOUS
 62
  256
370
   -1
100
AcDbLine
 10
5.300000000000001
 20
-2.275
 11
5.275
 21
-2.25
  0
LINE
  5
26B
100
AcDbEntity
  8
0
  6
CONTINUOUS
 62
  256
370
   -1
100
AcDbLine
 10
5.100000000000001
 20
-2.7
 11
5.125000000000001
 21
-2.684978484524311
  0
LINE
  5
26C
100
AcDbEntity
  8
0
  6
CONTINUOUS
 62
  256
370
   -1
100
AcDbLine
 10
5.300000000000001
 20
-2.7
 11
5.275
 21
-2.684978484524311
  0
LINE
  5
26D
100
AcDbEntity
  8
0
  6
CONTINUOUS
 62
  256
370
   -1
100
AcDbLine
 10
5.125000000000001
 20
-2.684978484524311
 11
5.275
 21
-2.684978484524311
  0
LINE
  5
26E
100
AcDbEntity
  8
Dimensions
  6
CONTINUOUS
 62
  256
370
    5
100
AcDbLine
 10
5.35
 20
-3.5
 11
5.35
 21
-2.425
  0
LINE
  5
26F
100
AcDbEntity
  8
0
  6
CONTINUOUS
 62
  256
370
   -1
100
AcDbLine
 10
5.35
 20
-2.425
 11
5.300000000000001
 21
-2.275
  0
LINE
  5
270
100
AcDbEntity
  8
0
  6
CONTINUOUS
 62
  256
370
   -1
100
AcDbLine
 10
5.050000000000001
 20
-2.424999999999999
 11
5.100000000000001
 21
-2.275
  0
LINE
  5
271
100
AcDbEntity
  8
Dimensions
  6
CONTINUOUS
 62
  256
370
    5
100
AcDbLine
 10
5.050000000000001
 20
-3.5
 11
5.050000000000001
 21
-2.424999999999999
  0
LINE
  5
272
100
AcDbEntity
  8
Dimensions
  6
CONTINUOUS
 62
  256
370
    5
100
AcDbLine
 10
5.050000000000001
 20
-3.5
 11
5.100000000000001
 21
-3.5
  0
LINE
  5
273
100
AcDbEntity
  8
Dimensions
  6
CONTINUOUS
 62
  256
370
    5
100
AcDbLine
 10
5.300000000000001
 20
-3.5
 11
5.35
 21
-3.5
  0
LINE
  5
274
100
AcDbEntity
  8
0
  6
CONTINUOUS
 62
  256
370
   -1
100
AcDbLine
 10
6.100000000000001
 20
-2.7
 11
6.100000000000001
 21
-3.5
  0
LINE
  5
275
100
AcDbEntity
  8
0
  6
CONTINUOUS
 62
  256
370
   -1
100
AcDbLine
 10
6.300000000000001
 20
-2.7
 11
6.300000000000001
 21
-3.5
  0
LINE
  5
276
100
AcDbEntity
  8
0
  6
CONTINUOUS
 62
  256
370
   -1
100
AcDbLine
 10
6.300000000000001
 20
-2.7
 11
6.100000000000001
 21
-2.7
  0
LINE
  5
277
100
AcDbEntity
  8
0
  6
CONTINUOUS
 62
  256
370
   -1
100
AcDbLine
 10
6.125000000000001
 20
-2.25
 11
6.125000000000001
 21
-2.684978484524311
  0
LINE
  5
278
100
AcDbEntity
  8
0
  6
CONTINUOUS
 62
  256
370
   -1
100
AcDbLine
 10
6.275
 20
-2.25
 11
6.275
 21
-2.684978484524311
  0
LINE
  5
279
100
AcDbEntity
  8
0
  6
CONTINUOUS
 62
  256
370
   -1
100
AcDbLine
 10
6.100000000000001
 20
-2.275
 11
6.125000000000001
 21
-2.25
  0
LINE
  5
27A
100
AcDbEntity
  8
0
  6
CONTINUOUS
 62
  256
370
   -1
100
AcDbLine
 10
6.300000000000001
 20
-2.275
 11
6.275
 21
-2.25
  0
LINE
  5
27B
100
AcDbEntity
  8
0
  6
CONTINUOUS
 62
  256
370
   -1
100
AcDbLine
 10
6.100000000000001
 20
-2.7
 11
6.125000000000001
 21
-2.684978484524311
  0
LINE
  5
27C
100
AcDbEntity
  8
0
  6
CONTINUOUS
 62
  256
370
   -1
100
AcDbLine
 10
6.300000000000001
 20
-2.7
 11
6.275
 21
-2.684978484524311
  0
LINE
  5
27D
100
AcDbEntity
  8
0
  6
CONTINUOUS
 62
  256
370
   -1
100
AcDbLine
 10
6.125000000000001
 20
-2.684978484524311
 11
6.275
 21
-2.684978484524311
  0
LINE
  5
27E
100
AcDbEntity
  8
Dimensions
  6
CONTINUOUS
 62
  256
370
    5
100
AcDbLine
 10
6.35
 20
-3.5
 11
6.35
 21
-2.425
  0
LINE
  5
27F
100
AcDbEntity
  8
0
  6
CONTINUOUS
 62
  256
370
   -1
100
AcDbLine
 10
6.35
 20
-2.425
 11
6.300000000000001
 21
-2.275
  0
LINE
  5
280
100
AcDbEntity
  8
0
  6
CONTINUOUS
 62
  256
370
   -1
100
AcDbLine
 10
6.050000000000001
 20
-2.424999999999999
 11
6.100000000000001
 21
-2.275
  0
LINE
  5
281
100
AcDbEntity
  8
Dimensions
  6
CONTINUOUS
 62
  256
370
    5
100
AcDbLine
 10
6.050000000000001
 20
-3.5
 11
6.050000000000001
 21
-2.424999999999999
  0
LINE
  5
282
100
AcDbEntity
  8
Dimensions
  6
CONTINUOUS
 62
  256
370
    5
100
AcDbLine
 10
6.050000000000001
 20
-3.5
 11
6.100000000000001
 21
-3.5
  0
LINE
  5
283
100
AcDbEntity
  8
Dimensions
  6
CONTINUOUS
 62
  256
370
    5
100
AcDbLine
 10
6.300000000000001
 20
-3.5
 11
6.35
 21
-3.5
  0
LINE
  5
284
100
AcDbEntity
  8
0
  6
CONTINUOUS
 62
  256
370
   -1
100
AcDbLine
 10
7.225000000000001
 20
-2.7
 11
7.225000000000001
 21
-3.5
  0
LINE
  5
285
100
AcDbEntity
  8
0
  6
CONTINUOUS
 62
  256
370
   -1
100
AcDbLine
 10
7.425000000000001
 20
-2.7
 11
7.425000000000001
 21
-3.5
  0
LINE
  5
286
100
AcDbEntity
  8
0
  6
CONTINUOUS
 62
  256
370
   -1
100
AcDbLine
 10
7.425000000000001
 20
-2.7
 11
7.225000000000001
 21
-2.7
  0
LINE
  5
287
100
AcDbEntity
  8
0
  6
CONTINUOUS
 62
  256
370
   -1
100
AcDbLine
 10
7.250000000000001
 20
-2.25
 11
7.250000000000001
 21
-2.684978484524311
  0
LINE
  5
288
100
AcDbEntity
  8
0
  6
CONTINUOUS
 62
  256
370
   -1
100
AcDbLine
 10
7.4
 20
-2.25
 11
7.4
 21
-2.684978484524311
  0
LINE
  5
289
100
AcDbEntity
  8
0
  6
CONTINUOUS
 62
  256
370
   -1
100
AcDbLine
 10
7.225000000000001
 20
-2.275
 11
7.250000000000001
 21
-2.25
  0
LINE
  5
28A
100
AcDbEntity
  8
0
  6
CONTINUOUS
 62
  256
370
   -1
100
AcDbLine
 10
7.425000000000001
 20
-2.275
 11
7.4
 21
-2.25
  0
LINE
  5
28B
100
AcDbEntity
  8
0
  6
CONTINUOUS
 62
  256
370
   -1
100
AcDbLine
 10
7.225000000000001
 20
-2.7
 11
7.250000000000001
 21
-2.684978484524311
  0
LINE
  5
28C
100
AcDbEntity
  8
0
  6
CONTINUOUS
 62
  256
370
   -1
100
AcDbLine
 10
7.425000000000001
 20
-2.7
 11
7.4
 21
-2.684978484524311
  0
LINE
  5
28D
100
AcDbEntity
  8
0
  6
CONTINUOUS
 62
  256
370
   -1
100
AcDbLine
 10
7.250000000000001
 20
-2.684978484524311
 11
7.4
 21
-2.684978484524311
  0
LINE
  5
28E
100
AcDbEntity
  8
Dimensions
  6
CONTINUOUS
 62
  256
370
    5
100
AcDbLine
 10
7.475
 20
-3.5
 11
7.475
 21
-2.425
  0
LINE
  5
28F
100
AcDbEntity
  8
0
  6
CONTINUOUS
 62
  256
370
   -1
100
AcDbLine
 10
7.475
 20
-2.425
 11
7.425000000000001
 21
-2.275
  0
LINE
  5
290
100
AcDbEntity
  8
0
  6
CONTINUOUS
 62
  256
370
   -1
100
AcDbLine
 10
7.175000000000001
 20
-2.424999999999999
 11
7.225000000000001
 21
-2.275
  0
LINE
  5
291
100
AcDbEntity
  8
Dimensions
  6
CONTINUOUS
 62
  256
370
    5
100
AcDbLine
 10
7.175000000000001
 20
-3.5
 11
7.175000000000001
 21
-2.424999999999999
  0
LINE
  5
292
100
AcDbEntity
  8
Dimensions
  6
CONTINUOUS
 62
  256
370
    5
100
AcDbLine
 10
7.175000000000001
 20
-3.5
 11
7.225000000000001
 21
-3.5
  0
LINE
  5
293
100
AcDbEntity
  8
Dimensions
  6
CONTINUOUS
 62
  256
370
    5
100
AcDbLine
 10
7.425000000000001
 20
-3.5
 11
7.475
 21
-3.5
  0
LINE
  5
294
100
AcDbEntity
  8
0
  6
CONTINUOUS
 62
  256
370
   -1
100
AcDbLine
 10
8.825000000000001
 20
-2.7
 11
8.825000000000001
 21
-3.5
  0
LINE
  5
295
100
AcDbEntity
  8
0
  6
CONTINUOUS
 62
  256
370
   -1
100
AcDbLine
 10
9.025000000000002
 20
-2.7
 11
9.025000000000002
 21
-3.5
  0
LINE
  5
296
100
AcDbEntity
  8
0
  6
CONTINUOUS
 62
  256
370
   -1
100
AcDbLine
 10
9.025000000000002
 20
-2.7
 11
8.825000000000001
 21
-2.7
  0
LINE
  5
297
100
AcDbEntity
  8
0
  6
CONTINUOUS
 62
  256
370
   -1
100
AcDbLine
 10
8.850000000000001
 20
-2.25
 11
8.850000000000001
 21
-2.684978484524311
  0
LINE
  5
298
100
AcDbEntity
  8
0
  6
CONTINUOUS
 62
  256
370
   -1
100
AcDbLine
 10
9
 20
-2.25
 11
9
 21
-2.684978484524311
  0
LINE
  5
299
100
AcDbEntity
  8
0
  6
CONTINUOUS
 62
  256
370
   -1
100
AcDbLine
 10
8.825000000000003
 20
-2.275
 11
8.850000000000001
 21
-2.25
  0
LINE
  5
29A
100
AcDbEntity
  8
0
  6
CONTINUOUS
 62
  256
370
   -1
100
AcDbLine
 10
9.025000000000002
 20
-2.275
 11
9
 21
-2.25
  0
LINE
  5
29B
100
AcDbEntity
  8
0
  6
CONTINUOUS
 62
  256
370
   -1
100
AcDbLine
 10
8.825000000000001
 20
-2.7
 11
8.850000000000001
 21
-2.684978484524311
  0
LINE
  5
29C
100
AcDbEntity
  8
0
  6
CONTINUOUS
 62
  256
370
   -1
100
AcDbLine
 10
9.025000000000002
 20
-2.7
 11
9
 21
-2.684978484524311
  0
LINE
  5
29D
100
AcDbEntity
  8
0
  6
CONTINUOUS
 62
  256
370
   -1
100
AcDbLine
 10
8.850000000000001
 20
-2.684978484524311
 11
9
 21
-2.684978484524311
  0
LINE
  5
29E
100
AcDbEntity
  8
Dimensions
  6
CONTINUOUS
 62
  256
370
    5
100
AcDbLine
 10
9.074999999999999
 20
-3.5
 11
9.074999999999999
 21
-2.425
  0
LINE
  5
29F
100
AcDbEntity
  8
0
  6
CONTINUOUS
 62
  256
370
   -1
100
AcDbLine
 10
9.074999999999999
 20
-2.425
 11
9.025000000000002
 21
-2.275
  0
LINE
  5
2A0
100
AcDbEntity
  8
0
  6
CONTINUOUS
 62
  256
370
   -1
100
AcDbLine
 10
8.775000000000002
 20
-2.424999999999999
 11
8.825000000000003
 21
-2.275
  0
LINE
  5
2A1
100
AcDbEntity
  8
Dimensions
  6
CONTINUOUS
 62
  256
370
    5
100
AcDbLine
 10
8.775000000000002
 20
-3.5
 11
8.775000000000002
 21
-2.424999999999999
  0
LINE
  5
2A2
100
AcDbEntity
  8
Dimensions
  6
CONTINUOUS
 62
  256
370
    5
100
AcDbLine
 10
8.775000000000002
 20
-3.5
 11
8.825000000000001
 21
-3.5
  0
LINE
  5
2A3
100
AcDbEntity
  8
Dimensions
  6
CONTINUOUS
 62
  256
370
    5
100
AcDbLine
 10
9.025000000000002
 20
-3.5
 11
9.074999999999999
 21
-3.5
  0
LINE
  5
2A4
100
AcDbEntity
  8
0
  6
CONTINUOUS
 62
  256
370
   -1
100
AcDbLine
 10
9.450000000000001
 20
-2.7
 11
9.450000000000001
 21
-3.5
  0
LINE
  5
2A5
100
AcDbEntity
  8
0
  6
CONTINUOUS
 62
  256
370
   -1
100
AcDbLine
 10
9.650000000000002
 20
-2.7
 11
9.650000000000002
 21
-3.5
  0
LINE
  5
2A6
100
AcDbEntity
  8
0
  6
CONTINUOUS
 62
  256
370
   -1
100
AcDbLine
 10
9.650000000000002
 20
-2.7
 11
9.450000000000001
 21
-2.7
  0
LINE
  5
2A7
100
AcDbEntity
  8
0
  6
CONTINUOUS
 62
  256
370
   -1
100
AcDbLine
 10
9.475000000000001
 20
-2.25
 11
9.475000000000001
 21
-2.684978484524311
  0
LINE
  5
2A8
100
AcDbEntity
  8
0
  6
CONTINUOUS
 62
  256
370
   -1
100
AcDbLine
 10
9.625
 20
-2.25
 11
9.625
 21
-2.684978484524311
  0
LINE
  5
2A9
100
AcDbEntity
  8
0
  6
CONTINUOUS
 62
  256
370
   -1
100
AcDbLine
 10
9.450000000000003
 20
-2.275
 11
9.475000000000001
 21
-2.25
  0
LINE
  5
2AA
100
AcDbEntity
  8
0
  6
CONTINUOUS
 62
  256
370
   -1
100
AcDbLine
 10
9.650000000000002
 20
-2.275
 11
9.625
 21
-2.25
  0
LINE
  5
2AB
100
AcDbEntity
  8
0
  6
CONTINUOUS
 62
  256
370
   -1
100
AcDbLine
 10
9.450000000000001
 20
-2.7
 11
9.475000000000001
 21
-2.684978484524311
  0
LINE
  5
2AC
100
AcDbEntity
  8
0
  6
CONTINUOUS
 62
  256
370
   -1
100
AcDbLine
 10
9.650000000000002
 20
-2.7
 11
9.625
 21
-2.684978484524311
  0
LINE
  5
2AD
100
AcDbEntity
  8
0
  6
CONTINUOUS
 62
  256
370
   -1
100
AcDbLine
 10
9.475000000000001
 20
-2.684978484524311
 11
9.625
 21
-2.684978484524311
  0
LINE
  5
2AE
100
AcDbEntity
  8
Dimensions
  6
CONTINUOUS
 62
  256
370
    5
100
AcDbLine
 10
9.699999999999999
 20
-3.5
 11
9.699999999999999
 21
-2.425
  0
LINE
  5
2AF
100
AcDbEntity
  8
0
  6
CONTINUOUS
 62
  256
370
   -1
100
AcDbLine
 10
9.699999999999999
 20
-2.425
 11
9.650000000000002
 21
-2.275
  0
LINE
  5
2B0
100
AcDbEntity
  8
0
  6
CONTINUOUS
 62
  256
370
   -1
100
AcDbLine
 10
9.400000000000002
 20
-2.424999999999999
 11
9.450000000000003
 21
-2.275
  0
LINE
  5
2B1
100
AcDbEntity
  8
Dimensions
  6
CONTINUOUS
 62
  256
370
    5
100
AcDbLine
 10
9.400000000000002
 20
-3.5
 11
9.400000000000002
 21
-2.424999999999999
  0
LINE
  5
2B2
100
AcDbEntity
  8
Dimensions
  6
CONTINUOUS
 62
  256
370
    5
100
AcDbLine
 10
9.400000000000002
 20
-3.5
 11
9.450000000000001
 21
-3.5
  0
LINE
  5
2B3
100
AcDbEntity
  8
Dimensions
  6
CONTINUOUS
 62
  256
370
    5
100
AcDbLine
 10
9.650000000000002
 20
-3.5
 11
9.699999999999999
 21
-3.5
  0
LINE
  5
2B4
100
AcDbEntity
  8
0
  6
CONTINUOUS
 62
  256
370
   -1
100
AcDbLine
 10
10.075
 20
-2.7
 11
10.075
 21
-3.5
  0
LINE
  5
2B5
100
AcDbEntity
  8
0
  6
CONTINUOUS
 62
  256
370
   -1
100
AcDbLine
 10
10.275
 20
-2.7
 11
10.275
 21
-3.5
  0
LINE
  5
2B6
100
AcDbEntity
  8
0
  6
CONTINUOUS
 62
  256
370
   -1
100
AcDbLine
 10
10.275
 20
-2.7
 11
10.075
 21
-2.7
  0
LINE
  5
2B7
100
AcDbEntity
  8
0
  6
CONTINUOUS
 62
  256
370
   -1
100
AcDbLine
 10
10.1
 20
-2.25
 11
10.1
 21
-2.684978484524311
  0
LINE
  5
2B8
100
AcDbEntity
  8
0
  6
CONTINUOUS
 62
  256
370
   -1
100
AcDbLine
 10
10.25
 20
-2.25
 11
10.25
 21
-2.684978484524311
  0
LINE
  5
2B9
100
AcDbEntity
  8
0
  6
CONTINUOUS
 62
  256
370
   -1
100
AcDbLine
 10
10.075
 20
-2.275
 11
10.1
 21
-2.25
  0
LINE
  5
2BA
100
AcDbEntity
  8
0
  6
CONTINUOUS
 62
  256
370
   -1
100
AcDbLine
 10
10.275
 20
-2.275
 11
10.25
 21
-2.25
  0
LINE
  5
2BB
100
AcDbEntity
  8
0
  6
CONTINUOUS
 62
  256
370
   -1
100
AcDbLine
 10
10.075
 20
-2.7
 11
10.1
 21
-2.684978484524311
  0
LINE
  5
2BC
100
AcDbEntity
  8
0
  6
CONTINUOUS
 62
  256
370
   -1
100
AcDbLine
 10
10.275
 20
-2.7
 11
10.25
 21
-2.684978484524311
  0
LINE
  5
2BD
100
AcDbEntity
  8
0
  6
CONTINUOUS
 62
  256
370
   -1
100
AcDbLine
 10
10.1
 20
-2.684978484524311
 11
10.25
 21
-2.684978484524311
  0
LINE
  5
2BE
100
AcDbEntity
  8
Dimensions
  6
CONTINUOUS
 62
  256
370
    5
100
AcDbLine
 10
10.325
 20
-3.5
 11
10.325
 21
-2.425
  0
LINE
  5
2BF
100
AcDbEntity
  8
0
  6
CONTINUOUS
 62
  256
370
   -1
100
AcDbLine
 10
10.325
 20
-2.425
 11
10.275
 21
-2.275
  0
LINE
  5
2C0
100
AcDbEntity
  8
0
  6
CONTINUOUS
 62
  256
370
   -1
100
AcDbLine
 10
10.025
 20
-2.424999999999999
 11
10.075
 21
-2.275
  0
LINE
  5
2C1
100
AcDbEntity
  8
Dimensions
  6
CONTINUOUS
 62
  256
370
    5
100
AcDbLine
 10
10.025
 20
-3.5
 11
10.025
 21
-2.424999999999999
  0
LINE
  5
2C2
100
AcDbEntity
  8
Dimensions
  6
CONTINUOUS
 62
  256
370
    5
100
AcDbLine
 10
10.025
 20
-3.5
 11
10.075
 21
-3.5
  0
LINE
  5
2C3
100
AcDbEntity
  8
Dimensions
  6
CONTINUOUS
 62
  256
370
    5
100
AcDbLine
 10
10.275
 20
-3.5
 11
10.325
 21
-3.5
  0
LINE
  5
2C4
100
AcDbEntity
  8
0
  6
CONTINUOUS
 62
  256
370
   -1
100
AcDbLine
 10
10.7
 20
-2.7
 11
10.7
 21
-3.5
  0
LINE
  5
2C5
100
AcDbEntity
  8
0
  6
CONTINUOUS
 62
  256
370
   -1
100
AcDbLine
 10
10.9
 20
-2.7
 11
10.9
 21
-3.5
  0
LINE
  5
2C6
100
AcDbEntity
  8
0
  6
CONTINUOUS
 62
  256
370
   -1
100
AcDbLine
 10
10.9
 20
-2.7
 11
10.7
 21
-2.7
  0
LINE
  5
2C7
100
AcDbEntity
  8
0
  6
CONTINUOUS
 62
  256
370
   -1
100
AcDbLine
 10
10.725
 20
-2.25
 11
10.725
 21
-2.684978484524311
  0
LINE
  5
2C8
100
AcDbEntity
  8
0
  6
CONTINUOUS
 62
  256
370
   -1
100
AcDbLine
 10
10.875
 20
-2.25
 11
10.875
 21
-2.684978484524311
  0
LINE
  5
2C9
100
AcDbEntity
  8
0
  6
CONTINUOUS
 62
  256
370
   -1
100
AcDbLine
 10
10.7
 20
-2.275
 11
10.725
 21
-2.25
  0
LINE
  5
2CA
100
AcDbEntity
  8
0
  6
CONTINUOUS
 62
  256
370
   -1
100
AcDbLine
 10
10.9
 20
-2.275
 11
10.875
 21
-2.25
  0
LINE
  5
2CB
100
AcDbEntity
  8
0
  6
CONTINUOUS
 62
  256
370
   -1
100
AcDbLine
 10
10.7
 20
-2.7
 11
10.725
 21
-2.684978484524311
  0
LINE
  5
2CC
100
AcDbEntity
  8
0
  6
CONTINUOUS
 62
  256
370
   -1
100
AcDbLine
 10
10.9
 20
-2.7
 11
10.875
 21
-2.684978484524311
  0
LINE
  5
2CD
100
AcDbEntity
  8
0
  6
CONTINUOUS
 62
  256
370
   -1
100
AcDbLine
 10
10.725
 20
-2.684978484524311
 11
10.875
 21
-2.684978484524311
  0
LINE
  5
2CE
100
AcDbEntity
  8
Dimensions
  6
CONTINUOUS
 62
  256
370
    5
100
AcDbLine
 10
10.95
 20
-3.5
 11
10.95
 21
-2.425
  0
LINE
  5
2CF
100
AcDbEntity
  8
0
  6
CONTINUOUS
 62
  256
370
   -1
100
AcDbLine
 10
10.95
 20
-2.425
 11
10.9
 21
-2.275
  0
LINE
  5
2D0
100
AcDbEntity
  8
0
  6
CONTINUOUS
 62
  256
370
   -1
100
AcDbLine
 10
10.65
 20
-2.424999999999999
 11
10.7
 21
-2.275
  0
LINE
  5
2D1
100
AcDbEntity
  8
Dimensions
  6
CONTINUOUS
 62
  256
370
    5
100
AcDbLine
 10
10.65
 20
-3.5
 11
10.65
 21
-2.424999999999999
  0
LINE
  5
2D2
100
AcDbEntity
  8
Dimensions
  6
CONTINUOUS
 62
  256
370
    5
100
AcDbLine
 10
10.65
 20
-3.5
 11
10.7
 21
-3.5
  0
LINE
  5
2D3
100
AcDbEntity
  8
Dimensions
  6
CONTINUOUS
 62
  256
370
    5
100
AcDbLine
 10
10.9
 20
-3.5
 11
10.95
 21
-3.5
  0
LINE
  5
2D4
100
AcDbEntity
  8
0
  6
CONTINUOUS
 62
  256
370
   -1
100
AcDbLine
 10
11.325
 20
-2.7
 11
11.325
 21
-3.5
  0
LINE
  5
2D5
100
AcDbEntity
  8
0
  6
CONTINUOUS
 62
  256
370
   -1
100
AcDbLine
 10
11.525
 20
-2.7
 11
11.525
 21
-3.5
  0
LINE
  5
2D6
100
AcDbEntity
  8
0
  6
CONTINUOUS
 62
  256
370
   -1
100
AcDbLine
 10
11.525
 20
-2.7
 11
11.325
 21
-2.7
  0
LINE
  5
2D7
100
AcDbEntity
  8
0
  6
CONTINUOUS
 62
  256
370
   -1
100
AcDbLine
 10
11.35
 20
-2.25
 11
11.35
 21
-2.684978484524311
  0
LINE
  5
2D8
100
AcDbEntity
  8
0
  6
CONTINUOUS
 62
  256
370
   -1
100
AcDbLine
 10
11.5
 20
-2.25
 11
11.5
 21
-2.684978484524311
  0
LINE
  5
2D9
100
AcDbEntity
  8
0
  6
CONTINUOUS
 62
  256
370
   -1
100
AcDbLine
 10
11.325
 20
-2.275
 11
11.35
 21
-2.25
  0
LINE
  5
2DA
100
AcDbEntity
  8
0
  6
CONTINUOUS
 62
  256
370
   -1
100
AcDbLine
 10
11.525
 20
-2.275
 11
11.5
 21
-2.25
  0
LINE
  5
2DB
100
AcDbEntity
  8
0
  6
CONTINUOUS
 62
  256
370
   -1
100
AcDbLine
 10
11.325
 20
-2.7
 11
11.35
 21
-2.684978484524311
  0
LINE
  5
2DC
100
AcDbEntity
  8
0
  6
CONTINUOUS
 62
  256
370
   -1
100
AcDbLine
 10
11.525
 20
-2.7
 11
11.5
 21
-2.684978484524311
  0
LINE
  5
2DD
100
AcDbEntity
  8
0
  6
CONTINUOUS
 62
  256
370
   -1
100
AcDbLine
 10
11.35
 20
-2.684978484524311
 11
11.5
 21
-2.684978484524311
  0
LINE
  5
2DE
100
AcDbEntity
  8
Dimensions
  6
CONTINUOUS
 62
  256
370
    5
100
AcDbLine
 10
11.575
 20
-3.5
 11
11.575
 21
-2.425
  0
LINE
  5
2DF
100
AcDbEntity
  8
0
  6
CONTINUOUS
 62
  256
370
   -1
100
AcDbLine
 10
11.575
 20
-2.425
 11
11.525
 21
-2.275
  0
LINE
  5
2E0
100
AcDbEntity
  8
0
  6
CONTINUOUS
 62
  256
370
   -1
100
AcDbLine
 10
11.275
 20
-2.424999999999999
 11
11.325
 21
-2.275
  0
LINE
  5
2E1
100
AcDbEntity
  8
Dimensions
  6
CONTINUOUS
 62
  256
370
    5
100
AcDbLine
 10
11.275
 20
-3.5
 11
11.275
 21
-2.424999999999999
  0
LINE
  5
2E2
100
AcDbEntity
  8
Dimensions
  6
CONTINUOUS
 62
  256
370
    5
100
AcDbLine
 10
11.275
 20
-3.5
 11
11.325
 21
-3.5
  0
LINE
  5
2E3
100
AcDbEntity
  8
Dimensions
  6
CONTINUOUS
 62
  256
370
    5
100
AcDbLine
 10
11.525
 20
-3.5
 11
11.575
 21
-3.5
  0
LINE
  5
2E4
100
AcDbEntity
  8
0
  6
CONTINUOUS
 62
  256
370
   -1
100
AcDbLine
 10
11.95
 20
-2.7
 11
11.95
 21
-3.5
  0
LINE
  5
2E5
100
AcDbEntity
  8
0
  6
CONTINUOUS
 62
  256
370
   -1
100
AcDbLine
 10
12.15
 20
-2.7
 11
12.15
 21
-3.5
  0
LINE
  5
2E6
100
AcDbEntity
  8
0
  6
CONTINUOUS
 62
  256
370
   -1
100
AcDbLine
 10
12.15
 20
-2.7
 11
11.95
 21
-2.7
  0
LINE
  5
2E7
100
AcDbEntity
  8
0
  6
CONTINUOUS
 62
  256
370
   -1
100
AcDbLine
 10
11.975
 20
-2.25
 11
11.975
 21
-2.684978484524311
  0
LINE
  5
2E8
100
AcDbEntity
  8
0
  6
CONTINUOUS
 62
  256
370
   -1
100
AcDbLine
 10
12.125
 20
-2.25
 11
12.125
 21
-2.684978484524311
  0
LINE
  5
2E9
100
AcDbEntity
  8
0
  6
CONTINUOUS
 62
  256
370
   -1
100
AcDbLine
 10
11.95
 20
-2.275
 11
11.975
 21
-2.25
  0
LINE
  5
2EA
100
AcDbEntity
  8
0
  6
CONTINUOUS
 62
  256
370
   -1
100
AcDbLine
 10
12.15
 20
-2.275
 11
12.125
 21
-2.25
  0
LINE
  5
2EB
100
AcDbEntity
  8
0
  6
CONTINUOUS
 62
  256
370
   -1
100
AcDbLine
 10
11.95
 20
-2.7
 11
11.975
 21
-2.684978484524311
  0
LINE
  5
2EC
100
AcDbEntity
  8
0
  6
CONTINUOUS
 62
  256
370
   -1
100
AcDbLine
 10
12.15
 20
-2.7
 11
12.125
 21
-2.684978484524311
  0
LINE
  5
2ED
100
AcDbEntity
  8
0
  6
CONTINUOUS
 62
  256
370
   -1
100
AcDbLine
 10
11.975
 20
-2.684978484524311
 11
12.125
 21
-2.684978484524311
  0
LINE
  5
2EE
100
AcDbEntity
  8
Dimensions
  6
CONTINUOUS
 62
  256
370
    5
100
AcDbLine
 10
12.2
 20
-3.5
 11
12.2
 21
-2.425
  0
LINE
  5
2EF
100
AcDbEntity
  8
0
  6
CONTINUOUS
 62
  256
370
   -1
100
AcDbLine
 10
12.2
 20
-2.425
 11
12.15
 21
-2.275
  0
LINE
  5
2F0
100
AcDbEntity
  8
0
  6
CONTINUOUS
 62
  256
370
   -1
100
AcDbLine
 10
11.9
 20
-2.424999999999999
 11
11.95
 21
-2.275
  0
LINE
  5
2F1
100
AcDbEntity
  8
Dimensions
  6
CONTINUOUS
 62
  256
370
    5
100
AcDbLine
 10
11.9
 20
-3.5
 11
11.9
 21
-2.424999999999999
  0
LINE
  5
2F2
100
AcDbEntity
  8
Dimensions
  6
CONTINUOUS
 62
  256
370
    5
100
AcDbLine
 10
11.9
 20
-3.5
 11
11.95
 21
-3.5
  0
LINE
  5
2F3
100
AcDbEntity
  8
Dimensions
  6
CONTINUOUS
 62
  256
370
    5
100
AcDbLine
 10
12.15
 20
-3.5
 11
12.2
 21
-3.5
  0
LINE
  5
2F4
100
AcDbEntity
  8
0
  6
CONTINUOUS
 62
  256
370
   -1
100
AcDbLine
 10
12.575
 20
-2.7
 11
12.575
 21
-3.5
  0
LINE
  5
2F5
100
AcDbEntity
  8
0
  6
CONTINUOUS
 62
  256
370
   -1
100
AcDbLine
 10
12.775
 20
-2.7
 11
12.775
 21
-3.5
  0
LINE
  5
2F6
100
AcDbEntity
  8
0
  6
CONTINUOUS
 62
  256
370
   -1
100
AcDbLine
 10
12.775
 20
-2.7
 11
12.575
 21
-2.7
  0
LINE
  5
2F7
100
AcDbEntity
  8
0
  6
CONTINUOUS
 62
  256
370
   -1
100
AcDbLine
 10
12.6
 20
-2.25
 11
12.6
 21
-2.684978484524311
  0
LINE
  5
2F8
100
AcDbEntity
  8
0
  6
CONTINUOUS
 62
  256
370
   -1
100
AcDbLine
 10
12.75
 20
-2.25
 11
12.75
 21
-2.684978484524311
  0
LINE
  5
2F9
100
AcDbEntity
  8
0
  6
CONTINUOUS
 62
  256
370
   -1
100
AcDbLine
 10
12.575
 20
-2.275
 11
12.6
 21
-2.25
  0
LINE
  5
2FA
100
AcDbEntity
  8
0
  6
CONTINUOUS
 62
  256
370
   -1
100
AcDbLine
 10
12.775
 20
-2.275
 11
12.75
 21
-2.25
  0
LINE
  5
2FB
100
AcDbEntity
  8
0
  6
CONTINUOUS
 62
  256
370
   -1
100
AcDbLine
 10
12.575
 20
-2.7
 11
12.6
 21
-2.684978484524311
  0
LINE
  5
2FC
100
AcDbEntity
  8
0
  6
CONTINUOUS
 62
  256
370
   -1
100
AcDbLine
 10
12.775
 20
-2.7
 11
12.75
 21
-2.684978484524311
  0
LINE
  5
2FD
100
AcDbEntity
  8
0
  6
CONTINUOUS
 62
  256
370
   -1
100
AcDbLine
 10
12.6
 20
-2.684978484524311
 11
12.75
 21
-2.684978484524311
  0
LINE
  5
2FE
100
AcDbEntity
  8
Dimensions
  6
CONTINUOUS
 62
  256
370
    5
100
AcDbLine
 10
12.825
 20
-3.5
 11
12.825
 21
-2.425
  0
LINE
  5
2FF
100
AcDbEntity
  8
0
  6
CONTINUOUS
 62
  256
370
   -1
100
AcDbLine
 10
12.825
 20
-2.425
 11
12.775
 21
-2.275
  0
LINE
  5
300
100
AcDbEntity
  8
0
  6
CONTINUOUS
 62
  256
370
   -1
100
AcDbLine
 10
12.525
 20
-2.424999999999999
 11
12.575
 21
-2.275
  0
LINE
  5
301
100
AcDbEntity
  8
Dimensions
  6
CONTINUOUS
 62
  256
370
    5
100
AcDbLine
 10
12.525
 20
-3.5
 11
12.525
 21
-2.424999999999999
  0
LINE
  5
302
100
AcDbEntity
  8
Dimensions
  6
CONTINUOUS
 62
  256
370
    5
100
AcDbLine
 10
12.525
 20
-3.5
 11
12.575
 21
-3.5
  0
LINE
  5
303
100
AcDbEntity
  8
Dimensions
  6
CONTINUOUS
 62
  256
370
    5
100
AcDbLine
 10
12.775
 20
-3.5
 11
12.825
 21
-3.5
  0
LINE
  5
304
100
AcDbEntity
  8
0
  6
CONTINUOUS
 62
  256
370
   -1
100
AcDbLine
 10
13.2
 20
-2.7
 11
13.2
 21
-3.5
  0
LINE
  5
305
100
AcDbEntity
  8
0
  6
CONTINUOUS
 62
  256
370
   -1
100
AcDbLine
 10
13.4
 20
-2.7
 11
13.4
 21
-3.5
  0
LINE
  5
306
100
AcDbEntity
  8
0
  6
CONTINUOUS
 62
  256
370
   -1
100
AcDbLine
 10
13.4
 20
-2.7
 11
13.2
 21
-2.7
  0
LINE
  5
307
100
AcDbEntity
  8
0
  6
CONTINUOUS
 62
  256
370
   -1
100
AcDbLine
 10
13.225
 20
-2.25
 11
13.225
 21
-2.684978484524311
  0
LINE
  5
308
100
AcDbEntity
  8
0
  6
CONTINUOUS
 62
  256
370
   -1
100
AcDbLine
 10
13.375
 20
-2.25
 11
13.375
 21
-2.684978484524311
  0
LINE
  5
309
100
AcDbEntity
  8
0
  6
CONTINUOUS
 62
  256
370
   -1
100
AcDbLine
 10
13.2
 20
-2.275
 11
13.225
 21
-2.25
  0
LINE
  5
30A
100
AcDbEntity
  8
0
  6
CONTINUOUS
 62
  256
370
   -1
100
AcDbLine
 10
13.4
 20
-2.275
 11
13.375
 21
-2.25
  0
LINE
  5
30B
100
AcDbEntity
  8
0
  6
CONTINUOUS
 62
  256
370
   -1
100
AcDbLine
 10
13.2
 20
-2.7
 11
13.225
 21
-2.684978484524311
  0
LINE
  5
30C
100
AcDbEntity
  8
0
  6
CONTINUOUS
 62
  256
370
   -1
100
AcDbLine
 10
13.4
 20
-2.7
 11
13.375
 21
-2.684978484524311
  0
LINE
  5
30D
100
AcDbEntity
  8
0
  6
CONTINUOUS
 62
  256
370
   -1
100
AcDbLine
 10
13.225
 20
-2.684978484524311
 11
13.375
 21
-2.684978484524311
  0
LINE
  5
30E
100
AcDbEntity
  8
Dimensions
  6
CONTINUOUS
 62
  256
370
    5
100
AcDbLine
 10
13.45
 20
-3.5
 11
13.45
 21
-2.425
  0
LINE
  5
30F
100
AcDbEntity
  8
0
  6
CONTINUOUS
 62
  256
370
   -1
100
AcDbLine
 10
13.45
 20
-2.425
 11
13.4
 21
-2.275
  0
LINE
  5
310
100
AcDbEntity
  8
0
  6
CONTINUOUS
 62
  256
370
   -1
100
AcDbLine
 10
13.15
 20
-2.424999999999999
 11
13.2
 21
-2.275
  0
LINE
  5
311
100
AcDbEntity
  8
Dimensions
  6
CONTINUOUS
 62
  256
370
    5
100
AcDbLine
 10
13.15
 20
-3.5
 11
13.15
 21
-2.424999999999999
  0
LINE
  5
312
100
AcDbEntity
  8
Dimensions
  6
CONTINUOUS
 62
  256
370
    5
100
AcDbLine
 10
13.15
 20
-3.5
 11
13.2
 21
-3.5
  0
LINE
  5
313
100
AcDbEntity
  8
Dimensions
  6
CONTINUOUS
 62
  256
370
    5
100
AcDbLine
 10
13.4
 20
-3.5
 11
13.45
 21
-3.5
  0
LINE
  5
314
100
AcDbEntity
  8
0
  6
CONTINUOUS
 62
  256
370
   -1
100
AcDbLine
 10
1.6
 20
-3
 11
3.800000000000001
 21
-3
  0
LINE
  5
315
100
AcDbEntity
  8
0
  6
CONTINUOUS
 62
  256
370
   -1
100
AcDbLine
 10
1.6
 20
-3.25
 11
3.800000000000001
 21
-3.25
  0
LINE
  5
316
100
AcDbEntity
  8
0
  6
CONTINUOUS
 62
  256
370
   -1
100
AcDbLine
 10
4.100000000000001
 20
-3
 11
5.050000000000001
 21
-3
  0
LINE
  5
317
100
AcDbEntity
  8
0
  6
CONTINUOUS
 62
  256
370
   -1
100
AcDbLine
 10
4.100000000000001
 20
-3.25
 11
5.050000000000001
 21
-3.25
  0
LINE
  5
318
100
AcDbEntity
  8
0
  6
CONTINUOUS
 62
  256
370
   -1
100
AcDbLine
 10
5.35
 20
-3
 11
6.050000000000001
 21
-3
  0
LINE
  5
319
100
AcDbEntity
  8
0
  6
CONTINUOUS
 62
  256
370
   -1
100
AcDbLine
 10
5.35
 20
-3.25
 11
6.050000000000001
 21
-3.250000000000001
  0
LINE
  5
31A
100
AcDbEntity
  8
0
  6
CONTINUOUS
 62
  256
370
   -1
100
AcDbLine
 10
6.35
 20
-3
 11
7.175000000000001
 21
-3
  0
LINE
  5
31B
100
AcDbEntity
  8
0
  6
CONTINUOUS
 62
  256
370
   -1
100
AcDbLine
 10
6.35
 20
-3.25
 11
7.175000000000001
 21
-3.25
  0
LINE
  5
31C
100
AcDbEntity
  8
0
  6
CONTINUOUS
 62
  256
370
   -1
100
AcDbLine
 10
7.475
 20
-3
 11
8.775000000000002
 21
-3
  0
LINE
  5
31D
100
AcDbEntity
  8
0
  6
CONTINUOUS
 62
  256
370
   -1
100
AcDbLine
 10
7.475
 20
-3.25
 11
8.775000000000002
 21
-3.25
  0
LINE
  5
31E
100
AcDbEntity
  8
0
  6
CONTINUOUS
 62
  256
370
   -1
100
AcDbLine
 10
9.074999999999999
 20
-3
 11
9.400000000000002
 21
-3
  0
LINE
  5
31F
100
AcDbEntity
  8
0
  6
CONTINUOUS
 62
  256
370
   -1
100
AcDbLine
 10
9.074999999999999
 20
-3.25
 11
9.400000000000002
 21
-3.250000000000001
  0
LINE
  5
320
100
AcDbEntity
  8
0
  6
CONTINUOUS
 62
  256
370
   -1
100
AcDbLine
 10
9.699999999999999
 20
-3
 11
10.025
 21
-3
  0
LINE
  5
321
100
AcDbEntity
  8
0
  6
CONTINUOUS
 62
  256
370
   -1
100
AcDbLine
 10
9.699999999999999
 20
-3.25
 11
10.025
 21
-3.25
  0
LINE
  5
322
100
AcDbEntity
  8
0
  6
CONTINUOUS
 62
  256
370
   -1
100
AcDbLine
 10
10.325
 20
-3
 11
10.65
 21
-3
  0
LINE
  5
323
100
AcDbEntity
  8
0
  6
CONTINUOUS
 62
  256
370
   -1
100
AcDbLine
 10
10.325
 20
-3.25
 11
10.65
 21
-3.250000000000001
  0
LINE
  5
324
100
AcDbEntity
  8
0
  6
CONTINUOUS
 62
  256
370
   -1
100
AcDbLine
 10
10.95
 20
-3
 11
11.275
 21
-3
  0
LINE
  5
325
100
AcDbEntity
  8
0
  6
CONTINUOUS
 62
  256
370
   -1
100
AcDbLine
 10
11.575
 20
-3
 11
11.9
 21
-3
  0
LINE
  5
326
100
AcDbEntity
  8
0
  6
CONTINUOUS
 62
  256
370
   -1
100
AcDbLine
 10
12.2
 20
-3
 11
12.525
 21
-3
  0
LINE
  5
327
100
AcDbEntity
  8
0
  6
CONTINUOUS
 62
  256
370
   -1
100
AcDbLine
 10
12.2
 20
-3.25
 11
12.525
 21
-3.25
  0
LINE
  5
328
100
AcDbEntity
  8
0
  6
CONTINUOUS
 62
  256
370
   -1
100
AcDbLine
 10
12.825
 20
-3.25
 11
13.15
 21
-3.250000000000001
  0
LINE
  5
329
100
AcDbEntity
  8
0
  6
CONTINUOUS
 62
  256
370
   -1
100
AcDbLine
 10
12.825
 20
-3
 11
13.15
 21
-3
  0
LINE
  5
32A
100
AcDbEntity
  8
0
  6
CONTINUOUS
 62
  256
370
   -1
100
AcDbLine
 10
13.45
 20
-3
 11
14
 21
-3
  0
LINE
  5
32B
100
AcDbEntity
  8
0
  6
CONTINUOUS
 62
  256
370
   -1
100
AcDbLine
 10
13.45
 20
-3.25
 11
14
 21
-3.250000000000001
  0
LINE
  5
32C
100
AcDbEntity
  8
Dimensions
  6
CONTINUOUS
 62
  256
370
    5
100
AcDbLine
 10
13.45
 20
-3
 11
13.45
 21
-3.25
  0
LINE
  5
32D
100
AcDbEntity
  8
Dimensions
  6
CONTINUOUS
 62
  256
370
    5
100
AcDbLine
 10
12.825
 20
-3
 11
12.825
 21
-3.25
  0
LINE
  5
32E
100
AcDbEntity
  8
Dimensions
  6
CONTINUOUS
 62
  256
370
    5
100
AcDbLine
 10
13.15
 20
-3
 11
13.15
 21
-3.250000000000001
  0
LINE
  5
32F
100
AcDbEntity
  8
Dimensions
  6
CONTINUOUS
 62
  256
370
    5
100
AcDbLine
 10
12.2
 20
-3
 11
12.2
 21
-3.25
  0
LINE
  5
330
100
AcDbEntity
  8
Dimensions
  6
CONTINUOUS
 62
  256
370
    5
100
AcDbLine
 10
12.525
 20
-3
 11
12.525
 21
-3.25
  0
LINE
  5
331
100
AcDbEntity
  8
0
  6
CONTINUOUS
 62
  256
370
   -1
100
AcDbLine
 10
10.95
 20
-3.25
 11
11.275
 21
-3.250000000000001
  0
LINE
  5
332
100
AcDbEntity
  8
Dimensions
  6
CONTINUOUS
 62
  256
370
    5
100
AcDbLine
 10
10.95
 20
-3
 11
10.95
 21
-3.25
  0
LINE
  5
333
100
AcDbEntity
  8
Dimensions
  6
CONTINUOUS
 62
  256
370
    5
100
AcDbLine
 10
11.275
 20
-3
 11
11.275
 21
-3.250000000000001
  0
LINE
  5
334
100
AcDbEntity
  8
0
  6
CONTINUOUS
 62
  256
370
   -1
100
AcDbLine
 10
11.575
 20
-3.249999999999999
 11
11.9
 21
-3.250000000000001
  0
LINE
  5
335
100
AcDbEntity
  8
Dimensions
  6
CONTINUOUS
 62
  256
370
    5
100
AcDbLine
 10
11.575
 20
-3
 11
11.575
 21
-3.249999999999999
  0
LINE
  5
336
100
AcDbEntity
  8
Dimensions
  6
CONTINUOUS
 62
  256
370
    5
100
AcDbLine
 10
11.9
 20
-3.250000000000001
 11
11.9
 21
-3
  0
LINE
  5
337
100
AcDbEntity
  8
Dimensions
  6
CONTINUOUS
 62
  256
370
    5
100
AcDbLine
 10
10.325
 20
-3
 11
10.325
 21
-3.25
  0
LINE
  5
338
100
AcDbEntity
  8
Dimensions
  6
CONTINUOUS
 62
  256
370
    5
100
AcDbLine
 10
10.65
 20
-3
 11
10.65
 21
-3.250000000000001
  0
LINE
  5
339
100
AcDbEntity
  8
Dimensions
  6
CONTINUOUS
 62
  256
370
    5
100
AcDbLine
 10
9.699999999999999
 20
-3
 11
9.699999999999999
 21
-3.25
  0
LINE
  5
33A
100
AcDbEntity
  8
Dimensions
  6
CONTINUOUS
 62
  256
370
    5
100
AcDbLine
 10
10.025
 20
-3
 11
10.025
 21
-3.25
  0
LINE
  5
33B
100
AcDbEntity
  8
Dimensions
  6
CONTINUOUS
 62
  256
370
    5
100
AcDbLine
 10
9.074999999999999
 20
-3
 11
9.074999999999999
 21
-3.25
  0
LINE
  5
33C
100
AcDbEntity
  8
Dimensions
  6
CONTINUOUS
 62
  256
370
    5
100
AcDbLine
 10
9.400000000000002
 20
-3
 11
9.400000000000002
 21
-3.250000000000001
  0
LINE
  5
33D
100
AcDbEntity
  8
Dimensions
  6
CONTINUOUS
 62
  256
370
    5
100
AcDbLine
 10
7.475
 20
-3
 11
7.475
 21
-3.25
  0
LINE
  5
33E
100
AcDbEntity
  8
Dimensions
  6
CONTINUOUS
 62
  256
370
    5
100
AcDbLine
 10
8.775000000000002
 20
-3
 11
8.775000000000002
 21
-3.25
  0
LINE
  5
33F
100
AcDbEntity
  8
Dimensions
  6
CONTINUOUS
 62
  256
370
    5
100
AcDbLine
 10
6.35
 20
-3
 11
6.35
 21
-3.25
  0
LINE
  5
340
100
AcDbEntity
  8
Dimensions
  6
CONTINUOUS
 62
  256
370
    5
100
AcDbLine
 10
7.175000000000001
 20
-3.25
 11
7.175000000000001
 21
-3
  0
LINE
  5
341
100
AcDbEntity
  8
Dimensions
  6
CONTINUOUS
 62
  256
370
    5
100
AcDbLine
 10
5.35
 20
-3.25
 11
5.35
 21
-3
  0
LINE
  5
342
100
AcDbEntity
  8
Dimensions
  6
CONTINUOUS
 62
  256
370
    5
100
AcDbLine
 10
6.050000000000001
 20
-3
 11
6.050000000000001
 21
-3.25
  0
LINE
  5
343
100
AcDbEntity
  8
Dimensions
  6
CONTINUOUS
 62
  256
370
    5
100
AcDbLine
 10
4.100000000000001
 20
-3
 11
4.100000000000001
 21
-3.25
  0
LINE
  5
344
100
AcDbEntity
  8
Dimensions
  6
CONTINUOUS
 62
  256
370
    5
100
AcDbLine
 10
5.050000000000001
 20
-3
 11
5.050000000000001
 21
-3.25
  0
LINE
  5
345
100
AcDbEntity
  8
Dimensions
  6
CONTINUOUS
 62
  256
370
    5
100
AcDbLine
 10
1.6
 20
-3.25
 11
1.6
 21
-3
  0
LINE
  5
346
100
AcDbEntity
  8
Dimensions
  6
CONTINUOUS
 62
  256
370
    5
100
AcDbLine
 10
3.800000000000001
 20
-3
 11
3.800000000000001
 21
-3.25
  0
LINE
  5
347
100
AcDbEntity
  8
Dimensions
  6
CONTINUOUS
 62
  256
370
    5
100
AcDbLine
 10
1.1
 20
-3
 11
1.1
 21
-3.25
  0
LINE
  5
348
100
AcDbEntity
  8
Dimensions
  6
CONTINUOUS
 62
  256
370
    5
100
AcDbLine
 10
1.3
 20
-3
 11
1.3
 21
-3.25
  0
LINE
  5
349
100
AcDbEntity
  8
Dimensions
  6
CONTINUOUS
 62
  256
370
    5
100
AcDbLine
 10
0.8
 20
-3
 11
0.8
 21
-3.25
  0
LINE
  5
34A
100
AcDbEntity
  8
Dimensions
  6
CONTINUOUS
 62
  256
370
    5
100
AcDbLine
 10
-1.310464630039e-16
 20
-3.5
 11
14.0000008
 21
-3.5
  0
CIRCLE
  5
34B
100
AcDbEntity
  8
Dimensions
  6
CONTINUOUS
 62
  256
370
    5
100
AcDbCircle
 10
0.9500000000000002
 20
3.125
 40
0.1499999999999999
  0
CIRCLE
  5
34C
100
AcDbEntity
  8
Dimensions
  6
CONTINUOUS
 62
  256
370
    5
100
AcDbCircle
 10
1.45
 20
3.125
 40
0.1499999999999999
  0
CIRCLE
  5
34D
100
AcDbEntity
  8
Dimensions
  6
CONTINUOUS
 62
  256
370
    5
100
AcDbCircle
 10
0.9500000000000002
 20
1.875
 40
0.1499999999999999
  0
CIRCLE
  5
34E
100
AcDbEntity
  8
Dimensions
  6
CONTINUOUS
 62
  256
370
    5
100
AcDbCircle
 10
1.45
 20
1.875
 40
0.1499999999999999
  0
CIRCLE
  5
34F
100
AcDbEntity
  8
Dimensions
  6
CONTINUOUS
 62
  256
370
    5
100
AcDbCircle
 10
3.95
 20
2.75
 40
0.1499999999999999
  0
CIRCLE
  5
350
100
AcDbEntity
  8
Dimensions
  6
CONTINUOUS
 62
  256
370
    5
100
AcDbCircle
 10
3.95
 20
2.25
 40
0.1499999999999999
  0
CIRCLE
  5
351
100
AcDbEntity
  8
Dimensions
  6
CONTINUOUS
 62
  256
370
    5
100
AcDbCircle
 10
5.2
 20
2.75
 40
0.1499999999999999
  0
CIRCLE
  5
352
100
AcDbEntity
  8
Dimensions
  6
CONTINUOUS
 62
  256
370
    5
100
AcDbCircle
 10
5.2
 20
2.25
 40
0.1499999999999999
  0
CIRCLE
  5
353
100
AcDbEntity
  8
Dimensions
  6
CONTINUOUS
 62
  256
370
    5
100
AcDbCircle
 10
6.2
 20
2.75
 40
0.1499999999999999
  0
CIRCLE
  5
354
100
AcDbEntity
  8
Dimensions
  6
CONTINUOUS
 62
  256
370
    5
100
AcDbCircle
 10
6.2
 20
2.25
 40
0.1499999999999999
  0
CIRCLE
  5
355
100
AcDbEntity
  8
Dimensions
  6
CONTINUOUS
 62
  256
370
    5
100
AcDbCircle
 10
7.324999999999999
 20
2.75
 40
0.1499999999999999
  0
CIRCLE
  5
356
100
AcDbEntity
  8
Dimensions
  6
CONTINUOUS
 62
  256
370
    5
100
AcDbCircle
 10
7.324999999999999
 20
2.25
 40
0.1499999999999999
  0
LINE
  5
357
100
AcDbEntity
  8
Dimensions
  6
CONTINUOUS
 62
  256
370
    5
100
AcDbLine
 10
8.775000000000002
 20
2.175
 11
8.775000000000002
 21
2.825
  0
LINE
  5
358
100
AcDbEntity
  8
Dimensions
  6
CONTINUOUS
 62
  256
370
    5
100
AcDbLine
 10
9.074999999999999
 20
2.175
 11
9.074999999999999
 21
2.825
  0
ARC
  5
359
100
AcDbEntity
  8
Dimensions
  6
CONTINUOUS
 62
  256
370
    5
100
AcDbCircle
 10
8.925000000000001
 20
2.825
 40
0.1499999999999986
100
AcDbArc
 50
0
 51
180
  0
ARC
  5
35A
100
AcDbEntity
  8
Dimensions
  6
CONTINUOUS
 62
  256
370
    5
100
AcDbCircle
 10
8.925000000000001
 20
2.175
 40
0.1499999999999986
100
AcDbArc
 50
180
 51
0
  0
LINE
  5
35B
100
AcDbEntity
  8
Dimensions
  6
CONTINUOUS
 62
  256
370
    5
100
AcDbLine
 10
9.400000000000002
 20
2.175
 11
9.400000000000002
 21
2.825
  0
LINE
  5
35C
100
AcDbEntity
  8
Dimensions
  6
CONTINUOUS
 62
  256
370
    5
100
AcDbLine
 10
9.699999999999999
 20
2.175
 11
9.699999999999999
 21
2.825
  0
ARC
  5
35D
100
AcDbEntity
  8
Dimensions
  6
CONTINUOUS
 62
  256
370
    5
100
AcDbCircle
 10
9.550000000000001
 20
2.825
 40
0.1499999999999986
100
AcDbArc
 50
0
 51
180
  0
ARC
  5
35E
100
AcDbEntity
  8
Dimensions
  6
CONTINUOUS
 62
  256
370
    5
100
AcDbCircle
 10
9.550000000000001
 20
2.175
 40
0.1499999999999986
100
AcDbArc
 50
180
 51
0
  0
LINE
  5
35F
100
AcDbEntity
  8
Dimensions
  6
CONTINUOUS
 62
  256
370
    5
100
AcDbLine
 10
10.025
 20
2.175
 11
10.025
 21
2.825
  0
LINE
  5
360
100
AcDbEntity
  8
Dimensions
  6
CONTINUOUS
 62
  256
370
    5
100
AcDbLine
 10
10.325
 20
2.175
 11
10.325
 21
2.825
  0
ARC
  5
361
100
AcDbEntity
  8
Dimensions
  6
CONTINUOUS
 62
  256
370
    5
100
AcDbCircle
 10
10.175
 20
2.825
 40
0.1499999999999986
100
AcDbArc
 50
0
 51
180
  0
ARC
  5
362
100
AcDbEntity
  8
Dimensions
  6
CONTINUOUS
 62
  256
370
    5
100
AcDbCircle
 10
10.175
 20
2.175
 40
0.1499999999999986
100
AcDbArc
 50
180
 51
0
  0
LINE
  5
363
100
AcDbEntity
  8
Dimensions
  6
CONTINUOUS
 62
  256
370
    5
100
AcDbLine
 10
10.65
 20
2.175
 11
10.65
 21
2.825
  0
LINE
  5
364
100
AcDbEntity
  8
Dimensions
  6
CONTINUOUS
 62
  256
370
    5
100
AcDbLine
 10
10.95
 20
2.175
 11
10.95
 21
2.825
  0
ARC
  5
365
100
AcDbEntity
  8
Dimensions
  6
CONTINUOUS
 62
  256
370
    5
100
AcDbCircle
 10
10.8
 20
2.825
 40
0.1499999999999986
100
AcDbArc
 50
0
 51
180
  0
ARC
  5
366
100
AcDbEntity
  8
Dimensions
  6
CONTINUOUS
 62
  256
370
    5
100
AcDbCircle
 10
10.8
 20
2.175
 40
0.1499999999999986
100
AcDbArc
 50
180
 51
0
  0
LINE
  5
367
100
AcDbEntity
  8
Dimensions
  6
CONTINUOUS
 62
  256
370
    5
100
AcDbLine
 10
11.275
 20
2.175
 11
11.275
 21
2.825
  0
LINE
  5
368
100
AcDbEntity
  8
Dimensions
  6
CONTINUOUS
 62
  256
370
    5
100
AcDbLine
 10
11.575
 20
2.175
 11
11.575
 21
2.825
  0
ARC
  5
369
100
AcDbEntity
  8
Dimensions
  6
CONTINUOUS
 62
  256
370
    5
100
AcDbCircle
 10
11.425
 20
2.825
 40
0.1499999999999986
100
AcDbArc
 50
0
 51
180
  0
ARC
  5
36A
100
AcDbEntity
  8
Dimensions
  6
CONTINUOUS
 62
  256
370
    5
100
AcDbCircle
 10
11.425
 20
2.175
 40
0.1499999999999986
100
AcDbArc
 50
180
 51
0
  0
LINE
  5
36B
100
AcDbEntity
  8
Dimensions
  6
CONTINUOUS
 62
  256
370
    5
100
AcDbLine
 10
11.9
 20
2.175
 11
11.9
 21
2.825
  0
LINE
  5
36C
100
AcDbEntity
  8
Dimensions
  6
CONTINUOUS
 62
  256
370
    5
100
AcDbLine
 10
12.2
 20
2.175
 11
12.2
 21
2.825
  0
ARC
  5
36D
100
AcDbEntity
  8
Dimensions
  6
CONTINUOUS
 62
  256
370
    5
100
AcDbCircle
 10
12.05
 20
2.825
 40
0.1499999999999986
100
AcDbArc
 50
0
 51
180
  0
ARC
  5
36E
100
AcDbEntity
  8
Dimensions
  6
CONTINUOUS
 62
  256
370
    5
100
AcDbCircle
 10
12.05
 20
2.175
 40
0.1499999999999986
100
AcDbArc
 50
180
 51
0
  0
LINE
  5
36F
100
AcDbEntity
  8
Dimensions
  6
CONTINUOUS
 62
  256
370
    5
100
AcDbLine
 10
12.525
 20
2.175
 11
12.525
 21
2.825
  0
LINE
  5
370
100
AcDbEntity
  8
Dimensions
  6
CONTINUOUS
 62
  256
370
    5
100
AcDbLine
 10
12.825
 20
2.175
 11
12.825
 21
2.825
  0
ARC
  5
371
100
AcDbEntity
  8
Dimensions
  6
CONTINUOUS
 62
  256
370
    5
100
AcDbCircle
 10
12.675
 20
2.825
 40
0.1499999999999986
100
AcDbArc
 50
0
 51
180
  0
ARC
  5
372
100
AcDbEntity
  8
Dimensions
  6
CONTINUOUS
 62
  256
370
    5
100
AcDbCircle
 10
12.675
 20
2.175
 40
0.1499999999999986
100
AcDbArc
 50
180
 51
0
  0
LINE
  5
373
100
AcDbEntity
  8
Dimensions
  6
CONTINUOUS
 62
  256
370
    5
100
AcDbLine
 10
13.15
 20
2.175
 11
13.15
 21
2.825
  0
LINE
  5
374
100
AcDbEntity
  8
Dimensions
  6
CONTINUOUS
 62
  256
370
    5
100
AcDbLine
 10
13.45
 20
2.175
 11
13.45
 21
2.825
  0
ARC
  5
375
100
AcDbEntity
  8
Dimensions
  6
CONTINUOUS
 62
  256
370
    5
100
AcDbCircle
 10
13.3
 20
2.825
 40
0.1499999999999986
100
AcDbArc
 50
0
 51
180
  0
ARC
  5
376
100
AcDbEntity
  8
Dimensions
  6
CONTINUOUS
 62
  256
370
    5
100
AcDbCircle
 10
13.3
 20
2.175
 40
0.1499999999999986
100
AcDbArc
 50
180
 51
0
  0
MTEXT
  5
377
100
AcDbEntity
  8
Dimensions
  6
CONTINUOUS
 62
  256
370
    5
100
AcDbMText
 10
2.439749420842765
 20
-0.5780932362639485
 30
0
 40
0.125
 41
2.548611111111126
 71
    1
 72
    1
  1
12 X %%C0.150    0.200    0.150
  7
iso
210
0
220
0
230
1
 50
0
 73
    2
 44
1
  0
LINE
  5
378
100
AcDbEntity
  8
Dimensions
  6
CONTINUOUS
 62
  256
370
    5
100
AcDbLine
 10
4.426808566907641
 20
-0.5849409379732176
 11
4.559865423232
 21
-0.5849409379732173
  0
LINE
  5
379
100
AcDbEntity
  8
Dimensions
  6
CONTINUOUS
 62
  256
370
    5
100
AcDbLine
 10
4.493336995069821
 20
-0.5849409379732176
 11
4.493336995069821
 21
-0.7349409379732175
  0
LINE
  5
37A
100
AcDbEntity
  8
Dimensions
  6
CONTINUOUS
 62
  256
370
    5
100
AcDbLine
 10
4.493336995069821
 20
-0.7349409379732175
 11
4.543336995069821
 21
-0.6483383975947736
  0
LINE
  5
37B
100
AcDbEntity
  8
Dimensions
  6
CONTINUOUS
 62
  256
370
    5
100
AcDbLine
 10
4.493336995069821
 20
-0.7349409379732175
 11
4.44333699506982
 21
-0.6483383975947736
  0
LINE
  5
37C
100
AcDbEntity
  8
Dimensions
  6
CONTINUOUS
 62
  256
370
    5
100
AcDbLine
 10
3.55713786112051
 20
-0.6943726390848637
 11
3.74525208297444
 21
-0.6943726390848637
  0
LINE
  5
37D
100
AcDbEntity
  8
Dimensions
  6
CONTINUOUS
 62
  256
370
    5
100
AcDbLine
 10
3.74525208297444
 20
-0.6943726390848637
 11
3.74525208297444
 21
-0.6043726390848637
  0
LINE
  5
37E
100
AcDbEntity
  8
Dimensions
  6
CONTINUOUS
 62
  256
370
    5
100
AcDbLine
 10
3.55713786112051
 20
-0.6943726390848637
 11
3.55713786112051
 21
-0.6043726390848637
  0
LEADER
  5
37F
100
AcDbEntity
  8
Dimensions
  6
CONTINUOUS
 62
  256
370
    5
100
AcDbLeader
  3
Standard
 71
    1
 72
    0
 73
    3
 74
    0
 75
    0
 40
1
 41
10
 76
3
 76
3
 10
1.479723816846868
 20
1.810815204437389
 30
0
 10
2.111344310096477
 20
-0.6443547773877065
 30
0
 10
2.30999914265079
 20
-0.6443547773877065
 30
0
  0
LEADER
  5
380
100
AcDbEntity
  8
Dimensions
  6
CONTINUOUS
 62
  256
370
    5
100
AcDbLeader
  3
Standard
 71
    1
 72
    0
 73
    3
 74
    0
 75
    0
 40
1
 41
10
 76
3
 76
3
 10
1.556129521675449
 20
1.767518638367859
 30
0
 10
3.680208115910023
 20
-0.2241234008305066
 30
0
 10
3.835566382394807
 20
-0.2241234008305066
 30
0
  0
MTEXT
  5
381
100
AcDbEntity
  8
Dimensions
  6
CONTINUOUS
 62
  256
370
    5
100
AcDbMText
 10
3.930567210567212
 20
-0.1504946904946905
 30
0
 40
0.125
 41
0.9930555555555635
 71
    1
 72
    1
  1
12 X %%C0.300
  7
iso
210
0
220
0
230
1
 50
0
 73
    2
 44
1
  0
LINE
  5
382
100
AcDbEntity
  8
Dimensions
  6
CONTINUOUS
 62
  256
370
    5
100
AcDbLine
 10
8.600000000000012
 20
1.132266640227353
 11
8.694444444444445
 21
1.132266640227353
  0
SOLID
  5
383
100
AcDbEntity
  8
Dimensions
  6
CONTINUOUS
 62
  256
370
    5
100
AcDbTrace
 10
8.850000000000012
 20
1.132266640227353
 30
0
 11
8.725000000000012
 21
1.111452407338711
 31
0
 12
8.725000000000012
 22
1.153080873115995
 32
0
 13
8.725000000000012
 23
1.153080873115995
 33
0
  0
SOLID
  5
384
100
AcDbEntity
  8
Dimensions
  6
CONTINUOUS
 62
  256
370
    5
100
AcDbTrace
 10
8.999999999999995
 20
1.132266640227353
 30
0
 11
9.124999999999995
 21
1.153080873115995
 31
0
 12
9.124999999999995
 22
1.111452407338711
 32
0
 13
9.124999999999995
 23
1.111452407338711
 33
0
  0
LINE
  5
385
100
AcDbEntity
  8
Dimensions
  6
CONTINUOUS
 62
  256
370
    5
100
AcDbLine
 10
9.155555555555564
 20
1.132266640227353
 11
9.249999999999995
 21
1.132266640227353
  0
LINE
  5
386
100
AcDbEntity
  8
Dimensions
  6
CONTINUOUS
 62
  256
370
    5
100
AcDbLine
 10
8.850000000000012
 20
2.14375
 11
8.850000000000012
 21
1.069766640227353
  0
LINE
  5
387
100
AcDbEntity
  8
Dimensions
  6
CONTINUOUS
 62
  256
370
    5
100
AcDbLine
 10
8.999999999999995
 20
2.14375
 11
8.999999999999995
 21
1.069766640227353
  0
MTEXT
  5
388
100
AcDbEntity
  8
Dimensions
  6
CONTINUOUS
 62
  256
370
    5
100
AcDbMText
 10
9.317109002296355
 20
1.204538978965269
 30
0
 40
0.125
 41
0.2743055555555555
 71
    1
 72
    1
  1
7 X 
  7
iso
210
0
220
0
230
1
 50
0
 73
    2
 44
1
  0
MTEXT
  5
389
100
AcDbEntity
  8
Dimensions
  6
CONTINUOUS
 62
  256
370
    5
100
AcDbMText
 10
9.91286359928705
 20
1.140562386173916
 30
0
 40
0.125
 41
0.3611111111111188
 71
    5
 72
    1
  1
0.150
  7
standard
210
0
220
0
230
1
 50
0
 73
    2
 44
1
  0
LINE
  5
38A
100
AcDbEntity
  8
Dimensions
  6
CONTINUOUS
 62
  256
370
    5
100
AcDbLine
 10
10.40000000000022
 20
1.132266640227353
 11
10.55555555555566
 21
1.132266640227353
  0
SOLID
  5
38B
100
AcDbEntity
  8
Dimensions
  6
CONTINUOUS
 62
  256
370
    5
100
AcDbTrace
 10
10.65000000000022
 20
1.132266640227353
 30
0
 11
10.52500000000022
 21
1.111452407338711
 31
0
 12
10.52500000000022
 22
1.153080873115995
 32
0
 13
10.52500000000022
 23
1.153080873115995
 33
0
  0
SOLID
  5
38C
100
AcDbEntity
  8
Dimensions
  6
CONTINUOUS
 62
  256
370
    5
100
AcDbTrace
 10
10.95
 20
1.132266640227353
 30
0
 11
11.075
 21
1.153080873115995
 31
0
 12
11.075
 22
1.111452407338711
 32
0
 13
11.075
 23
1.111452407338711
 33
0
  0
LINE
  5
38D
100
AcDbEntity
  8
Dimensions
  6
CONTINUOUS
 62
  256
370
    5
100
AcDbLine
 10
11.04444444444456
 20
1.132266640227353
 11
11.2
 21
1.132266640227353
  0
LINE
  5
38E
100
AcDbEntity
  8
Dimensions
  6
CONTINUOUS
 62
  256
370
    5
100
AcDbLine
 10
10.65000000000022
 20
2.143750000000001
 11
10.65000000000022
 21
1.069766640227353
  0
LINE
  5
38F
100
AcDbEntity
  8
Dimensions
  6
CONTINUOUS
 62
  256
370
    5
100
AcDbLine
 10
10.95
 20
2.143750202843783
 11
10.95
 21
1.069766640227353
  0
MTEXT
  5
390
100
AcDbEntity
  8
Dimensions
  6
CONTINUOUS
 62
  256
370
    5
100
AcDbMText
 10
11.79184291560427
 20
1.132495047277855
 30
0
 40
0.125
 41
0.3888888888888967
 71
    5
 72
    1
  1
0.300
  7
standard
210
0
220
0
230
1
 50
0
 73
    2
 44
1
  0
MTEXT
  5
391
100
AcDbEntity
  8
Dimensions
  6
CONTINUOUS
 62
  256
370
    5
100
AcDbMText
 10
11.26673002752475
 20
1.197123171706908
 30
0
 40
0.125
 41
0.2743055555555555
 71
    1
 72
    1
  1
7 X 
  7
iso
210
0
220
0
230
1
 50
0
 73
    2
 44
1
  0
LINE
  5
392
100
AcDbEntity
  8
Dimensions
  6
CONTINUOUS
 62
  256
370
   15
100
AcDbLine
 10
8.925000000000001
 20
-1.899999999999999
 11
8.993055555555548
 21
-1.899999999999999
  0
SOLID
  5
393
100
AcDbEntity
  8
Dimensions
  6
CONTINUOUS
 62
  256
370
   15
100
AcDbTrace
 10
8.925000000000001
 20
-1.899999999999999
 30
0
 11
9.050000000000001
 21
-1.879185767111357
 31
0
 12
9.050000000000001
 22
-1.920814232888642
 32
0
 13
9.050000000000001
 23
-1.920814232888642
 33
0
  0
SOLID
  5
394
100
AcDbEntity
  8
Dimensions
  6
CONTINUOUS
 62
  256
370
   15
100
AcDbTrace
 10
9.550000000000001
 20
-1.899999999999999
 30
0
 11
9.425000000000001
 21
-1.920814232888642
 31
0
 12
9.425000000000001
 22
-1.879185767111357
 32
0
 13
9.425000000000001
 23
-1.879185767111357
 33
0
  0
LINE
  5
395
100
AcDbEntity
  8
Dimensions
  6
CONTINUOUS
 62
  256
370
   15
100
AcDbLine
 10
9.481944444444453
 20
-1.899999999999999
 11
9.550000000000001
 21
-1.899999999999999
  0
LINE
  5
396
100
AcDbEntity
  8
Dimensions
  6
CONTINUOUS
 62
  256
370
   15
100
AcDbLine
 10
8.925000000000001
 20
-2.06875
 11
8.925000000000001
 21
-1.837499999999999
  0
LINE
  5
397
100
AcDbEntity
  8
Dimensions
  6
CONTINUOUS
 62
  256
370
   15
100
AcDbLine
 10
9.550000000000001
 20
-2.06875
 11
9.550000000000001
 21
-1.837499999999999
  0
LINE
  5
398
100
AcDbEntity
  8
Dimensions
  6
CONTINUOUS
 62
  256
370
    5
100
AcDbLine
 10
8.925000000000001
 20
-1.899999999999999
 11
9.015000000000001
 21
-1.899999999999999
  0
LINE
  5
399
100
AcDbEntity
  8
Dimensions
  6
CONTINUOUS
 62
  256
370
    5
100
AcDbLine
 10
8.925000000000001
 20
-1.896327856066695
 11
9.704064409947067
 21
-1.896327856066694
  0
MTEXT
  5
39A
100
AcDbEntity
  8
Dimensions
  6
CONTINUOUS
 62
  256
370
   15
100
AcDbMText
 10
9.929173219545278
 20
-1.89739191828122
 30
0
 40
0.125
 41
0.3888888888889044
 71
    5
 72
    1
  1
0.625
  7
standard
210
0
220
0
230
1
 50
0
 73
    2
 44
1
  0
LINE
  5
39B
100
AcDbEntity
  8
Dimensions
  6
CONTINUOUS
 62
  256
370
   15
100
AcDbLine
 10
0.95
 20
-1.899999999999999
 11
0.9555555555555517
 21
-1.899999999999999
  0
SOLID
  5
39C
100
AcDbEntity
  8
Dimensions
  6
CONTINUOUS
 62
  256
370
   15
100
AcDbTrace
 10
0.95
 20
-1.899999999999999
 30
0
 11
1.075
 21
-1.879185767111357
 31
0
 12
1.075
 22
-1.920814232888642
 32
0
 13
1.075
 23
-1.920814232888642
 33
0
  0
SOLID
  5
39D
100
AcDbEntity
  8
Dimensions
  6
CONTINUOUS
 62
  256
370
   15
100
AcDbTrace
 10
1.45
 20
-1.899999999999999
 30
0
 11
1.325
 21
-1.920814232888642
 31
0
 12
1.325
 22
-1.879185767111357
 32
0
 13
1.325
 23
-1.879185767111357
 33
0
  0
LINE
  5
39E
100
AcDbEntity
  8
Dimensions
  6
CONTINUOUS
 62
  256
370
   15
100
AcDbLine
 10
1.444444444444448
 20
-1.899999999999999
 11
1.45
 21
-1.899999999999999
  0
LINE
  5
39F
100
AcDbEntity
  8
Dimensions
  6
CONTINUOUS
 62
  256
370
   15
100
AcDbLine
 10
0.95
 20
-2.06875
 11
0.95
 21
-1.837499999999999
  0
LINE
  5
3A0
100
AcDbEntity
  8
Dimensions
  6
CONTINUOUS
 62
  256
370
   15
100
AcDbLine
 10
1.45
 20
-2.06875
 11
1.45
 21
-1.837499999999999
  0
LINE
  5
3A1
100
AcDbEntity
  8
Dimensions
  6
CONTINUOUS
 62
  256
370
    5
100
AcDbLine
 10
0.9499999999999998
 20
-1.894462574462575
 11
1.701178451178452
 21
-1.894462574462575
  0
MTEXT
  5
3A2
100
AcDbEntity
  8
Dimensions
  6
CONTINUOUS
 62
  256
370
   15
100
AcDbMText
 10
1.994437969437966
 20
-1.885078347578348
 30
0
 40
0.125
 41
0.3888888888888967
 71
    5
 72
    1
  1
0.500
  7
standard
210
0
220
0
230
1
 50
0
 73
    2
 44
1
  0
LINE
  5
3A3
100
AcDbEntity
  8
Dimensions
  6
CONTINUOUS
 62
  256
370
   15
100
AcDbLine
 10
-1.5
 20
2.75
 11
-1.5
 21
2.6125
  0
SOLID
  5
3A4
100
AcDbEntity
  8
Dimensions
  6
CONTINUOUS
 62
  256
370
   15
100
AcDbTrace
 10
-1.5
 20
2.75
 30
0
 11
-1.479185767111358
 21
2.625
 31
0
 12
-1.520814232888642
 22
2.625
 32
0
 13
-1.520814232888642
 23
2.625
 33
0
  0
SOLID
  5
3A5
100
AcDbEntity
  8
Dimensions
  6
CONTINUOUS
 62
  256
370
   15
100
AcDbTrace
 10
-1.5
 20
2.25
 30
0
 11
-1.520814232888642
 21
2.375
 31
0
 12
-1.479185767111358
 22
2.375
 32
0
 13
-1.479185767111358
 23
2.375
 33
0
  0
LINE
  5
3A6
100
AcDbEntity
  8
Dimensions
  6
CONTINUOUS
 62
  256
370
   15
100
AcDbLine
 10
-1.5
 20
2.387500000000001
 11
-1.5
 21
2.25
  0
LINE
  5
3A7
100
AcDbEntity
  8
Dimensions
  6
CONTINUOUS
 62
  256
370
   15
100
AcDbLine
 10
3.568750000000001
 20
2.75
 11
-1.5625
 21
2.75
  0
LINE
  5
3A8
100
AcDbEntity
  8
Dimensions
  6
CONTINUOUS
 62
  256
370
   15
100
AcDbLine
 10
3.568750000000001
 20
2.25
 11
-1.5625
 21
2.25
  0
MTEXT
  5
3A9
100
AcDbEntity
  8
Dimensions
  6
CONTINUOUS
 62
  256
370
   15
100
AcDbMText
 10
-1.537604247604252
 20
2.045488862988864
 30
0
 40
0.125
 41
0.3888888888888967
 71
    5
 72
    1
  1
0.500
  7
standard
210
0
220
0
230
1
 50
0
 73
    2
 44
1
  0
LINE
  5
3AA
100
AcDbEntity
  8
Dimensions
  6
CONTINUOUS
 62
  256
370
    5
100
AcDbLine
 10
-1.501342469713353
 20
2.134281364056062
 11
-1.501342469713354
 21
2.741945181719879
  0
SOLID
  5
3AB
100
AcDbEntity
  8
Dimensions
  6
CONTINUOUS
 62
  256
370
   15
100
AcDbTrace
 10
-1
 20
2.5
 30
0
 11
-0.979185767111358
 21
2.375
 31
0
 12
-1.020814232888642
 22
2.375
 32
0
 13
-1.020814232888642
 23
2.375
 33
0
  0
SOLID
  5
3AC
100
AcDbEntity
  8
Dimensions
  6
CONTINUOUS
 62
  256
370
   15
100
AcDbTrace
 10
-1
 20
2.75
 30
0
 11
-1.020814232888642
 21
2.875
 31
0
 12
-0.979185767111358
 22
2.875
 32
0
 13
-0.979185767111358
 23
2.875
 33
0
  0
MTEXT
  5
3AD
100
AcDbEntity
  8
Dimensions
  6
CONTINUOUS
 62
  256
370
   15
100
AcDbMText
 10
-0.6305555555555513
 20
2.625
 30
0
 40
0.125
 41
0.3888888888888966
 71
    5
 72
    1
  1
0.250
  7
standard
210
0
220
0
230
1
 50
0
 73
    2
 44
1
  0
LINE
  5
3AE
100
AcDbEntity
  8
Dimensions
  6
CONTINUOUS
 62
  256
370
   15
100
AcDbLine
 10
3.568750000000001
 20
2.75
 11
-1.0625
 21
2.75
  0
LINE
  5
3AF
100
AcDbEntity
  8
Dimensions
  6
CONTINUOUS
 62
  256
370
   15
100
AcDbLine
 10
-1.501342469713353
 20
2.134281364056062
 11
-1.5
 21
2.75
  0
LINE
  5
3B0
100
AcDbEntity
  8
Dimensions
  6
CONTINUOUS
 62
  256
370
   15
100
AcDbLine
 10
-0.53125
 20
2.5
 11
-1.9
 21
2.5
  0
LINE
  5
3B1
100
AcDbEntity
  8
Dimensions
  6
CONTINUOUS
 62
  256
370
   15
100
AcDbLine
 10
-1
 20
2.284283509121564
 11
-1
 21
2.5
  0
LINE
  5
3B2
100
AcDbEntity
  8
Dimensions
  6
CONTINUOUS
 62
  256
370
   15
100
AcDbLine
 10
-1
 20
2.75
 11
-1
 21
3
  0
LINE
  5
3B3
100
AcDbEntity
  8
Dimensions
  6
CONTINUOUS
 62
  256
370
   15
100
AcDbLine
 10
13.75
 20
-3.921714581714583
 11
13.84944444444444
 21
-3.921714581714583
  0
SOLID
  5
3B4
100
AcDbEntity
  8
Dimensions
  6
CONTINUOUS
 62
  256
370
   15
100
AcDbTrace
 10
14
 20
-3.921714581714583
 30
0
 11
13.875
 21
-3.942528814603225
 31
0
 12
13.875
 22
-3.900900348825941
 32
0
 13
13.875
 23
-3.900900348825941
 33
0
  0
SOLID
  5
3B5
100
AcDbEntity
  8
Dimensions
  6
CONTINUOUS
 62
  256
370
   15
100
AcDbTrace
 10
14.16
 20
-3.921714581714583
 30
0
 11
14.285
 21
-3.900900348825941
 31
0
 12
14.285
 22
-3.942528814603225
 32
0
 13
14.285
 23
-3.942528814603225
 33
0
  0
LINE
  5
3B6
100
AcDbEntity
  8
Dimensions
  6
CONTINUOUS
 62
  256
370
   15
100
AcDbLine
 10
14.31055555555556
 20
-3.921714581714583
 11
14.41
 21
-3.921714581714583
  0
LINE
  5
3B7
100
AcDbEntity
  8
Dimensions
  6
CONTINUOUS
 62
  256
370
   15
100
AcDbLine
 10
14
 20
-3.53125
 11
14
 21
-3.984214581714583
  0
LINE
  5
3B8
100
AcDbEntity
  8
Dimensions
  6
CONTINUOUS
 62
  256
370
   15
100
AcDbLine
 10
14.16
 20
-3.53125
 11
14.16
 21
-3.984214581714583
  0
MTEXT
  5
3B9
100
AcDbEntity
  8
Dimensions
  6
CONTINUOUS
 62
  256
370
   15
100
AcDbMText
 10
14.73840714840716
 20
-3.930035612535614
 30
0
 40
0.125
 41
0.3611111111111188
 71
    5
 72
    1
  1
0.160
  7
standard
210
0
220
0
230
1
 50
0
 73
    2
 44
1
  0
MTEXT
  5
3BA
100
AcDbEntity
  8
Dimensions
  6
CONTINUOUS
 62
  256
370
   15
100
AcDbMText
 10
15.04946904946905
 20
-3.86859880859881
 30
0
 40
0.125
 41
0.3055555555555555
 71
    1
 72
    1
  1
TYP
  7
iso
210
0
220
0
230
1
 50
0
 73
    2
 44
1
  0
LEADER
  5
3BB
100
AcDbEntity
  8
Dimensions
  6
CONTINUOUS
 62
  256
370
   15
100
AcDbLeader
  3
Standard
 71
    1
 72
    0
 73
    3
 74
    0
 75
    0
 40
1
 41
10
 76
3
 76
3
 10
13.85355339059327
 20
1.646446609406726
 30
0
 10
14.55372183372184
 20
1.088873348873349
 30
0
 10
14.79274281274282
 20
1.088873348873349
 30
0
  0
MTEXT
  5
3BC
100
AcDbEntity
  8
Dimensions
  6
CONTINUOUS
 62
  256
370
   15
100
AcDbMText
 10
14.88887108262109
 20
1.178462833462834
 30
0
 40
0.125
 41
1.017361111111119
 71
    1
 72
    1
  1
4 X 0.500 R
  7
iso
210
0
220
0
230
1
 50
0
 73
    2
 44
1
  0
ENDSEC
  0
SECTION
  2
OBJECTS
  0
DICTIONARY
  5
C
330
0
100
AcDbDictionary
281
    1
  3
ACAD_GROUP
350
D
  0
DICTIONARY
  5
D
330
C
100
AcDbDictionary
281
    1
  0
ENDSEC
  0
EOF
