999
dxfrw 0.6.3
  0
SECTION
  2
HEADER
  9
$ACADVER
  1
AC1021
  9
$DWGCODEPAGE
  3
ANSI_1252
  9
$INSBASE
 10
0
 20
0
 30
0
  9
$EXTMIN
 10
0
 20
0
 30
0
  9
$EXTMAX
 10
66
 20
51
 30
0
  9
$LIMMIN
 10
0
 20
0
  9
$LIMMAX
 10
420
 20
297
  9
$ORTHOMODE
 70
    0
  9
$REGENMODE
 70
    1
  9
$FILLMODE
 70
    1
  9
$QTEXTMODE
 70
    0
  9
$MIRRTEXT
 70
    0
  9
$LTSCALE
 40
1
  9
$ATTMODE
 70
    0
  9
$TEXTSIZE
 40
2.5
  9
$TRACEWID
 40
15.68
  9
$TEXTSTYLE
  7
STANDARD
  9
$CLAYER
  8
dimension
  9
$CELTYPE
  6
BYLAYER
  9
$CECOLOR
 62
  256
  9
$CELTSCALE
 40
1
  9
$DISPSILH
 70
    0
  9
$DIMSCALE
 40
1
  9
$DIMASZ
 40
2.5
  9
$DIMEXO
 40
0.025
  9
$DIMDLI
 40
3.75
  9
$DIMRND
 40
0
  9
$DIMDLE
 40
0
  9
$DIMEXE
 40
1.25
  9
$DIMTP
 40
0
  9
$DIMTM
 40
0
  9
$DIMTXT
 40
1
  9
$DIMCEN
 40
2.5
  9
$DIMTSZ
 40
0
  9
$DIMTOL
 70
    0
  9
$DIMLIM
 70
    0
  9
$DIMTIH
 70
    0
  9
$DIMTOH
 70
    0
  9
$DIMSE1
 70
    0
  9
$DIMSE2
 70
    0
  9
$DIMTAD
 70
    1
  9
$DIMZIN
 70
    8
  9
$DIMBLK
  1

  9
$DIMASO
 70
    1
  9
$DIMSHO
 70
    1
  9
$DIMPOST
  1

  9
$DIMAPOST
  1

  9
$DIMALT
 70
    0
  9
$DIMALTD
 70
    3
  9
$DIMALTF
 40
0.03937
  9
$DIMLFAC
 40
1
  9
$DIMTOFL
 70
    1
  9
$DIMTVP
 40
0
  9
$DIMTIX
 70
    0
  9
$DIMSOXD
 70
    0
  9
$DIMSAH
 70
    0
  9
$DIMBLK1
  1

  9
$DIMBLK2
  1

  9
$DIMSTYLE
  2
STANDARD
  9
$DIMCLRD
 70
    0
  9
$DIMCLRE
 70
    0
  9
$DIMCLRT
 70
    0
  9
$DIMTFAC
 40
1
  9
$DIMGAP
 40
0.625
  9
$DIMJUST
 70
    0
  9
$DIMSD1
 70
    0
  9
$DIMSD2
 70
    0
  9
$DIMTOLJ
 70
    0
  9
$DIMTZIN
 70
    8
  9
$DIMALTZ
 70
    0
  9
$DIMALTTZ
 70
    0
  9
$DIMUPT
 70
    0
  9
$DIMDEC
 70
    3
  9
$DIMTDEC
 70
    2
  9
$DIMALTU
 70
    2
  9
$DIMALTTD
 70
    3
  9
$DIMTXSTY
  7
standard
  9
$DIMAUNIT
 70
    0
  9
$DIMADEC
 70
    2
  9
$DIMALTRND
 40
0
  9
$DIMAZIN
 70
    0
  9
$DIMDSEP
 70
   44
  9
$DIMATFIT
 70
    3
  9
$DIMFRAC
 70
    0
  9
$DIMLDRBLK
  1
STANDARD
  9
$DIMLUNIT
 70
    2
  9
$DIMLWD
 70
   -2
  9
$DIMLWE
 70
   -2
  9
$DIMTMOVE
 70
    0
  9
$DIMFXL
 40
1
  9
$DIMFXLON
 70
    0
  9
$DIMJOGANG
 40
0.7854
  9
$DIMTFILL
 70
    0
  9
$DIMTFILLCLR
 70
    0
  9
$DIMARCSYM
 70
    0
  9
$DIMLTYPE
  6

  9
$DIMLTEX1
  6

  9
$DIMLTEX2
  6

  9
$LUNITS
 70
    2
  9
$LUPREC
 70
    4
  9
$SKETCHINC
 40
1
  9
$FILLETRAD
 40
0
  9
$AUNITS
 70
    0
  9
$AUPREC
 70
    2
  9
$MENU
  1
.
  9
$ELEVATION
 40
0
  9
$PELEVATION
 40
0
  9
$THICKNESS
 40
0
  9
$LIMCHECK
 70
    0
  9
$CHAMFERA
 40
0
  9
$CHAMFERB
 40
0
  9
$CHAMFERC
 40
0
  9
$CHAMFERD
 40
0
  9
$SKPOLY
 70
    0
  9
$USRTIMER
 70
    1
  9
$ANGBASE
 50
0
  9
$ANGDIR
 70
    0
  9
$PDMODE
 70
   34
  9
$PDSIZE
 40
0
  9
$PLINEWID
 40
0
  9
$SPLFRAME
 70
    0
  9
$SPLINETYPE
 70
    2
  9
$SPLINESEGS
 70
    8
  9
$HANDSEED
  5
20000
  9
$SURFTAB1
 70
    6
  9
$SURFTAB2
 70
    6
  9
$SURFTYPE
 70
    6
  9
$SURFU
 70
    6
  9
$SURFV
 70
    6
  9
$UCSBASE
  2

  9
$UCSNAME
  2

  9
$UCSORG
 10
0
 20
0
 30
0
  9
$UCSXDIR
 10
1
 20
0
 30
0
  9
$UCSYDIR
 10
0
 20
1
 30
0
  9
$UCSORTHOREF
  2

  9
$UCSORTHOVIEW
 70
    0
  9
$UCSORGTOP
 10
0
 20
0
 30
0
  9
$UCSORGBOTTOM
 10
0
 20
0
 30
0
  9
$UCSORGLEFT
 10
0
 20
0
 30
0
  9
$UCSORGRIGHT
 10
0
 20
0
 30
0
  9
$UCSORGFRONT
 10
0
 20
0
 30
0
  9
$UCSORGBACK
 10
0
 20
0
 30
0
  9
$PUCSBASE
  2

  9
$PUCSNAME
  2

  9
$PUCSORG
 10
0
 20
0
 30
0
  9
$PUCSXDIR
 10
1
 20
0
 30
0
  9
$PUCSYDIR
 10
0
 20
1
 30
0
  9
$PUCSORTHOREF
  2

  9
$PUCSORTHOVIEW
 70
    0
  9
$PUCSORGTOP
 10
0
 20
0
 30
0
  9
$PUCSORGBOTTOM
 10
0
 20
0
 30
0
  9
$PUCSORGLEFT
 10
0
 20
0
 30
0
  9
$PUCSORGRIGHT
 10
0
 20
0
 30
0
  9
$PUCSORGFRONT
 10
0
 20
0
 30
0
  9
$PUCSORGBACK
 10
0
 20
0
 30
0
  9
$USERI1
 70
    0
  9
$USERI2
 70
    0
  9
$USERI3
 70
    0
  9
$USERI4
 70
    0
  9
$USERI5
 70
    0
  9
$USERR1
 40
0
  9
$USERR2
 40
0
  9
$USERR3
 40
0
  9
$USERR4
 40
0
  9
$USERR5
 40
0
  9
$WORLDVIEW
 70
    1
  9
$SHADEDGE
 70
    3
  9
$SHADEDIF
 70
   70
  9
$TILEMODE
 70
    1
  9
$MAXACTVP
 70
   64
  9
$PINSBASE
 10
0.6368689207966653
 20
0.4921259842519685
 30
0
  9
$PLIMCHECK
 70
    0
  9
$PEXTMIN
 10
0
 20
0
 30
0
  9
$PEXTMAX
 10
0
 20
0
 30
0
  9
$GRIDMODE
 70
    1
  9
$SNAPSTYLE
 70
    0
  9
$GRIDUNIT
 10
0
 20
0
  9
$PLIMMIN
 10
0
 20
0
  9
$PLIMMAX
 10
11
 20
8.5
  9
$UNITMODE
 70
    0
  9
$VISRETAIN
 70
    1
  9
$PLINEGEN
 70
    0
  9
$PSLTSCALE
 70
    1
  9
$TREEDEPTH
 70
 3020
  9
$CMLSTYLE
  2
Standard
  9
$CMLJUST
 70
    0
  9
$CMLSCALE
 40
20
  9
$PROXYGRAPHICS
 70
    1
  9
$MEASUREMENT
 70
    1
  9
$CELWEIGHT
370
   -1
  9
$ENDCAPS
280
    0
  9
$JOINSTYLE
280
    0
  9
$LWDISPLAY
290
    0
  9
$INSUNITS
 70
    1
  9
$HYPERLINKBASE
  1

  9
$STYLESHEET
  1

  9
$XEDIT
290
    1
  9
$CEPSNTYPE
380
    0
  9
$PSTYLEMODE
290
    1
  9
$EXTNAMES
290
    1
  9
$PSVPSCALE
 40
0.1473676084607071
  9
$OLESTARTUP
290
    0
  9
$SORTENTS
280
  127
  9
$INDEXCTL
280
    0
  9
$HIDETEXT
280
    1
  9
$XCLIPFRAME
290
    0
  9
$HALOGAP
280
    0
  9
$OBSCOLOR
 70
  257
  9
$OBSLTYPE
280
    0
  9
$INTERSECTIONDISPLAY
280
    0
  9
$INTERSECTIONCOLOR
 70
  257
  9
$DIMASSOC
280
    1
  9
$PROJECTNAME
  1

  9
$CAMERADISPLAY
290
    0
  9
$LENSLENGTH
 40
50
  9
$CAMERAHEIGHT
 40
0
  9
$STEPSPERSEC
 40
2
  9
$STEPSIZE
 40
50
  9
$3DDWFPREC
 40
2
  9
$PSOLWIDTH
 40
5
  9
$PSOLHEIGHT
 40
80
  9
$LOFTANG1
 40
1.570796326794897
  9
$LOFTANG2
 40
1.570796326794897
  9
$LOFTMAG1
 40
0
  9
$LOFTMAG2
 40
0
  9
$LOFTPARAM
 70
    7
  9
$LOFTNORMALS
280
    1
  9
$LATITUDE
 40
1
  9
$LONGITUDE
 40
1
  9
$NORTHDIRECTION
 40
0
  9
$TIMEZONE
 70
-8000
  9
$LIGHTGLYPHDISPLAY
280
    1
  9
$TILEMODELIGHTSYNCH
280
    1
  9
$SOLIDHIST
280
    1
  9
$SHOWHIST
280
    1
  9
$DWFFRAME
280
    2
  9
$DGNFRAME
280
    0
  9
$REALWORLDSCALE
290
    1
  9
$INTERFERECOLOR
 62
    1
  9
$CSHADOW
280
    0
  9
$SHADOWPLANELOCATION
 40
0
  0
ENDSEC
  0
SECTION
  2
CLASSES
  0
ENDSEC
  0
SECTION
  2
TABLES
  0
TABLE
  2
VPORT
  5
8
330
0
100
AcDbSymbolTable
 70
    1
  0
VPORT
  5
31
330
2
100
AcDbSymbolTableRecord
100
AcDbViewportTableRecord
  2
*ACTIVE
 70
    0
 10
0
 20
0
 11
1
 21
1
 12
41.89324003893396
 22
27.94663844433987
 13
0
 23
0
 14
10
 24
10
 15
10
 25
10
 16
0
 26
0
 36
1
 17
0
 27
0
 37
0
 40
56.10701790928655
 41
1.52
 42
50
 43
0
 44
0
 50
0
 51
0
 71
    0
 72
  100
 73
    1
 74
    3
 75
    0
 76
    1
 77
    0
 78
    0
281
    0
 65
    1
110
0
120
0
130
0
111
1
121
0
131
0
112
0
122
1
132
0
 79
    0
146
0
348
10020
 60
    7
 61
    5
292
1
282
    1
141
0
142
0
 63
  250
421
3358443
  0
ENDTAB
  0
TABLE
  2
LTYPE
  5
5
330
0
100
AcDbSymbolTable
 70
    4
  0
LTYPE
  5
14
330
5
100
AcDbSymbolTableRecord
100
AcDbLinetypeTableRecord
  2
ByBlock
 70
    0
  3

 72
   65
 73
    0
 40
0
  0
LTYPE
  5
15
330
5
100
AcDbSymbolTableRecord
100
AcDbLinetypeTableRecord
  2
ByLayer
 70
    0
  3

 72
   65
 73
    0
 40
0
  0
LTYPE
  5
16
330
5
100
AcDbSymbolTableRecord
100
AcDbLinetypeTableRecord
  2
Continuous
 70
    0
  3
Solid line
 72
   65
 73
    0
 40
0
  0
LTYPE
  5
32
330
5
100
AcDbSymbolTableRecord
100
AcDbLinetypeTableRecord
  2
DOT
 70
    0
  3
Dot . . . . . . . . . . . . . . . . . . . . . .
 72
   65
 73
    2
 40
6.35
 49
0
 74
    0
 49
-6.35
 74
    0
  0
LTYPE
  5
33
330
5
100
AcDbSymbolTableRecord
100
AcDbLinetypeTableRecord
  2
DOTTINY
 70
    0
  3
Dot (.15x) .....................................
 72
   65
 73
    2
 40
0.9525
 49
0
 74
    0
 49
-0.9525
 74
    0
  0
LTYPE
  5
34
330
5
100
AcDbSymbolTableRecord
100
AcDbLinetypeTableRecord
  2
DOT2
 70
    0
  3
Dot (.5x) .....................................
 72
   65
 73
    2
 40
3.175
 49
0
 74
    0
 49
-3.175
 74
    0
  0
LTYPE
  5
35
330
5
100
AcDbSymbolTableRecord
100
AcDbLinetypeTableRecord
  2
DOTX2
 70
    0
  3
Dot (2x) .  .  .  .  .  .  .  .  .  .  .  .  .
 72
   65
 73
    2
 40
12.7
 49
0
 74
    0
 49
-12.7
 74
    0
  0
LTYPE
  5
36
330
5
100
AcDbSymbolTableRecord
100
AcDbLinetypeTableRecord
  2
DASHED
 70
    0
  3
Dashed _ _ _ _ _ _ _ _ _ _ _ _ _ _ _ _ _
 72
   65
 73
    2
 40
19.05
 49
12.7
 74
    0
 49
-6.35
 74
    0
  0
LTYPE
  5
37
330
5
100
AcDbSymbolTableRecord
100
AcDbLinetypeTableRecord
  2
DASHEDTINY
 70
    0
  3
Dashed (.15x) _ _ _ _ _ _ _ _ _ _ _ _ _ _ _ _ _
 72
   65
 73
    2
 40
2.8575
 49
1.905
 74
    0
 49
-0.9525
 74
    0
  0
LTYPE
  5
38
330
5
100
AcDbSymbolTableRecord
100
AcDbLinetypeTableRecord
  2
DASHED2
 70
    0
  3
Dashed (.5x) _ _ _ _ _ _ _ _ _ _ _ _ _ _ _ _ _
 72
   65
 73
    2
 40
9.524999999999999
 49
6.35
 74
    0
 49
-3.175
 74
    0
  0
LTYPE
  5
39
330
5
100
AcDbSymbolTableRecord
100
AcDbLinetypeTableRecord
  2
DASHEDX2
 70
    0
  3
Dashed (2x) ____  ____  ____  ____  ____  ___
 72
   65
 73
    2
 40
38.09999999999999
 49
25.4
 74
    0
 49
-12.7
 74
    0
  0
LTYPE
  5
3A
330
5
100
AcDbSymbolTableRecord
100
AcDbLinetypeTableRecord
  2
DASHDOT
 70
    0
  3
Dash dot __ . __ . __ . __ . __ . __ . __ . __
 72
   65
 73
    4
 40
25.4
 49
12.7
 74
    0
 49
-6.35
 74
    0
 49
0
 74
    0
 49
-6.35
 74
    0
  0
LTYPE
  5
3B
330
5
100
AcDbSymbolTableRecord
100
AcDbLinetypeTableRecord
  2
DASHDOTTINY
 70
    0
  3
Dash dot (.15x) _._._._._._._._._._._._._._._.
 72
   65
 73
    4
 40
3.81
 49
1.905
 74
    0
 49
-0.9525
 74
    0
 49
0
 74
    0
 49
-0.9525
 74
    0
  0
LTYPE
  5
3C
330
5
100
AcDbSymbolTableRecord
100
AcDbLinetypeTableRecord
  2
DASHDOT2
 70
    0
  3
Dash dot (.5x) _._._._._._._._._._._._._._._.
 72
   65
 73
    4
 40
12.7
 49
6.35
 74
    0
 49
-3.175
 74
    0
 49
0
 74
    0
 49
-3.175
 74
    0
  0
LTYPE
  5
3D
330
5
100
AcDbSymbolTableRecord
100
AcDbLinetypeTableRecord
  2
DASHDOTX2
 70
    0
  3
Dash dot (2x) ____  .  ____  .  ____  .  ___
 72
   65
 73
    4
 40
50.8
 49
25.4
 74
    0
 49
-12.7
 74
    0
 49
0
 74
    0
 49
-12.7
 74
    0
  0
LTYPE
  5
3E
330
5
100
AcDbSymbolTableRecord
100
AcDbLinetypeTableRecord
  2
DIVIDE
 70
    0
  3
Divide ____ . . ____ . . ____ . . ____ . . ____
 72
   65
 73
    6
 40
31.75
 49
12.7
 74
    0
 49
-6.35
 74
    0
 49
0
 74
    0
 49
-6.35
 74
    0
 49
0
 74
    0
 49
-6.35
 74
    0
  0
LTYPE
  5
3F
330
5
100
AcDbSymbolTableRecord
100
AcDbLinetypeTableRecord
  2
DIVIDETINY
 70
    0
  3
Divide (.15x) __..__..__..__..__..__..__..__.._
 72
   65
 73
    6
 40
4.7625
 49
1.905
 74
    0
 49
-0.9525
 74
    0
 49
0
 74
    0
 49
-0.9525
 74
    0
 49
0
 74
    0
 49
-0.9525
 74
    0
  0
LTYPE
  5
40
330
5
100
AcDbSymbolTableRecord
100
AcDbLinetypeTableRecord
  2
DIVIDE2
 70
    0
  3
Divide (.5x) __..__..__..__..__..__..__..__.._
 72
   65
 73
    6
 40
15.875
 49
6.35
 74
    0
 49
-3.175
 74
    0
 49
0
 74
    0
 49
-3.175
 74
    0
 49
0
 74
    0
 49
-3.175
 74
    0
  0
LTYPE
  5
41
330
5
100
AcDbSymbolTableRecord
100
AcDbLinetypeTableRecord
  2
DIVIDEX2
 70
    0
  3
Divide (2x) ________  .  .  ________  .  .  _
 72
   65
 73
    6
 40
63.5
 49
25.4
 74
    0
 49
-12.7
 74
    0
 49
0
 74
    0
 49
-12.7
 74
    0
 49
0
 74
    0
 49
-12.7
 74
    0
  0
LTYPE
  5
42
330
5
100
AcDbSymbolTableRecord
100
AcDbLinetypeTableRecord
  2
BORDER
 70
    0
  3
Border __ __ . __ __ . __ __ . __ __ . __ __ .
 72
   65
 73
    6
 40
44.45
 49
12.7
 74
    0
 49
-6.35
 74
    0
 49
12.7
 74
    0
 49
-6.35
 74
    0
 49
0
 74
    0
 49
-6.35
 74
    0
  0
LTYPE
  5
43
330
5
100
AcDbSymbolTableRecord
100
AcDbLinetypeTableRecord
  2
BORDERTINY
 70
    0
  3
Border (.15x) __.__.__.__.__.__.__.__.__.__.__.
 72
   65
 73
    6
 40
6.6675
 49
1.905
 74
    0
 49
-0.9525
 74
    0
 49
1.905
 74
    0
 49
-0.9525
 74
    0
 49
0
 74
    0
 49
-0.9525
 74
    0
  0
LTYPE
  5
44
330
5
100
AcDbSymbolTableRecord
100
AcDbLinetypeTableRecord
  2
BORDER2
 70
    0
  3
Border (.5x) __.__.__.__.__.__.__.__.__.__.__.
 72
   65
 73
    6
 40
22.225
 49
6.35
 74
    0
 49
-3.175
 74
    0
 49
6.35
 74
    0
 49
-3.175
 74
    0
 49
0
 74
    0
 49
-3.175
 74
    0
  0
LTYPE
  5
45
330
5
100
AcDbSymbolTableRecord
100
AcDbLinetypeTableRecord
  2
BORDERX2
 70
    0
  3
Border (2x) ____  ____  .  ____  ____  .  ___
 72
   65
 73
    6
 40
88.89999999999999
 49
25.4
 74
    0
 49
-12.7
 74
    0
 49
25.4
 74
    0
 49
-12.7
 74
    0
 49
0
 74
    0
 49
-12.7
 74
    0
  0
LTYPE
  5
46
330
5
100
AcDbSymbolTableRecord
100
AcDbLinetypeTableRecord
  2
CENTER
 70
    0
  3
Center ____ _ ____ _ ____ _ ____ _ ____ _ ____
 72
   65
 73
    4
 40
50.8
 49
31.75
 74
    0
 49
-6.35
 74
    0
 49
6.35
 74
    0
 49
-6.35
 74
    0
  0
LTYPE
  5
47
330
5
100
AcDbSymbolTableRecord
100
AcDbLinetypeTableRecord
  2
CENTERTINY
 70
    0
  3
Center (.15x) ___ _ ___ _ ___ _ ___ _ ___ _ ___
 72
   65
 73
    4
 40
7.619999999999999
 49
4.7625
 74
    0
 49
-0.9525
 74
    0
 49
0.9525
 74
    0
 49
-0.9525
 74
    0
  0
LTYPE
  5
48
330
5
100
AcDbSymbolTableRecord
100
AcDbLinetypeTableRecord
  2
CENTER2
 70
    0
  3
Center (.5x) ___ _ ___ _ ___ _ ___ _ ___ _ ___
 72
   65
 73
    4
 40
28.575
 49
19.05
 74
    0
 49
-3.175
 74
    0
 49
3.175
 74
    0
 49
-3.175
 74
    0
  0
LTYPE
  5
49
330
5
100
AcDbSymbolTableRecord
100
AcDbLinetypeTableRecord
  2
CENTERX2
 70
    0
  3
Center (2x) ________  __  ________  __  _____
 72
   65
 73
    4
 40
101.6
 49
63.5
 74
    0
 49
-12.7
 74
    0
 49
12.7
 74
    0
 49
-12.7
 74
    0
  0
ENDTAB
  0
TABLE
  2
LAYER
  5
2
330
0
100
AcDbSymbolTable
 70
    1
  0
LAYER
  5
10
330
2
100
AcDbSymbolTableRecord
100
AcDbLayerTableRecord
  2
0
 70
    0
 62
    7
  6
CONTINUOUS
370
    0
390
F
  0
LAYER
  5
4A
330
2
100
AcDbSymbolTableRecord
100
AcDbLayerTableRecord
  2
Drawing_Border
 70
    0
 62
    7
  6
CONTINUOUS
370
   35
390
F
  0
LAYER
  5
4B
330
2
100
AcDbSymbolTableRecord
100
AcDbLayerTableRecord
  2
Paper_Format
 70
    0
 62
    6
  6
CONTINUOUS
290
0
370
   35
390
F
  0
LAYER
  5
4C
330
2
100
AcDbSymbolTableRecord
100
AcDbLayerTableRecord
  2
Title_Block
 70
    0
 62
    7
  6
CONTINUOUS
370
   35
390
F
  0
LAYER
  5
4D
330
2
100
AcDbSymbolTableRecord
100
AcDbLayerTableRecord
  2
const
 70
    0
 62
    7
  6
CONTINUOUS
370
    0
390
F
  0
LAYER
  5
4E
330
2
100
AcDbSymbolTableRecord
100
AcDbLayerTableRecord
  2
const2
 70
    1
 62
    7
  6
CONTINUOUS
290
0
370
    0
390
F
1001
LibreCad
1070
    1
  0
LAYER
  5
4F
330
2
100
AcDbSymbolTableRecord
100
AcDbLayerTableRecord
  2
dimension
 70
    0
 62
    2
  6
CONTINUOUS
370
    0
390
F
  0
LAYER
  5
50
330
2
100
AcDbSymbolTableRecord
100
AcDbLayerTableRecord
  2
doors
 70
    0
 62
    6
  6
CONTINUOUS
370
    0
390
F
  0
ENDTAB
  0
TABLE
  2
STYLE
  5
3
330
0
100
AcDbSymbolTable
 70
    3
  0
STYLE
  5
51
330
2
100
AcDbSymbolTableRecord
100
AcDbTextStyleTableRecord
  2
romans
 70
    0
 40
0
 41
1
 50
0
 71
    0
 42
1
  3
romans
  4

  0
STYLE
  5
52
330
2
100
AcDbSymbolTableRecord
100
AcDbTextStyleTableRecord
  2
Standard
 70
    0
 40
0
 41
1
 50
0
 71
    0
 42
1
  3
txt
  4

  0
ENDTAB
  0
TABLE
  2
VIEW
  5
6
330
0
100
AcDbSymbolTable
 70
    0
  0
ENDTAB
  0
TABLE
  2
UCS
  5
7
330
0
100
AcDbSymbolTable
 70
    0
  0
ENDTAB
  0
TABLE
  2
APPID
  5
9
330
0
100
AcDbSymbolTable
 70
    1
  0
APPID
  5
12
330
9
100
AcDbSymbolTableRecord
100
AcDbRegAppTableRecord
  2
ACAD
 70
    0
  0
APPID
  5
53
330
9
100
AcDbSymbolTableRecord
100
AcDbRegAppTableRecord
  2
LibreCad
 70
    0
  0
ENDTAB
  0
TABLE
  2
DIMSTYLE
  5
A
330
0
100
AcDbSymbolTable
 70
    1
100
AcDbDimStyleTable
 71
    1
  0
DIMSTYLE
105
54
330
A
100
AcDbSymbolTableRecord
100
AcDbDimStyleTableRecord
  2
Standard
 70
    0
 40
1
 41
2.5
 42
0.025
 43
0.38
 44
1.25
 45
0
 46
0
 47
0
 48
0
 49
1
140
1
141
0.09
142
0
143
25.4
144
1
145
0
146
1
147
0.625
148
0
 71
    0
 72
    0
 73
    0
 74
    1
 75
    0
 76
    0
 77
    0
 78
    8
 79
    0
170
    0
171
    2
172
    0
173
    0
174
    0
175
    0
176
    0
177
    0
178
    0
179
    2
271
    3
272
    4
273
    2
274
    2
275
    0
276
    0
277
    2
278
   44
279
    0
280
    0
281
    0
282
    0
283
    1
284
    0
285
    0
286
    0
288
    0
289
    3
340
standard
341

371
   -2
372
   -2
  0
ENDTAB
  0
TABLE
  2
BLOCK_RECORD
  5
1
330
0
100
AcDbSymbolTable
 70
    2
  0
BLOCK_RECORD
  5
1F
330
1
100
AcDbSymbolTableRecord
100
AcDbBlockTableRecord
  2
*Model_Space
 70
    0
280
    1
281
    0
  0
BLOCK_RECORD
  5
1E
330
1
100
AcDbSymbolTableRecord
100
AcDbBlockTableRecord
  2
*Paper_Space
 70
    0
280
    1
281
    0
  0
BLOCK_RECORD
  5
55
330
1
100
AcDbSymbolTableRecord
100
AcDbBlockTableRecord
  2
*D1
 70
    0
280
    1
281
    0
  0
BLOCK_RECORD
  5
58
330
1
100
AcDbSymbolTableRecord
100
AcDbBlockTableRecord
  2
*D8
 70
    0
280
    1
281
    0
  0
BLOCK_RECORD
  5
5B
330
1
100
AcDbSymbolTableRecord
100
AcDbBlockTableRecord
  2
*D10
 70
    0
280
    1
281
    0
  0
BLOCK_RECORD
  5
5E
330
1
100
AcDbSymbolTableRecord
100
AcDbBlockTableRecord
  2
*D15
 70
    0
280
    1
281
    0
  0
BLOCK_RECORD
  5
61
330
1
100
AcDbSymbolTableRecord
100
AcDbBlockTableRecord
  2
*D14
 70
    0
280
    1
281
    0
  0
BLOCK_RECORD
  5
64
330
1
100
AcDbSymbolTableRecord
100
AcDbBlockTableRecord
  2
*D7
 70
    0
280
    1
281
    0
  0
BLOCK_RECORD
  5
67
330
1
100
AcDbSymbolTableRecord
100
AcDbBlockTableRecord
  2
*D13
 70
    0
280
    1
281
    0
  0
BLOCK_RECORD
  5
6A
330
1
100
AcDbSymbolTableRecord
100
AcDbBlockTableRecord
  2
*D3
 70
    0
280
    1
281
    0
  0
BLOCK_RECORD
  5
6D
330
1
100
AcDbSymbolTableRecord
100
AcDbBlockTableRecord
  2
*D9
 70
    0
280
    1
281
    0
  0
BLOCK_RECORD
  5
70
330
1
100
AcDbSymbolTableRecord
100
AcDbBlockTableRecord
  2
*D12
 70
    0
280
    1
281
    0
  0
BLOCK_RECORD
  5
73
330
1
100
AcDbSymbolTableRecord
100
AcDbBlockTableRecord
  2
*D4
 70
    0
280
    1
281
    0
  0
BLOCK_RECORD
  5
76
330
1
100
AcDbSymbolTableRecord
100
AcDbBlockTableRecord
  2
*D6
 70
    0
280
    1
281
    0
  0
BLOCK_RECORD
  5
79
330
1
100
AcDbSymbolTableRecord
100
AcDbBlockTableRecord
  2
*D11
 70
    0
280
    1
281
    0
  0
BLOCK_RECORD
  5
7C
330
1
100
AcDbSymbolTableRecord
100
AcDbBlockTableRecord
  2
*D2
 70
    0
280
    1
281
    0
  0
BLOCK_RECORD
  5
7F
330
1
100
AcDbSymbolTableRecord
100
AcDbBlockTableRecord
  2
*D5
 70
    0
280
    1
281
    0
  0
BLOCK_RECORD
  5
82
330
1
100
AcDbSymbolTableRecord
100
AcDbBlockTableRecord
  2
canned goods title block
 70
    0
280
    1
281
    0
  0
BLOCK_RECORD
  5
85
330
1
100
AcDbSymbolTableRecord
100
AcDbBlockTableRecord
  2
canned goods title block-0
 70
    0
280
    1
281
    0
  0
ENDTAB
  0
ENDSEC
  0
SECTION
  2
BLOCKS
  0
BLOCK
  5
20
330
1F
100
AcDbEntity
  8
0
100
AcDbBlockBegin
  2
*Model_Space
 70
    0
 10
0
 20
0
 30
0
  3
*Model_Space
  1

  0
ENDBLK
  5
21
330
1F
100
AcDbEntity
  8
0
100
AcDbBlockEnd
  0
BLOCK
  5
1C
330
1B
100
AcDbEntity
  8
0
100
AcDbBlockBegin
  2
*Paper_Space
 70
    0
 10
0
 20
0
 30
0
  3
*Paper_Space
  1

  0
ENDBLK
  5
1D
330
1F
100
AcDbEntity
  8
0
100
AcDbBlockEnd
  0
BLOCK
  5
56
330
55
100
AcDbEntity
  8
0
100
AcDbBlockBegin
  2
*D1
 70
    1
 10
0
 20
0
  3
*D1
  1

  0
LINE
  5
88
100
AcDbEntity
  8
dimension
  6
ByBlock
 62
    0
370
   -2
100
AcDbLine
 10
47.00919056237168
 20
41.18521611794591
 11
47.00919056237168
 21
11.18521611794591
  0
SOLID
  5
89
100
AcDbEntity
  8
dimension
  6
ByBlock
 62
    0
370
   -2
100
AcDbTrace
 10
47.00919056237168
 20
41.18521611794591
 30
0
 11
47.42547522014452
 21
38.68521611794591
 31
0
 12
46.59290590459884
 22
38.68521611794591
 32
0
 13
46.59290590459884
 23
38.68521611794591
 33
0
  0
SOLID
  5
8A
100
AcDbEntity
  8
dimension
  6
ByBlock
 62
    0
370
   -2
100
AcDbTrace
 10
47.00919056237168
 20
11.18521611794591
 30
0
 11
46.59290590459884
 21
13.68521611794591
 31
0
 12
47.42547522014452
 22
13.68521611794591
 32
0
 13
47.42547522014452
 23
13.68521611794591
 33
0
  0
MTEXT
  5
8B
100
AcDbEntity
  8
dimension
  6
CONTINUOUS
 62
    0
370
   -2
100
AcDbMText
 10
45.88419056237168
 20
26.18521611794591
 30
0
 40
1
 41
1.222222222222284
 71
    5
 72
    1
  1
30
  7
standard
210
0
220
0
230
1
 50
90
 73
    2
 44
1
  0
LINE
  5
8C
100
AcDbEntity
  8
dimension
  6
ByBlock
 62
    0
370
   -2
100
AcDbLine
 10
42.6729234485157
 20
41.18521611794591
 11
48.25919056237168
 21
41.18521611794591
  0
LINE
  5
8D
100
AcDbEntity
  8
dimension
  6
ByBlock
 62
    0
370
   -2
100
AcDbLine
 10
42.6729234485157
 20
11.18521611794591
 11
48.25919056237168
 21
11.18521611794591
  0
ENDBLK
  5
57
330
55
100
AcDbEntity
  8
0
100
AcDbBlockEnd
  0
BLOCK
  5
59
330
58
100
AcDbEntity
  8
0
100
AcDbBlockBegin
  2
*D8
 70
    1
 10
0
 20
0
  3
*D8
  1

  0
LINE
  5
8E
100
AcDbEntity
  8
dimension
  6
ByBlock
 62
    0
370
   -2
100
AcDbLine
 10
35.41042344851572
 20
9.354197561023874
 11
47.66042344851572
 21
9.354197561023874
  0
SOLID
  5
8F
100
AcDbEntity
  8
dimension
  6
ByBlock
 62
    0
370
   -2
100
AcDbTrace
 10
40.41042344851572
 20
9.354197561023874
 30
0
 11
37.91042344851572
 21
8.937912903251034
 31
0
 12
37.91042344851572
 22
9.770482218796714
 32
0
 13
37.91042344851572
 23
9.770482218796714
 33
0
  0
SOLID
  5
90
100
AcDbEntity
  8
dimension
  6
ByBlock
 62
    0
370
   -2
100
AcDbTrace
 10
42.66042344851572
 20
9.354197561023874
 30
0
 11
45.16042344851572
 21
9.770482218796714
 31
0
 12
45.16042344851572
 22
8.937912903251032
 32
0
 13
45.16042344851572
 23
8.937912903251032
 33
0
  0
MTEXT
  5
91
100
AcDbEntity
  8
dimension
  6
CONTINUOUS
 62
    0
370
   -2
100
AcDbMText
 10
44.4798678929602
 20
10.47919756102387
 30
0
 40
1
 41
2.388888888888951
 71
    5
 72
    1
  1
2,25
  7
standard
210
0
220
0
230
1
 50
0
 73
    2
 44
1
  0
LINE
  5
92
100
AcDbEntity
  8
dimension
  6
ByBlock
 62
    0
370
   -2
100
AcDbLine
 10
40.41042344851572
 20
11.16021611794591
 11
40.41042344851572
 21
8.104197561023874
  0
LINE
  5
93
100
AcDbEntity
  8
dimension
  6
ByBlock
 62
    0
370
   -2
100
AcDbLine
 10
42.66042344851572
 20
11.16021611794591
 11
42.66042344851572
 21
8.104197561023874
  0
ENDBLK
  5
5A
330
58
100
AcDbEntity
  8
0
100
AcDbBlockEnd
  0
BLOCK
  5
5C
330
5B
100
AcDbEntity
  8
0
100
AcDbBlockBegin
  2
*D10
 70
    1
 10
0
 20
0
  3
*D10
  1

  0
LINE
  5
94
100
AcDbEntity
  8
dimension
  6
ByBlock
 62
    0
370
   -2
100
AcDbLine
 10
27.0354234485157
 20
44.17099697287929
 11
40.78542344851571
 21
44.17099697287929
  0
SOLID
  5
95
100
AcDbEntity
  8
dimension
  6
ByBlock
 62
    0
370
   -2
100
AcDbTrace
 10
27.0354234485157
 20
44.17099697287929
 30
0
 11
29.5354234485157
 21
44.58728163065214
 31
0
 12
29.5354234485157
 22
43.75471231510645
 32
0
 13
29.5354234485157
 23
43.75471231510645
 33
0
  0
SOLID
  5
96
100
AcDbEntity
  8
dimension
  6
ByBlock
 62
    0
370
   -2
100
AcDbTrace
 10
40.78542344851571
 20
44.17099697287929
 30
0
 11
38.28542344851571
 21
43.75471231510645
 31
0
 12
38.28542344851571
 22
44.58728163065214
 32
0
 13
38.28542344851571
 23
44.58728163065214
 33
0
  0
MTEXT
  5
97
100
AcDbEntity
  8
dimension
  6
CONTINUOUS
 62
    0
370
   -2
100
AcDbMText
 10
33.9104234485157
 20
45.29599697287929
 30
0
 40
1
 41
2.944444444444568
 71
    5
 72
    1
  1
13,75
  7
standard
210
0
220
0
230
1
 50
0
 73
    2
 44
1
  0
LINE
  5
98
100
AcDbEntity
  8
dimension
  6
ByBlock
 62
    0
370
   -2
100
AcDbLine
 10
27.0354234485157
 20
41.21021611794591
 11
27.0354234485157
 21
45.42099697287929
  0
LINE
  5
99
100
AcDbEntity
  8
dimension
  6
ByBlock
 62
    0
370
   -2
100
AcDbLine
 10
40.78542344851571
 20
41.21021611794591
 11
40.78542344851571
 21
45.42099697287929
  0
ENDBLK
  5
5D
330
5B
100
AcDbEntity
  8
0
100
AcDbBlockEnd
  0
BLOCK
  5
5F
330
5E
100
AcDbEntity
  8
0
100
AcDbBlockBegin
  2
*D15
 70
    1
 10
0
 20
0
  3
*D15
  1

  0
LINE
  5
9A
100
AcDbEntity
  8
dimension
  6
ByBlock
 62
    0
370
   -2
100
AcDbLine
 10
44.69852582170792
 20
39.31021611794591
 11
44.69852582170792
 21
13.06021611794591
  0
SOLID
  5
9B
100
AcDbEntity
  8
dimension
  6
ByBlock
 62
    0
370
   -2
100
AcDbTrace
 10
44.69852582170792
 20
39.31021611794591
 30
0
 11
45.11481047948077
 21
36.81021611794591
 31
0
 12
44.28224116393508
 22
36.81021611794591
 32
0
 13
44.28224116393508
 23
36.81021611794591
 33
0
  0
SOLID
  5
9C
100
AcDbEntity
  8
dimension
  6
ByBlock
 62
    0
370
   -2
100
AcDbTrace
 10
44.69852582170792
 20
13.06021611794591
 30
0
 11
44.28224116393508
 21
15.56021611794591
 31
0
 12
45.11481047948077
 22
15.56021611794591
 32
0
 13
45.11481047948077
 23
15.56021611794591
 33
0
  0
MTEXT
  5
9D
100
AcDbEntity
  8
dimension
  6
CONTINUOUS
 62
    0
370
   -2
100
AcDbMText
 10
43.57352582170792
 20
26.18521611794591
 30
0
 40
1
 41
3.166666666666791
 71
    5
 72
    1
  1
26,25
  7
standard
210
0
220
0
230
1
 50
90
 73
    2
 44
1
  0
LINE
  5
9E
100
AcDbEntity
  8
dimension
  6
ByBlock
 62
    0
370
   -2
100
AcDbLine
 10
40.81042344851571
 20
39.31021611794591
 11
45.94852582170792
 21
39.31021611794591
  0
LINE
  5
9F
100
AcDbEntity
  8
dimension
  6
ByBlock
 62
    0
370
   -2
100
AcDbLine
 10
40.81042344851571
 20
13.06021611794591
 11
45.94852582170792
 21
13.06021611794591
  0
ENDBLK
  5
60
330
5E
100
AcDbEntity
  8
0
100
AcDbBlockEnd
  0
BLOCK
  5
62
330
61
100
AcDbEntity
  8
0
100
AcDbBlockBegin
  2
*D14
 70
    1
 10
0
 20
0
  3
*D14
  1

  0
LINE
  5
A0
100
AcDbEntity
  8
dimension
  6
ByBlock
 62
    0
370
   -2
100
AcDbLine
 10
31.79308488899019
 20
21.56021531226728
 11
31.79308488899019
 21
6.185216117945906
  0
SOLID
  5
A1
100
AcDbEntity
  8
dimension
  6
ByBlock
 62
    0
370
   -2
100
AcDbTrace
 10
31.79308488899019
 20
16.56021531226728
 30
0
 11
31.37680023121735
 21
19.06021531226728
 31
0
 12
32.20936954676303
 22
19.06021531226728
 32
0
 13
32.20936954676303
 23
19.06021531226728
 33
0
  0
SOLID
  5
A2
100
AcDbEntity
  8
dimension
  6
ByBlock
 62
    0
370
   -2
100
AcDbTrace
 10
31.79308488899019
 20
11.18521611794591
 30
0
 11
32.20936954676303
 21
8.685216117945906
 31
0
 12
31.37680023121735
 22
8.685216117945906
 32
0
 13
31.37680023121735
 23
8.685216117945906
 33
0
  0
MTEXT
  5
A3
100
AcDbEntity
  8
dimension
  6
CONTINUOUS
 62
    0
370
   -2
100
AcDbMText
 10
30.66808488899019
 20
13.87271571510659
 30
0
 40
1
 41
3.166666666666853
 71
    5
 72
    1
  1
5,375
  7
standard
210
0
220
0
230
1
 50
90
 73
    2
 44
1
  0
LINE
  5
A4
100
AcDbEntity
  8
dimension
  6
ByBlock
 62
    0
370
   -2
100
AcDbLine
 10
26.00268484569925
 20
16.56021531226728
 11
33.04308488899019
 21
16.56021531226728
  0
LINE
  5
A5
100
AcDbEntity
  8
dimension
  6
ByBlock
 62
    0
370
   -2
100
AcDbLine
 10
25.1854234485157
 20
11.18521611794591
 11
33.04308488899019
 21
11.18521611794591
  0
ENDBLK
  5
63
330
61
100
AcDbEntity
  8
0
100
AcDbBlockEnd
  0
BLOCK
  5
65
330
64
100
AcDbEntity
  8
0
100
AcDbBlockBegin
  2
*D7
 70
    1
 10
0
 20
0
  3
*D7
  1

  0
LINE
  5
A6
100
AcDbEntity
  8
dimension
  6
ByBlock
 62
    0
370
   -2
100
AcDbLine
 10
30.97768484569925
 20
32.82240744055065
 11
20.1604234485157
 21
32.82240744055065
  0
SOLID
  5
A7
100
AcDbEntity
  8
dimension
  6
ByBlock
 62
    0
370
   -2
100
AcDbTrace
 10
25.97768484569925
 20
32.82240744055065
 30
0
 11
28.47768484569925
 21
33.23869209832349
 31
0
 12
28.47768484569925
 22
32.40612278277781
 32
0
 13
28.47768484569925
 23
32.40612278277781
 33
0
  0
SOLID
  5
A8
100
AcDbEntity
  8
dimension
  6
ByBlock
 62
    0
370
   -2
100
AcDbTrace
 10
25.1604234485157
 20
32.82240744055065
 30
0
 11
22.6604234485157
 21
32.40612278277781
 31
0
 12
22.6604234485157
 22
33.23869209832349
 32
0
 13
22.6604234485157
 23
33.23869209832349
 33
0
  0
MTEXT
  5
A9
100
AcDbEntity
  8
dimension
  6
CONTINUOUS
 62
    0
370
   -2
100
AcDbMText
 10
28.07490706792148
 20
33.94740744055065
 30
0
 40
1
 41
2.944444444444444
 71
    5
 72
    1
  1
0,817
  7
standard
210
0
220
0
230
1
 50
360
 73
    2
 44
1
  0
LINE
  5
AA
100
AcDbEntity
  8
dimension
  6
ByBlock
 62
    0
370
   -2
100
AcDbLine
 10
25.97768484569925
 20
35.78504564942616
 11
25.97768484569925
 21
31.57240744055065
  0
LINE
  5
AB
100
AcDbEntity
  8
dimension
  6
ByBlock
 62
    0
370
   -2
100
AcDbLine
 10
25.1604234485157
 20
35.78504564942616
 11
25.1604234485157
 21
31.57240744055065
  0
ENDBLK
  5
66
330
64
100
AcDbEntity
  8
0
100
AcDbBlockEnd
  0
BLOCK
  5
68
330
67
100
AcDbEntity
  8
0
100
AcDbBlockBegin
  2
*D13
 70
    1
 10
0
 20
0
  3
*D13
  1

  0
LINE
  5
AC
100
AcDbEntity
  8
dimension
  6
ByBlock
 62
    0
370
   -2
100
AcDbLine
 10
34.7978803469517
 20
38.93521611794591
 11
34.7978803469517
 21
13.43521663785262
  0
SOLID
  5
AD
100
AcDbEntity
  8
dimension
  6
ByBlock
 62
    0
370
   -2
100
AcDbTrace
 10
34.7978803469517
 20
38.93521611794591
 30
0
 11
35.21416500472454
 21
36.43521611794591
 31
0
 12
34.38159568917886
 22
36.43521611794591
 32
0
 13
34.38159568917886
 23
36.43521611794591
 33
0
  0
SOLID
  5
AE
100
AcDbEntity
  8
dimension
  6
ByBlock
 62
    0
370
   -2
100
AcDbTrace
 10
34.7978803469517
 20
13.43521663785262
 30
0
 11
34.38159568917886
 21
15.93521663785262
 31
0
 12
35.21416500472454
 22
15.93521663785262
 32
0
 13
35.21416500472454
 23
15.93521663785262
 33
0
  0
MTEXT
  5
AF
100
AcDbEntity
  8
dimension
  6
CONTINUOUS
 62
    0
370
   -2
100
AcDbMText
 10
33.6728803469517
 20
26.18521637789927
 30
0
 40
1
 41
2.388888888889013
 71
    5
 72
    1
  1
25,5
  7
standard
210
0
220
0
230
1
 50
90
 73
    2
 44
1
  0
LINE
  5
B0
100
AcDbEntity
  8
dimension
  6
ByBlock
 62
    0
370
   -2
100
AcDbLine
 10
40.38542344851571
 20
38.93521611794591
 11
33.5478803469517
 21
38.93521611794591
  0
LINE
  5
B1
100
AcDbEntity
  8
dimension
  6
ByBlock
 62
    0
370
   -2
100
AcDbLine
 10
40.49797320756434
 20
13.43521663785262
 11
33.5478803469517
 21
13.43521663785262
  0
ENDBLK
  5
69
330
67
100
AcDbEntity
  8
0
100
AcDbBlockEnd
  0
BLOCK
  5
6B
330
6A
100
AcDbEntity
  8
0
100
AcDbBlockBegin
  2
*D3
 70
    1
 10
0
 20
0
  3
*D3
  1

  0
LINE
  5
B2
100
AcDbEntity
  8
dimension
  6
ByBlock
 62
    0
370
   -2
100
AcDbLine
 10
20.28103666211583
 20
16.64375051049424
 11
31.65981023491559
 21
16.47668172539757
  0
SOLID
  5
B3
100
AcDbEntity
  8
dimension
  6
ByBlock
 62
    0
370
   -2
100
AcDbTrace
 10
25.28049781009463
 20
16.57034594762224
 30
0
 11
22.7746557974384
 21
16.19080843445125
 31
0
 12
22.78687867477205
 22
17.02328802366523
 32
0
 13
22.78687867477205
 23
17.02328802366523
 33
0
  0
SOLID
  5
B4
100
AcDbEntity
  8
dimension
  6
ByBlock
 62
    0
370
   -2
100
AcDbTrace
 10
26.66034908693679
 20
16.55008628826957
 30
0
 11
29.16619109959302
 21
16.92962380144056
 31
0
 12
29.15396822225936
 22
16.09714421222657
 32
0
 13
29.15396822225936
 23
16.09714421222657
 33
0
  0
MTEXT
  5
B5
100
AcDbEntity
  8
dimension
  6
CONTINUOUS
 62
    0
370
   -2
100
AcDbMText
 10
28.91273523809584
 20
17.64213689483594
 30
0
 40
1
 41
3.222222222222439
 71
    5
 72
    1
  1
35mm
  7
standard
210
0
220
0
230
1
 50
359.158815451603
 73
    2
 44
1
  0
ENDBLK
  5
6C
330
6A
100
AcDbEntity
  8
0
100
AcDbBlockEnd
  0
BLOCK
  5
6E
330
6D
100
AcDbEntity
  8
0
100
AcDbBlockBegin
  2
*D9
 70
    1
 10
0
 20
0
  3
*D9
  1

  0
LINE
  5
B6
100
AcDbEntity
  8
dimension
  6
ByBlock
 62
    0
370
   -2
100
AcDbLine
 10
27.4104234485157
 20
41.95119363729016
 11
40.41042344851571
 21
41.95119363729016
  0
SOLID
  5
B7
100
AcDbEntity
  8
dimension
  6
ByBlock
 62
    0
370
   -2
100
AcDbTrace
 10
27.4104234485157
 20
41.95119363729016
 30
0
 11
29.9104234485157
 21
42.367478295063
 31
0
 12
29.9104234485157
 22
41.53490897951732
 32
0
 13
29.9104234485157
 23
41.53490897951732
 33
0
  0
SOLID
  5
B8
100
AcDbEntity
  8
dimension
  6
ByBlock
 62
    0
370
   -2
100
AcDbTrace
 10
40.41042344851571
 20
41.95119363729016
 30
0
 11
37.91042344851571
 21
41.53490897951732
 31
0
 12
37.91042344851571
 22
42.367478295063
 32
0
 13
37.91042344851571
 23
42.367478295063
 33
0
  0
MTEXT
  5
B9
100
AcDbEntity
  8
dimension
  6
CONTINUOUS
 62
    0
370
   -2
100
AcDbMText
 10
33.91042344851571
 20
43.07619363729016
 30
0
 40
1
 41
1.000000000000062
 71
    5
 72
    1
  1
13
  7
standard
210
0
220
0
230
1
 50
0
 73
    2
 44
1
  0
LINE
  5
BA
100
AcDbEntity
  8
dimension
  6
ByBlock
 62
    0
370
   -2
100
AcDbLine
 10
27.4104234485157
 20
41.21021611794591
 11
27.4104234485157
 21
43.20119363729016
  0
LINE
  5
BB
100
AcDbEntity
  8
dimension
  6
ByBlock
 62
    0
370
   -2
100
AcDbLine
 10
40.41042344851571
 20
41.21021611794591
 11
40.41042344851571
 21
43.20119363729016
  0
ENDBLK
  5
6F
330
6D
100
AcDbEntity
  8
0
100
AcDbBlockEnd
  0
BLOCK
  5
71
330
70
100
AcDbEntity
  8
0
100
AcDbBlockBegin
  2
*D12
 70
    1
 10
0
 20
0
  3
*D12
  1

  0
LINE
  5
BC
100
AcDbEntity
  8
dimension
  6
ByBlock
 62
    0
370
   -2
100
AcDbLine
 10
45.78542344851571
 20
37.57718905342302
 11
35.41042344851571
 21
37.57718905342302
  0
SOLID
  5
BD
100
AcDbEntity
  8
dimension
  6
ByBlock
 62
    0
370
   -2
100
AcDbTrace
 10
40.78542344851571
 20
37.57718905342302
 30
0
 11
43.28542344851571
 21
37.99347371119586
 31
0
 12
43.28542344851571
 22
37.16090439565018
 32
0
 13
43.28542344851571
 23
37.16090439565018
 33
0
  0
SOLID
  5
BE
100
AcDbEntity
  8
dimension
  6
ByBlock
 62
    0
370
   -2
100
AcDbTrace
 10
40.41042344851571
 20
37.57718905342302
 30
0
 11
37.91042344851571
 21
37.16090439565018
 31
0
 12
37.91042344851571
 22
37.99347371119586
 32
0
 13
37.91042344851571
 23
37.99347371119586
 33
0
  0
MTEXT
  5
BF
100
AcDbEntity
  8
dimension
  6
CONTINUOUS
 62
    0
370
   -2
100
AcDbMText
 10
42.9937567818491
 20
38.70218905342302
 30
0
 40
1
 41
3.166666666666791
 71
    5
 72
    1
  1
0,375
  7
standard
210
0
220
0
230
1
 50
360
 73
    2
 44
1
  0
LINE
  5
C0
100
AcDbEntity
  8
dimension
  6
ByBlock
 62
    0
370
   -2
100
AcDbLine
 10
40.78542344851571
 20
38.91021611794591
 11
40.78542344851571
 21
36.32718905342302
  0
LINE
  5
C1
100
AcDbEntity
  8
dimension
  6
ByBlock
 62
    0
370
   -2
100
AcDbLine
 10
40.41042344851571
 20
38.91021611794591
 11
40.41042344851571
 21
36.32718905342302
  0
ENDBLK
  5
72
330
70
100
AcDbEntity
  8
0
100
AcDbBlockEnd
  0
BLOCK
  5
74
330
73
100
AcDbEntity
  8
0
100
AcDbBlockBegin
  2
*D4
 70
    1
 10
0
 20
0
  3
*D4
  1

  0
LINE
  5
C2
100
AcDbEntity
  8
dimension
  6
ByBlock
 62
    0
370
   -2
100
AcDbLine
 10
16.65518318172515
 20
15.26796061860591
 11
6.155183181725146
 21
15.26796061860591
  0
SOLID
  5
C3
100
AcDbEntity
  8
dimension
  6
ByBlock
 62
    0
370
   -2
100
AcDbTrace
 10
11.65518318172515
 20
15.26796061860591
 30
0
 11
14.15518318172515
 21
15.68424527637875
 31
0
 12
14.15518318172515
 22
14.85167596083307
 32
0
 13
14.15518318172515
 23
14.85167596083307
 33
0
  0
SOLID
  5
C4
100
AcDbEntity
  8
dimension
  6
ByBlock
 62
    0
370
   -2
100
AcDbTrace
 10
11.15518318172515
 20
15.26796061860591
 30
0
 11
8.655183181725146
 21
14.85167596083307
 31
0
 12
8.655183181725146
 22
15.68424527637875
 32
0
 13
8.655183181725146
 23
15.68424527637875
 33
0
  0
MTEXT
  5
C5
100
AcDbEntity
  8
dimension
  6
CONTINUOUS
 62
    0
370
   -2
100
AcDbMText
 10
13.08573873728073
 20
16.39296061860591
 30
0
 40
1
 41
1.611111111111173
 71
    5
 72
    1
  1
0,5
  7
standard
210
0
220
0
230
1
 50
360
 73
    2
 44
1
  0
LINE
  5
C6
100
AcDbEntity
  8
dimension
  6
ByBlock
 62
    0
370
   -2
100
AcDbLine
 10
11.65518318172515
 20
15.84521611794591
 11
11.65518318172515
 21
14.01796061860591
  0
LINE
  5
C7
100
AcDbEntity
  8
dimension
  6
ByBlock
 62
    0
370
   -2
100
AcDbLine
 10
11.15518318172515
 20
15.84521611794591
 11
11.15518318172515
 21
14.01796061860591
  0
ENDBLK
  5
75
330
73
100
AcDbEntity
  8
0
100
AcDbBlockEnd
  0
BLOCK
  5
77
330
76
100
AcDbEntity
  8
0
100
AcDbBlockBegin
  2
*D6
 70
    1
 10
0
 20
0
  3
*D6
  1

  0
LINE
  5
C8
100
AcDbEntity
  8
dimension
  6
ByBlock
 62
    0
370
   -2
100
AcDbLine
 10
23.4595872466838
 20
30.81004564942616
 11
23.4595872466838
 21
46.18521611794591
  0
SOLID
  5
C9
100
AcDbEntity
  8
dimension
  6
ByBlock
 62
    0
370
   -2
100
AcDbTrace
 10
23.4595872466838
 20
35.81004564942616
 30
0
 11
23.87587190445664
 21
33.31004564942616
 31
0
 12
23.04330258891095
 22
33.31004564942616
 32
0
 13
23.04330258891095
 23
33.31004564942616
 33
0
  0
SOLID
  5
CA
100
AcDbEntity
  8
dimension
  6
ByBlock
 62
    0
370
   -2
100
AcDbTrace
 10
23.4595872466838
 20
41.18521611794591
 30
0
 11
23.04330258891095
 21
43.68521611794591
 31
0
 12
23.87587190445664
 22
43.68521611794591
 32
0
 13
23.87587190445664
 23
43.68521611794591
 33
0
  0
MTEXT
  5
CB
100
AcDbEntity
  8
dimension
  6
CONTINUOUS
 62
    0
370
   -2
100
AcDbMText
 10
22.3345872466838
 20
38.49763088368604
 30
0
 40
1
 41
3.166666666666853
 71
    5
 72
    1
  1
5,375
  7
standard
210
0
220
0
230
1
 50
90
 73
    2
 44
1
  0
LINE
  5
CC
100
AcDbEntity
  8
dimension
  6
ByBlock
 62
    0
370
   -2
100
AcDbLine
 10
25.95268484569926
 20
35.81004564942616
 11
22.2095872466838
 21
35.81004564942616
  0
LINE
  5
CD
100
AcDbEntity
  8
dimension
  6
ByBlock
 62
    0
370
   -2
100
AcDbLine
 10
25.13542344851571
 20
41.18521611794591
 11
22.2095872466838
 21
41.18521611794591
  0
ENDBLK
  5
78
330
76
100
AcDbEntity
  8
0
100
AcDbBlockEnd
  0
BLOCK
  5
7A
330
79
100
AcDbEntity
  8
0
100
AcDbBlockBegin
  2
*D11
 70
    1
 10
0
 20
0
  3
*D11
  1

  0
LINE
  5
CE
100
AcDbEntity
  8
dimension
  6
ByBlock
 62
    0
370
   -2
100
AcDbLine
 10
25.1604234485157
 20
46.15402128600559
 11
42.66042344851572
 21
46.15402128600559
  0
SOLID
  5
CF
100
AcDbEntity
  8
dimension
  6
ByBlock
 62
    0
370
   -2
100
AcDbTrace
 10
25.1604234485157
 20
46.15402128600559
 30
0
 11
27.6604234485157
 21
46.57030594377843
 31
0
 12
27.6604234485157
 22
45.73773662823275
 32
0
 13
27.6604234485157
 23
45.73773662823275
 33
0
  0
SOLID
  5
D0
100
AcDbEntity
  8
dimension
  6
ByBlock
 62
    0
370
   -2
100
AcDbTrace
 10
42.66042344851572
 20
46.15402128600559
 30
0
 11
40.16042344851572
 21
45.73773662823275
 31
0
 12
40.16042344851572
 22
46.57030594377843
 32
0
 13
40.16042344851572
 23
46.57030594377843
 33
0
  0
MTEXT
  5
D1
100
AcDbEntity
  8
dimension
  6
CONTINUOUS
 62
    0
370
   -2
100
AcDbMText
 10
33.91042344851571
 20
47.27902128600559
 30
0
 40
1
 41
2.166666666666729
 71
    5
 72
    1
  1
17,5
  7
standard
210
0
220
0
230
1
 50
0
 73
    2
 44
1
  0
LINE
  5
D2
100
AcDbEntity
  8
dimension
  6
ByBlock
 62
    0
370
   -2
100
AcDbLine
 10
25.1604234485157
 20
41.21021611794591
 11
25.1604234485157
 21
47.40402128600559
  0
LINE
  5
D3
100
AcDbEntity
  8
dimension
  6
ByBlock
 62
    0
370
   -2
100
AcDbLine
 10
42.66042344851572
 20
41.21021611794591
 11
42.66042344851572
 21
47.40402128600559
  0
ENDBLK
  5
7B
330
79
100
AcDbEntity
  8
0
100
AcDbBlockEnd
  0
BLOCK
  5
7D
330
7C
100
AcDbEntity
  8
0
100
AcDbBlockBegin
  2
*D2
 70
    1
 10
0
 20
0
  3
*D2
  1

  0
LINE
  5
D4
100
AcDbEntity
  8
dimension
  6
ByBlock
 62
    0
370
   -2
100
AcDbLine
 10
22.99943440793858
 20
18.43521611794591
 11
22.99943440793858
 21
6.185216117945906
  0
SOLID
  5
D5
100
AcDbEntity
  8
dimension
  6
ByBlock
 62
    0
370
   -2
100
AcDbTrace
 10
22.99943440793858
 20
13.43521611794591
 30
0
 11
22.58314975016573
 21
15.93521611794591
 31
0
 12
23.41571906571142
 22
15.93521611794591
 32
0
 13
23.41571906571142
 23
15.93521611794591
 33
0
  0
SOLID
  5
D6
100
AcDbEntity
  8
dimension
  6
ByBlock
 62
    0
370
   -2
100
AcDbTrace
 10
22.99943440793858
 20
11.18521611794591
 30
0
 11
23.41571906571142
 21
8.685216117945906
 31
0
 12
22.58314975016573
 22
8.685216117945906
 32
0
 13
22.58314975016573
 23
8.685216117945906
 33
0
  0
MTEXT
  5
D7
100
AcDbEntity
  8
dimension
  6
CONTINUOUS
 62
    0
370
   -2
100
AcDbMText
 10
21.87443440793858
 20
15.25466056239038
 30
0
 40
1
 41
2.388888888888951
 71
    5
 72
    1
  1
2,25
  7
standard
210
0
220
0
230
1
 50
90
 73
    2
 44
1
  0
LINE
  5
D8
100
AcDbEntity
  8
dimension
  6
ByBlock
 62
    0
370
   -2
100
AcDbLine
 10
27.38542344851571
 20
13.43521611794591
 11
21.74943440793858
 21
13.43521611794591
  0
LINE
  5
D9
100
AcDbEntity
  8
dimension
  6
ByBlock
 62
    0
370
   -2
100
AcDbLine
 10
27.38542344851571
 20
11.18521611794591
 11
21.74943440793858
 21
11.18521611794591
  0
ENDBLK
  5
7E
330
7C
100
AcDbEntity
  8
0
100
AcDbBlockEnd
  0
BLOCK
  5
80
330
7F
100
AcDbEntity
  8
0
100
AcDbBlockBegin
  2
*D5
 70
    1
 10
0
 20
0
  3
*D5
  1

  0
LINE
  5
DA
100
AcDbEntity
  8
dimension
  6
ByBlock
 62
    0
370
   -2
100
AcDbLine
 10
16.65518318172515
 20
8.487490795973947
 11
5.905183181725146
 21
8.487490795973947
  0
SOLID
  5
DB
100
AcDbEntity
  8
dimension
  6
ByBlock
 62
    0
370
   -2
100
AcDbTrace
 10
11.65518318172515
 20
8.487490795973947
 30
0
 11
14.15518318172515
 21
8.903775453746787
 31
0
 12
14.15518318172515
 22
8.071206138201106
 32
0
 13
14.15518318172515
 23
8.071206138201106
 33
0
  0
SOLID
  5
DC
100
AcDbEntity
  8
dimension
  6
ByBlock
 62
    0
370
   -2
100
AcDbTrace
 10
10.90518318172515
 20
8.487490795973947
 30
0
 11
8.405183181725146
 21
8.071206138201108
 31
0
 12
8.405183181725146
 22
8.903775453746787
 32
0
 13
8.405183181725146
 23
8.903775453746787
 33
0
  0
MTEXT
  5
DD
100
AcDbEntity
  8
dimension
  6
CONTINUOUS
 62
    0
370
   -2
100
AcDbMText
 10
13.47462762616962
 20
9.612490795973947
 30
0
 40
1
 41
2.388888888888951
 71
    5
 72
    1
  1
0,75
  7
standard
210
0
220
0
230
1
 50
360
 73
    2
 44
1
  0
LINE
  5
DE
100
AcDbEntity
  8
dimension
  6
ByBlock
 62
    0
370
   -2
100
AcDbLine
 10
11.65518318172515
 20
11.16021611794591
 11
11.65518318172515
 21
7.237490795973947
  0
LINE
  5
DF
100
AcDbEntity
  8
dimension
  6
ByBlock
 62
    0
370
   -2
100
AcDbLine
 10
10.90518318172515
 20
11.16021611794591
 11
10.90518318172515
 21
7.237490795973947
  0
ENDBLK
  5
81
330
7F
100
AcDbEntity
  8
0
100
AcDbBlockEnd
  0
BLOCK
  5
83
330
82
100
AcDbEntity
  8
0
100
AcDbBlockBegin
  2
canned goods title block
 70
    0
 10
0
 20
0
  3
canned goods title block
  1

  0
LINE
  5
E0
100
AcDbEntity
  8
Paper_Format
  6
ByLayer
 62
  256
370
   -1
100
AcDbLine
 10
0
 20
0
 11
0.4330708661417323
 21
0
  0
LINE
  5
E1
100
AcDbEntity
  8
Paper_Format
  6
ByLayer
 62
  256
370
   -1
100
AcDbLine
 10
0.4330708661417323
 20
0
 11
0.4330708661417323
 21
0.3346456692913386
  0
LINE
  5
E2
100
AcDbEntity
  8
Paper_Format
  6
ByLayer
 62
  256
370
   -1
100
AcDbLine
 10
0.4330708661417323
 20
0.3346456692913386
 11
0
 21
0.3346456692913386
  0
LINE
  5
E3
100
AcDbEntity
  8
Paper_Format
  6
ByLayer
 62
  256
370
   -1
100
AcDbLine
 10
0
 20
0.3346456692913386
 11
0
 21
0
  0
LINE
  5
E4
100
AcDbEntity
  8
Drawing_Border
  6
ByLayer
 62
  256
370
   -1
100
AcDbLine
 10
0.4183070866141732
 20
0.3198818897637795
 11
0.02460629921259842
 21
0.3198818897637795
  0
LINE
  5
E5
100
AcDbEntity
  8
Drawing_Border
  6
ByLayer
 62
  256
370
   -1
100
AcDbLine
 10
0.4183070866141732
 20
0.01476377952755905
 11
0.4183070866141732
 21
0.3198818897637795
  0
LINE
  5
E6
100
AcDbEntity
  8
Drawing_Border
  6
ByLayer
 62
  256
370
   -1
100
AcDbLine
 10
0.02460629921259842
 20
0.3198818897637795
 11
0.02460629921259842
 21
0.01476377952755905
  0
LINE
  5
E7
100
AcDbEntity
  8
Drawing_Border
  6
ByLayer
 62
  256
370
   -1
100
AcDbLine
 10
0.02460629921259842
 20
0.01476377952755905
 11
0.4183070866141732
 21
0.01476377952755905
  0
LINE
  5
E8
100
AcDbEntity
  8
Drawing_Border
  6
ByLayer
 62
  256
370
   70
100
AcDbLine
 10
0.01968503937007874
 20
0.3248031496062992
 11
0.01968503937007874
 21
0.00984251968503937
  0
LINE
  5
E9
100
AcDbEntity
  8
Drawing_Border
  6
ByLayer
 62
  256
370
   70
100
AcDbLine
 10
0.01968503937007874
 20
0.00984251968503937
 11
0.4232283464566929
 21
0.00984251968503937
  0
LINE
  5
EA
100
AcDbEntity
  8
Drawing_Border
  6
ByLayer
 62
  256
370
   70
100
AcDbLine
 10
0.4232283464566929
 20
0.3248031496062992
 11
0.01968503937007874
 21
0.3248031496062992
  0
LINE
  5
EB
100
AcDbEntity
  8
Drawing_Border
  6
ByLayer
 62
  256
370
   70
100
AcDbLine
 10
0.4232283464566929
 20
0.00984251968503937
 11
0.4232283464566929
 21
0.3248031496062992
  0
LINE
  5
EC
100
AcDbEntity
  8
Drawing_Border
  6
ByLayer
 62
  256
370
   -1
100
AcDbLine
 10
0.1558398950131234
 20
0.3198818897637795
 11
0.1558398950131234
 21
0.3248031496062992
  0
LINE
  5
ED
100
AcDbEntity
  8
Drawing_Border
  6
ByLayer
 62
  256
370
   -1
100
AcDbLine
 10
0.2870734908136483
 20
0.3198818897637795
 11
0.2870734908136483
 21
0.3248031496062992
  0
LINE
  5
EE
100
AcDbEntity
  8
Drawing_Border
  6
ByLayer
 62
  256
370
   -1
100
AcDbLine
 10
0.02460629921259842
 20
0.1673228346456693
 11
0.01968503937007874
 21
0.1673228346456693
  0
MTEXT
  5
EF
100
AcDbEntity
  8
Drawing_Border
  6
ByLayer
 62
  256
370
   -1
100
AcDbMText
 10
0.0902230971128609
 20
0.3223425196850394
 30
0
 40
0.002460629921259842
 41
0.001874764873140857
 71
    5
 72
    1
  1
A
  7
romans
210
0
220
0
230
1
 50
0
 73
    2
 44
1
  0
MTEXT
  5
F0
100
AcDbEntity
  8
Drawing_Border
  6
ByLayer
 62
  256
370
   -1
100
AcDbMText
 10
0.2214566929133858
 20
0.3223425196850394
 30
0
 40
0.002460629921259842
 41
0.001640419947506561
 71
    5
 72
    1
  1
B
  7
romans
210
0
220
0
230
1
 50
0
 73
    2
 44
1
  0
MTEXT
  5
F1
100
AcDbEntity
  8
Drawing_Border
  6
ByLayer
 62
  256
370
   -1
100
AcDbMText
 10
0.3526902887139108
 20
0.3223425196850394
 30
0
 40
0.002460629921259842
 41
0.001757592410323709
 71
    5
 72
    1
  1
C
  7
romans
210
0
220
0
230
1
 50
0
 73
    2
 44
1
  0
MTEXT
  5
F2
100
AcDbEntity
  8
Drawing_Border
  6
ByLayer
 62
  256
370
   -1
100
AcDbMText
 10
0.02214566929133858
 20
0.2436023622047244
 30
0
 40
0.002460629921259842
 41
0.0005858650481189851
 71
    5
 72
    1
  1
1
  7
romans
210
0
220
0
230
1
 50
0
 73
    2
 44
1
  0
MTEXT
  5
F3
100
AcDbEntity
  8
Drawing_Border
  6
ByLayer
 62
  256
370
   -1
100
AcDbMText
 10
0.02214566929133858
 20
0.09104330708661418
 30
0
 40
0.002460629921259842
 41
0.001640419947506561
 71
    5
 72
    1
  1
2
  7
romans
210
0
220
0
230
1
 50
0
 73
    2
 44
1
  0
LWPOLYLINE
  5
F4
100
AcDbEntity
  8
Drawing_Border
  6
ByLayer
 62
  256
370
   -1
100
AcDbPolyline
 90
    4
 70
    1
 43
0
 10
0.4183070866141732
 20
0.04921259842519685
 10
0.420767716535433
 20
0.04921259842519685
 10
0.420767716535433
 20
0.2854330708661417
 10
0.4183070866141732
 20
0.2854330708661417
  0
LINE
  5
F5
100
AcDbEntity
  8
Title_Block
  6
ByLayer
 62
  256
370
   -1
100
AcDbLine
 10
0.02460629921259842
 20
0.01476377952755905
 11
0.0344488188976378
 21
0.01476377952755905
  0
LINE
  5
F6
100
AcDbEntity
  8
Title_Block
  6
ByLayer
 62
  256
370
   -1
100
AcDbLine
 10
0.0344488188976378
 20
0.02952755905511811
 11
0.02460629921259842
 21
0.02952755905511811
  0
LINE
  5
F7
100
AcDbEntity
  8
Title_Block
  6
ByLayer
 62
  256
370
   -1
100
AcDbLine
 10
0.02460629921259842
 20
0.02952755905511811
 11
0.02460629921259842
 21
0.01476377952755905
  0
LINE
  5
F8
100
AcDbEntity
  8
Title_Block
  6
ByLayer
 62
  256
370
   -1
100
AcDbLine
 10
0.0344488188976378
 20
0.01476377952755905
 11
0.04429133858267716
 21
0.01476377952755905
  0
LINE
  5
F9
100
AcDbEntity
  8
Title_Block
  6
ByLayer
 62
  256
370
   -1
100
AcDbLine
 10
0.04429133858267716
 20
0.02952755905511811
 11
0.0344488188976378
 21
0.02952755905511811
  0
LINE
  5
FA
100
AcDbEntity
  8
Title_Block
  6
ByLayer
 62
  256
370
   -1
100
AcDbLine
 10
0.04429133858267716
 20
0.01476377952755905
 11
0.05413385826771654
 21
0.01476377952755905
  0
LINE
  5
FB
100
AcDbEntity
  8
Title_Block
  6
ByLayer
 62
  256
370
   -1
100
AcDbLine
 10
0.05413385826771654
 20
0.01476377952755905
 11
0.05413385826771654
 21
0.02952755905511811
  0
LINE
  5
FC
100
AcDbEntity
  8
Title_Block
  6
ByLayer
 62
  256
370
   -1
100
AcDbLine
 10
0.05413385826771654
 20
0.02952755905511811
 11
0.04429133858267716
 21
0.02952755905511811
  0
LINE
  5
FD
100
AcDbEntity
  8
Title_Block
  6
ByLayer
 62
  256
370
   -1
100
AcDbLine
 10
0.05413385826771654
 20
0.01476377952755905
 11
0.0639763779527559
 21
0.01476377952755905
  0
LINE
  5
FE
100
AcDbEntity
  8
Title_Block
  6
ByLayer
 62
  256
370
   -1
100
AcDbLine
 10
0.0639763779527559
 20
0.02952755905511811
 11
0.05413385826771654
 21
0.02952755905511811
  0
LINE
  5
FF
100
AcDbEntity
  8
Title_Block
  6
ByLayer
 62
  256
370
   -1
100
AcDbLine
 10
0.0639763779527559
 20
0.01476377952755905
 11
0.07381889763779527
 21
0.01476377952755905
  0
LINE
  5
100
100
AcDbEntity
  8
Title_Block
  6
ByLayer
 62
  256
370
   -1
100
AcDbLine
 10
0.07381889763779527
 20
0.02952755905511811
 11
0.0639763779527559
 21
0.02952755905511811
  0
LINE
  5
101
100
AcDbEntity
  8
Title_Block
  6
ByLayer
 62
  256
370
   -1
100
AcDbLine
 10
0.07381889763779527
 20
0.01476377952755905
 11
0.08366141732283465
 21
0.01476377952755905
  0
LINE
  5
102
100
AcDbEntity
  8
Title_Block
  6
ByLayer
 62
  256
370
   -1
100
AcDbLine
 10
0.08366141732283465
 20
0.02952755905511811
 11
0.07381889763779527
 21
0.02952755905511811
  0
LINE
  5
103
100
AcDbEntity
  8
Title_Block
  6
ByLayer
 62
  256
370
   -1
100
AcDbLine
 10
0.08366141732283465
 20
0.01476377952755905
 11
0.09350393700787402
 21
0.01476377952755905
  0
LINE
  5
104
100
AcDbEntity
  8
Title_Block
  6
ByLayer
 62
  256
370
   -1
100
AcDbLine
 10
0.09350393700787402
 20
0.02952755905511811
 11
0.08366141732283465
 21
0.02952755905511811
  0
LINE
  5
105
100
AcDbEntity
  8
Title_Block
  6
ByLayer
 62
  256
370
   -1
100
AcDbLine
 10
0.09350393700787402
 20
0.01476377952755905
 11
0.1033464566929134
 21
0.01476377952755905
  0
LINE
  5
106
100
AcDbEntity
  8
Title_Block
  6
ByLayer
 62
  256
370
   -1
100
AcDbLine
 10
0.1033464566929134
 20
0.02952755905511811
 11
0.09350393700787402
 21
0.02952755905511811
  0
LINE
  5
107
100
AcDbEntity
  8
Title_Block
  6
ByLayer
 62
  256
370
   -1
100
AcDbLine
 10
0.1033464566929134
 20
0.01476377952755905
 11
0.1131889763779527
 21
0.01476377952755905
  0
LINE
  5
108
100
AcDbEntity
  8
Title_Block
  6
ByLayer
 62
  256
370
   -1
100
AcDbLine
 10
0.1131889763779527
 20
0.01476377952755905
 11
0.1131889763779527
 21
0.02952755905511811
  0
LINE
  5
109
100
AcDbEntity
  8
Title_Block
  6
ByLayer
 62
  256
370
   -1
100
AcDbLine
 10
0.1131889763779527
 20
0.02952755905511811
 11
0.1033464566929134
 21
0.02952755905511811
  0
LINE
  5
10A
100
AcDbEntity
  8
Title_Block
  6
ByLayer
 62
  256
370
   -1
100
AcDbLine
 10
0.1131889763779527
 20
0.01476377952755905
 11
0.1230314960629921
 21
0.01476377952755905
  0
LINE
  5
10B
100
AcDbEntity
  8
Title_Block
  6
ByLayer
 62
  256
370
   -1
100
AcDbLine
 10
0.1230314960629921
 20
0.02952755905511811
 11
0.1131889763779527
 21
0.02952755905511811
  0
LINE
  5
10C
100
AcDbEntity
  8
Title_Block
  6
ByLayer
 62
  256
370
   -1
100
AcDbLine
 10
0.1230314960629921
 20
0.01476377952755905
 11
0.1328740157480315
 21
0.01476377952755905
  0
LINE
  5
10D
100
AcDbEntity
  8
Title_Block
  6
ByLayer
 62
  256
370
   -1
100
AcDbLine
 10
0.1328740157480315
 20
0.02952755905511811
 11
0.1230314960629921
 21
0.02952755905511811
  0
LINE
  5
10E
100
AcDbEntity
  8
Title_Block
  6
ByLayer
 62
  256
370
   -1
100
AcDbLine
 10
0.1328740157480315
 20
0.01476377952755905
 11
0.1427165354330709
 21
0.01476377952755905
  0
LINE
  5
10F
100
AcDbEntity
  8
Title_Block
  6
ByLayer
 62
  256
370
   -1
100
AcDbLine
 10
0.1427165354330709
 20
0.02952755905511811
 11
0.1328740157480315
 21
0.02952755905511811
  0
LINE
  5
110
100
AcDbEntity
  8
Title_Block
  6
ByLayer
 62
  256
370
   -1
100
AcDbLine
 10
0.1427165354330709
 20
0.01476377952755905
 11
0.1525590551181102
 21
0.01476377952755905
  0
LINE
  5
111
100
AcDbEntity
  8
Title_Block
  6
ByLayer
 62
  256
370
   -1
100
AcDbLine
 10
0.1525590551181102
 20
0.02952755905511811
 11
0.1427165354330709
 21
0.02952755905511811
  0
LINE
  5
112
100
AcDbEntity
  8
Title_Block
  6
ByLayer
 62
  256
370
   -1
100
AcDbLine
 10
0.1525590551181102
 20
0.01476377952755905
 11
0.1624015748031496
 21
0.01476377952755905
  0
LINE
  5
113
100
AcDbEntity
  8
Title_Block
  6
ByLayer
 62
  256
370
   -1
100
AcDbLine
 10
0.1624015748031496
 20
0.02952755905511811
 11
0.1525590551181102
 21
0.02952755905511811
  0
LINE
  5
114
100
AcDbEntity
  8
Title_Block
  6
ByLayer
 62
  256
370
   -1
100
AcDbLine
 10
0.1624015748031496
 20
0.01476377952755905
 11
0.172244094488189
 21
0.01476377952755905
  0
LINE
  5
115
100
AcDbEntity
  8
Title_Block
  6
ByLayer
 62
  256
370
   -1
100
AcDbLine
 10
0.172244094488189
 20
0.02952755905511811
 11
0.1624015748031496
 21
0.02952755905511811
  0
LINE
  5
116
100
AcDbEntity
  8
Title_Block
  6
ByLayer
 62
  256
370
   -1
100
AcDbLine
 10
0.172244094488189
 20
0.01476377952755905
 11
0.1820866141732284
 21
0.01476377952755905
  0
LINE
  5
117
100
AcDbEntity
  8
Title_Block
  6
ByLayer
 62
  256
370
   -1
100
AcDbLine
 10
0.1820866141732284
 20
0.02952755905511811
 11
0.172244094488189
 21
0.02952755905511811
  0
LINE
  5
118
100
AcDbEntity
  8
Title_Block
  6
ByLayer
 62
  256
370
   -1
100
AcDbLine
 10
0.1820866141732284
 20
0.01476377952755905
 11
0.1919291338582677
 21
0.01476377952755905
  0
LINE
  5
119
100
AcDbEntity
  8
Title_Block
  6
ByLayer
 62
  256
370
   -1
100
AcDbLine
 10
0.1919291338582677
 20
0.02952755905511811
 11
0.1820866141732284
 21
0.02952755905511811
  0
LINE
  5
11A
100
AcDbEntity
  8
Title_Block
  6
ByLayer
 62
  256
370
   -1
100
AcDbLine
 10
0.1919291338582677
 20
0.01476377952755905
 11
0.2017716535433071
 21
0.01476377952755905
  0
LINE
  5
11B
100
AcDbEntity
  8
Title_Block
  6
ByLayer
 62
  256
370
   -1
100
AcDbLine
 10
0.2017716535433071
 20
0.02952755905511811
 11
0.1919291338582677
 21
0.02952755905511811
  0
LINE
  5
11C
100
AcDbEntity
  8
Title_Block
  6
ByLayer
 62
  256
370
   -1
100
AcDbLine
 10
0.2017716535433071
 20
0.01476377952755905
 11
0.2116141732283464
 21
0.01476377952755905
  0
LINE
  5
11D
100
AcDbEntity
  8
Title_Block
  6
ByLayer
 62
  256
370
   -1
100
AcDbLine
 10
0.2116141732283464
 20
0.02952755905511811
 11
0.2017716535433071
 21
0.02952755905511811
  0
LINE
  5
11E
100
AcDbEntity
  8
Title_Block
  6
ByLayer
 62
  256
370
   -1
100
AcDbLine
 10
0.2116141732283464
 20
0.01476377952755905
 11
0.2214566929133858
 21
0.01476377952755905
  0
LINE
  5
11F
100
AcDbEntity
  8
Title_Block
  6
ByLayer
 62
  256
370
   -1
100
AcDbLine
 10
0.2214566929133858
 20
0.02952755905511811
 11
0.2116141732283464
 21
0.02952755905511811
  0
LINE
  5
120
100
AcDbEntity
  8
Title_Block
  6
ByLayer
 62
  256
370
   -1
100
AcDbLine
 10
0.2214566929133858
 20
0.01476377952755905
 11
0.2312992125984252
 21
0.01476377952755905
  0
LINE
  5
121
100
AcDbEntity
  8
Title_Block
  6
ByLayer
 62
  256
370
   -1
100
AcDbLine
 10
0.2312992125984252
 20
0.02952755905511811
 11
0.2214566929133858
 21
0.02952755905511811
  0
LINE
  5
122
100
AcDbEntity
  8
Title_Block
  6
ByLayer
 62
  256
370
   -1
100
AcDbLine
 10
0.2312992125984252
 20
0.01476377952755905
 11
0.2411417322834646
 21
0.01476377952755905
  0
LINE
  5
123
100
AcDbEntity
  8
Title_Block
  6
ByLayer
 62
  256
370
   -1
100
AcDbLine
 10
0.2411417322834646
 20
0.02952755905511811
 11
0.2312992125984252
 21
0.02952755905511811
  0
LINE
  5
124
100
AcDbEntity
  8
Title_Block
  6
ByLayer
 62
  256
370
   -1
100
AcDbLine
 10
0.2411417322834646
 20
0.01476377952755905
 11
0.2509842519685039
 21
0.01476377952755905
  0
LINE
  5
125
100
AcDbEntity
  8
Title_Block
  6
ByLayer
 62
  256
370
   -1
100
AcDbLine
 10
0.2509842519685039
 20
0.02952755905511811
 11
0.2411417322834646
 21
0.02952755905511811
  0
LINE
  5
126
100
AcDbEntity
  8
Title_Block
  6
ByLayer
 62
  256
370
   -1
100
AcDbLine
 10
0.2509842519685039
 20
0.01476377952755905
 11
0.2608267716535433
 21
0.01476377952755905
  0
LINE
  5
127
100
AcDbEntity
  8
Title_Block
  6
ByLayer
 62
  256
370
   -1
100
AcDbLine
 10
0.2608267716535433
 20
0.02952755905511811
 11
0.2509842519685039
 21
0.02952755905511811
  0
LINE
  5
128
100
AcDbEntity
  8
Title_Block
  6
ByLayer
 62
  256
370
   -1
100
AcDbLine
 10
0.2608267716535433
 20
0.01476377952755905
 11
0.2706692913385827
 21
0.01476377952755905
  0
LINE
  5
129
100
AcDbEntity
  8
Title_Block
  6
ByLayer
 62
  256
370
   -1
100
AcDbLine
 10
0.2706692913385827
 20
0.02952755905511811
 11
0.2608267716535433
 21
0.02952755905511811
  0
LINE
  5
12A
100
AcDbEntity
  8
Title_Block
  6
ByLayer
 62
  256
370
   -1
100
AcDbLine
 10
0.2706692913385827
 20
0.01476377952755905
 11
0.280511811023622
 21
0.01476377952755905
  0
LINE
  5
12B
100
AcDbEntity
  8
Title_Block
  6
ByLayer
 62
  256
370
   -1
100
AcDbLine
 10
0.280511811023622
 20
0.02952755905511811
 11
0.2706692913385827
 21
0.02952755905511811
  0
LINE
  5
12C
100
AcDbEntity
  8
Title_Block
  6
ByLayer
 62
  256
370
   -1
100
AcDbLine
 10
0.280511811023622
 20
0.01476377952755905
 11
0.2903543307086614
 21
0.01476377952755905
  0
LINE
  5
12D
100
AcDbEntity
  8
Title_Block
  6
ByLayer
 62
  256
370
   -1
100
AcDbLine
 10
0.2903543307086614
 20
0.02952755905511811
 11
0.280511811023622
 21
0.02952755905511811
  0
LINE
  5
12E
100
AcDbEntity
  8
Title_Block
  6
ByLayer
 62
  256
370
   -1
100
AcDbLine
 10
0.2903543307086614
 20
0.01476377952755905
 11
0.3001968503937008
 21
0.01476377952755905
  0
LINE
  5
12F
100
AcDbEntity
  8
Title_Block
  6
ByLayer
 62
  256
370
   -1
100
AcDbLine
 10
0.3001968503937008
 20
0.02952755905511811
 11
0.2903543307086614
 21
0.02952755905511811
  0
LINE
  5
130
100
AcDbEntity
  8
Title_Block
  6
ByLayer
 62
  256
370
   -1
100
AcDbLine
 10
0.3001968503937008
 20
0.01476377952755905
 11
0.3100393700787402
 21
0.01476377952755905
  0
LINE
  5
131
100
AcDbEntity
  8
Title_Block
  6
ByLayer
 62
  256
370
   -1
100
AcDbLine
 10
0.3100393700787402
 20
0.02952755905511811
 11
0.3001968503937008
 21
0.02952755905511811
  0
LINE
  5
132
100
AcDbEntity
  8
Title_Block
  6
ByLayer
 62
  256
370
   -1
100
AcDbLine
 10
0.3100393700787402
 20
0.01476377952755905
 11
0.3198818897637795
 21
0.01476377952755905
  0
LINE
  5
133
100
AcDbEntity
  8
Title_Block
  6
ByLayer
 62
  256
370
   -1
100
AcDbLine
 10
0.3198818897637795
 20
0.02952755905511811
 11
0.3100393700787402
 21
0.02952755905511811
  0
LINE
  5
134
100
AcDbEntity
  8
Title_Block
  6
ByLayer
 62
  256
370
   -1
100
AcDbLine
 10
0.3198818897637795
 20
0.01476377952755905
 11
0.3297244094488189
 21
0.01476377952755905
  0
LINE
  5
135
100
AcDbEntity
  8
Title_Block
  6
ByLayer
 62
  256
370
   -1
100
AcDbLine
 10
0.3297244094488189
 20
0.02952755905511811
 11
0.3198818897637795
 21
0.02952755905511811
  0
LINE
  5
136
100
AcDbEntity
  8
Title_Block
  6
ByLayer
 62
  256
370
   -1
100
AcDbLine
 10
0.3297244094488189
 20
0.01476377952755905
 11
0.3395669291338583
 21
0.01476377952755905
  0
LINE
  5
137
100
AcDbEntity
  8
Title_Block
  6
ByLayer
 62
  256
370
   -1
100
AcDbLine
 10
0.3395669291338583
 20
0.02952755905511811
 11
0.3297244094488189
 21
0.02952755905511811
  0
LINE
  5
138
100
AcDbEntity
  8
Title_Block
  6
ByLayer
 62
  256
370
   -1
100
AcDbLine
 10
0.3395669291338583
 20
0.01476377952755905
 11
0.3494094488188976
 21
0.01476377952755905
  0
LINE
  5
139
100
AcDbEntity
  8
Title_Block
  6
ByLayer
 62
  256
370
   -1
100
AcDbLine
 10
0.3494094488188976
 20
0.01476377952755905
 11
0.3494094488188976
 21
0.02952755905511811
  0
LINE
  5
13A
100
AcDbEntity
  8
Title_Block
  6
ByLayer
 62
  256
370
   -1
100
AcDbLine
 10
0.3494094488188976
 20
0.02952755905511811
 11
0.3395669291338583
 21
0.02952755905511811
  0
LINE
  5
13B
100
AcDbEntity
  8
Title_Block
  6
ByLayer
 62
  256
370
   -1
100
AcDbLine
 10
0.3494094488188976
 20
0.01476377952755905
 11
0.359251968503937
 21
0.01476377952755905
  0
LINE
  5
13C
100
AcDbEntity
  8
Title_Block
  6
ByLayer
 62
  256
370
   -1
100
AcDbLine
 10
0.359251968503937
 20
0.01476377952755905
 11
0.359251968503937
 21
0.02952755905511811
  0
LINE
  5
13D
100
AcDbEntity
  8
Title_Block
  6
ByLayer
 62
  256
370
   -1
100
AcDbLine
 10
0.359251968503937
 20
0.02952755905511811
 11
0.3494094488188976
 21
0.02952755905511811
  0
LINE
  5
13E
100
AcDbEntity
  8
Title_Block
  6
ByLayer
 62
  256
370
   -1
100
AcDbLine
 10
0.359251968503937
 20
0.01476377952755905
 11
0.3690944881889764
 21
0.01476377952755905
  0
LINE
  5
13F
100
AcDbEntity
  8
Title_Block
  6
ByLayer
 62
  256
370
   -1
100
AcDbLine
 10
0.3690944881889764
 20
0.02952755905511811
 11
0.359251968503937
 21
0.02952755905511811
  0
LINE
  5
140
100
AcDbEntity
  8
Title_Block
  6
ByLayer
 62
  256
370
   -1
100
AcDbLine
 10
0.3690944881889764
 20
0.01476377952755905
 11
0.3789370078740157
 21
0.01476377952755905
  0
LINE
  5
141
100
AcDbEntity
  8
Title_Block
  6
ByLayer
 62
  256
370
   -1
100
AcDbLine
 10
0.3789370078740157
 20
0.02952755905511811
 11
0.3690944881889764
 21
0.02952755905511811
  0
LINE
  5
142
100
AcDbEntity
  8
Title_Block
  6
ByLayer
 62
  256
370
   -1
100
AcDbLine
 10
0.3789370078740157
 20
0.01476377952755905
 11
0.3887795275590551
 21
0.01476377952755905
  0
LINE
  5
143
100
AcDbEntity
  8
Title_Block
  6
ByLayer
 62
  256
370
   -1
100
AcDbLine
 10
0.3887795275590551
 20
0.01476377952755905
 11
0.3887795275590551
 21
0.02952755905511811
  0
LINE
  5
144
100
AcDbEntity
  8
Title_Block
  6
ByLayer
 62
  256
370
   -1
100
AcDbLine
 10
0.3887795275590551
 20
0.02952755905511811
 11
0.3789370078740157
 21
0.02952755905511811
  0
LINE
  5
145
100
AcDbEntity
  8
Title_Block
  6
ByLayer
 62
  256
370
   -1
100
AcDbLine
 10
0.3887795275590551
 20
0.01476377952755905
 11
0.3986220472440945
 21
0.01476377952755905
  0
LINE
  5
146
100
AcDbEntity
  8
Title_Block
  6
ByLayer
 62
  256
370
   -1
100
AcDbLine
 10
0.3986220472440945
 20
0.02952755905511811
 11
0.3887795275590551
 21
0.02952755905511811
  0
LINE
  5
147
100
AcDbEntity
  8
Title_Block
  6
ByLayer
 62
  256
370
   -1
100
AcDbLine
 10
0.3986220472440945
 20
0.01476377952755905
 11
0.4084645669291339
 21
0.01476377952755905
  0
LINE
  5
148
100
AcDbEntity
  8
Title_Block
  6
ByLayer
 62
  256
370
   -1
100
AcDbLine
 10
0.4084645669291339
 20
0.02952755905511811
 11
0.3986220472440945
 21
0.02952755905511811
  0
LINE
  5
149
100
AcDbEntity
  8
Title_Block
  6
ByLayer
 62
  256
370
   -1
100
AcDbLine
 10
0.4084645669291339
 20
0.01476377952755905
 11
0.4183070866141732
 21
0.01476377952755905
  0
LINE
  5
14A
100
AcDbEntity
  8
Title_Block
  6
ByLayer
 62
  256
370
   -1
100
AcDbLine
 10
0.4183070866141732
 20
0.01476377952755905
 11
0.4183070866141732
 21
0.02952755905511811
  0
LINE
  5
14B
100
AcDbEntity
  8
Title_Block
  6
ByLayer
 62
  256
370
   -1
100
AcDbLine
 10
0.4183070866141732
 20
0.02952755905511811
 11
0.4084645669291339
 21
0.02952755905511811
  0
MTEXT
  5
14C
100
AcDbEntity
  8
Title_Block
  6
ByLayer
 62
  256
370
   -1
100
AcDbMText
 10
0.02598425196850394
 20
0.01535433070866142
 30
0
 40
0.002460629921259842
 41
0.01660925470253718
 71
    7
 72
    1
  1
drawn by
  7
romans
210
0
220
0
230
1
 50
0
 73
    2
 44
1
  0
MTEXT
  5
14D
100
AcDbEntity
  8
Title_Block
  6
ByLayer
 62
  256
370
   -1
100
AcDbMText
 10
0.05551181102362204
 20
0.01614173228346457
 30
0
 40
0.002460629921259842
 41
0.007616237423447068
 71
    7
 72
    1
  1
date
  7
romans
210
0
220
0
230
1
 50
0
 73
    2
 44
1
  0
MTEXT
  5
14E
100
AcDbEntity
  8
Title_Block
  6
ByLayer
 62
  256
370
   -1
100
AcDbMText
 10
0.3901574803149607
 20
0.01614173228346457
 30
0
 40
0.002460629921259842
 41
0.008787967519685037
 71
    7
 72
    1
  1
scale
  7
romans
210
0
220
0
230
1
 50
0
 73
    2
 44
1
  0
MTEXT
  5
14F
100
AcDbEntity
  8
Title_Block
  6
ByLayer
 62
  256
370
   -1
100
AcDbMText
 10
0.3606299212598425
 20
0.01614173228346457
 30
0
 40
0.002460629921259842
 41
0.009608177493438317
 71
    7
 72
    1
  1
sheet
  7
romans
210
0
220
0
230
1
 50
0
 73
    2
 44
1
  0
MTEXT
  5
150
100
AcDbEntity
  8
Title_Block
  6
ByLayer
 62
  256
370
   -1
100
AcDbMText
 10
0.3507874015748031
 20
0.01614173228346457
 30
0
 40
0.002460629921259842
 41
0.005389952427821521
 71
    7
 72
    1
  1
rev
  7
romans
210
0
220
0
230
1
 50
0
 73
    2
 44
1
  0
MTEXT
  5
151
100
AcDbEntity
  8
Title_Block
  6
ByLayer
 62
  256
370
   -1
100
AcDbMText
 10
0.084673473254802
 20
0.02383401469394427
 30
0
 40
0.004921259842519685
 41
0.04522872922134733
 71
    5
 72
    1
  1
2022-12-21
  7
romans
210
0
220
0
230
1
 50
0
 73
    2
 44
1
  0
MTEXT
  5
152
100
AcDbEntity
  8
Title_Block
  6
ByLayer
 62
  256
370
   -1
100
AcDbMText
 10
0.036217467507117
 20
0.02405488513532398
 30
0
 40
0.004921259842519685
 41
0.01781027230971129
 71
    5
 72
    1
  1
T.A.K
  7
romans
210
0
220
0
230
1
 50
0
 73
    2
 44
1
  0
MTEXT
  5
153
100
AcDbEntity
  8
Title_Block
  6
ByLayer
 62
  256
370
   -1
100
AcDbMText
 10
0.2460629921259843
 20
0.0172978949287723
 30
0
 40
0.007874015748031496
 41
0.1785714663167104
 71
    8
 72
    1
  1
Kitchen Canned Good Cabinet
  7
romans
210
0
220
0
230
1
 50
0
 73
    2
 44
1
  0
MTEXT
  5
154
100
AcDbEntity
  8
Title_Block
  6
ByLayer
 62
  256
370
   -1
100
AcDbMText
 10
0.1145669291338583
 20
0.01614173228346457
 30
0
 40
0.002460629921259842
 41
0.006796025535870516
 71
    7
 72
    1
  1
title
  7
romans
210
0
220
0
230
1
 50
0
 73
    2
 44
1
  0
MTEXT
  5
155
100
AcDbEntity
  8
Title_Block
  6
ByLayer
 62
  256
370
   -1
100
AcDbMText
 10
0.3519685039370079
 20
0.02125984251968504
 30
0
 40
0.004921259842519685
 41
0.003749529746281715
 71
    7
 72
    1
  1
A
  7
romans
210
0
220
0
230
1
 50
0
 73
    2
 44
1
  0
ENDBLK
  5
84
330
82
100
AcDbEntity
  8
0
100
AcDbBlockEnd
  0
BLOCK
  5
86
330
85
100
AcDbEntity
  8
0
100
AcDbBlockBegin
  2
canned goods title block-0
 70
    0
 10
0
 20
0
  3
canned goods title block-0
  1

  0
LINE
  5
156
100
AcDbEntity
  8
Paper_Format
  6
ByLayer
 62
  256
370
   -1
100
AcDbLine
 10
0
 20
0
 11
11
 21
0
  0
LINE
  5
157
100
AcDbEntity
  8
Paper_Format
  6
ByLayer
 62
  256
370
   -1
100
AcDbLine
 10
11
 20
0
 11
11
 21
8.5
  0
LINE
  5
158
100
AcDbEntity
  8
Paper_Format
  6
ByLayer
 62
  256
370
   -1
100
AcDbLine
 10
11
 20
8.5
 11
0
 21
8.5
  0
LINE
  5
159
100
AcDbEntity
  8
Paper_Format
  6
ByLayer
 62
  256
370
   -1
100
AcDbLine
 10
0
 20
8.5
 11
0
 21
0
  0
LINE
  5
15A
100
AcDbEntity
  8
Drawing_Border
  6
ByLayer
 62
  256
370
   -1
100
AcDbLine
 10
10.625
 20
8.125
 11
0.625
 21
8.125
  0
LINE
  5
15B
100
AcDbEntity
  8
Drawing_Border
  6
ByLayer
 62
  256
370
   -1
100
AcDbLine
 10
10.625
 20
0.375
 11
10.625
 21
8.125
  0
LINE
  5
15C
100
AcDbEntity
  8
Drawing_Border
  6
ByLayer
 62
  256
370
   -1
100
AcDbLine
 10
0.625
 20
8.125
 11
0.625
 21
0.375
  0
LINE
  5
15D
100
AcDbEntity
  8
Drawing_Border
  6
ByLayer
 62
  256
370
   -1
100
AcDbLine
 10
0.625
 20
0.375
 11
10.625
 21
0.375
  0
LINE
  5
15E
100
AcDbEntity
  8
Drawing_Border
  6
ByLayer
 62
  256
370
   70
100
AcDbLine
 10
0.5
 20
8.25
 11
0.5
 21
0.25
  0
LINE
  5
15F
100
AcDbEntity
  8
Drawing_Border
  6
ByLayer
 62
  256
370
   70
100
AcDbLine
 10
0.5
 20
0.25
 11
10.75
 21
0.25
  0
LINE
  5
160
100
AcDbEntity
  8
Drawing_Border
  6
ByLayer
 62
  256
370
   70
100
AcDbLine
 10
10.75
 20
8.25
 11
0.5
 21
8.25
  0
LINE
  5
161
100
AcDbEntity
  8
Drawing_Border
  6
ByLayer
 62
  256
370
   70
100
AcDbLine
 10
10.75
 20
0.25
 11
10.75
 21
8.25
  0
LINE
  5
162
100
AcDbEntity
  8
Drawing_Border
  6
ByLayer
 62
  256
370
   -1
100
AcDbLine
 10
3.958333333333334
 20
8.125
 11
3.958333333333334
 21
8.25
  0
LINE
  5
163
100
AcDbEntity
  8
Drawing_Border
  6
ByLayer
 62
  256
370
   -1
100
AcDbLine
 10
7.291666666666667
 20
8.125
 11
7.291666666666667
 21
8.25
  0
LINE
  5
164
100
AcDbEntity
  8
Drawing_Border
  6
ByLayer
 62
  256
370
   -1
100
AcDbLine
 10
0.625
 20
4.25
 11
0.5
 21
4.25
  0
MTEXT
  5
165
100
AcDbEntity
  8
Drawing_Border
  6
ByLayer
 62
  256
370
   -1
100
AcDbMText
 10
2.291666666666667
 20
8.1875
 30
0
 40
0.0625
 41
0.04761902777777777
 71
    5
 72
    1
  1
A
  7
romans
210
0
220
0
230
1
 50
0
 73
    2
 44
1
  0
MTEXT
  5
166
100
AcDbEntity
  8
Drawing_Border
  6
ByLayer
 62
  256
370
   -1
100
AcDbMText
 10
5.625
 20
8.1875
 30
0
 40
0.0625
 41
0.04166666666666666
 71
    5
 72
    1
  1
B
  7
romans
210
0
220
0
230
1
 50
0
 73
    2
 44
1
  0
MTEXT
  5
167
100
AcDbEntity
  8
Drawing_Border
  6
ByLayer
 62
  256
370
   -1
100
AcDbMText
 10
8.958333333333334
 20
8.1875
 30
0
 40
0.0625
 41
0.04464284722222222
 71
    5
 72
    1
  1
C
  7
romans
210
0
220
0
230
1
 50
0
 73
    2
 44
1
  0
MTEXT
  5
168
100
AcDbEntity
  8
Drawing_Border
  6
ByLayer
 62
  256
370
   -1
100
AcDbMText
 10
0.5625
 20
6.1875
 30
0
 40
0.0625
 41
0.01488097222222222
 71
    5
 72
    1
  1
1
  7
romans
210
0
220
0
230
1
 50
0
 73
    2
 44
1
  0
MTEXT
  5
169
100
AcDbEntity
  8
Drawing_Border
  6
ByLayer
 62
  256
370
   -1
100
AcDbMText
 10
0.5625
 20
2.3125
 30
0
 40
0.0625
 41
0.04166666666666666
 71
    5
 72
    1
  1
2
  7
romans
210
0
220
0
230
1
 50
0
 73
    2
 44
1
  0
LWPOLYLINE
  5
16A
100
AcDbEntity
  8
Drawing_Border
  6
ByLayer
 62
  256
370
   -1
100
AcDbPolyline
 90
    4
 70
    1
 43
0
 10
10.625
 20
1.25
 10
10.6875
 20
1.25
 10
10.6875
 20
7.25
 10
10.625
 20
7.25
  0
LINE
  5
16B
100
AcDbEntity
  8
Title_Block
  6
ByLayer
 62
  256
370
   -1
100
AcDbLine
 10
0.625
 20
0.375
 11
0.875
 21
0.375
  0
LINE
  5
16C
100
AcDbEntity
  8
Title_Block
  6
ByLayer
 62
  256
370
   -1
100
AcDbLine
 10
0.875
 20
0.75
 11
0.625
 21
0.75
  0
LINE
  5
16D
100
AcDbEntity
  8
Title_Block
  6
ByLayer
 62
  256
370
   -1
100
AcDbLine
 10
0.625
 20
0.75
 11
0.625
 21
0.375
  0
LINE
  5
16E
100
AcDbEntity
  8
Title_Block
  6
ByLayer
 62
  256
370
   -1
100
AcDbLine
 10
0.875
 20
0.375
 11
1.125
 21
0.375
  0
LINE
  5
16F
100
AcDbEntity
  8
Title_Block
  6
ByLayer
 62
  256
370
   -1
100
AcDbLine
 10
1.125
 20
0.75
 11
0.875
 21
0.75
  0
LINE
  5
170
100
AcDbEntity
  8
Title_Block
  6
ByLayer
 62
  256
370
   -1
100
AcDbLine
 10
1.125
 20
0.375
 11
1.375
 21
0.375
  0
LINE
  5
171
100
AcDbEntity
  8
Title_Block
  6
ByLayer
 62
  256
370
   -1
100
AcDbLine
 10
1.375
 20
0.375
 11
1.375
 21
0.75
  0
LINE
  5
172
100
AcDbEntity
  8
Title_Block
  6
ByLayer
 62
  256
370
   -1
100
AcDbLine
 10
1.375
 20
0.75
 11
1.125
 21
0.75
  0
LINE
  5
173
100
AcDbEntity
  8
Title_Block
  6
ByLayer
 62
  256
370
   -1
100
AcDbLine
 10
1.375
 20
0.375
 11
1.625
 21
0.375
  0
LINE
  5
174
100
AcDbEntity
  8
Title_Block
  6
ByLayer
 62
  256
370
   -1
100
AcDbLine
 10
1.625
 20
0.75
 11
1.375
 21
0.75
  0
LINE
  5
175
100
AcDbEntity
  8
Title_Block
  6
ByLayer
 62
  256
370
   -1
100
AcDbLine
 10
1.625
 20
0.375
 11
1.875
 21
0.375
  0
LINE
  5
176
100
AcDbEntity
  8
Title_Block
  6
ByLayer
 62
  256
370
   -1
100
AcDbLine
 10
1.875
 20
0.75
 11
1.625
 21
0.75
  0
LINE
  5
177
100
AcDbEntity
  8
Title_Block
  6
ByLayer
 62
  256
370
   -1
100
AcDbLine
 10
1.875
 20
0.375
 11
2.125
 21
0.375
  0
LINE
  5
178
100
AcDbEntity
  8
Title_Block
  6
ByLayer
 62
  256
370
   -1
100
AcDbLine
 10
2.125
 20
0.75
 11
1.875
 21
0.75
  0
LINE
  5
179
100
AcDbEntity
  8
Title_Block
  6
ByLayer
 62
  256
370
   -1
100
AcDbLine
 10
2.125
 20
0.375
 11
2.375
 21
0.375
  0
LINE
  5
17A
100
AcDbEntity
  8
Title_Block
  6
ByLayer
 62
  256
370
   -1
100
AcDbLine
 10
2.375
 20
0.75
 11
2.125
 21
0.75
  0
LINE
  5
17B
100
AcDbEntity
  8
Title_Block
  6
ByLayer
 62
  256
370
   -1
100
AcDbLine
 10
2.375
 20
0.375
 11
2.625
 21
0.375
  0
LINE
  5
17C
100
AcDbEntity
  8
Title_Block
  6
ByLayer
 62
  256
370
   -1
100
AcDbLine
 10
2.625
 20
0.75
 11
2.375
 21
0.75
  0
LINE
  5
17D
100
AcDbEntity
  8
Title_Block
  6
ByLayer
 62
  256
370
   -1
100
AcDbLine
 10
2.625
 20
0.375
 11
2.875
 21
0.375
  0
LINE
  5
17E
100
AcDbEntity
  8
Title_Block
  6
ByLayer
 62
  256
370
   -1
100
AcDbLine
 10
2.875
 20
0.375
 11
2.875
 21
0.75
  0
LINE
  5
17F
100
AcDbEntity
  8
Title_Block
  6
ByLayer
 62
  256
370
   -1
100
AcDbLine
 10
2.875
 20
0.75
 11
2.625
 21
0.75
  0
LINE
  5
180
100
AcDbEntity
  8
Title_Block
  6
ByLayer
 62
  256
370
   -1
100
AcDbLine
 10
2.875
 20
0.375
 11
3.125
 21
0.375
  0
LINE
  5
181
100
AcDbEntity
  8
Title_Block
  6
ByLayer
 62
  256
370
   -1
100
AcDbLine
 10
3.125
 20
0.75
 11
2.875
 21
0.75
  0
LINE
  5
182
100
AcDbEntity
  8
Title_Block
  6
ByLayer
 62
  256
370
   -1
100
AcDbLine
 10
3.125
 20
0.375
 11
3.375
 21
0.375
  0
LINE
  5
183
100
AcDbEntity
  8
Title_Block
  6
ByLayer
 62
  256
370
   -1
100
AcDbLine
 10
3.375
 20
0.75
 11
3.125
 21
0.75
  0
LINE
  5
184
100
AcDbEntity
  8
Title_Block
  6
ByLayer
 62
  256
370
   -1
100
AcDbLine
 10
3.375
 20
0.375
 11
3.625
 21
0.375
  0
LINE
  5
185
100
AcDbEntity
  8
Title_Block
  6
ByLayer
 62
  256
370
   -1
100
AcDbLine
 10
3.625
 20
0.75
 11
3.375
 21
0.75
  0
LINE
  5
186
100
AcDbEntity
  8
Title_Block
  6
ByLayer
 62
  256
370
   -1
100
AcDbLine
 10
3.625
 20
0.375
 11
3.875
 21
0.375
  0
LINE
  5
187
100
AcDbEntity
  8
Title_Block
  6
ByLayer
 62
  256
370
   -1
100
AcDbLine
 10
3.875
 20
0.75
 11
3.625
 21
0.75
  0
LINE
  5
188
100
AcDbEntity
  8
Title_Block
  6
ByLayer
 62
  256
370
   -1
100
AcDbLine
 10
3.875
 20
0.375
 11
4.125
 21
0.375
  0
LINE
  5
189
100
AcDbEntity
  8
Title_Block
  6
ByLayer
 62
  256
370
   -1
100
AcDbLine
 10
4.125
 20
0.75
 11
3.875
 21
0.75
  0
LINE
  5
18A
100
AcDbEntity
  8
Title_Block
  6
ByLayer
 62
  256
370
   -1
100
AcDbLine
 10
4.125
 20
0.375
 11
4.375
 21
0.375
  0
LINE
  5
18B
100
AcDbEntity
  8
Title_Block
  6
ByLayer
 62
  256
370
   -1
100
AcDbLine
 10
4.375
 20
0.75
 11
4.125
 21
0.75
  0
LINE
  5
18C
100
AcDbEntity
  8
Title_Block
  6
ByLayer
 62
  256
370
   -1
100
AcDbLine
 10
4.375
 20
0.375
 11
4.625
 21
0.375
  0
LINE
  5
18D
100
AcDbEntity
  8
Title_Block
  6
ByLayer
 62
  256
370
   -1
100
AcDbLine
 10
4.625
 20
0.75
 11
4.375
 21
0.75
  0
LINE
  5
18E
100
AcDbEntity
  8
Title_Block
  6
ByLayer
 62
  256
370
   -1
100
AcDbLine
 10
4.625
 20
0.375
 11
4.875
 21
0.375
  0
LINE
  5
18F
100
AcDbEntity
  8
Title_Block
  6
ByLayer
 62
  256
370
   -1
100
AcDbLine
 10
4.875
 20
0.75
 11
4.625
 21
0.75
  0
LINE
  5
190
100
AcDbEntity
  8
Title_Block
  6
ByLayer
 62
  256
370
   -1
100
AcDbLine
 10
4.875
 20
0.375
 11
5.125
 21
0.375
  0
LINE
  5
191
100
AcDbEntity
  8
Title_Block
  6
ByLayer
 62
  256
370
   -1
100
AcDbLine
 10
5.125
 20
0.75
 11
4.875
 21
0.75
  0
LINE
  5
192
100
AcDbEntity
  8
Title_Block
  6
ByLayer
 62
  256
370
   -1
100
AcDbLine
 10
5.125
 20
0.375
 11
5.375
 21
0.375
  0
LINE
  5
193
100
AcDbEntity
  8
Title_Block
  6
ByLayer
 62
  256
370
   -1
100
AcDbLine
 10
5.375
 20
0.75
 11
5.125
 21
0.75
  0
LINE
  5
194
100
AcDbEntity
  8
Title_Block
  6
ByLayer
 62
  256
370
   -1
100
AcDbLine
 10
5.375
 20
0.375
 11
5.625
 21
0.375
  0
LINE
  5
195
100
AcDbEntity
  8
Title_Block
  6
ByLayer
 62
  256
370
   -1
100
AcDbLine
 10
5.625
 20
0.75
 11
5.375
 21
0.75
  0
LINE
  5
196
100
AcDbEntity
  8
Title_Block
  6
ByLayer
 62
  256
370
   -1
100
AcDbLine
 10
5.625
 20
0.375
 11
5.875
 21
0.375
  0
LINE
  5
197
100
AcDbEntity
  8
Title_Block
  6
ByLayer
 62
  256
370
   -1
100
AcDbLine
 10
5.875
 20
0.75
 11
5.625
 21
0.75
  0
LINE
  5
198
100
AcDbEntity
  8
Title_Block
  6
ByLayer
 62
  256
370
   -1
100
AcDbLine
 10
5.875
 20
0.375
 11
6.125
 21
0.375
  0
LINE
  5
199
100
AcDbEntity
  8
Title_Block
  6
ByLayer
 62
  256
370
   -1
100
AcDbLine
 10
6.125
 20
0.75
 11
5.875
 21
0.75
  0
LINE
  5
19A
100
AcDbEntity
  8
Title_Block
  6
ByLayer
 62
  256
370
   -1
100
AcDbLine
 10
6.125
 20
0.375
 11
6.375
 21
0.375
  0
LINE
  5
19B
100
AcDbEntity
  8
Title_Block
  6
ByLayer
 62
  256
370
   -1
100
AcDbLine
 10
6.375
 20
0.75
 11
6.125
 21
0.75
  0
LINE
  5
19C
100
AcDbEntity
  8
Title_Block
  6
ByLayer
 62
  256
370
   -1
100
AcDbLine
 10
6.375
 20
0.375
 11
6.625
 21
0.375
  0
LINE
  5
19D
100
AcDbEntity
  8
Title_Block
  6
ByLayer
 62
  256
370
   -1
100
AcDbLine
 10
6.625
 20
0.75
 11
6.375
 21
0.75
  0
LINE
  5
19E
100
AcDbEntity
  8
Title_Block
  6
ByLayer
 62
  256
370
   -1
100
AcDbLine
 10
6.625
 20
0.375
 11
6.875
 21
0.375
  0
LINE
  5
19F
100
AcDbEntity
  8
Title_Block
  6
ByLayer
 62
  256
370
   -1
100
AcDbLine
 10
6.875
 20
0.75
 11
6.625
 21
0.75
  0
LINE
  5
1A0
100
AcDbEntity
  8
Title_Block
  6
ByLayer
 62
  256
370
   -1
100
AcDbLine
 10
6.875
 20
0.375
 11
7.125
 21
0.375
  0
LINE
  5
1A1
100
AcDbEntity
  8
Title_Block
  6
ByLayer
 62
  256
370
   -1
100
AcDbLine
 10
7.125
 20
0.75
 11
6.875
 21
0.75
  0
LINE
  5
1A2
100
AcDbEntity
  8
Title_Block
  6
ByLayer
 62
  256
370
   -1
100
AcDbLine
 10
7.125
 20
0.375
 11
7.375
 21
0.375
  0
LINE
  5
1A3
100
AcDbEntity
  8
Title_Block
  6
ByLayer
 62
  256
370
   -1
100
AcDbLine
 10
7.375
 20
0.75
 11
7.125
 21
0.75
  0
LINE
  5
1A4
100
AcDbEntity
  8
Title_Block
  6
ByLayer
 62
  256
370
   -1
100
AcDbLine
 10
7.375
 20
0.375
 11
7.625
 21
0.375
  0
LINE
  5
1A5
100
AcDbEntity
  8
Title_Block
  6
ByLayer
 62
  256
370
   -1
100
AcDbLine
 10
7.625
 20
0.75
 11
7.375
 21
0.75
  0
LINE
  5
1A6
100
AcDbEntity
  8
Title_Block
  6
ByLayer
 62
  256
370
   -1
100
AcDbLine
 10
7.625
 20
0.375
 11
7.875
 21
0.375
  0
LINE
  5
1A7
100
AcDbEntity
  8
Title_Block
  6
ByLayer
 62
  256
370
   -1
100
AcDbLine
 10
7.875
 20
0.75
 11
7.625
 21
0.75
  0
LINE
  5
1A8
100
AcDbEntity
  8
Title_Block
  6
ByLayer
 62
  256
370
   -1
100
AcDbLine
 10
7.875
 20
0.375
 11
8.125
 21
0.375
  0
LINE
  5
1A9
100
AcDbEntity
  8
Title_Block
  6
ByLayer
 62
  256
370
   -1
100
AcDbLine
 10
8.125
 20
0.75
 11
7.875
 21
0.75
  0
LINE
  5
1AA
100
AcDbEntity
  8
Title_Block
  6
ByLayer
 62
  256
370
   -1
100
AcDbLine
 10
8.125
 20
0.375
 11
8.375
 21
0.375
  0
LINE
  5
1AB
100
AcDbEntity
  8
Title_Block
  6
ByLayer
 62
  256
370
   -1
100
AcDbLine
 10
8.375
 20
0.75
 11
8.125
 21
0.75
  0
LINE
  5
1AC
100
AcDbEntity
  8
Title_Block
  6
ByLayer
 62
  256
370
   -1
100
AcDbLine
 10
8.375
 20
0.375
 11
8.625
 21
0.375
  0
LINE
  5
1AD
100
AcDbEntity
  8
Title_Block
  6
ByLayer
 62
  256
370
   -1
100
AcDbLine
 10
8.625
 20
0.75
 11
8.375
 21
0.75
  0
LINE
  5
1AE
100
AcDbEntity
  8
Title_Block
  6
ByLayer
 62
  256
370
   -1
100
AcDbLine
 10
8.625
 20
0.375
 11
8.875
 21
0.375
  0
LINE
  5
1AF
100
AcDbEntity
  8
Title_Block
  6
ByLayer
 62
  256
370
   -1
100
AcDbLine
 10
8.875
 20
0.375
 11
8.875
 21
0.75
  0
LINE
  5
1B0
100
AcDbEntity
  8
Title_Block
  6
ByLayer
 62
  256
370
   -1
100
AcDbLine
 10
8.875
 20
0.75
 11
8.625
 21
0.75
  0
LINE
  5
1B1
100
AcDbEntity
  8
Title_Block
  6
ByLayer
 62
  256
370
   -1
100
AcDbLine
 10
8.875
 20
0.375
 11
9.125
 21
0.375
  0
LINE
  5
1B2
100
AcDbEntity
  8
Title_Block
  6
ByLayer
 62
  256
370
   -1
100
AcDbLine
 10
9.125
 20
0.375
 11
9.125
 21
0.75
  0
LINE
  5
1B3
100
AcDbEntity
  8
Title_Block
  6
ByLayer
 62
  256
370
   -1
100
AcDbLine
 10
9.125
 20
0.75
 11
8.875
 21
0.75
  0
LINE
  5
1B4
100
AcDbEntity
  8
Title_Block
  6
ByLayer
 62
  256
370
   -1
100
AcDbLine
 10
9.125
 20
0.375
 11
9.375
 21
0.375
  0
LINE
  5
1B5
100
AcDbEntity
  8
Title_Block
  6
ByLayer
 62
  256
370
   -1
100
AcDbLine
 10
9.375
 20
0.75
 11
9.125
 21
0.75
  0
LINE
  5
1B6
100
AcDbEntity
  8
Title_Block
  6
ByLayer
 62
  256
370
   -1
100
AcDbLine
 10
9.375
 20
0.375
 11
9.625
 21
0.375
  0
LINE
  5
1B7
100
AcDbEntity
  8
Title_Block
  6
ByLayer
 62
  256
370
   -1
100
AcDbLine
 10
9.625
 20
0.75
 11
9.375
 21
0.75
  0
LINE
  5
1B8
100
AcDbEntity
  8
Title_Block
  6
ByLayer
 62
  256
370
   -1
100
AcDbLine
 10
9.625
 20
0.375
 11
9.875
 21
0.375
  0
LINE
  5
1B9
100
AcDbEntity
  8
Title_Block
  6
ByLayer
 62
  256
370
   -1
100
AcDbLine
 10
9.875
 20
0.375
 11
9.875
 21
0.75
  0
LINE
  5
1BA
100
AcDbEntity
  8
Title_Block
  6
ByLayer
 62
  256
370
   -1
100
AcDbLine
 10
9.875
 20
0.75
 11
9.625
 21
0.75
  0
LINE
  5
1BB
100
AcDbEntity
  8
Title_Block
  6
ByLayer
 62
  256
370
   -1
100
AcDbLine
 10
9.875
 20
0.375
 11
10.125
 21
0.375
  0
LINE
  5
1BC
100
AcDbEntity
  8
Title_Block
  6
ByLayer
 62
  256
370
   -1
100
AcDbLine
 10
10.125
 20
0.75
 11
9.875
 21
0.75
  0
LINE
  5
1BD
100
AcDbEntity
  8
Title_Block
  6
ByLayer
 62
  256
370
   -1
100
AcDbLine
 10
10.125
 20
0.375
 11
10.375
 21
0.375
  0
LINE
  5
1BE
100
AcDbEntity
  8
Title_Block
  6
ByLayer
 62
  256
370
   -1
100
AcDbLine
 10
10.375
 20
0.75
 11
10.125
 21
0.75
  0
LINE
  5
1BF
100
AcDbEntity
  8
Title_Block
  6
ByLayer
 62
  256
370
   -1
100
AcDbLine
 10
10.375
 20
0.375
 11
10.625
 21
0.375
  0
LINE
  5
1C0
100
AcDbEntity
  8
Title_Block
  6
ByLayer
 62
  256
370
   -1
100
AcDbLine
 10
10.625
 20
0.375
 11
10.625
 21
0.75
  0
LINE
  5
1C1
100
AcDbEntity
  8
Title_Block
  6
ByLayer
 62
  256
370
   -1
100
AcDbLine
 10
10.625
 20
0.75
 11
10.375
 21
0.75
  0
MTEXT
  5
1C2
100
AcDbEntity
  8
Title_Block
  6
ByLayer
 62
  256
370
   -1
100
AcDbMText
 10
0.66
 20
0.39
 30
0
 40
0.0625
 41
0.4218750694444444
 71
    7
 72
    1
  1
drawn by
  7
romans
210
0
220
0
230
1
 50
0
 73
    2
 44
1
  0
MTEXT
  5
1C3
100
AcDbEntity
  8
Title_Block
  6
ByLayer
 62
  256
370
   -1
100
AcDbMText
 10
1.41
 20
0.41
 30
0
 40
0.0625
 41
0.1934524305555555
 71
    7
 72
    1
  1
date
  7
romans
210
0
220
0
230
1
 50
0
 73
    2
 44
1
  0
MTEXT
  5
1C4
100
AcDbEntity
  8
Title_Block
  6
ByLayer
 62
  256
370
   -1
100
AcDbMText
 10
9.910000000000002
 20
0.41
 30
0
 40
0.0625
 41
0.223214375
 71
    7
 72
    1
  1
scale
  7
romans
210
0
220
0
230
1
 50
0
 73
    2
 44
1
  0
MTEXT
  5
1C5
100
AcDbEntity
  8
Title_Block
  6
ByLayer
 62
  256
370
   -1
100
AcDbMText
 10
9.16
 20
0.41
 30
0
 40
0.0625
 41
0.2440477083333333
 71
    7
 72
    1
  1
sheet
  7
romans
210
0
220
0
230
1
 50
0
 73
    2
 44
1
  0
MTEXT
  5
1C6
100
AcDbEntity
  8
Title_Block
  6
ByLayer
 62
  256
370
   -1
100
AcDbMText
 10
8.91
 20
0.41
 30
0
 40
0.0625
 41
0.1369047916666667
 71
    7
 72
    1
  1
rev
  7
romans
210
0
220
0
230
1
 50
0
 73
    2
 44
1
  0
MTEXT
  5
1C7
100
AcDbEntity
  8
Title_Block
  6
ByLayer
 62
  256
370
   -1
100
AcDbMText
 10
0.9199236746807717
 20
0.610994082437229
 30
0
 40
0.125
 41
0.4523809166666667
 71
    5
 72
    1
  1
T.A.K
  7
romans
210
0
220
0
230
1
 50
0
 73
    2
 44
1
  0
MTEXT
  5
1C8
100
AcDbEntity
  8
Title_Block
  6
ByLayer
 62
  256
370
   -1
100
AcDbMText
 10
6.25
 20
0.4393665311908164
 30
0
 40
0.2
 41
4.535715244444446
 71
    8
 72
    1
  1
Kitchen Canned Good Cabinet
  7
romans
210
0
220
0
230
1
 50
0
 73
    2
 44
1
  0
MTEXT
  5
1C9
100
AcDbEntity
  8
Title_Block
  6
ByLayer
 62
  256
370
   -1
100
AcDbMText
 10
2.910000000000001
 20
0.41
 30
0
 40
0.0625
 41
0.1726190486111111
 71
    7
 72
    1
  1
title
  7
romans
210
0
220
0
230
1
 50
0
 73
    2
 44
1
  0
ENDBLK
  5
87
330
85
100
AcDbEntity
  8
0
100
AcDbBlockEnd
  0
ENDSEC
  0
SECTION
  2
ENTITIES
  0
LINE
  5
1CA
100
AcDbEntity
  8
const2
  6
ByLayer
 62
  256
370
   -1
100
AcDbLine
 10
62.2375
 20
37.85860051990667
 11
44.75
 21
37.85860051990667
  0
LINE
  5
1CB
100
AcDbEntity
  8
const2
  6
ByLayer
 62
  256
370
   -1
100
AcDbLine
 10
62.2375
 20
7.858600519906666
 11
44.75
 21
7.858600519906666
  0
LINE
  5
1CC
100
AcDbEntity
  8
const2
  6
ByLayer
 62
  256
370
   -1
100
AcDbLine
 10
45.56000000000001
 20
31.79360051990667
 11
37.04115826538237
 21
31.79360051990667
  0
LINE
  5
1CD
100
AcDbEntity
  8
const2
  6
ByLayer
 62
  256
370
   -1
100
AcDbLine
 10
45.56000000000001
 20
33.17360051990666
 11
39.5919619834811
 21
33.17360051990666
  0
LINE
  5
1CE
100
AcDbEntity
  8
const2
  6
ByLayer
 62
  256
370
   -1
100
AcDbLine
 10
45.56000000000001
 20
12.54360051990667
 11
40.64221503758404
 21
12.54360051990667
  0
LINE
  5
1CF
100
AcDbEntity
  8
const2
  6
ByLayer
 62
  256
370
   -1
100
AcDbLine
 10
45.56000000000001
 20
13.92360051990666
 11
37.11913814458959
 21
13.92360051990666
  0
INSERT
  5
1D0
100
AcDbEntity
  8
dimension
  6
ByLayer
 62
  256
370
   -1
100
AcDbBlockReference
  2
canned goods title block-0
 10
0
 20
0
 30
0
 41
6
 42
6
 43
0
 50
0
 70
    1
 71
    1
 44
0
 45
0
  0
LINE
  5
1D1
100
AcDbEntity
  8
doors
  6
ByLayer
 62
  256
370
   -1
100
AcDbLine
 10
25.1604234485157
 20
11.18521611794591
 11
25.1604234485157
 21
41.18521611794591
  0
LINE
  5
1D2
100
AcDbEntity
  8
doors
  6
ByLayer
 62
  256
370
   -1
100
AcDbLine
 10
27.4104234485157
 20
11.18521611794591
 11
27.4104234485157
 21
41.18521611794591
  0
LINE
  5
1D3
100
AcDbEntity
  8
doors
  6
ByLayer
 62
  256
370
   -1
100
AcDbLine
 10
10.90518318172515
 20
11.18521611794591
 11
10.90518318172515
 21
41.18521611794591
  0
LINE
  5
1D4
100
AcDbEntity
  8
doors
  6
ByLayer
 62
  256
370
   -1
100
AcDbLine
 10
10.90518318172515
 20
11.18521611794591
 11
11.65518318172515
 21
11.18521611794591
  0
LINE
  5
1D5
100
AcDbEntity
  8
doors
  6
ByLayer
 62
  256
370
   -1
100
AcDbLine
 10
10.90518318172515
 20
41.18521611794591
 11
11.65518318172515
 21
41.18521611794591
  0
LINE
  5
1D6
100
AcDbEntity
  8
doors
  6
ByLayer
 62
  256
370
   -1
100
AcDbLine
 10
11.65518318172515
 20
36.5002161179459
 11
11.15518318172515
 21
36.5002161179459
  0
LINE
  5
1D7
100
AcDbEntity
  8
doors
  6
ByLayer
 62
  256
370
   -1
100
AcDbLine
 10
11.65518318172515
 20
35.12021611794591
 11
11.15518318172515
 21
35.12021611794591
  0
LINE
  5
1D8
100
AcDbEntity
  8
doors
  6
ByLayer
 62
  256
370
   -1
100
AcDbLine
 10
11.15518318172515
 20
36.5002161179459
 11
11.15518318172515
 21
35.12021611794591
  0
LINE
  5
1D9
100
AcDbEntity
  8
doors
  6
ByLayer
 62
  256
370
   -1
100
AcDbLine
 10
11.65518318172515
 20
36.5002161179459
 11
11.65518318172515
 21
41.18521611794591
  0
LINE
  5
1DA
100
AcDbEntity
  8
doors
  6
ByLayer
 62
  256
370
   -1
100
AcDbLine
 10
11.65518318172515
 20
17.2502161179459
 11
11.15518318172515
 21
17.2502161179459
  0
LINE
  5
1DB
100
AcDbEntity
  8
doors
  6
ByLayer
 62
  256
370
   -1
100
AcDbLine
 10
11.65518318172515
 20
15.87021611794591
 11
11.15518318172515
 21
15.87021611794591
  0
LINE
  5
1DC
100
AcDbEntity
  8
doors
  6
ByLayer
 62
  256
370
   -1
100
AcDbLine
 10
11.15518318172515
 20
17.2502161179459
 11
11.15518318172515
 21
15.87021611794591
  0
LINE
  5
1DD
100
AcDbEntity
  8
doors
  6
ByLayer
 62
  256
370
   -1
100
AcDbLine
 10
11.65518318172515
 20
17.2502161179459
 11
11.65518318172515
 21
35.12021611794591
  0
DIMENSION
  5
1DE
100
AcDbEntity
  8
dimension
  6
ByLayer
 62
  256
370
   -1
100
AcDbDimension
  2
*D1
 10
47.00919056237168
 20
11.18521611794591
 30
0
 11
45.88419056237168
 21
26.18521611794591
 31
0
 70
   32
 71
    5
 72
    0
  3
Standard
 53
0
210
0
220
0
230
1
100
AcDbAlignedDimension
 13
42.6479234485157
 23
41.18521611794591
 33
0
 14
42.6479234485157
 24
11.18521611794591
 34
0
 50
90
100
AcDbRotatedDimension
  0
DIMENSION
  5
1DF
100
AcDbEntity
  8
dimension
  6
ByLayer
 62
  256
370
   -1
100
AcDbDimension
  2
*D2
 10
22.99943440793858
 20
11.18521611794591
 30
0
 11
21.87443440793858
 21
12.31021611794591
 31
0
 70
   32
 71
    5
 72
    0
  3
Standard
 53
0
210
0
220
0
230
1
100
AcDbAlignedDimension
 13
27.4104234485157
 23
13.43521611794591
 33
0
 14
27.4104234485157
 24
11.18521611794591
 34
0
 50
90
100
AcDbRotatedDimension
  0
DIMENSION
  5
1E0
100
AcDbEntity
  8
dimension
  6
ByLayer
 62
  256
370
   -1
100
AcDbDimension
  2
*D3
 10
25.28049781009463
 20
16.57034594762224
 30
0
 11
25.98693947516191
 21
17.68509487624114
 31
0
 70
   35
  1
35mm
 71
    5
 72
    0
  3
Standard
 53
0
210
0
220
0
230
1
100
AcDbDiametricDimension
 15
26.66034908693679
 25
16.55008628826957
 35
0
 40
0
  0
LINE
  5
1E1
100
AcDbEntity
  8
doors
  6
ByLayer
 62
  256
370
   -1
100
AcDbLine
 10
11.65518318172515
 20
11.18521611794591
 11
11.65518318172515
 21
15.87021611794591
  0
DIMENSION
  5
1E2
100
AcDbEntity
  8
dimension
  6
ByLayer
 62
  256
370
   -1
100
AcDbDimension
  2
*D4
 10
11.15518318172515
 20
15.26796061860591
 30
0
 11
11.40518318172515
 21
16.39296061860591
 31
0
 70
   32
 71
    5
 72
    0
  3
Standard
 53
0
210
0
220
0
230
1
100
AcDbAlignedDimension
 13
11.65518318172515
 23
15.87021611794591
 33
0
 14
11.15518318172515
 24
15.87021611794591
 34
0
100
AcDbRotatedDimension
  0
DIMENSION
  5
1E3
100
AcDbEntity
  8
dimension
  6
ByLayer
 62
  256
370
   -1
100
AcDbDimension
  2
*D5
 10
10.90518318172515
 20
8.487490795973947
 30
0
 11
11.28018318172515
 21
9.612490795973947
 31
0
 70
   32
 71
    5
 72
    0
  3
Standard
 53
0
210
0
220
0
230
1
100
AcDbAlignedDimension
 13
11.65518318172515
 23
11.18521611794591
 33
0
 14
10.90518318172515
 24
11.18521611794591
 34
0
100
AcDbRotatedDimension
  0
LINE
  5
1E4
100
AcDbEntity
  8
0
  6
ByLayer
 62
  256
370
   -1
100
AcDbLine
 10
25.97768484569925
 20
16.68521531226728
 11
25.97768484569925
 21
16.43521531226728
  0
LINE
  5
1E5
100
AcDbEntity
  8
0
  6
ByLayer
 62
  256
370
   -1
100
AcDbLine
 10
25.85268484569925
 20
16.56021531226728
 11
26.10268484569925
 21
16.56021531226728
  0
CIRCLE
  5
1E6
100
AcDbEntity
  8
const
  6
ByLayer
 62
  256
370
   -1
100
AcDbCircle
 10
25.97768484569925
 20
16.56021531226728
 40
0.6899999999999999
  0
LINE
  5
1E7
100
AcDbEntity
  8
0
  6
ByLayer
 62
  256
370
   -1
100
AcDbLine
 10
25.97768484569925
 20
35.68504564942616
 11
25.97768484569925
 21
35.93504564942616
  0
LINE
  5
1E8
100
AcDbEntity
  8
0
  6
ByLayer
 62
  256
370
   -1
100
AcDbLine
 10
25.85268484569925
 20
35.81004564942616
 11
26.10268484569925
 21
35.81004564942616
  0
CIRCLE
  5
1E9
100
AcDbEntity
  8
const
  6
ByLayer
 62
  256
370
   -1
100
AcDbCircle
 10
25.97768484569925
 20
35.81004564942616
 40
0.6899999999999999
  0
DIMENSION
  5
1EA
100
AcDbEntity
  8
dimension
  6
ByBlock
 62
  256
370
   -1
100
AcDbDimension
  2
*D6
 10
23.4595872466838
 20
41.18521611794591
 30
0
 11
22.3345872466838
 21
38.49763088368604
 31
0
 70
   32
 71
    5
 72
    0
  3
Standard
 53
0
210
0
220
0
230
1
100
AcDbAlignedDimension
 13
25.97768484569925
 23
35.81004564942616
 33
0
 14
25.1604234485157
 24
41.18521611794591
 34
0
 50
90
100
AcDbRotatedDimension
  0
DIMENSION
  5
1EB
100
AcDbEntity
  8
dimension
  6
ByBlock
 62
  256
370
   -1
100
AcDbDimension
  2
*D7
 10
25.1604234485157
 20
32.82240744055065
 30
0
 11
25.56905414710748
 21
33.94740744055065
 31
0
 70
   32
 71
    5
 72
    0
  3
Standard
 53
0
210
0
220
0
230
1
100
AcDbAlignedDimension
 13
25.97768484569925
 23
35.81004564942616
 33
0
 14
25.1604234485157
 24
35.81004564942616
 34
0
100
AcDbRotatedDimension
  0
MTEXT
  5
1EC
100
AcDbEntity
  8
dimension
  6
ByBlock
 62
  256
370
   -1
100
AcDbMText
 10
27.95614333956951
 20
31.92903003508205
 30
0
 40
0.75
 41
5.142856916666666
 71
    7
 72
    1
  1
20.75mm
  7
romans
210
0
220
0
230
1
 50
0
 73
    2
 44
1
  0
LINE
  5
1ED
100
AcDbEntity
  8
doors
  6
ByLayer
 62
  256
370
   -1
100
AcDbLine
 10
42.7729234485157
 20
11.18521611794591
 11
25.1604234485157
 21
11.18521611794591
  0
LINE
  5
1EE
100
AcDbEntity
  8
doors
  6
DASHED2
 62
  256
370
   -1
100
AcDbLine
 10
27.03537368946705
 20
11.18521663785258
 11
27.03537368946705
 21
13.43521663785258
  0
LINE
  5
1EF
100
AcDbEntity
  8
doors
  6
DASHED2
 62
  256
370
   -1
100
AcDbLine
 10
27.03537368946705
 20
13.43521663785258
 11
27.41037368946705
 21
13.43521663785258
  0
LINE
  5
1F0
100
AcDbEntity
  8
doors
  6
ByLayer
 62
  256
370
   -1
100
AcDbLine
 10
42.66042344851572
 20
41.18521611794591
 11
42.66042344851572
 21
11.18521611794591
  0
LINE
  5
1F1
100
AcDbEntity
  8
doors
  6
ByLayer
 62
  256
370
   -1
100
AcDbLine
 10
40.41042344851571
 20
41.18521611794591
 11
40.41042344851572
 21
11.18521611794591
  0
LINE
  5
1F2
100
AcDbEntity
  8
doors
  6
ByLayer
 62
  256
370
   -1
100
AcDbLine
 10
40.41042344851571
 20
41.18521611794591
 11
42.66042344851572
 21
41.18521611794591
  0
LINE
  5
1F3
100
AcDbEntity
  8
doors
  6
ByLayer
 62
  256
370
   -1
100
AcDbLine
 10
27.4104234485157
 20
41.18521611794591
 11
25.1604234485157
 21
41.18521611794591
  0
LWPOLYLINE
  5
1F4
100
AcDbEntity
  8
doors
  6
DASHEDTINY
 62
  256
370
   -1
100
AcDbPolyline
 90
    5
 70
    1
 43
0
 10
27.4104234485157
 20
41.18521611794591
 10
27.0354234485157
 20
41.18521611794591
 10
27.0354234485157
 20
38.93521611794591
 10
27.4104234485157
 20
38.93521611794591
 10
27.4104234485157
 20
38.93521611794591
  0
LWPOLYLINE
  5
1F5
100
AcDbEntity
  8
doors
  6
DASHEDTINY
 62
  256
370
   -1
100
AcDbPolyline
 90
    5
 70
    1
 43
0
 10
40.41042344851571
 20
41.18521611794591
 10
40.78542344851571
 20
41.18521611794591
 10
40.78542344851571
 20
38.93521611794591
 10
40.41042344851571
 20
38.93521611794591
 10
40.41042344851571
 20
38.93521611794591
  0
LINE
  5
1F6
100
AcDbEntity
  8
doors
  6
ByLayer
 62
  256
370
   -1
100
AcDbLine
 10
27.4104234485157
 20
41.18521611794591
 11
40.41042344851571
 21
41.18521611794591
  0
LINE
  5
1F7
100
AcDbEntity
  8
doors
  6
ByLayer
 62
  256
370
   -1
100
AcDbLine
 10
40.41042344851571
 20
41.18521611794591
 11
40.41042344851571
 21
38.93521611794591
  0
LINE
  5
1F8
100
AcDbEntity
  8
doors
  6
ByLayer
 62
  256
370
   -1
100
AcDbLine
 10
40.41042344851571
 20
38.93521611794591
 11
27.4104234485157
 21
38.93521611794591
  0
LINE
  5
1F9
100
AcDbEntity
  8
doors
  6
ByLayer
 62
  256
370
   -1
100
AcDbLine
 10
27.4104234485157
 20
38.93521611794591
 11
27.4104234485157
 21
41.18521611794591
  0
LINE
  5
1FA
100
AcDbEntity
  8
doors
  6
ByLayer
 62
  256
370
   -1
100
AcDbLine
 10
40.41042344851571
 20
13.43521611794591
 11
27.4104234485157
 21
13.43521611794591
  0
DIMENSION
  5
1FB
100
AcDbEntity
  8
dimension
  6
ByLayer
 62
  256
370
   -1
100
AcDbDimension
  2
*D8
 10
42.66042344851572
 20
9.354197561023874
 30
0
 11
41.53542344851572
 21
10.47919756102387
 31
0
 70
   32
 71
    5
  3
Standard
 53
0
210
0
220
0
230
1
100
AcDbAlignedDimension
 13
40.41042344851572
 23
11.18521611794591
 33
0
 14
42.66042344851572
 24
11.18521611794591
 34
0
100
AcDbRotatedDimension
  0
DIMENSION
  5
1FC
100
AcDbEntity
  8
dimension
  6
ByLayer
 62
  256
370
   -1
100
AcDbDimension
  2
*D9
 10
40.41042344851571
 20
41.95119363729016
 30
0
 11
33.91042344851571
 21
43.07619363729016
 31
0
 70
   32
 71
    5
  3
Standard
 53
0
210
0
220
0
230
1
100
AcDbAlignedDimension
 13
27.4104234485157
 23
41.18521611794591
 33
0
 14
40.41042344851571
 24
41.18521611794591
 34
0
100
AcDbRotatedDimension
  0
DIMENSION
  5
1FD
100
AcDbEntity
  8
dimension
  6
ByLayer
 62
  256
370
   -1
100
AcDbDimension
  2
*D10
 10
40.78542344851571
 20
44.17099697287929
 30
0
 11
33.9104234485157
 21
45.29599697287929
 31
0
 70
   32
 71
    5
  3
Standard
 53
0
210
0
220
0
230
1
100
AcDbAlignedDimension
 13
27.0354234485157
 23
41.18521611794591
 33
0
 14
40.78542344851571
 24
41.18521611794591
 34
0
100
AcDbRotatedDimension
  0
DIMENSION
  5
1FE
100
AcDbEntity
  8
dimension
  6
ByLayer
 62
  256
370
   -1
100
AcDbDimension
  2
*D11
 10
42.66042344851572
 20
46.15402128600559
 30
0
 11
33.91042344851571
 21
47.27902128600559
 31
0
 70
   32
 71
    5
  3
Standard
 53
0
210
0
220
0
230
1
100
AcDbAlignedDimension
 13
25.1604234485157
 23
41.18521611794591
 33
0
 14
42.66042344851572
 24
41.18521611794591
 34
0
100
AcDbRotatedDimension
  0
DIMENSION
  5
1FF
100
AcDbEntity
  8
dimension
  6
ByLayer
 62
  256
370
   -1
100
AcDbDimension
  2
*D12
 10
40.41042344851571
 20
37.57718905342302
 30
0
 11
40.59792344851571
 21
38.70218905342302
 31
0
 70
   32
 71
    5
  3
Standard
 53
0
210
0
220
0
230
1
100
AcDbAlignedDimension
 13
40.78542344851571
 23
38.93521611794591
 33
0
 14
40.41042344851571
 24
38.93521611794591
 34
0
100
AcDbRotatedDimension
  0
DIMENSION
  5
200
100
AcDbEntity
  8
dimension
  6
ByLayer
 62
  256
370
   -1
100
AcDbDimension
  2
*D13
 10
34.7978803469517
 20
13.43521663785262
 30
0
 11
33.6728803469517
 21
26.18521637789927
 31
0
 70
   32
 71
    5
  3
Standard
 53
0
210
0
220
0
230
1
100
AcDbAlignedDimension
 13
40.41042344851571
 23
38.93521611794591
 33
0
 14
40.52297320756434
 24
13.43521663785262
 34
0
 50
90
100
AcDbRotatedDimension
  0
DIMENSION
  5
201
100
AcDbEntity
  8
dimension
  6
ByLayer
 62
  256
370
   -1
100
AcDbDimension
  2
*D14
 10
31.79308488899019
 20
11.1852161179459
 30
0
 11
30.66808488899019
 21
13.87271571510659
 31
0
 70
   32
 71
    5
  3
Standard
 53
0
210
0
220
0
230
1
100
AcDbAlignedDimension
 13
25.97768484569925
 23
16.56021531226728
 33
0
 14
25.1604234485157
 24
11.18521611794591
 34
0
 50
90
100
AcDbRotatedDimension
  0
MTEXT
  5
202
100
AcDbEntity
  8
Title_Block
  6
ByLayer
 62
  256
370
   -1
100
AcDbMText
 10
8.715924608990703
 20
3.331569638185635
 30
0
 40
0.8
 41
7.69523911111111
 71
    7
 72
    1
  1
01-03-2023
  7
romans
210
0
220
0
230
1
 50
0
 73
    2
 44
1
  0
MTEXT
  5
203
100
AcDbEntity
  8
Title_Block
  6
ByLayer
 62
  256
370
   -1
100
AcDbMText
 10
53.70219034090223
 20
3.279920495857334
 30
0
 40
0.8
 41
0.5333333333333333
 71
    7
 72
    1
  1
B
  7
romans
210
0
220
0
230
1
 50
0
 73
    2
 44
1
  0
MTEXT
  5
204
100
AcDbEntity
  8
Title_Block
  6
ByLayer
 62
  256
370
   -1
100
AcDbMText
 10
55.133901668459
 20
3.279920495857334
 30
0
 40
0.8
 41
3.866666666666667
 71
    7
 72
    1
  1
2 of 3
  7
romans
210
0
220
0
230
1
 50
0
 73
    2
 44
1
  0
MTEXT
  5
205
100
AcDbEntity
  8
Title_Block
  6
ByLayer
 62
  256
370
   -1
100
AcDbMText
 10
59.55919122636175
 20
3.253889380810848
 30
0
 40
0.8
 41
4.000000533333333
 71
    7
 72
    1
  1
1:6.786
  7
romans
210
0
220
0
230
1
 50
0
 73
    2
 44
1
  0
MTEXT
  5
206
100
AcDbEntity
  8
dimension
  6
ByLayer
 62
  256
370
   -1
100
AcDbMText
 10
41.95602999006371
 20
25.42107983312171
 30
0
 40
0.8
 41
2.323810044444445
 71
    7
 72
    1
  1
stile
  7
romans
210
0
220
0
230
1
 50
90
 73
    2
 44
1
  0
MTEXT
  5
207
100
AcDbEntity
  8
dimension
  6
ByLayer
 62
  256
370
   -1
100
AcDbMText
 10
33.23862429507729
 20
39.70637690748657
 30
0
 40
0.8
 41
1.638095377777778
 71
    7
 72
    1
  1
rail
  7
romans
210
0
220
0
230
1
 50
0
 73
    2
 44
1
  0
LINE
  5
208
100
AcDbEntity
  8
doors
  6
DASHED2
 62
  256
370
   -1
100
AcDbLine
 10
40.78542344851573
 20
11.18521611794591
 11
40.78542344851571
 21
13.43521611794591
  0
LINE
  5
209
100
AcDbEntity
  8
doors
  6
DASHED2
 62
  256
370
   -1
100
AcDbLine
 10
40.78542344851571
 20
13.43521611794591
 11
40.41042344851571
 21
13.43521611794591
  0
LWPOLYLINE
  5
20A
100
AcDbEntity
  8
doors
  6
ByLayer
 62
  256
370
   -1
100
AcDbPolyline
 90
    4
 70
    1
 43
0
 10
40.41042344851571
 20
13.06021611794591
 10
40.78542344851571
 20
13.06021611794591
 10
40.78542344851571
 20
13.43521611794591
 10
40.41042344851571
 20
13.43521611794591
  0
LWPOLYLINE
  5
20B
100
AcDbEntity
  8
doors
  6
ByLayer
 62
  256
370
   -1
100
AcDbPolyline
 90
    5
 70
    1
 43
0
 10
27.0354234485157
 20
38.93521611794591
 10
27.4104234485157
 20
38.93521611794591
 10
27.4104234485157
 20
39.31021611794591
 10
27.0354234485157
 20
39.31021611794591
 10
27.0354234485157
 20
39.31021611794591
  0
LWPOLYLINE
  5
20C
100
AcDbEntity
  8
doors
  6
DASHEDTINY
 62
  256
370
   -1
100
AcDbPolyline
 90
    6
 70
    1
 43
0
 10
27.0354234485157
 20
39.31021611794591
 10
40.78542344851571
 20
39.31021611794591
 10
40.78542344851571
 20
13.06021611794591
 10
27.0354234485157
 20
13.06021611794591
 10
27.0354234485157
 20
13.06021611794591
 10
27.0354234485157
 20
13.06021611794591
  0
DIMENSION
  5
20D
100
AcDbEntity
  8
dimension
  6
CONTINUOUS
 62
  256
370
   -1
100
AcDbDimension
  2
*D15
 10
44.69852582170792
 20
13.06021611794591
 30
0
 11
43.57352582170792
 21
26.18521611794591
 31
0
 70
   32
 71
    5
  3
Standard
 53
0
210
0
220
0
230
1
100
AcDbAlignedDimension
 13
40.78542344851571
 23
39.31021611794591
 33
0
 14
40.78542344851571
 24
13.06021611794591
 34
0
 50
90
100
AcDbRotatedDimension
  0
ENDSEC
  0
SECTION
  2
OBJECTS
  0
DICTIONARY
  5
C
330
0
100
AcDbDictionary
281
    1
  3
ACAD_GROUP
350
D
  0
DICTIONARY
  5
D
330
C
100
AcDbDictionary
281
    1
  0
ENDSEC
  0
EOF
