999
dxfrw 0.6.3
  0
SECTION
  2
HEADER
  9
$ACADVER
  1
AC1021
  9
$DWGCODEPAGE
  3
ANSI_1252
  9
$INSBASE
 10
0
 20
0
 30
0
  9
$EXTMIN
 10
-2.25
 20
-2.250000000000001
 30
0
  9
$EXTMAX
 10
12.6
 20
8.25
 30
0
  9
$LIMMIN
 10
0
 20
0
  9
$LIMMAX
 10
420
 20
297
  9
$ORTHOMODE
 70
    0
  9
$REGENMODE
 70
    1
  9
$FILLMODE
 70
    1
  9
$QTEXTMODE
 70
    0
  9
$MIRRTEXT
 70
    0
  9
$LTSCALE
 40
1
  9
$ATTMODE
 70
    0
  9
$TEXTSIZE
 40
2.5
  9
$TRACEWID
 40
15.68
  9
$TEXTSTYLE
  7
STANDARD
  9
$CLAYER
  8
0
  9
$CELTYPE
  6
BYLAYER
  9
$CECOLOR
 62
  256
  9
$CELTSCALE
 40
1
  9
$DISPSILH
 70
    0
  9
$DIMSCALE
 40
50
  9
$DIMASZ
 40
0.002
  9
$DIMEXO
 40
0.002
  9
$DIMDLI
 40
3.75
  9
$DIMRND
 40
0
  9
$DIMDLE
 40
0
  9
$DIMEXE
 40
0.001
  9
$DIMTP
 40
0
  9
$DIMTM
 40
0
  9
$DIMTXT
 40
0.0025
  9
$DIMCEN
 40
2.5
  9
$DIMTSZ
 40
0.001
  9
$DIMTOL
 70
    0
  9
$DIMLIM
 70
    0
  9
$DIMTIH
 70
    0
  9
$DIMTOH
 70
    0
  9
$DIMSE1
 70
    0
  9
$DIMSE2
 70
    0
  9
$DIMTAD
 70
    1
  9
$DIMZIN
 70
    9
  9
$DIMBLK
  1

  9
$DIMASO
 70
    1
  9
$DIMSHO
 70
    1
  9
$DIMPOST
  1

  9
$DIMAPOST
  1

  9
$DIMALT
 70
    0
  9
$DIMALTD
 70
    3
  9
$DIMALTF
 40
0.03937
  9
$DIMLFAC
 40
1
  9
$DIMTOFL
 70
    1
  9
$DIMTVP
 40
0
  9
$DIMTIX
 70
    0
  9
$DIMSOXD
 70
    0
  9
$DIMSAH
 70
    0
  9
$DIMBLK1
  1

  9
$DIMBLK2
  1

  9
$DIMSTYLE
  2
STANDARD
  9
$DIMCLRD
 70
    7
  9
$DIMCLRE
 70
    7
  9
$DIMCLRT
 70
    7
  9
$DIMTFAC
 40
1
  9
$DIMGAP
 40
0.001
  9
$DIMJUST
 70
    0
  9
$DIMSD1
 70
    0
  9
$DIMSD2
 70
    0
  9
$DIMTOLJ
 70
    0
  9
$DIMTZIN
 70
    8
  9
$DIMALTZ
 70
    0
  9
$DIMALTTZ
 70
    0
  9
$DIMUPT
 70
    0
  9
$DIMDEC
 70
    3
  9
$DIMTDEC
 70
    2
  9
$DIMALTU
 70
    2
  9
$DIMALTTD
 70
    3
  9
$DIMTXSTY
  7
standard
  9
$DIMAUNIT
 70
    0
  9
$DIMADEC
 70
    2
  9
$DIMALTRND
 40
0
  9
$DIMAZIN
 70
    0
  9
$DIMDSEP
 70
    0
  9
$DIMATFIT
 70
    3
  9
$DIMFRAC
 70
    0
  9
$DIMLDRBLK
  1
STANDARD
  9
$DIMLUNIT
 70
    2
  9
$DIMLWD
 70
   18
  9
$DIMLWE
 70
   18
  9
$DIMTMOVE
 70
    0
  9
$DIMFXL
 40
0.004
  9
$DIMFXLON
 70
    1
  9
$DIMJOGANG
 40
0.7854
  9
$DIMTFILL
 70
    0
  9
$DIMTFILLCLR
 70
    0
  9
$DIMARCSYM
 70
    0
  9
$DIMLTYPE
  6

  9
$DIMLTEX1
  6

  9
$DIMLTEX2
  6

  9
$LUNITS
 70
    2
  9
$LUPREC
 70
    4
  9
$SKETCHINC
 40
1
  9
$FILLETRAD
 40
0
  9
$AUNITS
 70
    0
  9
$AUPREC
 70
    2
  9
$MENU
  1
.
  9
$ELEVATION
 40
0
  9
$PELEVATION
 40
0
  9
$THICKNESS
 40
0
  9
$LIMCHECK
 70
    0
  9
$CHAMFERA
 40
0
  9
$CHAMFERB
 40
0
  9
$CHAMFERC
 40
0
  9
$CHAMFERD
 40
0
  9
$SKPOLY
 70
    0
  9
$USRTIMER
 70
    1
  9
$ANGBASE
 50
0
  9
$ANGDIR
 70
    0
  9
$PDMODE
 70
   34
  9
$PDSIZE
 40
0
  9
$PLINEWID
 40
0
  9
$SPLFRAME
 70
    0
  9
$SPLINETYPE
 70
    2
  9
$SPLINESEGS
 70
    8
  9
$HANDSEED
  5
20000
  9
$SURFTAB1
 70
    6
  9
$SURFTAB2
 70
    6
  9
$SURFTYPE
 70
    6
  9
$SURFU
 70
    6
  9
$SURFV
 70
    6
  9
$UCSBASE
  2

  9
$UCSNAME
  2

  9
$UCSORG
 10
0
 20
0
 30
0
  9
$UCSXDIR
 10
1
 20
0
 30
0
  9
$UCSYDIR
 10
0
 20
1
 30
0
  9
$UCSORTHOREF
  2

  9
$UCSORTHOVIEW
 70
    0
  9
$UCSORGTOP
 10
0
 20
0
 30
0
  9
$UCSORGBOTTOM
 10
0
 20
0
 30
0
  9
$UCSORGLEFT
 10
0
 20
0
 30
0
  9
$UCSORGRIGHT
 10
0
 20
0
 30
0
  9
$UCSORGFRONT
 10
0
 20
0
 30
0
  9
$UCSORGBACK
 10
0
 20
0
 30
0
  9
$PUCSBASE
  2

  9
$PUCSNAME
  2

  9
$PUCSORG
 10
0
 20
0
 30
0
  9
$PUCSXDIR
 10
1
 20
0
 30
0
  9
$PUCSYDIR
 10
0
 20
1
 30
0
  9
$PUCSORTHOREF
  2

  9
$PUCSORTHOVIEW
 70
    0
  9
$PUCSORGTOP
 10
0
 20
0
 30
0
  9
$PUCSORGBOTTOM
 10
0
 20
0
 30
0
  9
$PUCSORGLEFT
 10
0
 20
0
 30
0
  9
$PUCSORGRIGHT
 10
0
 20
0
 30
0
  9
$PUCSORGFRONT
 10
0
 20
0
 30
0
  9
$PUCSORGBACK
 10
0
 20
0
 30
0
  9
$USERI1
 70
    0
  9
$USERI2
 70
    0
  9
$USERI3
 70
    0
  9
$USERI4
 70
    0
  9
$USERI5
 70
    0
  9
$USERR1
 40
0
  9
$USERR2
 40
0
  9
$USERR3
 40
0
  9
$USERR4
 40
0
  9
$USERR5
 40
0
  9
$WORLDVIEW
 70
    1
  9
$SHADEDGE
 70
    3
  9
$SHADEDIF
 70
   70
  9
$TILEMODE
 70
    1
  9
$MAXACTVP
 70
   64
  9
$PINSBASE
 10
0.045
 20
0.04500000000000002
 30
0
  9
$PLIMCHECK
 70
    0
  9
$PEXTMIN
 10
0
 20
0
 30
0
  9
$PEXTMAX
 10
0
 20
0
 30
0
  9
$GRIDMODE
 70
    1
  9
$SNAPSTYLE
 70
    0
  9
$GRIDUNIT
 10
0
 20
0
  9
$PLIMMIN
 10
0
 20
0
  9
$PLIMMAX
 10
0.297
 20
0.21
  9
$UNITMODE
 70
    0
  9
$VISRETAIN
 70
    1
  9
$PLINEGEN
 70
    0
  9
$PSLTSCALE
 70
    1
  9
$TREEDEPTH
 70
 3020
  9
$CMLSTYLE
  2
Standard
  9
$CMLJUST
 70
    0
  9
$CMLSCALE
 40
20
  9
$PROXYGRAPHICS
 70
    1
  9
$MEASUREMENT
 70
    1
  9
$CELWEIGHT
370
   -1
  9
$ENDCAPS
280
    0
  9
$JOINSTYLE
280
    0
  9
$LWDISPLAY
290
    0
  9
$INSUNITS
 70
    6
  9
$HYPERLINKBASE
  1

  9
$STYLESHEET
  1

  9
$XEDIT
290
    1
  9
$CEPSNTYPE
380
    0
  9
$PSTYLEMODE
290
    1
  9
$EXTNAMES
290
    1
  9
$PSVPSCALE
 40
0.02
  9
$OLESTARTUP
290
    0
  9
$SORTENTS
280
  127
  9
$INDEXCTL
280
    0
  9
$HIDETEXT
280
    1
  9
$XCLIPFRAME
290
    0
  9
$HALOGAP
280
    0
  9
$OBSCOLOR
 70
  257
  9
$OBSLTYPE
280
    0
  9
$INTERSECTIONDISPLAY
280
    0
  9
$INTERSECTIONCOLOR
 70
  257
  9
$DIMASSOC
280
    1
  9
$PROJECTNAME
  1

  9
$CAMERADISPLAY
290
    0
  9
$LENSLENGTH
 40
50
  9
$CAMERAHEIGHT
 40
0
  9
$STEPSPERSEC
 40
2
  9
$STEPSIZE
 40
50
  9
$3DDWFPREC
 40
2
  9
$PSOLWIDTH
 40
5
  9
$PSOLHEIGHT
 40
80
  9
$LOFTANG1
 40
1.570796326794897
  9
$LOFTANG2
 40
1.570796326794897
  9
$LOFTMAG1
 40
0
  9
$LOFTMAG2
 40
0
  9
$LOFTPARAM
 70
    7
  9
$LOFTNORMALS
280
    1
  9
$LATITUDE
 40
1
  9
$LONGITUDE
 40
1
  9
$NORTHDIRECTION
 40
0
  9
$TIMEZONE
 70
-8000
  9
$LIGHTGLYPHDISPLAY
280
    1
  9
$TILEMODELIGHTSYNCH
280
    1
  9
$SOLIDHIST
280
    1
  9
$SHOWHIST
280
    1
  9
$DWFFRAME
280
    2
  9
$DGNFRAME
280
    0
  9
$REALWORLDSCALE
290
    1
  9
$INTERFERECOLOR
 62
    1
  9
$CSHADOW
280
    0
  9
$SHADOWPLANELOCATION
 40
0
  0
ENDSEC
  0
SECTION
  2
CLASSES
  0
ENDSEC
  0
SECTION
  2
TABLES
  0
TABLE
  2
VPORT
  5
8
330
0
100
AcDbSymbolTable
 70
    1
  0
VPORT
  5
31
330
2
100
AcDbSymbolTableRecord
100
AcDbViewportTableRecord
  2
*ACTIVE
 70
    0
 10
0
 20
0
 11
1
 21
1
 12
6.721712538226299
 22
4.179663608562691
 13
0
 23
0
 14
10
 24
10
 15
10
 25
10
 16
0
 26
0
 36
1
 17
0
 27
0
 37
0
 40
10.71406727828746
 41
1.542457542457542
 42
50
 43
0
 44
0
 50
0
 51
0
 71
    0
 72
  100
 73
    1
 74
    3
 75
    0
 76
    1
 77
    0
 78
    0
281
    0
 65
    1
110
0
120
0
130
0
111
1
121
0
131
0
112
0
122
1
132
0
 79
    0
146
0
348
10020
 60
    7
 61
    5
292
1
282
    1
141
0
142
0
 63
  250
421
3358443
  0
ENDTAB
  0
TABLE
  2
LTYPE
  5
5
330
0
100
AcDbSymbolTable
 70
    4
  0
LTYPE
  5
14
330
5
100
AcDbSymbolTableRecord
100
AcDbLinetypeTableRecord
  2
ByBlock
 70
    0
  3

 72
   65
 73
    0
 40
0
  0
LTYPE
  5
15
330
5
100
AcDbSymbolTableRecord
100
AcDbLinetypeTableRecord
  2
ByLayer
 70
    0
  3

 72
   65
 73
    0
 40
0
  0
LTYPE
  5
16
330
5
100
AcDbSymbolTableRecord
100
AcDbLinetypeTableRecord
  2
Continuous
 70
    0
  3
Solid line
 72
   65
 73
    0
 40
0
  0
LTYPE
  5
32
330
5
100
AcDbSymbolTableRecord
100
AcDbLinetypeTableRecord
  2
DOT
 70
    0
  3
Dot . . . . . . . . . . . . . . . . . . . . . .
 72
   65
 73
    2
 40
6.35
 49
0
 74
    0
 49
-6.35
 74
    0
  0
LTYPE
  5
33
330
5
100
AcDbSymbolTableRecord
100
AcDbLinetypeTableRecord
  2
DOTTINY
 70
    0
  3
Dot (.15x) .....................................
 72
   65
 73
    2
 40
0.9525
 49
0
 74
    0
 49
-0.9525
 74
    0
  0
LTYPE
  5
34
330
5
100
AcDbSymbolTableRecord
100
AcDbLinetypeTableRecord
  2
DOT2
 70
    0
  3
Dot (.5x) .....................................
 72
   65
 73
    2
 40
3.175
 49
0
 74
    0
 49
-3.175
 74
    0
  0
LTYPE
  5
35
330
5
100
AcDbSymbolTableRecord
100
AcDbLinetypeTableRecord
  2
DOTX2
 70
    0
  3
Dot (2x) .  .  .  .  .  .  .  .  .  .  .  .  .
 72
   65
 73
    2
 40
12.7
 49
0
 74
    0
 49
-12.7
 74
    0
  0
LTYPE
  5
36
330
5
100
AcDbSymbolTableRecord
100
AcDbLinetypeTableRecord
  2
DASHED
 70
    0
  3
Dashed _ _ _ _ _ _ _ _ _ _ _ _ _ _ _ _ _
 72
   65
 73
    2
 40
19.05
 49
12.7
 74
    0
 49
-6.35
 74
    0
  0
LTYPE
  5
37
330
5
100
AcDbSymbolTableRecord
100
AcDbLinetypeTableRecord
  2
DASHEDTINY
 70
    0
  3
Dashed (.15x) _ _ _ _ _ _ _ _ _ _ _ _ _ _ _ _ _
 72
   65
 73
    2
 40
2.8575
 49
1.905
 74
    0
 49
-0.9525
 74
    0
  0
LTYPE
  5
38
330
5
100
AcDbSymbolTableRecord
100
AcDbLinetypeTableRecord
  2
DASHED2
 70
    0
  3
Dashed (.5x) _ _ _ _ _ _ _ _ _ _ _ _ _ _ _ _ _
 72
   65
 73
    2
 40
9.524999999999999
 49
6.35
 74
    0
 49
-3.175
 74
    0
  0
LTYPE
  5
39
330
5
100
AcDbSymbolTableRecord
100
AcDbLinetypeTableRecord
  2
DASHEDX2
 70
    0
  3
Dashed (2x) ____  ____  ____  ____  ____  ___
 72
   65
 73
    2
 40
38.09999999999999
 49
25.4
 74
    0
 49
-12.7
 74
    0
  0
LTYPE
  5
3A
330
5
100
AcDbSymbolTableRecord
100
AcDbLinetypeTableRecord
  2
DASHDOT
 70
    0
  3
Dash dot __ . __ . __ . __ . __ . __ . __ . __
 72
   65
 73
    4
 40
25.4
 49
12.7
 74
    0
 49
-6.35
 74
    0
 49
0
 74
    0
 49
-6.35
 74
    0
  0
LTYPE
  5
3B
330
5
100
AcDbSymbolTableRecord
100
AcDbLinetypeTableRecord
  2
DASHDOTTINY
 70
    0
  3
Dash dot (.15x) _._._._._._._._._._._._._._._.
 72
   65
 73
    4
 40
3.81
 49
1.905
 74
    0
 49
-0.9525
 74
    0
 49
0
 74
    0
 49
-0.9525
 74
    0
  0
LTYPE
  5
3C
330
5
100
AcDbSymbolTableRecord
100
AcDbLinetypeTableRecord
  2
DASHDOT2
 70
    0
  3
Dash dot (.5x) _._._._._._._._._._._._._._._.
 72
   65
 73
    4
 40
12.7
 49
6.35
 74
    0
 49
-3.175
 74
    0
 49
0
 74
    0
 49
-3.175
 74
    0
  0
LTYPE
  5
3D
330
5
100
AcDbSymbolTableRecord
100
AcDbLinetypeTableRecord
  2
DASHDOTX2
 70
    0
  3
Dash dot (2x) ____  .  ____  .  ____  .  ___
 72
   65
 73
    4
 40
50.8
 49
25.4
 74
    0
 49
-12.7
 74
    0
 49
0
 74
    0
 49
-12.7
 74
    0
  0
LTYPE
  5
3E
330
5
100
AcDbSymbolTableRecord
100
AcDbLinetypeTableRecord
  2
DIVIDE
 70
    0
  3
Divide ____ . . ____ . . ____ . . ____ . . ____
 72
   65
 73
    6
 40
31.75
 49
12.7
 74
    0
 49
-6.35
 74
    0
 49
0
 74
    0
 49
-6.35
 74
    0
 49
0
 74
    0
 49
-6.35
 74
    0
  0
LTYPE
  5
3F
330
5
100
AcDbSymbolTableRecord
100
AcDbLinetypeTableRecord
  2
DIVIDETINY
 70
    0
  3
Divide (.15x) __..__..__..__..__..__..__..__.._
 72
   65
 73
    6
 40
4.7625
 49
1.905
 74
    0
 49
-0.9525
 74
    0
 49
0
 74
    0
 49
-0.9525
 74
    0
 49
0
 74
    0
 49
-0.9525
 74
    0
  0
LTYPE
  5
40
330
5
100
AcDbSymbolTableRecord
100
AcDbLinetypeTableRecord
  2
DIVIDE2
 70
    0
  3
Divide (.5x) __..__..__..__..__..__..__..__.._
 72
   65
 73
    6
 40
15.875
 49
6.35
 74
    0
 49
-3.175
 74
    0
 49
0
 74
    0
 49
-3.175
 74
    0
 49
0
 74
    0
 49
-3.175
 74
    0
  0
LTYPE
  5
41
330
5
100
AcDbSymbolTableRecord
100
AcDbLinetypeTableRecord
  2
DIVIDEX2
 70
    0
  3
Divide (2x) ________  .  .  ________  .  .  _
 72
   65
 73
    6
 40
63.5
 49
25.4
 74
    0
 49
-12.7
 74
    0
 49
0
 74
    0
 49
-12.7
 74
    0
 49
0
 74
    0
 49
-12.7
 74
    0
  0
LTYPE
  5
42
330
5
100
AcDbSymbolTableRecord
100
AcDbLinetypeTableRecord
  2
BORDER
 70
    0
  3
Border __ __ . __ __ . __ __ . __ __ . __ __ .
 72
   65
 73
    6
 40
44.45
 49
12.7
 74
    0
 49
-6.35
 74
    0
 49
12.7
 74
    0
 49
-6.35
 74
    0
 49
0
 74
    0
 49
-6.35
 74
    0
  0
LTYPE
  5
43
330
5
100
AcDbSymbolTableRecord
100
AcDbLinetypeTableRecord
  2
BORDERTINY
 70
    0
  3
Border (.15x) __.__.__.__.__.__.__.__.__.__.__.
 72
   65
 73
    6
 40
6.6675
 49
1.905
 74
    0
 49
-0.9525
 74
    0
 49
1.905
 74
    0
 49
-0.9525
 74
    0
 49
0
 74
    0
 49
-0.9525
 74
    0
  0
LTYPE
  5
44
330
5
100
AcDbSymbolTableRecord
100
AcDbLinetypeTableRecord
  2
BORDER2
 70
    0
  3
Border (.5x) __.__.__.__.__.__.__.__.__.__.__.
 72
   65
 73
    6
 40
22.225
 49
6.35
 74
    0
 49
-3.175
 74
    0
 49
6.35
 74
    0
 49
-3.175
 74
    0
 49
0
 74
    0
 49
-3.175
 74
    0
  0
LTYPE
  5
45
330
5
100
AcDbSymbolTableRecord
100
AcDbLinetypeTableRecord
  2
BORDERX2
 70
    0
  3
Border (2x) ____  ____  .  ____  ____  .  ___
 72
   65
 73
    6
 40
88.89999999999999
 49
25.4
 74
    0
 49
-12.7
 74
    0
 49
25.4
 74
    0
 49
-12.7
 74
    0
 49
0
 74
    0
 49
-12.7
 74
    0
  0
LTYPE
  5
46
330
5
100
AcDbSymbolTableRecord
100
AcDbLinetypeTableRecord
  2
CENTER
 70
    0
  3
Center ____ _ ____ _ ____ _ ____ _ ____ _ ____
 72
   65
 73
    4
 40
50.8
 49
31.75
 74
    0
 49
-6.35
 74
    0
 49
6.35
 74
    0
 49
-6.35
 74
    0
  0
LTYPE
  5
47
330
5
100
AcDbSymbolTableRecord
100
AcDbLinetypeTableRecord
  2
CENTERTINY
 70
    0
  3
Center (.15x) ___ _ ___ _ ___ _ ___ _ ___ _ ___
 72
   65
 73
    4
 40
7.62
 49
4.7625
 74
    0
 49
-0.9525
 74
    0
 49
0.9525
 74
    0
 49
-0.9525
 74
    0
  0
LTYPE
  5
48
330
5
100
AcDbSymbolTableRecord
100
AcDbLinetypeTableRecord
  2
CENTER2
 70
    0
  3
Center (.5x) ___ _ ___ _ ___ _ ___ _ ___ _ ___
 72
   65
 73
    4
 40
28.575
 49
19.05
 74
    0
 49
-3.175
 74
    0
 49
3.175
 74
    0
 49
-3.175
 74
    0
  0
LTYPE
  5
49
330
5
100
AcDbSymbolTableRecord
100
AcDbLinetypeTableRecord
  2
CENTERX2
 70
    0
  3
Center (2x) ________  __  ________  __  _____
 72
   65
 73
    4
 40
101.6
 49
63.5
 74
    0
 49
-12.7
 74
    0
 49
12.7
 74
    0
 49
-12.7
 74
    0
  0
ENDTAB
  0
TABLE
  2
LAYER
  5
2
330
0
100
AcDbSymbolTable
 70
    1
  0
LAYER
  5
10
330
2
100
AcDbSymbolTableRecord
100
AcDbLayerTableRecord
  2
0
 70
    0
 62
    7
  6
CONTINUOUS
370
   25
390
F
  0
LAYER
  5
4A
330
2
100
AcDbSymbolTableRecord
100
AcDbLayerTableRecord
  2
1
 70
    0
 62
    7
  6
CONTINUOUS
370
   25
390
F
  0
LAYER
  5
4B
330
2
100
AcDbSymbolTableRecord
100
AcDbLayerTableRecord
  2
2 Schraffur
 70
    0
 62
    7
  6
CONTINUOUS
370
   25
390
F
  0
LAYER
  5
4C
330
2
100
AcDbSymbolTableRecord
100
AcDbLayerTableRecord
  2
Bemassung
 70
    0
 62
    7
  6
CONTINUOUS
370
   25
390
F
  0
ENDTAB
  0
TABLE
  2
STYLE
  5
3
330
0
100
AcDbSymbolTable
 70
    3
  0
STYLE
  5
4D
330
2
100
AcDbSymbolTableRecord
100
AcDbTextStyleTableRecord
  2
standard
 70
    0
 40
0
 41
1
 50
0
 71
    0
 42
1
  3
standard
  4

  0
STYLE
  5
4E
330
2
100
AcDbSymbolTableRecord
100
AcDbTextStyleTableRecord
  2
iso
 70
    0
 40
0
 41
1
 50
0
 71
    0
 42
1
  3
iso
  4

  0
ENDTAB
  0
TABLE
  2
VIEW
  5
6
330
0
100
AcDbSymbolTable
 70
    0
  0
ENDTAB
  0
TABLE
  2
UCS
  5
7
330
0
100
AcDbSymbolTable
 70
    0
  0
ENDTAB
  0
TABLE
  2
APPID
  5
9
330
0
100
AcDbSymbolTable
 70
    1
  0
APPID
  5
12
330
9
100
AcDbSymbolTableRecord
100
AcDbRegAppTableRecord
  2
ACAD
 70
    0
  0
APPID
  5
4F
330
9
100
AcDbSymbolTableRecord
100
AcDbRegAppTableRecord
  2
LibreCad
 70
    0
  0
ENDTAB
  0
TABLE
  2
DIMSTYLE
  5
A
330
0
100
AcDbSymbolTable
 70
    1
100
AcDbDimStyleTable
 71
    1
  0
DIMSTYLE
105
50
330
A
100
AcDbSymbolTableRecord
100
AcDbDimStyleTableRecord
  2
Standard
 70
    0
 40
50
 41
0.002
 42
0.002
 43
0.38
 44
0.001
 45
0
 46
0
 47
0
 48
0
 49
0.004
140
0.0025
141
0.09
142
0.001
143
25.4
144
1
145
0
146
1
147
0.001
148
0
 71
    0
 72
    0
 73
    0
 74
    1
 75
    0
 76
    0
 77
    0
 78
    9
 79
    0
170
    0
171
    2
172
    0
173
    0
174
    0
175
    0
176
    7
177
    7
178
    7
179
    2
271
    3
272
    4
273
    2
274
    2
275
    0
276
    0
277
    2
278
    0
279
    0
280
    0
281
    0
282
    0
283
    1
284
    0
285
    0
286
    0
288
    0
289
    3
290
    1
340
standard
341

371
   18
372
   18
  0
ENDTAB
  0
TABLE
  2
BLOCK_RECORD
  5
1
330
0
100
AcDbSymbolTable
 70
    2
  0
BLOCK_RECORD
  5
1F
330
1
100
AcDbSymbolTableRecord
100
AcDbBlockTableRecord
  2
*Model_Space
 70
    0
280
    1
281
    0
  0
BLOCK_RECORD
  5
1E
330
1
100
AcDbSymbolTableRecord
100
AcDbBlockTableRecord
  2
*Paper_Space
 70
    0
280
    1
281
    0
  0
BLOCK_RECORD
  5
51
330
1
100
AcDbSymbolTableRecord
100
AcDbBlockTableRecord
  2
*D7
 70
    0
280
    1
281
    0
  0
BLOCK_RECORD
  5
54
330
1
100
AcDbSymbolTableRecord
100
AcDbBlockTableRecord
  2
*D10
 70
    0
280
    1
281
    0
  0
BLOCK_RECORD
  5
57
330
1
100
AcDbSymbolTableRecord
100
AcDbBlockTableRecord
  2
*D6
 70
    0
280
    1
281
    0
  0
BLOCK_RECORD
  5
5A
330
1
100
AcDbSymbolTableRecord
100
AcDbBlockTableRecord
  2
*D12
 70
    0
280
    1
281
    0
  0
BLOCK_RECORD
  5
5D
330
1
100
AcDbSymbolTableRecord
100
AcDbBlockTableRecord
  2
*D1
 70
    0
280
    1
281
    0
  0
BLOCK_RECORD
  5
60
330
1
100
AcDbSymbolTableRecord
100
AcDbBlockTableRecord
  2
*D9
 70
    0
280
    1
281
    0
  0
BLOCK_RECORD
  5
63
330
1
100
AcDbSymbolTableRecord
100
AcDbBlockTableRecord
  2
*D11
 70
    0
280
    1
281
    0
  0
BLOCK_RECORD
  5
66
330
1
100
AcDbSymbolTableRecord
100
AcDbBlockTableRecord
  2
*D4
 70
    0
280
    1
281
    0
  0
BLOCK_RECORD
  5
69
330
1
100
AcDbSymbolTableRecord
100
AcDbBlockTableRecord
  2
*D5
 70
    0
280
    1
281
    0
  0
BLOCK_RECORD
  5
6C
330
1
100
AcDbSymbolTableRecord
100
AcDbBlockTableRecord
  2
*D8
 70
    0
280
    1
281
    0
  0
BLOCK_RECORD
  5
6F
330
1
100
AcDbSymbolTableRecord
100
AcDbBlockTableRecord
  2
*D2
 70
    0
280
    1
281
    0
  0
BLOCK_RECORD
  5
72
330
1
100
AcDbSymbolTableRecord
100
AcDbBlockTableRecord
  2
*D3
 70
    0
280
    1
281
    0
  0
ENDTAB
  0
ENDSEC
  0
SECTION
  2
BLOCKS
  0
BLOCK
  5
20
330
1F
100
AcDbEntity
  8
0
100
AcDbBlockBegin
  2
*Model_Space
 70
    0
 10
0
 20
0
 30
0
  3
*Model_Space
  1

  0
ENDBLK
  5
21
330
1F
100
AcDbEntity
  8
0
100
AcDbBlockEnd
  0
BLOCK
  5
1C
330
1B
100
AcDbEntity
  8
0
100
AcDbBlockBegin
  2
*Paper_Space
 70
    0
 10
0
 20
0
 30
0
  3
*Paper_Space
  1

  0
ENDBLK
  5
1D
330
1F
100
AcDbEntity
  8
0
100
AcDbBlockEnd
  0
BLOCK
  5
52
330
51
100
AcDbEntity
  8
0
100
AcDbBlockBegin
  2
*D7
 70
    1
 10
0
 20
0
  3
*D7
  1

  0
LINE
  5
75
100
AcDbEntity
  8
Bemassung
  6
ByBlock
 62
    7
370
   18
100
AcDbLine
 10
5.3
 20
3.125
 11
5.3
 21
3.75
  0
MTEXT
  5
76
100
AcDbEntity
  8
Bemassung
  6
CONTINUOUS
 62
    7
370
   -2
100
AcDbMText
 10
5.1875
 20
3.4375
 30
0
 40
0.125
 41
0.3888888888889044
 71
    5
 72
    1
  1
0.625
  7
standard
210
0
220
0
230
1
 50
90
 73
    2
 44
1
  0
LINE
  5
77
100
AcDbEntity
  8
Bemassung
  6
ByBlock
 62
    7
370
   18
100
AcDbLine
 10
5.264644660940673
 20
3.160355339059327
 11
5.335355339059327
 21
3.089644660940673
  0
LINE
  5
78
100
AcDbEntity
  8
Bemassung
  6
ByBlock
 62
    7
370
   18
100
AcDbLine
 10
5.264644660940673
 20
3.785355339059327
 11
5.335355339059327
 21
3.714644660940673
  0
LINE
  5
79
100
AcDbEntity
  8
Bemassung
  6
ByBlock
 62
    7
370
   18
100
AcDbLine
 10
5.1
 20
3.125
 11
5.35
 21
3.125
  0
LINE
  5
7A
100
AcDbEntity
  8
Bemassung
  6
ByBlock
 62
    7
370
   18
100
AcDbLine
 10
5.1
 20
3.75
 11
5.35
 21
3.75
  0
ENDBLK
  5
53
330
51
100
AcDbEntity
  8
0
100
AcDbBlockEnd
  0
BLOCK
  5
55
330
54
100
AcDbEntity
  8
0
100
AcDbBlockBegin
  2
*D10
 70
    1
 10
0
 20
0
  3
*D10
  1

  0
LINE
  5
7B
100
AcDbEntity
  8
Bemassung
  6
ByBlock
 62
    7
370
   18
100
AcDbLine
 10
-0.7000000000000002
 20
1.365
 11
-0.7000000000000001
 21
2.75
  0
MTEXT
  5
7C
100
AcDbEntity
  8
Bemassung
  6
CONTINUOUS
 62
    7
370
   -2
100
AcDbMText
 10
-0.8125000000000002
 20
2.0575
 30
0
 40
0.125
 41
0.3611111111111266
 71
    5
 72
    1
  1
1.385
  7
standard
210
0
220
0
230
1
 50
90
 73
    2
 44
1
  0
LINE
  5
7D
100
AcDbEntity
  8
Bemassung
  6
ByBlock
 62
    7
370
   18
100
AcDbLine
 10
-0.7353553390593276
 20
1.400355339059327
 11
-0.6646446609406728
 21
1.329644660940673
  0
LINE
  5
7E
100
AcDbEntity
  8
Bemassung
  6
ByBlock
 62
    7
370
   18
100
AcDbLine
 10
-0.7353553390593275
 20
2.785355339059327
 11
-0.6646446609406726
 21
2.714644660940673
  0
LINE
  5
7F
100
AcDbEntity
  8
Bemassung
  6
ByBlock
 62
    7
370
   18
100
AcDbLine
 10
-0.5000000000000002
 20
1.365
 11
-0.7500000000000002
 21
1.365
  0
LINE
  5
80
100
AcDbEntity
  8
Bemassung
  6
ByBlock
 62
    7
370
   18
100
AcDbLine
 10
-0.5
 20
2.75
 11
-0.7500000000000001
 21
2.75
  0
ENDBLK
  5
56
330
54
100
AcDbEntity
  8
0
100
AcDbBlockEnd
  0
BLOCK
  5
58
330
57
100
AcDbEntity
  8
0
100
AcDbBlockBegin
  2
*D6
 70
    1
 10
0
 20
0
  3
*D6
  1

  0
LINE
  5
81
100
AcDbEntity
  8
Bemassung
  6
ByBlock
 62
    7
370
   18
100
AcDbLine
 10
5.3
 20
2.24
 11
5.3
 21
3.125
  0
MTEXT
  5
82
100
AcDbEntity
  8
Bemassung
  6
CONTINUOUS
 62
    7
370
   -2
100
AcDbMText
 10
5.1875
 20
2.6825
 30
0
 40
0.125
 41
0.3888888888888966
 71
    5
 72
    1
  1
0.885
  7
standard
210
0
220
0
230
1
 50
90
 73
    2
 44
1
  0
LINE
  5
83
100
AcDbEntity
  8
Bemassung
  6
ByBlock
 62
    7
370
   18
100
AcDbLine
 10
5.264644660940673
 20
2.275355339059328
 11
5.335355339059327
 21
2.204644660940673
  0
LINE
  5
84
100
AcDbEntity
  8
Bemassung
  6
ByBlock
 62
    7
370
   18
100
AcDbLine
 10
5.264644660940673
 20
3.160355339059327
 11
5.335355339059327
 21
3.089644660940673
  0
LINE
  5
85
100
AcDbEntity
  8
Bemassung
  6
ByBlock
 62
    7
370
   18
100
AcDbLine
 10
5.1
 20
2.24
 11
5.35
 21
2.24
  0
LINE
  5
86
100
AcDbEntity
  8
Bemassung
  6
ByBlock
 62
    7
370
   18
100
AcDbLine
 10
5.1
 20
3.125
 11
5.35
 21
3.125
  0
ENDBLK
  5
59
330
57
100
AcDbEntity
  8
0
100
AcDbBlockEnd
  0
BLOCK
  5
5B
330
5A
100
AcDbEntity
  8
0
100
AcDbBlockBegin
  2
*D12
 70
    1
 10
0
 20
0
  3
*D12
  1

  0
LINE
  5
87
100
AcDbEntity
  8
2 Schraffur
  6
ByBlock
 62
    7
370
   18
100
AcDbLine
 10
4.74
 20
-1.4
 11
7.365
 21
-1.4
  0
MTEXT
  5
88
100
AcDbEntity
  8
2 Schraffur
  6
CONTINUOUS
 62
    7
370
   -2
100
AcDbMText
 10
6.0525
 20
-1.2875
 30
0
 40
0.125
 41
0.3888888888889044
 71
    5
 72
    1
  1
2.625
  7
standard
210
0
220
0
230
1
 50
0
 73
    2
 44
1
  0
LINE
  5
89
100
AcDbEntity
  8
2 Schraffur
  6
ByBlock
 62
    7
370
   18
100
AcDbLine
 10
4.775355339059328
 20
-1.364644660940673
 11
4.704644660940673
 21
-1.435355339059327
  0
LINE
  5
8A
100
AcDbEntity
  8
2 Schraffur
  6
ByBlock
 62
    7
370
   18
100
AcDbLine
 10
7.400355339059328
 20
-1.364644660940673
 11
7.329644660940673
 21
-1.435355339059327
  0
LINE
  5
8B
100
AcDbEntity
  8
2 Schraffur
  6
ByBlock
 62
    7
370
   18
100
AcDbLine
 10
4.74
 20
-1.2
 11
4.74
 21
-1.45
  0
LINE
  5
8C
100
AcDbEntity
  8
2 Schraffur
  6
ByBlock
 62
    7
370
   18
100
AcDbLine
 10
7.365
 20
-1.2
 11
7.365
 21
-1.45
  0
ENDBLK
  5
5C
330
5A
100
AcDbEntity
  8
0
100
AcDbBlockEnd
  0
BLOCK
  5
5E
330
5D
100
AcDbEntity
  8
0
100
AcDbBlockBegin
  2
*D1
 70
    1
 10
0
 20
0
  3
*D1
  1

  0
LINE
  5
8D
100
AcDbEntity
  8
Bemassung
  6
ByBlock
 62
    7
370
   18
100
AcDbLine
 10
0.3650000000000002
 20
-1.4
 11
4.625
 21
-1.4
  0
MTEXT
  5
8E
100
AcDbEntity
  8
Bemassung
  6
CONTINUOUS
 62
    7
370
   -2
100
AcDbMText
 10
2.495
 20
-1.2875
 30
0
 40
0.125
 41
0.3055555555555633
 71
    5
 72
    1
  1
4.26
  7
standard
210
0
220
0
230
1
 50
0
 73
    2
 44
1
  0
LINE
  5
8F
100
AcDbEntity
  8
Bemassung
  6
ByBlock
 62
    7
370
   18
100
AcDbLine
 10
0.4003553390593276
 20
-1.364644660940673
 11
0.3296446609406729
 21
-1.435355339059327
  0
LINE
  5
90
100
AcDbEntity
  8
Bemassung
  6
ByBlock
 62
    7
370
   18
100
AcDbLine
 10
4.660355339059327
 20
-1.364644660940673
 11
4.589644660940673
 21
-1.435355339059327
  0
LINE
  5
91
100
AcDbEntity
  8
Bemassung
  6
ByBlock
 62
    7
370
   18
100
AcDbLine
 10
0.3649999999999997
 20
-1.2
 11
0.3650000000000002
 21
-1.45
  0
LINE
  5
92
100
AcDbEntity
  8
Bemassung
  6
ByBlock
 62
    7
370
   18
100
AcDbLine
 10
4.625
 20
-1.2
 11
4.625
 21
-1.45
  0
ENDBLK
  5
5F
330
5D
100
AcDbEntity
  8
0
100
AcDbBlockEnd
  0
BLOCK
  5
61
330
60
100
AcDbEntity
  8
0
100
AcDbBlockBegin
  2
*D9
 70
    1
 10
0
 20
0
  3
*D9
  1

  0
LINE
  5
93
100
AcDbEntity
  8
Bemassung
  6
ByBlock
 62
    7
370
   18
100
AcDbLine
 10
-0.7000000000000002
 20
0
 11
-0.7000000000000001
 21
1.365
  0
MTEXT
  5
94
100
AcDbEntity
  8
Bemassung
  6
CONTINUOUS
 62
    7
370
   -2
100
AcDbMText
 10
-0.8125000000000002
 20
0.6825
 30
0
 40
0.125
 41
0.3611111111111343
 71
    5
 72
    1
  1
1.365
  7
standard
210
0
220
0
230
1
 50
90
 73
    2
 44
1
  0
LINE
  5
95
100
AcDbEntity
  8
Bemassung
  6
ByBlock
 62
    7
370
   18
100
AcDbLine
 10
-0.7353553390593276
 20
0.03535533905932738
 11
-0.6646446609406728
 21
-0.03535533905932738
  0
LINE
  5
96
100
AcDbEntity
  8
Bemassung
  6
ByBlock
 62
    7
370
   18
100
AcDbLine
 10
-0.7353553390593275
 20
1.400355339059327
 11
-0.6646446609406726
 21
1.329644660940673
  0
LINE
  5
97
100
AcDbEntity
  8
Bemassung
  6
ByBlock
 62
    7
370
   18
100
AcDbLine
 10
-0.5000000000000002
 20
6.123031769111889e-017
 11
-0.7500000000000002
 21
6.123031769111886e-018
  0
LINE
  5
98
100
AcDbEntity
  8
Bemassung
  6
ByBlock
 62
    7
370
   18
100
AcDbLine
 10
-0.5
 20
1.365
 11
-0.7500000000000001
 21
1.365
  0
ENDBLK
  5
62
330
60
100
AcDbEntity
  8
0
100
AcDbBlockEnd
  0
BLOCK
  5
64
330
63
100
AcDbEntity
  8
0
100
AcDbBlockBegin
  2
*D11
 70
    1
 10
0
 20
0
  3
*D11
  1

  0
LINE
  5
99
100
AcDbEntity
  8
Bemassung
  6
ByBlock
 62
    7
370
   18
100
AcDbLine
 10
-0.7000000000000002
 20
2.75
 11
-0.7000000000000001
 21
3.75
  0
MTEXT
  5
9A
100
AcDbEntity
  8
Bemassung
  6
CONTINUOUS
 62
    7
370
   -2
100
AcDbMText
 10
-0.8125000000000002
 20
3.25
 30
0
 40
0.125
 41
0.02777777777777778
 71
    5
 72
    1
  1
1
  7
standard
210
0
220
0
230
1
 50
90
 73
    2
 44
1
  0
LINE
  5
9B
100
AcDbEntity
  8
Bemassung
  6
ByBlock
 62
    7
370
   18
100
AcDbLine
 10
-0.7353553390593276
 20
2.785355339059327
 11
-0.6646446609406728
 21
2.714644660940673
  0
LINE
  5
9C
100
AcDbEntity
  8
Bemassung
  6
ByBlock
 62
    7
370
   18
100
AcDbLine
 10
-0.7353553390593275
 20
3.785355339059327
 11
-0.6646446609406726
 21
3.714644660940673
  0
LINE
  5
9D
100
AcDbEntity
  8
Bemassung
  6
ByBlock
 62
    7
370
   18
100
AcDbLine
 10
-0.5000000000000002
 20
2.75
 11
-0.7500000000000002
 21
2.75
  0
LINE
  5
9E
100
AcDbEntity
  8
Bemassung
  6
ByBlock
 62
    7
370
   18
100
AcDbLine
 10
-0.5
 20
3.75
 11
-0.7500000000000001
 21
3.75
  0
ENDBLK
  5
65
330
63
100
AcDbEntity
  8
0
100
AcDbBlockEnd
  0
BLOCK
  5
67
330
66
100
AcDbEntity
  8
0
100
AcDbBlockBegin
  2
*D4
 70
    1
 10
0
 20
0
  3
*D4
  1

  0
LINE
  5
9F
100
AcDbEntity
  8
Bemassung
  6
ByBlock
 62
    7
370
   18
100
AcDbLine
 10
5.3
 20
0.865
 11
5.3
 21
1.75
  0
MTEXT
  5
A0
100
AcDbEntity
  8
Bemassung
  6
CONTINUOUS
 62
    7
370
   -2
100
AcDbMText
 10
5.1875
 20
1.3075
 30
0
 40
0.125
 41
0.3888888888888966
 71
    5
 72
    1
  1
0.885
  7
standard
210
0
220
0
230
1
 50
90
 73
    2
 44
1
  0
LINE
  5
A1
100
AcDbEntity
  8
Bemassung
  6
ByBlock
 62
    7
370
   18
100
AcDbLine
 10
5.264644660940673
 20
0.9003553390593274
 11
5.335355339059327
 21
0.8296446609406726
  0
LINE
  5
A2
100
AcDbEntity
  8
Bemassung
  6
ByBlock
 62
    7
370
   18
100
AcDbLine
 10
5.264644660940673
 20
1.785355339059327
 11
5.335355339059327
 21
1.714644660940673
  0
LINE
  5
A3
100
AcDbEntity
  8
Bemassung
  6
ByBlock
 62
    7
370
   18
100
AcDbLine
 10
5.1
 20
0.865
 11
5.35
 21
0.865
  0
LINE
  5
A4
100
AcDbEntity
  8
Bemassung
  6
ByBlock
 62
    7
370
   18
100
AcDbLine
 10
5.1
 20
1.75
 11
5.35
 21
1.75
  0
ENDBLK
  5
68
330
66
100
AcDbEntity
  8
0
100
AcDbBlockEnd
  0
BLOCK
  5
6A
330
69
100
AcDbEntity
  8
0
100
AcDbBlockBegin
  2
*D5
 70
    1
 10
0
 20
0
  3
*D5
  1

  0
LINE
  5
A5
100
AcDbEntity
  8
Bemassung
  6
ByBlock
 62
    7
370
   18
100
AcDbLine
 10
5.3
 20
1.75
 11
5.3
 21
2.24
  0
MTEXT
  5
A6
100
AcDbEntity
  8
Bemassung
  6
CONTINUOUS
 62
    7
370
   -2
100
AcDbMText
 10
5.1875
 20
1.995
 30
0
 40
0.125
 41
0.3055555555555556
 71
    5
 72
    1
  1
0.49
  7
standard
210
0
220
0
230
1
 50
90
 73
    2
 44
1
  0
LINE
  5
A7
100
AcDbEntity
  8
Bemassung
  6
ByBlock
 62
    7
370
   18
100
AcDbLine
 10
5.264644660940673
 20
1.785355339059327
 11
5.335355339059327
 21
1.714644660940673
  0
LINE
  5
A8
100
AcDbEntity
  8
Bemassung
  6
ByBlock
 62
    7
370
   18
100
AcDbLine
 10
5.264644660940673
 20
2.275355339059328
 11
5.335355339059327
 21
2.204644660940673
  0
LINE
  5
A9
100
AcDbEntity
  8
Bemassung
  6
ByBlock
 62
    7
370
   18
100
AcDbLine
 10
5.1
 20
1.75
 11
5.35
 21
1.75
  0
LINE
  5
AA
100
AcDbEntity
  8
Bemassung
  6
ByBlock
 62
    7
370
   18
100
AcDbLine
 10
5.1
 20
2.24
 11
5.35
 21
2.24
  0
ENDBLK
  5
6B
330
69
100
AcDbEntity
  8
0
100
AcDbBlockEnd
  0
BLOCK
  5
6D
330
6C
100
AcDbEntity
  8
0
100
AcDbBlockBegin
  2
*D8
 70
    1
 10
0
 20
0
  3
*D8
  1

  0
LINE
  5
AB
100
AcDbEntity
  8
2 Schraffur
  6
ByBlock
 62
    7
370
   18
100
AcDbLine
 10
4.425
 20
-1.4
 11
4.94
 21
-1.4
  0
MTEXT
  5
AC
100
AcDbEntity
  8
2 Schraffur
  6
CONTINUOUS
 62
    7
370
   -2
100
AcDbMText
 10
4.956666666666671
 20
-1.2875
 30
0
 40
0.125
 41
0.3333333333333411
 71
    5
 72
    1
  1
0.115
  7
standard
210
0
220
0
230
1
 50
0
 73
    2
 44
1
  0
LINE
  5
AD
100
AcDbEntity
  8
2 Schraffur
  6
ByBlock
 62
    7
370
   18
100
AcDbLine
 10
4.589644660940673
 20
-1.435355339059327
 11
4.660355339059327
 21
-1.364644660940673
  0
LINE
  5
AE
100
AcDbEntity
  8
2 Schraffur
  6
ByBlock
 62
    7
370
   18
100
AcDbLine
 10
4.704644660940673
 20
-1.435355339059327
 11
4.775355339059328
 21
-1.364644660940673
  0
LINE
  5
AF
100
AcDbEntity
  8
2 Schraffur
  6
ByBlock
 62
    7
370
   18
100
AcDbLine
 10
4.625
 20
-1.2
 11
4.625
 21
-1.45
  0
LINE
  5
B0
100
AcDbEntity
  8
2 Schraffur
  6
ByBlock
 62
    7
370
   18
100
AcDbLine
 10
4.74
 20
-1.2
 11
4.74
 21
-1.45
  0
ENDBLK
  5
6E
330
6C
100
AcDbEntity
  8
0
100
AcDbBlockEnd
  0
BLOCK
  5
70
330
6F
100
AcDbEntity
  8
0
100
AcDbBlockBegin
  2
*D2
 70
    1
 10
0
 20
0
  3
*D2
  1

  0
LINE
  5
B1
100
AcDbEntity
  8
Bemassung
  6
ByBlock
 62
    7
370
   18
100
AcDbLine
 10
0
 20
-1.4
 11
0.365
 21
-1.4
  0
MTEXT
  5
B2
100
AcDbEntity
  8
Bemassung
  6
CONTINUOUS
 62
    7
370
   -2
100
AcDbMText
 10
0.609444444444456
 20
-1.2875
 30
0
 40
0.125
 41
0.3888888888889122
 71
    5
 72
    1
  1
0.365
  7
standard
210
0
220
0
230
1
 50
0
 73
    2
 44
1
  0
LINE
  5
B3
100
AcDbEntity
  8
Bemassung
  6
ByBlock
 62
    7
370
   18
100
AcDbLine
 10
0.03535533905932738
 20
-1.364644660940673
 11
-0.03535533905932738
 21
-1.435355339059327
  0
LINE
  5
B4
100
AcDbEntity
  8
Bemassung
  6
ByBlock
 62
    7
370
   18
100
AcDbLine
 10
0.4003553390593274
 20
-1.364644660940673
 11
0.3296446609406726
 21
-1.435355339059327
  0
LINE
  5
B5
100
AcDbEntity
  8
Bemassung
  6
ByBlock
 62
    7
370
   18
100
AcDbLine
 10
-2.204291436880279e-016
 20
-1.2
 11
-9.18454765366783e-018
 21
-1.45
  0
LINE
  5
B6
100
AcDbEntity
  8
Bemassung
  6
ByBlock
 62
    7
370
   18
100
AcDbLine
 10
0.3649999999999997
 20
-1.2
 11
0.365
 21
-1.45
  0
ENDBLK
  5
71
330
6F
100
AcDbEntity
  8
0
100
AcDbBlockEnd
  0
BLOCK
  5
73
330
72
100
AcDbEntity
  8
0
100
AcDbBlockBegin
  2
*D3
 70
    1
 10
0
 20
0
  3
*D3
  1

  0
LINE
  5
B7
100
AcDbEntity
  8
Bemassung
  6
ByBlock
 62
    7
370
   18
100
AcDbLine
 10
5.3
 20
0.365
 11
5.3
 21
0.865
  0
MTEXT
  5
B8
100
AcDbEntity
  8
Bemassung
  6
CONTINUOUS
 62
    7
370
   -2
100
AcDbMText
 10
5.1875
 20
0.615
 30
0
 40
0.125
 41
0.1944444444444522
 71
    5
 72
    1
  1
0.5
  7
standard
210
0
220
0
230
1
 50
90
 73
    2
 44
1
  0
LINE
  5
B9
100
AcDbEntity
  8
Bemassung
  6
ByBlock
 62
    7
370
   18
100
AcDbLine
 10
5.264644660940673
 20
0.4003553390593274
 11
5.335355339059327
 21
0.3296446609406726
  0
LINE
  5
BA
100
AcDbEntity
  8
Bemassung
  6
ByBlock
 62
    7
370
   18
100
AcDbLine
 10
5.264644660940673
 20
0.9003553390593274
 11
5.335355339059327
 21
0.8296446609406726
  0
LINE
  5
BB
100
AcDbEntity
  8
Bemassung
  6
ByBlock
 62
    7
370
   18
100
AcDbLine
 10
5.1
 20
0.365
 11
5.35
 21
0.365
  0
LINE
  5
BC
100
AcDbEntity
  8
Bemassung
  6
ByBlock
 62
    7
370
   18
100
AcDbLine
 10
5.1
 20
0.865
 11
5.35
 21
0.865
  0
ENDBLK
  5
74
330
72
100
AcDbEntity
  8
0
100
AcDbBlockEnd
  0
ENDSEC
  0
SECTION
  2
ENTITIES
  0
HATCH
  5
BD
100
AcDbEntity
  8
2 Schraffur
  6
CONTINUOUS
 62
    7
370
   18
100
AcDbHatch
 10
0
 20
0
 30
0
210
0
220
0
230
1
  2
ansi31
 70
    0
 71
    0
 91
    1
 92
    0
 93
    4
 72
    1
 10
0.99
 20
0
 11
0.99
 21
0.365
 72
    1
 10
0.99
 20
0.365
 11
0
 21
0.365
 72
    1
 10
0
 20
0.365
 11
0
 21
0
 72
    1
 10
0
 20
0
 11
0.99
 21
0
 97
    0
 75
    0
 76
    1
 52
0
 41
0.04
 77
    0
 78
    0
 98
    0
  0
HATCH
  5
BE
100
AcDbEntity
  8
2 Schraffur
  6
CONTINUOUS
 62
    7
370
   18
100
AcDbHatch
 10
0
 20
0
 30
0
210
0
220
0
230
1
  2
ansi31
 70
    0
 71
    0
 91
    1
 92
    0
 93
    4
 72
    1
 10
3.385
 20
0
 11
3.385
 21
0.365
 72
    1
 10
3.385
 20
0.365
 11
2.375
 21
0.365
 72
    1
 10
2.375
 20
0.365
 11
2.375
 21
0
 72
    1
 10
2.375
 20
0
 11
3.385
 21
0
 97
    0
 75
    0
 76
    1
 52
0
 41
0.04
 77
    0
 78
    0
 98
    0
  0
HATCH
  5
BF
100
AcDbEntity
  8
2 Schraffur
  6
CONTINUOUS
 62
    7
370
   18
100
AcDbHatch
 10
0
 20
0
 30
0
210
0
220
0
230
1
  2
ansi31
 70
    0
 71
    0
 91
    1
 92
    0
 93
    4
 72
    1
 10
0
 20
0.365
 11
0.365
 21
0.365
 72
    1
 10
0.365
 20
0.365
 11
0.365
 21
1.365
 72
    1
 10
0.365
 20
1.365
 11
-6.310887241768093e-032
 21
1.365
 72
    1
 10
-6.310887241768093e-032
 20
1.365
 11
0
 21
0.365
 97
    0
 75
    0
 76
    1
 52
4.71238898038469
 41
0.04
 77
    0
 78
    0
 98
    0
  0
HATCH
  5
C0
100
AcDbEntity
  8
2 Schraffur
  6
CONTINUOUS
 62
    7
370
   18
100
AcDbHatch
 10
0
 20
0
 30
0
210
0
220
0
230
1
  2
ansi31
 70
    0
 71
    0
 91
    1
 92
    0
 93
    4
 72
    1
 10
0
 20
2.75
 11
0.365
 21
2.75
 72
    1
 10
0.365
 20
2.75
 11
0.365
 21
3.75
 72
    1
 10
0.365
 20
3.75
 11
-6.310887241768093e-032
 21
3.75
 72
    1
 10
-6.310887241768093e-032
 20
3.75
 11
0
 21
2.75
 97
    0
 75
    0
 76
    1
 52
4.71238898038469
 41
0.04
 77
    0
 78
    0
 98
    0
  0
HATCH
  5
C1
100
AcDbEntity
  8
2 Schraffur
  6
CONTINUOUS
 62
    7
370
   18
100
AcDbHatch
 10
0
 20
0
 30
0
210
0
220
0
230
1
  2
ansi31
 70
    0
 71
    0
 91
    1
 92
    0
 93
    4
 72
    1
 10
4.625
 20
0.365
 11
4.74
 21
0.365
 72
    1
 10
4.74
 20
0.365
 11
4.74
 21
0.865
 72
    1
 10
4.74
 20
0.865
 11
4.625
 21
0.865
 72
    1
 10
4.625
 20
0.865
 11
4.625
 21
0.365
 97
    0
 75
    0
 76
    1
 52
4.71238898038469
 41
0.04
 77
    0
 78
    0
 98
    0
  0
HATCH
  5
C2
100
AcDbEntity
  8
2 Schraffur
  6
CONTINUOUS
 62
    7
370
   18
100
AcDbHatch
 10
0
 20
0
 30
0
210
0
220
0
230
1
  2
ansi31
 70
    0
 71
    0
 91
    1
 92
    0
 93
    4
 72
    1
 10
4.625
 20
1.75
 11
4.74
 21
1.75
 72
    1
 10
4.74
 20
1.75
 11
4.74
 21
2.24
 72
    1
 10
4.74
 20
2.24
 11
4.625
 21
2.24
 72
    1
 10
4.625
 20
2.24
 11
4.625
 21
1.75
 97
    0
 75
    0
 76
    1
 52
4.71238898038469
 41
0.04
 77
    0
 78
    0
 98
    0
  0
HATCH
  5
C3
100
AcDbEntity
  8
2 Schraffur
  6
CONTINUOUS
 62
    7
370
   18
100
AcDbHatch
 10
0
 20
0
 30
0
210
0
220
0
230
1
  2
ansi31
 70
    0
 71
    0
 91
    1
 92
    0
 93
    4
 72
    1
 10
4.625
 20
3.125
 11
4.74
 21
3.125
 72
    1
 10
4.74
 20
3.125
 11
4.74
 21
3.75
 72
    1
 10
4.74
 20
3.75
 11
4.625
 21
3.75
 72
    1
 10
4.625
 20
3.75
 11
4.625
 21
3.125
 97
    0
 75
    0
 76
    1
 52
4.71238898038469
 41
0.04
 77
    0
 78
    0
 98
    0
  0
HATCH
  5
C4
100
AcDbEntity
  8
2 Schraffur
  6
CONTINUOUS
 62
    7
370
   18
100
AcDbHatch
 10
0
 20
0
 30
0
210
0
220
0
230
1
  2
ansi31
 70
    0
 71
    0
 91
    1
 92
    0
 93
    4
 72
    1
 10
7.365
 20
0
 11
7.365
 21
0.365
 72
    1
 10
7.365
 20
0.365
 11
4.395
 21
0.365
 72
    1
 10
4.395
 20
0.365
 11
4.395
 21
0
 72
    1
 10
4.395
 20
0
 11
7.365
 21
0
 97
    0
 75
    0
 76
    1
 52
0
 41
0.04
 77
    0
 78
    0
 98
    0
  0
LWPOLYLINE
  5
C5
100
AcDbEntity
  8
1
  6
CONTINUOUS
 62
    7
370
   35
100
AcDbPolyline
 90
    4
 70
    1
 43
0
 10
0
 20
0
 10
0.99
 20
0
 10
0.99
 20
0.365
 10
0
 20
0.365
  0
LWPOLYLINE
  5
C6
100
AcDbEntity
  8
1
  6
CONTINUOUS
 62
    7
370
   35
100
AcDbPolyline
 90
    4
 70
    1
 43
0
 10
2.375
 20
0
 10
3.385
 20
0
 10
3.385
 20
0.365
 10
2.375
 20
0.365
  0
LWPOLYLINE
  5
C7
100
AcDbEntity
  8
1
  6
CONTINUOUS
 62
    7
370
   35
100
AcDbPolyline
 90
    4
 70
    1
 43
0
 10
-6.310887241768093e-032
 20
1.365
 10
0
 20
0.365
 10
0.365
 20
0.365
 10
0.365
 20
1.365
  0
LWPOLYLINE
  5
C8
100
AcDbEntity
  8
1
  6
CONTINUOUS
 62
    7
370
   35
100
AcDbPolyline
 90
    4
 70
    1
 43
0
 10
-6.310887241768093e-032
 20
3.75
 10
0
 20
2.75
 10
0.365
 20
2.75
 10
0.365
 20
3.75
  0
LWPOLYLINE
  5
C9
100
AcDbEntity
  8
1
  6
CONTINUOUS
 62
    7
370
   35
100
AcDbPolyline
 90
    4
 70
    1
 43
0
 10
4.625
 20
0.865
 10
4.625
 20
0.365
 10
4.74
 20
0.365
 10
4.74
 20
0.865
  0
LWPOLYLINE
  5
CA
100
AcDbEntity
  8
1
  6
CONTINUOUS
 62
    7
370
   35
100
AcDbPolyline
 90
    4
 70
    1
 43
0
 10
4.625
 20
2.24
 10
4.625
 20
1.75
 10
4.74
 20
1.75
 10
4.74
 20
2.24
  0
LWPOLYLINE
  5
CB
100
AcDbEntity
  8
1
  6
CONTINUOUS
 62
    7
370
   35
100
AcDbPolyline
 90
    4
 70
    1
 43
0
 10
4.625
 20
3.75
 10
4.625
 20
3.125
 10
4.74
 20
3.125
 10
4.74
 20
3.75
  0
DIMENSION
  5
CC
100
AcDbEntity
  8
Bemassung
  6
ByLayer
 62
  256
370
   -1
100
AcDbDimension
  2
*D1
 10
4.645
 20
-1.4
 30
0
 11
2.495
 21
-1.2875
 31
0
 70
   32
 71
    5
 72
    0
  3
Standard
 53
0
210
0
220
0
230
1
100
AcDbAlignedDimension
 13
0.365
 23
0.365
 33
0
 14
4.625
 24
0.365
 34
0
100
AcDbRotatedDimension
  0
DIMENSION
  5
CD
100
AcDbEntity
  8
Bemassung
  6
ByLayer
 62
  256
370
   -1
100
AcDbDimension
  2
*D2
 10
0.3649999999999999
 20
-1.4
 30
0
 11
0.1825
 21
-1.2875
 31
0
 70
   32
 71
    5
 72
    0
  3
Standard
 53
0
210
0
220
0
230
1
100
AcDbAlignedDimension
 13
0
 23
0
 33
0
 14
0.365
 24
0.365
 34
0
100
AcDbRotatedDimension
  0
DIMENSION
  5
CE
100
AcDbEntity
  8
Bemassung
  6
ByLayer
 62
  256
370
   -1
100
AcDbDimension
  2
*D3
 10
5.3
 20
0.8649999999999999
 30
0
 11
5.1875
 21
0.615
 31
0
 70
   32
 71
    5
 72
    0
  3
Standard
 53
0
210
0
220
0
230
1
100
AcDbAlignedDimension
 13
4.74
 23
0.365
 33
0
 14
4.74
 24
0.865
 34
0
 50
90
100
AcDbRotatedDimension
  0
DIMENSION
  5
CF
100
AcDbEntity
  8
Bemassung
  6
ByLayer
 62
  256
370
   -1
100
AcDbDimension
  2
*D4
 10
5.3
 20
1.75
 30
0
 11
5.1875
 21
1.3075
 31
0
 70
   32
 71
    5
 72
    0
  3
Standard
 53
0
210
0
220
0
230
1
100
AcDbAlignedDimension
 13
4.74
 23
0.865
 33
0
 14
4.74
 24
1.75
 34
0
 50
90
100
AcDbRotatedDimension
  0
DIMENSION
  5
D0
100
AcDbEntity
  8
Bemassung
  6
ByLayer
 62
  256
370
   -1
100
AcDbDimension
  2
*D5
 10
5.3
 20
2.25
 30
0
 11
5.1875
 21
1.995
 31
0
 70
   32
 71
    5
 72
    0
  3
Standard
 53
0
210
0
220
0
230
1
100
AcDbAlignedDimension
 13
4.74
 23
1.75
 33
0
 14
4.74
 24
2.24
 34
0
 50
90
100
AcDbRotatedDimension
  0
DIMENSION
  5
D1
100
AcDbEntity
  8
Bemassung
  6
ByLayer
 62
  256
370
   -1
100
AcDbDimension
  2
*D6
 10
5.3
 20
3.125
 30
0
 11
5.1875
 21
2.6825
 31
0
 70
   32
 71
    5
 72
    0
  3
Standard
 53
0
210
0
220
0
230
1
100
AcDbAlignedDimension
 13
4.74
 23
2.24
 33
0
 14
4.74
 24
3.125
 34
0
 50
90
100
AcDbRotatedDimension
  0
DIMENSION
  5
D2
100
AcDbEntity
  8
Bemassung
  6
ByLayer
 62
  256
370
   -1
100
AcDbDimension
  2
*D7
 10
5.3
 20
3.75
 30
0
 11
5.1875
 21
3.4375
 31
0
 70
   32
 71
    5
 72
    0
  3
Standard
 53
0
210
0
220
0
230
1
100
AcDbAlignedDimension
 13
4.74
 23
3.125
 33
0
 14
4.74
 24
3.75
 34
0
 50
90
100
AcDbRotatedDimension
  0
DIMENSION
  5
D3
100
AcDbEntity
  8
2 Schraffur
  6
ByLayer
 62
  256
370
   -1
100
AcDbDimension
  2
*D8
 10
4.74
 20
-1.4
 30
0
 11
4.6825
 21
-1.2875
 31
0
 70
   32
 71
    5
  3
Standard
 53
0
210
0
220
0
230
1
100
AcDbAlignedDimension
 13
4.625
 23
0.365
 33
0
 14
4.74
 24
0.365
 34
0
100
AcDbRotatedDimension
  0
LWPOLYLINE
  5
D4
100
AcDbEntity
  8
1
  6
CONTINUOUS
 62
    7
370
   35
100
AcDbPolyline
 90
    4
 70
    1
 43
0
 10
4.395
 20
0
 10
7.365
 20
0
 10
7.365
 20
0.365
 10
4.395
 20
0.365
  0
DIMENSION
  5
D5
100
AcDbEntity
  8
Bemassung
  6
ByLayer
 62
  256
370
   -1
100
AcDbDimension
  2
*D9
 10
-0.7000000000000001
 20
1.365
 30
0
 11
-0.8125000000000002
 21
0.6825
 31
0
 70
   32
 71
    5
 72
    0
  3
Standard
 53
0
210
0
220
0
230
1
100
AcDbAlignedDimension
 13
0
 23
0
 33
0
 14
-6.310887241768093e-032
 24
1.365
 34
0
 50
90
100
AcDbRotatedDimension
  0
DIMENSION
  5
D6
100
AcDbEntity
  8
Bemassung
  6
ByLayer
 62
  256
370
   -1
100
AcDbDimension
  2
*D10
 10
-0.7000000000000001
 20
2.75
 30
0
 11
-0.8125000000000002
 21
2.0575
 31
0
 70
   32
 71
    5
 72
    0
  3
Standard
 53
0
210
0
220
0
230
1
100
AcDbAlignedDimension
 13
-6.310887241768093e-032
 23
1.365
 33
0
 14
0
 24
2.75
 34
0
 50
90
100
AcDbRotatedDimension
  0
DIMENSION
  5
D7
100
AcDbEntity
  8
Bemassung
  6
ByLayer
 62
  256
370
   -1
100
AcDbDimension
  2
*D11
 10
-0.7000000000000001
 20
3.75
 30
0
 11
-0.8125000000000002
 21
3.25
 31
0
 70
   32
 71
    5
 72
    0
  3
Standard
 53
0
210
0
220
0
230
1
100
AcDbAlignedDimension
 13
0
 23
2.75
 33
0
 14
-6.310887241768093e-032
 24
3.75
 34
0
 50
90
100
AcDbRotatedDimension
  0
LINE
  5
D8
100
AcDbEntity
  8
0
  6
CONTINUOUS
 62
    7
370
   18
100
AcDbLine
 10
12.6
 20
-2.250000000000001
 11
-2.25
 21
-2.25
  0
LINE
  5
D9
100
AcDbEntity
  8
0
  6
CONTINUOUS
 62
    7
370
   18
100
AcDbLine
 10
12.6
 20
8.25
 11
-2.25
 21
8.25
  0
LINE
  5
DA
100
AcDbEntity
  8
0
  6
CONTINUOUS
 62
    7
370
   18
100
AcDbLine
 10
-2.25
 20
-2.25
 11
-2.25
 21
8.25
  0
LINE
  5
DB
100
AcDbEntity
  8
0
  6
CONTINUOUS
 62
    7
370
   18
100
AcDbLine
 10
12.6
 20
-2.250000000000001
 11
12.6
 21
8.25
  0
MTEXT
  5
DC
100
AcDbEntity
  8
Bemassung
  6
ByLayer
 62
  256
370
   50
100
AcDbMText
 10
3.515215398716769
 20
5.54967919340055
 30
0
 40
0.5
 41
1.388888888888889
 71
    1
 72
    1
  1
Text
  7
standard
210
0
220
0
230
1
 50
0
 73
    2
 44
1
  0
LINE
  5
DD
100
AcDbEntity
  8
0
  6
ByLayer
 62
  256
370
   13
100
AcDbLine
 10
7
 20
5
 11
7
 21
6
  0
LINE
  5
DE
100
AcDbEntity
  8
0
  6
ByLayer
 62
  256
370
   25
100
AcDbLine
 10
8
 20
5
 11
8
 21
6
  0
LINE
  5
DF
100
AcDbEntity
  8
0
  6
ByLayer
 62
  256
370
   35
100
AcDbLine
 10
8.5
 20
5
 11
8.5
 21
6
  0
LINE
  5
E0
100
AcDbEntity
  8
0
  6
ByLayer
 62
  256
370
   50
100
AcDbLine
 10
9
 20
5
 11
9
 21
6
  0
LINE
  5
E1
100
AcDbEntity
  8
0
  6
ByLayer
 62
  256
370
   70
100
AcDbLine
 10
9.5
 20
5
 11
9.5
 21
6
  0
LINE
  5
E2
100
AcDbEntity
  8
0
  6
ByLayer
 62
  256
370
  100
100
AcDbLine
 10
10
 20
5
 11
10
 21
6
  0
LINE
  5
E3
100
AcDbEntity
  8
0
  6
ByLayer
 62
  256
370
  140
100
AcDbLine
 10
10.5
 20
5
 11
10.5
 21
6
  0
LINE
  5
E4
100
AcDbEntity
  8
0
  6
ByLayer
 62
  256
370
  200
100
AcDbLine
 10
11
 20
5
 11
11
 21
6
  0
MTEXT
  5
E5
100
AcDbEntity
  8
0
  6
ByLayer
 62
  256
370
   18
100
AcDbMText
 10
7
 20
6.200000000000051
 30
0
 40
0.18
 41
0.3800000000000112
 71
    7
 72
    1
  1
0.13
  7
iso
210
0
220
0
230
1
 50
90
 73
    2
 44
1
  0
MTEXT
  5
E6
100
AcDbEntity
  8
0
  6
ByLayer
 62
  256
370
   18
100
AcDbMText
 10
7.5
 20
6.200000000000051
 30
0
 40
0.18
 41
0.38
 71
    7
 72
    1
  1
0.18
  7
iso
210
0
220
0
230
1
 50
90
 73
    2
 44
1
  0
MTEXT
  5
E7
100
AcDbEntity
  8
0
  6
ByLayer
 62
  256
370
   18
100
AcDbMText
 10
8
 20
6.200000000000051
 30
0
 40
0.18
 41
0.4200000000000112
 71
    7
 72
    1
  1
0.25
  7
iso
210
0
220
0
230
1
 50
90
 73
    2
 44
1
  0
MTEXT
  5
E8
100
AcDbEntity
  8
0
  6
ByLayer
 62
  256
370
   18
100
AcDbMText
 10
8.5
 20
6.200000000000051
 30
0
 40
0.18
 41
0.4200000000000224
 71
    7
 72
    1
  1
0.35
  7
iso
210
0
220
0
230
1
 50
90
 73
    2
 44
1
  0
MTEXT
  5
E9
100
AcDbEntity
  8
0
  6
ByLayer
 62
  256
370
   18
100
AcDbMText
 10
9
 20
6.200000000000051
 30
0
 40
0.18
 41
0.4200000000000113
 71
    7
 72
    1
  1
0.50
  7
iso
210
0
220
0
230
1
 50
90
 73
    2
 44
1
  0
MTEXT
  5
EA
100
AcDbEntity
  8
0
  6
ByLayer
 62
  256
370
   18
100
AcDbMText
 10
9.5
 20
6.200000000000051
 30
0
 40
0.18
 41
0.42
 71
    7
 72
    1
  1
0.70
  7
iso
210
0
220
0
230
1
 50
90
 73
    2
 44
1
  0
MTEXT
  5
EB
100
AcDbEntity
  8
0
  6
ByLayer
 62
  256
370
   18
100
AcDbMText
 10
10
 20
6.200000000000051
 30
0
 40
0.18
 41
0.38
 71
    7
 72
    1
  1
1.00
  7
iso
210
0
220
0
230
1
 50
90
 73
    2
 44
1
  0
MTEXT
  5
EC
100
AcDbEntity
  8
0
  6
ByLayer
 62
  256
370
   18
100
AcDbMText
 10
10.5
 20
6.200000000000051
 30
0
 40
0.18
 41
0.4
 71
    7
 72
    1
  1
1.40
  7
iso
210
0
220
0
230
1
 50
90
 73
    2
 44
1
  0
MTEXT
  5
ED
100
AcDbEntity
  8
0
  6
ByLayer
 62
  256
370
   18
100
AcDbMText
 10
11
 20
6.200000000000051
 30
0
 40
0.18
 41
0.42
 71
    7
 72
    1
  1
2.00
  7
iso
210
0
220
0
230
1
 50
90
 73
    2
 44
1
  0
LINE
  5
EE
100
AcDbEntity
  8
0
  6
ByLayer
 62
  256
370
   18
100
AcDbLine
 10
7.5
 20
5
 11
7.5
 21
6
  0
MTEXT
  5
EF
100
AcDbEntity
  8
0
  6
CONTINUOUS
 62
    7
370
   25
100
AcDbMText
 10
11.35590277777779
 20
-1.9375
 30
0
 40
0.125
 41
1.295138888888908
 71
    5
 72
    1
  1
Arch m 1:50 A4
  7
iso
210
0
220
0
230
1
 50
0
 73
    2
 44
1
  0
DIMENSION
  5
F0
100
AcDbEntity
  8
2 Schraffur
  6
ByLayer
 62
  256
370
   -1
100
AcDbDimension
  2
*D12
 10
7.385
 20
-1.4
 30
0
 11
6.0525
 21
-1.2875
 31
0
 70
   32
 71
    5
  3
Standard
 53
0
210
0
220
0
230
1
100
AcDbAlignedDimension
 13
4.74
 23
0.365
 33
0
 14
7.365
 24
0
 34
0
100
AcDbRotatedDimension
  0
ENDSEC
  0
SECTION
  2
OBJECTS
  0
DICTIONARY
  5
C
330
0
100
AcDbDictionary
281
    1
  3
ACAD_GROUP
350
D
  0
DICTIONARY
  5
D
330
C
100
AcDbDictionary
281
    1
  0
PLOTSETTINGS
  5
F1
  6
1x1
 40
0
 41
0
 42
0
 43
0
  0
ENDSEC
  0
EOF
