999
dxfrw 0.6.3
  0
SECTION
  2
HEADER
  9
$ACADVER
  1
AC1021
  9
$DWGCODEPAGE
  3
ANSI_1252
  9
$INSBASE
 10
0
 20
0
 30
0
  9
$EXTMIN
 10
-5440.668245919292
 20
-12125
 30
0
  9
$EXTMAX
 10
32200
 20
21312.5
 30
0
  9
$LIMMIN
 10
0
 20
0
  9
$LIMMAX
 10
420
 20
297
  9
$ORTHOMODE
 70
    0
  9
$REGENMODE
 70
    1
  9
$FILLMODE
 70
    1
  9
$QTEXTMODE
 70
    0
  9
$MIRRTEXT
 70
    0
  9
$LTSCALE
 40
1
  9
$ATTMODE
 70
    0
  9
$TEXTSIZE
 40
2.5
  9
$TRACEWID
 40
15.68
  9
$TEXTSTYLE
  7
STANDARD
  9
$CLAYER
  8
Beete
  9
$CELTYPE
  6
BYLAYER
  9
$CECOLOR
 62
  256
  9
$CELTSCALE
 40
1
  9
$DISPSILH
 70
    0
  9
$DIMSCALE
 40
100
  9
$DIMASZ
 40
2.5
  9
$DIMEXO
 40
0.625
  9
$DIMDLI
 40
3.75
  9
$DIMRND
 40
0
  9
$DIMDLE
 40
0
  9
$DIMEXE
 40
1.25
  9
$DIMTP
 40
0
  9
$DIMTM
 40
0
  9
$DIMTXT
 40
2.5
  9
$DIMCEN
 40
2.5
  9
$DIMTSZ
 40
0
  9
$DIMTOL
 70
    0
  9
$DIMLIM
 70
    0
  9
$DIMTIH
 70
    0
  9
$DIMTOH
 70
    0
  9
$DIMSE1
 70
    0
  9
$DIMSE2
 70
    0
  9
$DIMTAD
 70
    1
  9
$DIMZIN
 70
    8
  9
$DIMBLK
  1

  9
$DIMASO
 70
    1
  9
$DIMSHO
 70
    1
  9
$DIMPOST
  1

  9
$DIMAPOST
  1

  9
$DIMALT
 70
    0
  9
$DIMALTD
 70
    3
  9
$DIMALTF
 40
0.03937
  9
$DIMLFAC
 40
1
  9
$DIMTOFL
 70
    1
  9
$DIMTVP
 40
0
  9
$DIMTIX
 70
    0
  9
$DIMSOXD
 70
    0
  9
$DIMSAH
 70
    0
  9
$DIMBLK1
  1

  9
$DIMBLK2
  1

  9
$DIMSTYLE
  2
STANDARD
  9
$DIMCLRD
 70
    0
  9
$DIMCLRE
 70
    0
  9
$DIMCLRT
 70
    0
  9
$DIMTFAC
 40
1
  9
$DIMGAP
 40
0.625
  9
$DIMJUST
 70
    0
  9
$DIMSD1
 70
    0
  9
$DIMSD2
 70
    0
  9
$DIMTOLJ
 70
    0
  9
$DIMTZIN
 70
    8
  9
$DIMALTZ
 70
    0
  9
$DIMALTTZ
 70
    0
  9
$DIMUPT
 70
    0
  9
$DIMDEC
 70
    0
  9
$DIMTDEC
 70
    2
  9
$DIMALTU
 70
    2
  9
$DIMALTTD
 70
    3
  9
$DIMTXSTY
  7
standard
  9
$DIMAUNIT
 70
    0
  9
$DIMADEC
 70
    2
  9
$DIMALTRND
 40
0
  9
$DIMAZIN
 70
    0
  9
$DIMDSEP
 70
   44
  9
$DIMATFIT
 70
    3
  9
$DIMFRAC
 70
    0
  9
$DIMLDRBLK
  1
STANDARD
  9
$DIMLUNIT
 70
    2
  9
$DIMLWD
 70
   -2
  9
$DIMLWE
 70
   -2
  9
$DIMTMOVE
 70
    0
  9
$DIMFXL
 40
1
  9
$DIMFXLON
 70
    0
  9
$DIMJOGANG
 40
0.7854
  9
$DIMTFILL
 70
    0
  9
$DIMTFILLCLR
 70
    0
  9
$DIMARCSYM
 70
    0
  9
$DIMLTYPE
  6

  9
$DIMLTEX1
  6

  9
$DIMLTEX2
  6

  9
$LUNITS
 70
    2
  9
$LUPREC
 70
    4
  9
$SKETCHINC
 40
1
  9
$FILLETRAD
 40
0
  9
$AUNITS
 70
    0
  9
$AUPREC
 70
    2
  9
$MENU
  1
.
  9
$ELEVATION
 40
0
  9
$PELEVATION
 40
0
  9
$THICKNESS
 40
0
  9
$LIMCHECK
 70
    0
  9
$CHAMFERA
 40
0
  9
$CHAMFERB
 40
0
  9
$CHAMFERC
 40
0
  9
$CHAMFERD
 40
0
  9
$SKPOLY
 70
    0
  9
$USRTIMER
 70
    1
  9
$ANGBASE
 50
0
  9
$ANGDIR
 70
    0
  9
$PDMODE
 70
   34
  9
$PDSIZE
 40
0
  9
$PLINEWID
 40
0
  9
$SPLFRAME
 70
    0
  9
$SPLINETYPE
 70
    2
  9
$SPLINESEGS
 70
    8
  9
$HANDSEED
  5
20000
  9
$SURFTAB1
 70
    6
  9
$SURFTAB2
 70
    6
  9
$SURFTYPE
 70
    6
  9
$SURFU
 70
    6
  9
$SURFV
 70
    6
  9
$UCSBASE
  2

  9
$UCSNAME
  2

  9
$UCSORG
 10
0
 20
0
 30
0
  9
$UCSXDIR
 10
1
 20
0
 30
0
  9
$UCSYDIR
 10
0
 20
1
 30
0
  9
$UCSORTHOREF
  2

  9
$UCSORTHOVIEW
 70
    0
  9
$UCSORGTOP
 10
0
 20
0
 30
0
  9
$UCSORGBOTTOM
 10
0
 20
0
 30
0
  9
$UCSORGLEFT
 10
0
 20
0
 30
0
  9
$UCSORGRIGHT
 10
0
 20
0
 30
0
  9
$UCSORGFRONT
 10
0
 20
0
 30
0
  9
$UCSORGBACK
 10
0
 20
0
 30
0
  9
$PUCSBASE
  2

  9
$PUCSNAME
  2

  9
$PUCSORG
 10
0
 20
0
 30
0
  9
$PUCSXDIR
 10
1
 20
0
 30
0
  9
$PUCSYDIR
 10
0
 20
1
 30
0
  9
$PUCSORTHOREF
  2

  9
$PUCSORTHOVIEW
 70
    0
  9
$PUCSORGTOP
 10
0
 20
0
 30
0
  9
$PUCSORGBOTTOM
 10
0
 20
0
 30
0
  9
$PUCSORGLEFT
 10
0
 20
0
 30
0
  9
$PUCSORGRIGHT
 10
0
 20
0
 30
0
  9
$PUCSORGFRONT
 10
0
 20
0
 30
0
  9
$PUCSORGBACK
 10
0
 20
0
 30
0
  9
$USERI1
 70
    0
  9
$USERI2
 70
    0
  9
$USERI3
 70
    0
  9
$USERI4
 70
    0
  9
$USERI5
 70
    0
  9
$USERR1
 40
0
  9
$USERR2
 40
0
  9
$USERR3
 40
0
  9
$USERR4
 40
0
  9
$USERR5
 40
0
  9
$WORLDVIEW
 70
    1
  9
$SHADEDGE
 70
    3
  9
$SHADEDIF
 70
   70
  9
$TILEMODE
 70
    1
  9
$MAXACTVP
 70
   64
  9
$PINSBASE
 10
-267.444817540807
 20
-91.76999999999998
 30
0
  9
$PLIMCHECK
 70
    0
  9
$PEXTMIN
 10
0
 20
0
 30
0
  9
$PEXTMAX
 10
0
 20
0
 30
0
  9
$GRIDMODE
 70
    0
  9
$SNAPSTYLE
 70
    0
  9
$GRIDUNIT
 10
0
 20
0
  9
$PLIMMIN
 10
0
 20
0
  9
$PLIMMAX
 10
0.297
 20
0.21
  9
$UNITMODE
 70
    0
  9
$VISRETAIN
 70
    1
  9
$PLINEGEN
 70
    0
  9
$PSLTSCALE
 70
    1
  9
$TREEDEPTH
 70
 3020
  9
$CMLSTYLE
  2
Standard
  9
$CMLJUST
 70
    0
  9
$CMLSCALE
 40
20
  9
$PROXYGRAPHICS
 70
    1
  9
$MEASUREMENT
 70
    1
  9
$CELWEIGHT
370
   -1
  9
$ENDCAPS
280
    0
  9
$JOINSTYLE
280
    0
  9
$LWDISPLAY
290
    0
  9
$INSUNITS
 70
    6
  9
$HYPERLINKBASE
  1

  9
$STYLESHEET
  1

  9
$XEDIT
290
    1
  9
$CEPSNTYPE
380
    0
  9
$PSTYLEMODE
290
    1
  9
$EXTNAMES
290
    1
  9
$PSVPSCALE
 40
0.02
  9
$OLESTARTUP
290
    0
  9
$SORTENTS
280
  127
  9
$INDEXCTL
280
    0
  9
$HIDETEXT
280
    1
  9
$XCLIPFRAME
290
    0
  9
$HALOGAP
280
    0
  9
$OBSCOLOR
 70
  257
  9
$OBSLTYPE
280
    0
  9
$INTERSECTIONDISPLAY
280
    0
  9
$INTERSECTIONCOLOR
 70
  257
  9
$DIMASSOC
280
    1
  9
$PROJECTNAME
  1

  9
$CAMERADISPLAY
290
    0
  9
$LENSLENGTH
 40
50
  9
$CAMERAHEIGHT
 40
0
  9
$STEPSPERSEC
 40
2
  9
$STEPSIZE
 40
50
  9
$3DDWFPREC
 40
2
  9
$PSOLWIDTH
 40
5
  9
$PSOLHEIGHT
 40
80
  9
$LOFTANG1
 40
1.570796326794897
  9
$LOFTANG2
 40
1.570796326794897
  9
$LOFTMAG1
 40
0
  9
$LOFTMAG2
 40
0
  9
$LOFTPARAM
 70
    7
  9
$LOFTNORMALS
280
    1
  9
$LATITUDE
 40
1
  9
$LONGITUDE
 40
1
  9
$NORTHDIRECTION
 40
0
  9
$TIMEZONE
 70
-8000
  9
$LIGHTGLYPHDISPLAY
280
    1
  9
$TILEMODELIGHTSYNCH
280
    1
  9
$SOLIDHIST
280
    1
  9
$SHOWHIST
280
    1
  9
$DWFFRAME
280
    2
  9
$DGNFRAME
280
    0
  9
$REALWORLDSCALE
290
    1
  9
$INTERFERECOLOR
 62
    1
  9
$CSHADOW
280
    0
  9
$SHADOWPLANELOCATION
 40
0
  0
ENDSEC
  0
SECTION
  2
CLASSES
  0
ENDSEC
  0
SECTION
  2
TABLES
  0
TABLE
  2
VPORT
  5
8
330
0
100
AcDbSymbolTable
 70
    1
  0
VPORT
  5
31
330
2
100
AcDbSymbolTableRecord
100
AcDbViewportTableRecord
  2
*ACTIVE
 70
    0
 10
0
 20
0
 11
1
 21
1
 12
22991.90667023096
 22
13981.93607544511
 13
0
 23
0
 14
10
 24
10
 15
10
 25
10
 16
0
 26
0
 36
1
 17
0
 27
0
 37
0
 40
47192.4679324454
 41
1.465657741559953
 42
50
 43
0
 44
0
 50
0
 51
0
 71
    0
 72
  100
 73
    1
 74
    3
 75
    0
 76
    0
 77
    0
 78
    0
281
    0
 65
    1
110
0
120
0
130
0
111
1
121
0
131
0
112
0
122
1
132
0
 79
    0
146
0
348
10020
 60
    7
 61
    5
292
1
282
    1
141
0
142
0
 63
  250
421
3358443
  0
ENDTAB
  0
TABLE
  2
LTYPE
  5
5
330
0
100
AcDbSymbolTable
 70
    4
  0
LTYPE
  5
14
330
5
100
AcDbSymbolTableRecord
100
AcDbLinetypeTableRecord
  2
ByBlock
 70
    0
  3

 72
   65
 73
    0
 40
0
  0
LTYPE
  5
15
330
5
100
AcDbSymbolTableRecord
100
AcDbLinetypeTableRecord
  2
ByLayer
 70
    0
  3

 72
   65
 73
    0
 40
0
  0
LTYPE
  5
16
330
5
100
AcDbSymbolTableRecord
100
AcDbLinetypeTableRecord
  2
Continuous
 70
    0
  3
Solid line
 72
   65
 73
    0
 40
0
  0
LTYPE
  5
32
330
5
100
AcDbSymbolTableRecord
100
AcDbLinetypeTableRecord
  2
DOT
 70
    0
  3
Dot . . . . . . . . . . . . . . . . . . . . . .
 72
   65
 73
    2
 40
6.35
 49
0
 74
    0
 49
-6.35
 74
    0
  0
LTYPE
  5
33
330
5
100
AcDbSymbolTableRecord
100
AcDbLinetypeTableRecord
  2
DOTTINY
 70
    0
  3
Dot (.15x) .....................................
 72
   65
 73
    2
 40
0.9525
 49
0
 74
    0
 49
-0.9525
 74
    0
  0
LTYPE
  5
34
330
5
100
AcDbSymbolTableRecord
100
AcDbLinetypeTableRecord
  2
DOT2
 70
    0
  3
Dot (.5x) .....................................
 72
   65
 73
    2
 40
3.175
 49
0
 74
    0
 49
-3.175
 74
    0
  0
LTYPE
  5
35
330
5
100
AcDbSymbolTableRecord
100
AcDbLinetypeTableRecord
  2
DOTX2
 70
    0
  3
Dot (2x) .  .  .  .  .  .  .  .  .  .  .  .  .
 72
   65
 73
    2
 40
12.7
 49
0
 74
    0
 49
-12.7
 74
    0
  0
LTYPE
  5
36
330
5
100
AcDbSymbolTableRecord
100
AcDbLinetypeTableRecord
  2
DASHED
 70
    0
  3
Dashed _ _ _ _ _ _ _ _ _ _ _ _ _ _ _ _ _
 72
   65
 73
    2
 40
19.05
 49
12.7
 74
    0
 49
-6.35
 74
    0
  0
LTYPE
  5
37
330
5
100
AcDbSymbolTableRecord
100
AcDbLinetypeTableRecord
  2
DASHEDTINY
 70
    0
  3
Dashed (.15x) _ _ _ _ _ _ _ _ _ _ _ _ _ _ _ _ _
 72
   65
 73
    2
 40
2.8575
 49
1.905
 74
    0
 49
-0.9525
 74
    0
  0
LTYPE
  5
38
330
5
100
AcDbSymbolTableRecord
100
AcDbLinetypeTableRecord
  2
DASHED2
 70
    0
  3
Dashed (.5x) _ _ _ _ _ _ _ _ _ _ _ _ _ _ _ _ _
 72
   65
 73
    2
 40
9.524999999999999
 49
6.35
 74
    0
 49
-3.175
 74
    0
  0
LTYPE
  5
39
330
5
100
AcDbSymbolTableRecord
100
AcDbLinetypeTableRecord
  2
DASHEDX2
 70
    0
  3
Dashed (2x) ____  ____  ____  ____  ____  ___
 72
   65
 73
    2
 40
38.09999999999999
 49
25.4
 74
    0
 49
-12.7
 74
    0
  0
LTYPE
  5
3A
330
5
100
AcDbSymbolTableRecord
100
AcDbLinetypeTableRecord
  2
DASHDOT
 70
    0
  3
Dash dot __ . __ . __ . __ . __ . __ . __ . __
 72
   65
 73
    4
 40
25.4
 49
12.7
 74
    0
 49
-6.35
 74
    0
 49
0
 74
    0
 49
-6.35
 74
    0
  0
LTYPE
  5
3B
330
5
100
AcDbSymbolTableRecord
100
AcDbLinetypeTableRecord
  2
DASHDOTTINY
 70
    0
  3
Dash dot (.15x) _._._._._._._._._._._._._._._.
 72
   65
 73
    4
 40
3.81
 49
1.905
 74
    0
 49
-0.9525
 74
    0
 49
0
 74
    0
 49
-0.9525
 74
    0
  0
LTYPE
  5
3C
330
5
100
AcDbSymbolTableRecord
100
AcDbLinetypeTableRecord
  2
DASHDOT2
 70
    0
  3
Dash dot (.5x) _._._._._._._._._._._._._._._.
 72
   65
 73
    4
 40
12.7
 49
6.35
 74
    0
 49
-3.175
 74
    0
 49
0
 74
    0
 49
-3.175
 74
    0
  0
LTYPE
  5
3D
330
5
100
AcDbSymbolTableRecord
100
AcDbLinetypeTableRecord
  2
DASHDOTX2
 70
    0
  3
Dash dot (2x) ____  .  ____  .  ____  .  ___
 72
   65
 73
    4
 40
50.8
 49
25.4
 74
    0
 49
-12.7
 74
    0
 49
0
 74
    0
 49
-12.7
 74
    0
  0
LTYPE
  5
3E
330
5
100
AcDbSymbolTableRecord
100
AcDbLinetypeTableRecord
  2
DIVIDE
 70
    0
  3
Divide ____ . . ____ . . ____ . . ____ . . ____
 72
   65
 73
    6
 40
31.75
 49
12.7
 74
    0
 49
-6.35
 74
    0
 49
0
 74
    0
 49
-6.35
 74
    0
 49
0
 74
    0
 49
-6.35
 74
    0
  0
LTYPE
  5
3F
330
5
100
AcDbSymbolTableRecord
100
AcDbLinetypeTableRecord
  2
DIVIDETINY
 70
    0
  3
Divide (.15x) __..__..__..__..__..__..__..__.._
 72
   65
 73
    6
 40
4.7625
 49
1.905
 74
    0
 49
-0.9525
 74
    0
 49
0
 74
    0
 49
-0.9525
 74
    0
 49
0
 74
    0
 49
-0.9525
 74
    0
  0
LTYPE
  5
40
330
5
100
AcDbSymbolTableRecord
100
AcDbLinetypeTableRecord
  2
DIVIDE2
 70
    0
  3
Divide (.5x) __..__..__..__..__..__..__..__.._
 72
   65
 73
    6
 40
15.875
 49
6.35
 74
    0
 49
-3.175
 74
    0
 49
0
 74
    0
 49
-3.175
 74
    0
 49
0
 74
    0
 49
-3.175
 74
    0
  0
LTYPE
  5
41
330
5
100
AcDbSymbolTableRecord
100
AcDbLinetypeTableRecord
  2
DIVIDEX2
 70
    0
  3
Divide (2x) ________  .  .  ________  .  .  _
 72
   65
 73
    6
 40
63.5
 49
25.4
 74
    0
 49
-12.7
 74
    0
 49
0
 74
    0
 49
-12.7
 74
    0
 49
0
 74
    0
 49
-12.7
 74
    0
  0
LTYPE
  5
42
330
5
100
AcDbSymbolTableRecord
100
AcDbLinetypeTableRecord
  2
BORDER
 70
    0
  3
Border __ __ . __ __ . __ __ . __ __ . __ __ .
 72
   65
 73
    6
 40
44.45
 49
12.7
 74
    0
 49
-6.35
 74
    0
 49
12.7
 74
    0
 49
-6.35
 74
    0
 49
0
 74
    0
 49
-6.35
 74
    0
  0
LTYPE
  5
43
330
5
100
AcDbSymbolTableRecord
100
AcDbLinetypeTableRecord
  2
BORDERTINY
 70
    0
  3
Border (.15x) __.__.__.__.__.__.__.__.__.__.__.
 72
   65
 73
    6
 40
6.6675
 49
1.905
 74
    0
 49
-0.9525
 74
    0
 49
1.905
 74
    0
 49
-0.9525
 74
    0
 49
0
 74
    0
 49
-0.9525
 74
    0
  0
LTYPE
  5
44
330
5
100
AcDbSymbolTableRecord
100
AcDbLinetypeTableRecord
  2
BORDER2
 70
    0
  3
Border (.5x) __.__.__.__.__.__.__.__.__.__.__.
 72
   65
 73
    6
 40
22.225
 49
6.35
 74
    0
 49
-3.175
 74
    0
 49
6.35
 74
    0
 49
-3.175
 74
    0
 49
0
 74
    0
 49
-3.175
 74
    0
  0
LTYPE
  5
45
330
5
100
AcDbSymbolTableRecord
100
AcDbLinetypeTableRecord
  2
BORDERX2
 70
    0
  3
Border (2x) ____  ____  .  ____  ____  .  ___
 72
   65
 73
    6
 40
88.89999999999999
 49
25.4
 74
    0
 49
-12.7
 74
    0
 49
25.4
 74
    0
 49
-12.7
 74
    0
 49
0
 74
    0
 49
-12.7
 74
    0
  0
LTYPE
  5
46
330
5
100
AcDbSymbolTableRecord
100
AcDbLinetypeTableRecord
  2
CENTER
 70
    0
  3
Center ____ _ ____ _ ____ _ ____ _ ____ _ ____
 72
   65
 73
    4
 40
50.8
 49
31.75
 74
    0
 49
-6.35
 74
    0
 49
6.35
 74
    0
 49
-6.35
 74
    0
  0
LTYPE
  5
47
330
5
100
AcDbSymbolTableRecord
100
AcDbLinetypeTableRecord
  2
CENTERTINY
 70
    0
  3
Center (.15x) ___ _ ___ _ ___ _ ___ _ ___ _ ___
 72
   65
 73
    4
 40
7.62
 49
4.7625
 74
    0
 49
-0.9525
 74
    0
 49
0.9525
 74
    0
 49
-0.9525
 74
    0
  0
LTYPE
  5
48
330
5
100
AcDbSymbolTableRecord
100
AcDbLinetypeTableRecord
  2
CENTER2
 70
    0
  3
Center (.5x) ___ _ ___ _ ___ _ ___ _ ___ _ ___
 72
   65
 73
    4
 40
28.575
 49
19.05
 74
    0
 49
-3.175
 74
    0
 49
3.175
 74
    0
 49
-3.175
 74
    0
  0
LTYPE
  5
49
330
5
100
AcDbSymbolTableRecord
100
AcDbLinetypeTableRecord
  2
CENTERX2
 70
    0
  3
Center (2x) ________  __  ________  __  _____
 72
   65
 73
    4
 40
101.6
 49
63.5
 74
    0
 49
-12.7
 74
    0
 49
12.7
 74
    0
 49
-12.7
 74
    0
  0
ENDTAB
  0
TABLE
  2
LAYER
  5
2
330
0
100
AcDbSymbolTable
 70
    1
  0
LAYER
  5
10
330
2
100
AcDbSymbolTableRecord
100
AcDbLayerTableRecord
  2
0
 70
    0
 62
    7
  6
CONTINUOUS
370
    0
390
F
  0
LAYER
  5
4A
330
2
100
AcDbSymbolTableRecord
100
AcDbLayerTableRecord
  2
Acker
 70
    4
 62
   96
420
32768
  6
CONTINUOUS
370
    0
390
F
  0
LAYER
  5
4B
330
2
100
AcDbSymbolTableRecord
100
AcDbLayerTableRecord
  2
Beete
 70
    0
 62
    6
  6
CONTINUOUS
370
    0
390
F
  0
LAYER
  5
4C
330
2
100
AcDbSymbolTableRecord
100
AcDbLayerTableRecord
  2
Bemaßung Acker
 70
    1
 62
    7
  6
CONTINUOUS
370
    0
390
F
  0
LAYER
  5
4D
330
2
100
AcDbSymbolTableRecord
100
AcDbLayerTableRecord
  2
Bemaßung Beete
 70
    0
 62
    7
  6
CONTINUOUS
370
    0
390
F
  0
LAYER
  5
4E
330
2
100
AcDbSymbolTableRecord
100
AcDbLayerTableRecord
  2
Bemaßung Wege Hauptwege
 70
    0
 62
    7
  6
CONTINUOUS
370
    0
390
F
  0
LAYER
  5
4F
330
2
100
AcDbSymbolTableRecord
100
AcDbLayerTableRecord
  2
Bemaßung Wege im Beet
 70
    0
 62
    7
  6
CONTINUOUS
370
    0
390
F
  0
LAYER
  5
50
330
2
100
AcDbSymbolTableRecord
100
AcDbLayerTableRecord
  2
Hilfslinien
 70
    1
 62
  216
420
8388736
  6
CONTINUOUS
370
    0
390
F
  0
LAYER
  5
51
330
2
100
AcDbSymbolTableRecord
100
AcDbLayerTableRecord
  2
Wege Hauptwege
 70
    0
 62
   41
420
16771916
  6
CONTINUOUS
370
    0
390
F
  0
ENDTAB
  0
TABLE
  2
STYLE
  5
3
330
0
100
AcDbSymbolTable
 70
    3
  0
STYLE
  5
52
330
2
100
AcDbSymbolTableRecord
100
AcDbTextStyleTableRecord
  2
standard
 70
    0
 40
0
 41
1
 50
0
 71
    0
 42
1
  3
standard
  4

  0
ENDTAB
  0
TABLE
  2
VIEW
  5
6
330
0
100
AcDbSymbolTable
 70
    0
  0
ENDTAB
  0
TABLE
  2
UCS
  5
7
330
0
100
AcDbSymbolTable
 70
    0
  0
ENDTAB
  0
TABLE
  2
APPID
  5
9
330
0
100
AcDbSymbolTable
 70
    1
  0
APPID
  5
12
330
9
100
AcDbSymbolTableRecord
100
AcDbRegAppTableRecord
  2
ACAD
 70
    0
  0
APPID
  5
53
330
9
100
AcDbSymbolTableRecord
100
AcDbRegAppTableRecord
  2
LibreCad
 70
    0
  0
ENDTAB
  0
TABLE
  2
DIMSTYLE
  5
A
330
0
100
AcDbSymbolTable
 70
    1
100
AcDbDimStyleTable
 71
    1
  0
DIMSTYLE
105
54
330
A
100
AcDbSymbolTableRecord
100
AcDbDimStyleTableRecord
  2
Standard
 70
    0
 40
100
 41
2.5
 42
0.625
 43
0.38
 44
1.25
 45
0
 46
0
 47
0
 48
0
 49
1
140
2.5
141
0.09
142
0
143
25.4
144
1
145
0
146
1
147
0.625
148
0
 71
    0
 72
    0
 73
    0
 74
    1
 75
    0
 76
    0
 77
    0
 78
    8
 79
    0
170
    0
171
    2
172
    0
173
    0
174
    0
175
    0
176
    0
177
    0
178
    0
179
    2
271
    0
272
    4
273
    2
274
    2
275
    0
276
    0
277
    2
278
   44
279
    0
280
    0
281
    0
282
    0
283
    1
284
    0
285
    0
286
    0
288
    0
289
    3
340
standard
341

371
   -2
372
   -2
  0
ENDTAB
  0
TABLE
  2
BLOCK_RECORD
  5
1
330
0
100
AcDbSymbolTable
 70
    2
  0
BLOCK_RECORD
  5
1F
330
1
100
AcDbSymbolTableRecord
100
AcDbBlockTableRecord
  2
*Model_Space
 70
    0
280
    1
281
    0
  0
BLOCK_RECORD
  5
1E
330
1
100
AcDbSymbolTableRecord
100
AcDbBlockTableRecord
  2
*Paper_Space
 70
    0
280
    1
281
    0
  0
BLOCK_RECORD
  5
55
330
1
100
AcDbSymbolTableRecord
100
AcDbBlockTableRecord
  2
*D5
 70
    0
280
    1
281
    0
  0
BLOCK_RECORD
  5
58
330
1
100
AcDbSymbolTableRecord
100
AcDbBlockTableRecord
  2
*D19
 70
    0
280
    1
281
    0
  0
BLOCK_RECORD
  5
5B
330
1
100
AcDbSymbolTableRecord
100
AcDbBlockTableRecord
  2
*D26
 70
    0
280
    1
281
    0
  0
BLOCK_RECORD
  5
5E
330
1
100
AcDbSymbolTableRecord
100
AcDbBlockTableRecord
  2
*D8
 70
    0
280
    1
281
    0
  0
BLOCK_RECORD
  5
61
330
1
100
AcDbSymbolTableRecord
100
AcDbBlockTableRecord
  2
*D25
 70
    0
280
    1
281
    0
  0
BLOCK_RECORD
  5
64
330
1
100
AcDbSymbolTableRecord
100
AcDbBlockTableRecord
  2
*D3
 70
    0
280
    1
281
    0
  0
BLOCK_RECORD
  5
67
330
1
100
AcDbSymbolTableRecord
100
AcDbBlockTableRecord
  2
*D18
 70
    0
280
    1
281
    0
  0
BLOCK_RECORD
  5
6A
330
1
100
AcDbSymbolTableRecord
100
AcDbBlockTableRecord
  2
*D24
 70
    0
280
    1
281
    0
  0
BLOCK_RECORD
  5
6D
330
1
100
AcDbSymbolTableRecord
100
AcDbBlockTableRecord
  2
*D21
 70
    0
280
    1
281
    0
  0
BLOCK_RECORD
  5
70
330
1
100
AcDbSymbolTableRecord
100
AcDbBlockTableRecord
  2
*D34
 70
    0
280
    1
281
    0
  0
BLOCK_RECORD
  5
73
330
1
100
AcDbSymbolTableRecord
100
AcDbBlockTableRecord
  2
*D28
 70
    0
280
    1
281
    0
  0
BLOCK_RECORD
  5
76
330
1
100
AcDbSymbolTableRecord
100
AcDbBlockTableRecord
  2
*D31
 70
    0
280
    1
281
    0
  0
BLOCK_RECORD
  5
79
330
1
100
AcDbSymbolTableRecord
100
AcDbBlockTableRecord
  2
*D10
 70
    0
280
    1
281
    0
  0
BLOCK_RECORD
  5
7C
330
1
100
AcDbSymbolTableRecord
100
AcDbBlockTableRecord
  2
*D14
 70
    0
280
    1
281
    0
  0
BLOCK_RECORD
  5
7F
330
1
100
AcDbSymbolTableRecord
100
AcDbBlockTableRecord
  2
*D6
 70
    0
280
    1
281
    0
  0
BLOCK_RECORD
  5
82
330
1
100
AcDbSymbolTableRecord
100
AcDbBlockTableRecord
  2
*D1
 70
    0
280
    1
281
    0
  0
BLOCK_RECORD
  5
85
330
1
100
AcDbSymbolTableRecord
100
AcDbBlockTableRecord
  2
*D30
 70
    0
280
    1
281
    0
  0
BLOCK_RECORD
  5
88
330
1
100
AcDbSymbolTableRecord
100
AcDbBlockTableRecord
  2
*D15
 70
    0
280
    1
281
    0
  0
BLOCK_RECORD
  5
8B
330
1
100
AcDbSymbolTableRecord
100
AcDbBlockTableRecord
  2
*D32
 70
    0
280
    1
281
    0
  0
BLOCK_RECORD
  5
8E
330
1
100
AcDbSymbolTableRecord
100
AcDbBlockTableRecord
  2
*D13
 70
    0
280
    1
281
    0
  0
BLOCK_RECORD
  5
91
330
1
100
AcDbSymbolTableRecord
100
AcDbBlockTableRecord
  2
*D17
 70
    0
280
    1
281
    0
  0
BLOCK_RECORD
  5
94
330
1
100
AcDbSymbolTableRecord
100
AcDbBlockTableRecord
  2
*D29
 70
    0
280
    1
281
    0
  0
BLOCK_RECORD
  5
97
330
1
100
AcDbSymbolTableRecord
100
AcDbBlockTableRecord
  2
*D23
 70
    0
280
    1
281
    0
  0
BLOCK_RECORD
  5
9A
330
1
100
AcDbSymbolTableRecord
100
AcDbBlockTableRecord
  2
*D27
 70
    0
280
    1
281
    0
  0
BLOCK_RECORD
  5
9D
330
1
100
AcDbSymbolTableRecord
100
AcDbBlockTableRecord
  2
*D2
 70
    0
280
    1
281
    0
  0
BLOCK_RECORD
  5
A0
330
1
100
AcDbSymbolTableRecord
100
AcDbBlockTableRecord
  2
*D11
 70
    0
280
    1
281
    0
  0
BLOCK_RECORD
  5
A3
330
1
100
AcDbSymbolTableRecord
100
AcDbBlockTableRecord
  2
*D12
 70
    0
280
    1
281
    0
  0
BLOCK_RECORD
  5
A6
330
1
100
AcDbSymbolTableRecord
100
AcDbBlockTableRecord
  2
*D20
 70
    0
280
    1
281
    0
  0
BLOCK_RECORD
  5
A9
330
1
100
AcDbSymbolTableRecord
100
AcDbBlockTableRecord
  2
*D22
 70
    0
280
    1
281
    0
  0
BLOCK_RECORD
  5
AC
330
1
100
AcDbSymbolTableRecord
100
AcDbBlockTableRecord
  2
*D35
 70
    0
280
    1
281
    0
  0
BLOCK_RECORD
  5
AF
330
1
100
AcDbSymbolTableRecord
100
AcDbBlockTableRecord
  2
*D7
 70
    0
280
    1
281
    0
  0
BLOCK_RECORD
  5
B2
330
1
100
AcDbSymbolTableRecord
100
AcDbBlockTableRecord
  2
*D16
 70
    0
280
    1
281
    0
  0
BLOCK_RECORD
  5
B5
330
1
100
AcDbSymbolTableRecord
100
AcDbBlockTableRecord
  2
*D33
 70
    0
280
    1
281
    0
  0
BLOCK_RECORD
  5
B8
330
1
100
AcDbSymbolTableRecord
100
AcDbBlockTableRecord
  2
*D9
 70
    0
280
    1
281
    0
  0
BLOCK_RECORD
  5
BB
330
1
100
AcDbSymbolTableRecord
100
AcDbBlockTableRecord
  2
*D4
 70
    0
280
    1
281
    0
  0
BLOCK_RECORD
  5
BE
330
1
100
AcDbSymbolTableRecord
100
AcDbBlockTableRecord
  2
Hauptwege
 70
    0
280
    1
281
    0
  0
ENDTAB
  0
ENDSEC
  0
SECTION
  2
BLOCKS
  0
BLOCK
  5
20
330
1F
100
AcDbEntity
  8
0
100
AcDbBlockBegin
  2
*Model_Space
 70
    0
 10
0
 20
0
 30
0
  3
*Model_Space
  1

  0
ENDBLK
  5
21
330
1F
100
AcDbEntity
  8
0
100
AcDbBlockEnd
  0
BLOCK
  5
1C
330
1B
100
AcDbEntity
  8
0
100
AcDbBlockBegin
  2
*Paper_Space
 70
    0
 10
0
 20
0
 30
0
  3
*Paper_Space
  1

  0
ENDBLK
  5
1D
330
1F
100
AcDbEntity
  8
0
100
AcDbBlockEnd
  0
BLOCK
  5
56
330
55
100
AcDbEntity
  8
0
100
AcDbBlockBegin
  2
*D5
 70
    1
 10
0
 20
0
  3
*D5
  1

  0
LINE
  5
C1
100
AcDbEntity
  8
Bemaßung Acker
  6
ByBlock
 62
    0
370
   -2
100
AcDbLine
 10
0
 20
-4000
 11
28000
 21
-4000
  0
MTEXT
  5
C2
100
AcDbEntity
  8
Bemaßung Acker
  6
CONTINUOUS
 62
    0
370
   -2
100
AcDbMText
 10
14000
 20
-3812.5
 30
0
 40
250
 41
888.8888888888889
 71
    5
 72
    1
  1
28000
  7
standard
210
0
220
0
230
1
 50
0
 73
    2
 44
1
  0
SOLID
  5
C3
100
AcDbEntity
  8
Bemaßung Acker
  6
ByBlock
 62
    0
370
   -2
100
AcDbTrace
 10
0
 20
-4000
 30
0
 11
250
 21
-3958.371534222716
 31
0
 12
250
 22
-4041.628465777284
 32
0
 13
250
 23
-4041.628465777284
 33
0
  0
SOLID
  5
C4
100
AcDbEntity
  8
Bemaßung Acker
  6
ByBlock
 62
    0
370
   -2
100
AcDbTrace
 10
28000
 20
-4000
 30
0
 11
27750
 21
-4041.628465777284
 31
0
 12
27750
 22
-3958.371534222716
 32
0
 13
27750
 23
-3958.371534222716
 33
0
  0
LINE
  5
C5
100
AcDbEntity
  8
Bemaßung Acker
  6
ByBlock
 62
    0
370
   -2
100
AcDbLine
 10
-1.148068456708479e-14
 20
-62.5
 11
-2.296136913416957e-14
 21
-4125
  0
LINE
  5
C6
100
AcDbEntity
  8
Bemaßung Acker
  6
ByBlock
 62
    0
370
   -2
100
AcDbLine
 10
28000
 20
-62.5
 11
28000
 21
-4125
  0
ENDBLK
  5
57
330
55
100
AcDbEntity
  8
0
100
AcDbBlockEnd
  0
BLOCK
  5
59
330
58
100
AcDbEntity
  8
0
100
AcDbBlockBegin
  2
*D19
 70
    1
 10
0
 20
0
  3
*D19
  1

  0
LINE
  5
C7
100
AcDbEntity
  8
Bemaßung Wege Hauptwege
  6
ByBlock
 62
    0
370
   -2
100
AcDbLine
 10
0
 20
-6000
 11
11700
 21
-6000
  0
MTEXT
  5
C8
100
AcDbEntity
  8
Bemaßung Wege Hauptwege
  6
CONTINUOUS
 62
    0
370
   -2
100
AcDbMText
 10
5850
 20
-5812.5
 30
0
 40
250
 41
777.7777777777778
 71
    5
 72
    1
  1
11700
  7
standard
210
0
220
0
230
1
 50
0
 73
    2
 44
1
  0
SOLID
  5
C9
100
AcDbEntity
  8
Bemaßung Wege Hauptwege
  6
ByBlock
 62
    0
370
   -2
100
AcDbTrace
 10
0
 20
-6000
 30
0
 11
250
 21
-5958.371534222716
 31
0
 12
250
 22
-6041.628465777284
 32
0
 13
250
 23
-6041.628465777284
 33
0
  0
SOLID
  5
CA
100
AcDbEntity
  8
Bemaßung Wege Hauptwege
  6
ByBlock
 62
    0
370
   -2
100
AcDbTrace
 10
11700
 20
-6000
 30
0
 11
11450
 21
-6041.628465777284
 31
0
 12
11450
 22
-5958.371534222716
 32
0
 13
11450
 23
-5958.371534222716
 33
0
  0
LINE
  5
CB
100
AcDbEntity
  8
Bemaßung Wege Hauptwege
  6
ByBlock
 62
    0
370
   -2
100
AcDbLine
 10
-1.148068456708479e-14
 20
-62.5
 11
-2.296136913416957e-14
 21
-6125
  0
LINE
  5
CC
100
AcDbEntity
  8
Bemaßung Wege Hauptwege
  6
ByBlock
 62
    0
370
   -2
100
AcDbLine
 10
11700
 20
1237.5
 11
11700
 21
-6125
  0
ENDBLK
  5
5A
330
58
100
AcDbEntity
  8
0
100
AcDbBlockEnd
  0
BLOCK
  5
5C
330
5B
100
AcDbEntity
  8
0
100
AcDbBlockBegin
  2
*D26
 70
    1
 10
0
 20
0
  3
*D26
  1

  0
LINE
  5
CD
100
AcDbEntity
  8
Bemaßung Wege Hauptwege
  6
ByBlock
 62
    0
370
   -2
100
AcDbLine
 10
0
 20
12000
 11
5600
 21
12000
  0
MTEXT
  5
CE
100
AcDbEntity
  8
Bemaßung Wege Hauptwege
  6
CONTINUOUS
 62
    0
370
   -2
100
AcDbMText
 10
2800
 20
12187.5
 30
0
 40
250
 41
694.4444444444755
 71
    5
 72
    1
  1
5600
  7
standard
210
0
220
0
230
1
 50
0
 73
    2
 44
1
  0
SOLID
  5
CF
100
AcDbEntity
  8
Bemaßung Wege Hauptwege
  6
ByBlock
 62
    0
370
   -2
100
AcDbTrace
 10
0
 20
12000
 30
0
 11
250
 21
12041.62846577728
 31
0
 12
250
 22
11958.37153422272
 32
0
 13
250
 23
11958.37153422272
 33
0
  0
SOLID
  5
D0
100
AcDbEntity
  8
Bemaßung Wege Hauptwege
  6
ByBlock
 62
    0
370
   -2
100
AcDbTrace
 10
5600
 20
12000
 30
0
 11
5350
 21
11958.37153422272
 31
0
 12
5350
 22
12041.62846577728
 32
0
 13
5350
 23
12041.62846577728
 33
0
  0
LINE
  5
D1
100
AcDbEntity
  8
Bemaßung Wege Hauptwege
  6
ByBlock
 62
    0
370
   -2
100
AcDbLine
 10
3.826894855694929e-15
 20
-24.23581364453196
 11
7.653789711389858e-15
 21
12125
  0
LINE
  5
D2
100
AcDbEntity
  8
Bemaßung Wege Hauptwege
  6
ByBlock
 62
    0
370
   -2
100
AcDbLine
 10
5600
 20
11262.5
 11
5600
 21
12125
  0
ENDBLK
  5
5D
330
5B
100
AcDbEntity
  8
0
100
AcDbBlockEnd
  0
BLOCK
  5
5F
330
5E
100
AcDbEntity
  8
0
100
AcDbBlockBegin
  2
*D8
 70
    1
 10
0
 20
0
  3
*D8
  1

  0
LINE
  5
D3
100
AcDbEntity
  8
Bemaßung Acker
  6
ByBlock
 62
    0
370
   -2
100
AcDbLine
 10
-1000
 20
0
 11
-1000
 21
1300
  0
MTEXT
  5
D4
100
AcDbEntity
  8
Bemaßung Acker
  6
CONTINUOUS
 62
    0
370
   -2
100
AcDbMText
 10
-1187.5
 20
650
 30
0
 40
250
 41
638.8888888889044
 71
    5
 72
    1
  1
1300
  7
standard
210
0
220
0
230
1
 50
90
 73
    2
 44
1
  0
SOLID
  5
D5
100
AcDbEntity
  8
Bemaßung Acker
  6
ByBlock
 62
    0
370
   -2
100
AcDbTrace
 10
-1000
 20
0
 30
0
 11
-1041.628465777284
 21
250
 31
0
 12
-958.3715342227159
 22
250
 32
0
 13
-958.3715342227159
 23
250
 33
0
  0
SOLID
  5
D6
100
AcDbEntity
  8
Bemaßung Acker
  6
ByBlock
 62
    0
370
   -2
100
AcDbTrace
 10
-1000
 20
1300
 30
0
 11
-958.3715342227159
 21
1050
 31
0
 12
-1041.628465777284
 22
1050
 32
0
 13
-1041.628465777284
 23
1050
 33
0
  0
LINE
  5
D7
100
AcDbEntity
  8
Bemaßung Acker
  6
ByBlock
 62
    0
370
   -2
100
AcDbLine
 10
-62.5
 20
7.653789711389858e-15
 11
-1125
 21
1.530757942277972e-14
  0
LINE
  5
D8
100
AcDbEntity
  8
Bemaßung Acker
  6
ByBlock
 62
    0
370
   -2
100
AcDbLine
 10
9437.5
 20
1300
 11
-1125
 21
1300
  0
ENDBLK
  5
60
330
5E
100
AcDbEntity
  8
0
100
AcDbBlockEnd
  0
BLOCK
  5
62
330
61
100
AcDbEntity
  8
0
100
AcDbBlockBegin
  2
*D25
 70
    1
 10
0
 20
0
  3
*D25
  1

  0
LINE
  5
D9
100
AcDbEntity
  8
Bemaßung Wege Hauptwege
  6
ByBlock
 62
    0
370
   -2
100
AcDbLine
 10
0
 20
-12000
 11
26900
 21
-12000
  0
MTEXT
  5
DA
100
AcDbEntity
  8
Bemaßung Wege Hauptwege
  6
CONTINUOUS
 62
    0
370
   -2
100
AcDbMText
 10
13450
 20
-11812.5
 30
0
 40
250
 41
888.8888888889046
 71
    5
 72
    1
  1
26900
  7
standard
210
0
220
0
230
1
 50
0
 73
    2
 44
1
  0
SOLID
  5
DB
100
AcDbEntity
  8
Bemaßung Wege Hauptwege
  6
ByBlock
 62
    0
370
   -2
100
AcDbTrace
 10
0
 20
-12000
 30
0
 11
250
 21
-11958.37153422272
 31
0
 12
250
 22
-12041.62846577728
 32
0
 13
250
 23
-12041.62846577728
 33
0
  0
SOLID
  5
DC
100
AcDbEntity
  8
Bemaßung Wege Hauptwege
  6
ByBlock
 62
    0
370
   -2
100
AcDbTrace
 10
26900
 20
-12000
 30
0
 11
26650
 21
-12041.62846577728
 31
0
 12
26650
 22
-11958.37153422272
 32
0
 13
26650
 23
-11958.37153422272
 33
0
  0
LINE
  5
DD
100
AcDbEntity
  8
Bemaßung Wege Hauptwege
  6
ByBlock
 62
    0
370
   -2
100
AcDbLine
 10
-1.148068456708479e-14
 20
-62.5
 11
-2.296136913416957e-14
 21
-12125
  0
LINE
  5
DE
100
AcDbEntity
  8
Bemaßung Wege Hauptwege
  6
ByBlock
 62
    0
370
   -2
100
AcDbLine
 10
26900
 20
1237.5
 11
26900
 21
-12125
  0
ENDBLK
  5
63
330
61
100
AcDbEntity
  8
0
100
AcDbBlockEnd
  0
BLOCK
  5
65
330
64
100
AcDbEntity
  8
0
100
AcDbBlockBegin
  2
*D3
 70
    1
 10
0
 20
0
  3
*D3
  1

  0
LINE
  5
DF
100
AcDbEntity
  8
Bemaßung Acker
  6
ByBlock
 62
    0
370
   -2
100
AcDbLine
 10
0
 20
-2000
 11
9500
 21
-2000
  0
MTEXT
  5
E0
100
AcDbEntity
  8
Bemaßung Acker
  6
CONTINUOUS
 62
    0
370
   -2
100
AcDbMText
 10
4750
 20
-1812.5
 30
0
 40
250
 41
694.4444444444753
 71
    5
 72
    1
  1
9500
  7
standard
210
0
220
0
230
1
 50
0
 73
    2
 44
1
  0
SOLID
  5
E1
100
AcDbEntity
  8
Bemaßung Acker
  6
ByBlock
 62
    0
370
   -2
100
AcDbTrace
 10
0
 20
-2000
 30
0
 11
250
 21
-1958.371534222716
 31
0
 12
250
 22
-2041.628465777284
 32
0
 13
250
 23
-2041.628465777284
 33
0
  0
SOLID
  5
E2
100
AcDbEntity
  8
Bemaßung Acker
  6
ByBlock
 62
    0
370
   -2
100
AcDbTrace
 10
9500
 20
-2000
 30
0
 11
9250
 21
-2041.628465777284
 31
0
 12
9250
 22
-1958.371534222716
 32
0
 13
9250
 23
-1958.371534222716
 33
0
  0
LINE
  5
E3
100
AcDbEntity
  8
Bemaßung Acker
  6
ByBlock
 62
    0
370
   -2
100
AcDbLine
 10
-1.148068456708479e-14
 20
-62.5
 11
-2.296136913416957e-14
 21
-2125
  0
LINE
  5
E4
100
AcDbEntity
  8
Bemaßung Acker
  6
ByBlock
 62
    0
370
   -2
100
AcDbLine
 10
9500
 20
1237.5
 11
9500
 21
-2125
  0
ENDBLK
  5
66
330
64
100
AcDbEntity
  8
0
100
AcDbBlockEnd
  0
BLOCK
  5
68
330
67
100
AcDbEntity
  8
0
100
AcDbBlockBegin
  2
*D18
 70
    1
 10
0
 20
0
  3
*D18
  1

  0
LINE
  5
E5
100
AcDbEntity
  8
Bemaßung Wege Hauptwege
  6
ByBlock
 62
    0
370
   -2
100
AcDbLine
 10
0
 20
-5000
 11
10900
 21
-5000
  0
MTEXT
  5
E6
100
AcDbEntity
  8
Bemaßung Wege Hauptwege
  6
CONTINUOUS
 62
    0
370
   -2
100
AcDbMText
 10
5450
 20
-4812.5
 30
0
 40
250
 41
833.3333333333333
 71
    5
 72
    1
  1
10900
  7
standard
210
0
220
0
230
1
 50
0
 73
    2
 44
1
  0
SOLID
  5
E7
100
AcDbEntity
  8
Bemaßung Wege Hauptwege
  6
ByBlock
 62
    0
370
   -2
100
AcDbTrace
 10
0
 20
-5000
 30
0
 11
250
 21
-4958.371534222716
 31
0
 12
250
 22
-5041.628465777284
 32
0
 13
250
 23
-5041.628465777284
 33
0
  0
SOLID
  5
E8
100
AcDbEntity
  8
Bemaßung Wege Hauptwege
  6
ByBlock
 62
    0
370
   -2
100
AcDbTrace
 10
10900
 20
-5000
 30
0
 11
10650
 21
-5041.628465777284
 31
0
 12
10650
 22
-4958.371534222716
 32
0
 13
10650
 23
-4958.371534222716
 33
0
  0
LINE
  5
E9
100
AcDbEntity
  8
Bemaßung Wege Hauptwege
  6
ByBlock
 62
    0
370
   -2
100
AcDbLine
 10
-1.148068456708479e-14
 20
-97.09914278640363
 11
-2.296136913416957e-14
 21
-5125
  0
LINE
  5
EA
100
AcDbEntity
  8
Bemaßung Wege Hauptwege
  6
ByBlock
 62
    0
370
   -2
100
AcDbLine
 10
10900
 20
1237.5
 11
10900
 21
-5125
  0
ENDBLK
  5
69
330
67
100
AcDbEntity
  8
0
100
AcDbBlockEnd
  0
BLOCK
  5
6B
330
6A
100
AcDbEntity
  8
0
100
AcDbBlockBegin
  2
*D24
 70
    1
 10
0
 20
0
  3
*D24
  1

  0
LINE
  5
EB
100
AcDbEntity
  8
Bemaßung Wege Hauptwege
  6
ByBlock
 62
    0
370
   -2
100
AcDbLine
 10
0
 20
-11000
 11
26100
 21
-11000
  0
MTEXT
  5
EC
100
AcDbEntity
  8
Bemaßung Wege Hauptwege
  6
CONTINUOUS
 62
    0
370
   -2
100
AcDbMText
 10
13050
 20
-10812.5
 30
0
 40
250
 41
833.3333333333489
 71
    5
 72
    1
  1
26100
  7
standard
210
0
220
0
230
1
 50
0
 73
    2
 44
1
  0
SOLID
  5
ED
100
AcDbEntity
  8
Bemaßung Wege Hauptwege
  6
ByBlock
 62
    0
370
   -2
100
AcDbTrace
 10
0
 20
-11000
 30
0
 11
250
 21
-10958.37153422272
 31
0
 12
250
 22
-11041.62846577728
 32
0
 13
250
 23
-11041.62846577728
 33
0
  0
SOLID
  5
EE
100
AcDbEntity
  8
Bemaßung Wege Hauptwege
  6
ByBlock
 62
    0
370
   -2
100
AcDbTrace
 10
26100
 20
-11000
 30
0
 11
25850
 21
-11041.62846577728
 31
0
 12
25850
 22
-10958.37153422272
 32
0
 13
25850
 23
-10958.37153422272
 33
0
  0
LINE
  5
EF
100
AcDbEntity
  8
Bemaßung Wege Hauptwege
  6
ByBlock
 62
    0
370
   -2
100
AcDbLine
 10
-1.148068456708479e-14
 20
-62.5
 11
-2.296136913416957e-14
 21
-11125
  0
LINE
  5
F0
100
AcDbEntity
  8
Bemaßung Wege Hauptwege
  6
ByBlock
 62
    0
370
   -2
100
AcDbLine
 10
26100
 20
1237.5
 11
26100
 21
-11125
  0
ENDBLK
  5
6C
330
6A
100
AcDbEntity
  8
0
100
AcDbBlockEnd
  0
BLOCK
  5
6E
330
6D
100
AcDbEntity
  8
0
100
AcDbBlockBegin
  2
*D21
 70
    1
 10
0
 20
0
  3
*D21
  1

  0
LINE
  5
F1
100
AcDbEntity
  8
Bemaßung Wege Hauptwege
  6
ByBlock
 62
    0
370
   -2
100
AcDbLine
 10
0
 20
-8000
 11
15800
 21
-8000
  0
MTEXT
  5
F2
100
AcDbEntity
  8
Bemaßung Wege Hauptwege
  6
CONTINUOUS
 62
    0
370
   -2
100
AcDbMText
 10
7900
 20
-7812.5
 30
0
 40
250
 41
833.3333333333489
 71
    5
 72
    1
  1
15800
  7
standard
210
0
220
0
230
1
 50
0
 73
    2
 44
1
  0
SOLID
  5
F3
100
AcDbEntity
  8
Bemaßung Wege Hauptwege
  6
ByBlock
 62
    0
370
   -2
100
AcDbTrace
 10
0
 20
-8000
 30
0
 11
250
 21
-7958.371534222716
 31
0
 12
250
 22
-8041.628465777284
 32
0
 13
250
 23
-8041.628465777284
 33
0
  0
SOLID
  5
F4
100
AcDbEntity
  8
Bemaßung Wege Hauptwege
  6
ByBlock
 62
    0
370
   -2
100
AcDbTrace
 10
15800
 20
-8000
 30
0
 11
15550
 21
-8041.628465777284
 31
0
 12
15550
 22
-7958.371534222716
 32
0
 13
15550
 23
-7958.371534222716
 33
0
  0
LINE
  5
F5
100
AcDbEntity
  8
Bemaßung Wege Hauptwege
  6
ByBlock
 62
    0
370
   -2
100
AcDbLine
 10
-1.148068456708479e-14
 20
-62.5
 11
-2.296136913416957e-14
 21
-8125
  0
LINE
  5
F6
100
AcDbEntity
  8
Bemaßung Wege Hauptwege
  6
ByBlock
 62
    0
370
   -2
100
AcDbLine
 10
15800
 20
1237.5
 11
15800
 21
-8125
  0
ENDBLK
  5
6F
330
6D
100
AcDbEntity
  8
0
100
AcDbBlockEnd
  0
BLOCK
  5
71
330
70
100
AcDbEntity
  8
0
100
AcDbBlockBegin
  2
*D34
 70
    1
 10
0
 20
0
  3
*D34
  1

  0
LINE
  5
F7
100
AcDbEntity
  8
Bemaßung Wege Hauptwege
  6
ByBlock
 62
    0
370
   -2
100
AcDbLine
 10
42.49703163531376
 20
20000
 11
27750
 21
20000
  0
MTEXT
  5
F8
100
AcDbEntity
  8
Bemaßung Wege Hauptwege
  6
CONTINUOUS
 62
    0
370
   -2
100
AcDbMText
 10
13896.24851581766
 20
20187.5
 30
0
 40
250
 41
888.8888888888889
 71
    5
 72
    1
  1
27708
  7
standard
210
0
220
0
230
1
 50
0
 73
    2
 44
1
  0
SOLID
  5
F9
100
AcDbEntity
  8
Bemaßung Wege Hauptwege
  6
ByBlock
 62
    0
370
   -2
100
AcDbTrace
 10
42.49703163531376
 20
20000
 30
0
 11
292.4970316353138
 21
20041.62846577728
 31
0
 12
292.4970316353138
 22
19958.37153422272
 32
0
 13
292.4970316353138
 23
19958.37153422272
 33
0
  0
SOLID
  5
FA
100
AcDbEntity
  8
Bemaßung Wege Hauptwege
  6
ByBlock
 62
    0
370
   -2
100
AcDbTrace
 10
27750
 20
20000
 30
0
 11
27500
 21
19958.37153422272
 31
0
 12
27500
 22
20041.62846577728
 32
0
 13
27500
 23
20041.62846577728
 33
0
  0
LINE
  5
FB
100
AcDbEntity
  8
Bemaßung Wege Hauptwege
  6
ByBlock
 62
    0
370
   -2
100
AcDbLine
 10
42.49703163531328
 20
62.5
 11
42.49703163531377
 21
20125
  0
LINE
  5
FC
100
AcDbEntity
  8
Bemaßung Wege Hauptwege
  6
ByBlock
 62
    0
370
   -2
100
AcDbLine
 10
27750
 20
11262.5
 11
27750
 21
20125
  0
ENDBLK
  5
72
330
70
100
AcDbEntity
  8
0
100
AcDbBlockEnd
  0
BLOCK
  5
74
330
73
100
AcDbEntity
  8
0
100
AcDbBlockBegin
  2
*D28
 70
    1
 10
0
 20
0
  3
*D28
  1

  0
LINE
  5
FD
100
AcDbEntity
  8
Bemaßung Wege Hauptwege
  6
ByBlock
 62
    0
370
   -2
100
AcDbLine
 10
0
 20
14000
 11
9100
 21
14000
  0
MTEXT
  5
FE
100
AcDbEntity
  8
Bemaßung Wege Hauptwege
  6
CONTINUOUS
 62
    0
370
   -2
100
AcDbMText
 10
4550
 20
14187.5
 30
0
 40
250
 41
638.888888888904
 71
    5
 72
    1
  1
9100
  7
standard
210
0
220
0
230
1
 50
0
 73
    2
 44
1
  0
SOLID
  5
FF
100
AcDbEntity
  8
Bemaßung Wege Hauptwege
  6
ByBlock
 62
    0
370
   -2
100
AcDbTrace
 10
0
 20
14000
 30
0
 11
250
 21
14041.62846577728
 31
0
 12
250
 22
13958.37153422272
 32
0
 13
250
 23
13958.37153422272
 33
0
  0
SOLID
  5
100
100
AcDbEntity
  8
Bemaßung Wege Hauptwege
  6
ByBlock
 62
    0
370
   -2
100
AcDbTrace
 10
9100
 20
14000
 30
0
 11
8850
 21
13958.37153422272
 31
0
 12
8850
 22
14041.62846577728
 32
0
 13
8850
 23
14041.62846577728
 33
0
  0
LINE
  5
101
100
AcDbEntity
  8
Bemaßung Wege Hauptwege
  6
ByBlock
 62
    0
370
   -2
100
AcDbLine
 10
3.826894855694929e-15
 20
62.5
 11
7.653789711389858e-15
 21
14125
  0
LINE
  5
102
100
AcDbEntity
  8
Bemaßung Wege Hauptwege
  6
ByBlock
 62
    0
370
   -2
100
AcDbLine
 10
9100
 20
11262.5
 11
9100
 21
14125
  0
ENDBLK
  5
75
330
73
100
AcDbEntity
  8
0
100
AcDbBlockEnd
  0
BLOCK
  5
77
330
76
100
AcDbEntity
  8
0
100
AcDbBlockBegin
  2
*D31
 70
    1
 10
0
 20
0
  3
*D31
  1

  0
LINE
  5
103
100
AcDbEntity
  8
Bemaßung Wege Hauptwege
  6
ByBlock
 62
    0
370
   -2
100
AcDbLine
 10
0
 20
17000
 11
20900
 21
17000
  0
MTEXT
  5
104
100
AcDbEntity
  8
Bemaßung Wege Hauptwege
  6
CONTINUOUS
 62
    0
370
   -2
100
AcDbMText
 10
10450
 20
17187.5
 30
0
 40
250
 41
888.8888888888889
 71
    5
 72
    1
  1
20900
  7
standard
210
0
220
0
230
1
 50
0
 73
    2
 44
1
  0
SOLID
  5
105
100
AcDbEntity
  8
Bemaßung Wege Hauptwege
  6
ByBlock
 62
    0
370
   -2
100
AcDbTrace
 10
0
 20
17000
 30
0
 11
250
 21
17041.62846577728
 31
0
 12
250
 22
16958.37153422272
 32
0
 13
250
 23
16958.37153422272
 33
0
  0
SOLID
  5
106
100
AcDbEntity
  8
Bemaßung Wege Hauptwege
  6
ByBlock
 62
    0
370
   -2
100
AcDbTrace
 10
20900
 20
17000
 30
0
 11
20650
 21
16958.37153422272
 31
0
 12
20650
 22
17041.62846577728
 32
0
 13
20650
 23
17041.62846577728
 33
0
  0
LINE
  5
107
100
AcDbEntity
  8
Bemaßung Wege Hauptwege
  6
ByBlock
 62
    0
370
   -2
100
AcDbLine
 10
7.661423764426814e-15
 20
62.5
 11
7.653789711389858e-15
 21
17125
  0
LINE
  5
108
100
AcDbEntity
  8
Bemaßung Wege Hauptwege
  6
ByBlock
 62
    0
370
   -2
100
AcDbLine
 10
20900
 20
11262.5
 11
20900
 21
17125
  0
ENDBLK
  5
78
330
76
100
AcDbEntity
  8
0
100
AcDbBlockEnd
  0
BLOCK
  5
7A
330
79
100
AcDbEntity
  8
0
100
AcDbBlockBegin
  2
*D10
 70
    1
 10
0
 20
0
  3
*D10
  1

  0
LINE
  5
109
100
AcDbEntity
  8
Bemaßung Wege Hauptwege
  6
ByBlock
 62
    0
370
   -2
100
AcDbLine
 10
-2000
 20
0
 11
-2000
 21
5300
  0
MTEXT
  5
10A
100
AcDbEntity
  8
Bemaßung Wege Hauptwege
  6
CONTINUOUS
 62
    0
370
   -2
100
AcDbMText
 10
-2187.5
 20
2650
 30
0
 40
250
 41
694.4444444444755
 71
    5
 72
    1
  1
5300
  7
standard
210
0
220
0
230
1
 50
90
 73
    2
 44
1
  0
SOLID
  5
10B
100
AcDbEntity
  8
Bemaßung Wege Hauptwege
  6
ByBlock
 62
    0
370
   -2
100
AcDbTrace
 10
-2000
 20
0
 30
0
 11
-2041.628465777284
 21
250
 31
0
 12
-1958.371534222716
 22
250
 32
0
 13
-1958.371534222716
 23
250
 33
0
  0
SOLID
  5
10C
100
AcDbEntity
  8
Bemaßung Wege Hauptwege
  6
ByBlock
 62
    0
370
   -2
100
AcDbTrace
 10
-2000
 20
5300
 30
0
 11
-1958.371534222716
 21
5050
 31
0
 12
-2041.628465777284
 22
5050
 32
0
 13
-2041.628465777284
 23
5050
 33
0
  0
LINE
  5
10D
100
AcDbEntity
  8
Bemaßung Wege Hauptwege
  6
ByBlock
 62
    0
370
   -2
100
AcDbLine
 10
-62.5
 20
7.653789711389858e-15
 11
-2125
 21
1.530757942277972e-14
  0
LINE
  5
10E
100
AcDbEntity
  8
Bemaßung Wege Hauptwege
  6
ByBlock
 62
    0
370
   -2
100
AcDbLine
 10
-62.5
 20
5300
 11
-2125
 21
5300
  0
ENDBLK
  5
7B
330
79
100
AcDbEntity
  8
0
100
AcDbBlockEnd
  0
BLOCK
  5
7D
330
7C
100
AcDbEntity
  8
0
100
AcDbBlockBegin
  2
*D14
 70
    1
 10
0
 20
0
  3
*D14
  1

  0
LINE
  5
10F
100
AcDbEntity
  8
Bemaßung Wege Hauptwege
  6
ByBlock
 62
    0
370
   -2
100
AcDbLine
 10
-32.87287337127782
 20
-1000
 11
4900
 21
-1000
  0
MTEXT
  5
110
100
AcDbEntity
  8
Bemaßung Wege Hauptwege
  6
CONTINUOUS
 62
    0
370
   -2
100
AcDbMText
 10
2433.563563314361
 20
-812.5
 30
0
 40
250
 41
722.2222222222529
 71
    5
 72
    1
  1
4933
  7
standard
210
0
220
0
230
1
 50
0
 73
    2
 44
1
  0
SOLID
  5
111
100
AcDbEntity
  8
Bemaßung Wege Hauptwege
  6
ByBlock
 62
    0
370
   -2
100
AcDbTrace
 10
-32.87287337127782
 20
-1000
 30
0
 11
217.1271266287222
 21
-958.3715342227159
 31
0
 12
217.1271266287222
 22
-1041.628465777284
 32
0
 13
217.1271266287222
 23
-1041.628465777284
 33
0
  0
SOLID
  5
112
100
AcDbEntity
  8
Bemaßung Wege Hauptwege
  6
ByBlock
 62
    0
370
   -2
100
AcDbTrace
 10
4900
 20
-1000
 30
0
 11
4650
 21
-1041.628465777284
 31
0
 12
4650
 22
-958.3715342227159
 32
0
 13
4650
 23
-958.3715342227159
 33
0
  0
LINE
  5
113
100
AcDbEntity
  8
Bemaßung Wege Hauptwege
  6
ByBlock
 62
    0
370
   -2
100
AcDbLine
 10
-32.87287337127752
 20
-95.37287337127751
 11
-32.87287337127784
 21
-1125
  0
LINE
  5
114
100
AcDbEntity
  8
Bemaßung Wege Hauptwege
  6
ByBlock
 62
    0
370
   -2
100
AcDbLine
 10
4900
 20
-62.5
 11
4900
 21
-1125
  0
ENDBLK
  5
7E
330
7C
100
AcDbEntity
  8
0
100
AcDbBlockEnd
  0
BLOCK
  5
80
330
7F
100
AcDbEntity
  8
0
100
AcDbBlockBegin
  2
*D6
 70
    1
 10
0
 20
0
  3
*D6
  1

  0
LINE
  5
115
100
AcDbEntity
  8
Bemaßung Acker
  6
ByBlock
 62
    0
370
   -2
100
AcDbLine
 10
0
 20
-5161.041119290518
 11
32200
 21
-5161.041119290518
  0
MTEXT
  5
116
100
AcDbEntity
  8
Bemaßung Acker
  6
CONTINUOUS
 62
    0
370
   -2
100
AcDbMText
 10
16100
 20
-4973.541119290518
 30
0
 40
250
 41
888.8888888889044
 71
    5
 72
    1
  1
32200
  7
standard
210
0
220
0
230
1
 50
0
 73
    2
 44
1
  0
SOLID
  5
117
100
AcDbEntity
  8
Bemaßung Acker
  6
ByBlock
 62
    0
370
   -2
100
AcDbTrace
 10
0
 20
-5161.041119290518
 30
0
 11
250
 21
-5119.412653513234
 31
0
 12
250
 22
-5202.669585067802
 32
0
 13
250
 23
-5202.669585067802
 33
0
  0
SOLID
  5
118
100
AcDbEntity
  8
Bemaßung Acker
  6
ByBlock
 62
    0
370
   -2
100
AcDbTrace
 10
32200
 20
-5161.041119290518
 30
0
 11
31950
 21
-5202.669585067802
 31
0
 12
31950
 22
-5119.412653513234
 32
0
 13
31950
 23
-5119.412653513234
 33
0
  0
LINE
  5
119
100
AcDbEntity
  8
Bemaßung Acker
  6
ByBlock
 62
    0
370
   -2
100
AcDbLine
 10
-1.148068456708479e-14
 20
-62.5
 11
-2.296136913416957e-14
 21
-5286.041119290518
  0
LINE
  5
11A
100
AcDbEntity
  8
Bemaßung Acker
  6
ByBlock
 62
    0
370
   -2
100
AcDbLine
 10
32200
 20
-62.5
 11
32200
 21
-5286.041119290518
  0
ENDBLK
  5
81
330
7F
100
AcDbEntity
  8
0
100
AcDbBlockEnd
  0
BLOCK
  5
83
330
82
100
AcDbEntity
  8
0
100
AcDbBlockBegin
  2
*D1
 70
    1
 10
0
 20
0
  3
*D1
  1

  0
LINE
  5
11B
100
AcDbEntity
  8
Bemaßung Acker
  6
ByBlock
 62
    0
370
   -2
100
AcDbLine
 10
0
 20
12000
 11
32200
 21
12000
  0
MTEXT
  5
11C
100
AcDbEntity
  8
Bemaßung Acker
  6
CONTINUOUS
 62
    0
370
   -2
100
AcDbMText
 10
16100
 20
12187.5
 30
0
 40
250
 41
888.8888888889044
 71
    5
 72
    1
  1
32200
  7
standard
210
0
220
0
230
1
 50
0
 73
    2
 44
1
  0
SOLID
  5
11D
100
AcDbEntity
  8
Bemaßung Acker
  6
ByBlock
 62
    0
370
   -2
100
AcDbTrace
 10
0
 20
12000
 30
0
 11
250
 21
12041.62846577728
 31
0
 12
250
 22
11958.37153422272
 32
0
 13
250
 23
11958.37153422272
 33
0
  0
SOLID
  5
11E
100
AcDbEntity
  8
Bemaßung Acker
  6
ByBlock
 62
    0
370
   -2
100
AcDbTrace
 10
32200
 20
12000
 30
0
 11
31950
 21
11958.37153422272
 31
0
 12
31950
 22
12041.62846577728
 32
0
 13
31950
 23
12041.62846577728
 33
0
  0
LINE
  5
11F
100
AcDbEntity
  8
Bemaßung Acker
  6
ByBlock
 62
    0
370
   -2
100
AcDbLine
 10
3.826894855694929e-15
 20
11262.5
 11
7.653789711389858e-15
 21
12125
  0
LINE
  5
120
100
AcDbEntity
  8
Bemaßung Acker
  6
ByBlock
 62
    0
370
   -2
100
AcDbLine
 10
32200
 20
11262.5
 11
32200
 21
12125
  0
ENDBLK
  5
84
330
82
100
AcDbEntity
  8
0
100
AcDbBlockEnd
  0
BLOCK
  5
86
330
85
100
AcDbEntity
  8
0
100
AcDbBlockBegin
  2
*D30
 70
    1
 10
0
 20
0
  3
*D30
  1

  0
LINE
  5
121
100
AcDbEntity
  8
Bemaßung Wege Hauptwege
  6
ByBlock
 62
    0
370
   -2
100
AcDbLine
 10
57.82387576302062
 20
16000
 11
20124.17316546534
 21
16000
  0
MTEXT
  5
122
100
AcDbEntity
  8
Bemaßung Wege Hauptwege
  6
CONTINUOUS
 62
    0
370
   -2
100
AcDbMText
 10
10090.99852061418
 20
16187.5
 30
0
 40
250
 41
888.8888888889196
 71
    5
 72
    1
  1
20066
  7
standard
210
0
220
0
230
1
 50
0
 73
    2
 44
1
  0
SOLID
  5
123
100
AcDbEntity
  8
Bemaßung Wege Hauptwege
  6
ByBlock
 62
    0
370
   -2
100
AcDbTrace
 10
57.82387576302062
 20
16000
 30
0
 11
307.8238757630206
 21
16041.62846577728
 31
0
 12
307.8238757630206
 22
15958.37153422272
 32
0
 13
307.8238757630206
 23
15958.37153422272
 33
0
  0
SOLID
  5
124
100
AcDbEntity
  8
Bemaßung Wege Hauptwege
  6
ByBlock
 62
    0
370
   -2
100
AcDbTrace
 10
20124.17316546534
 20
16000
 30
0
 11
19874.17316546534
 21
15958.37153422272
 31
0
 12
19874.17316546534
 22
16041.62846577728
 32
0
 13
19874.17316546534
 23
16041.62846577728
 33
0
  0
LINE
  5
125
100
AcDbEntity
  8
Bemaßung Wege Hauptwege
  6
ByBlock
 62
    0
370
   -2
100
AcDbLine
 10
57.82387576302132
 20
-53.1477515260426
 11
57.82387576302063
 21
16125
  0
LINE
  5
126
100
AcDbEntity
  8
Bemaßung Wege Hauptwege
  6
ByBlock
 62
    0
370
   -2
100
AcDbLine
 10
20124.17316546534
 20
11262.5
 11
20124.17316546534
 21
16125
  0
ENDBLK
  5
87
330
85
100
AcDbEntity
  8
0
100
AcDbBlockEnd
  0
BLOCK
  5
89
330
88
100
AcDbEntity
  8
0
100
AcDbBlockBegin
  2
*D15
 70
    1
 10
0
 20
0
  3
*D15
  1

  0
LINE
  5
127
100
AcDbEntity
  8
Bemaßung Wege Hauptwege
  6
ByBlock
 62
    0
370
   -2
100
AcDbLine
 10
0
 20
-2000
 11
5600
 21
-2000
  0
MTEXT
  5
128
100
AcDbEntity
  8
Bemaßung Wege Hauptwege
  6
CONTINUOUS
 62
    0
370
   -2
100
AcDbMText
 10
2800
 20
-1812.5
 30
0
 40
250
 41
694.4444444444755
 71
    5
 72
    1
  1
5600
  7
standard
210
0
220
0
230
1
 50
0
 73
    2
 44
1
  0
SOLID
  5
129
100
AcDbEntity
  8
Bemaßung Wege Hauptwege
  6
ByBlock
 62
    0
370
   -2
100
AcDbTrace
 10
0
 20
-2000
 30
0
 11
250
 21
-1958.371534222716
 31
0
 12
250
 22
-2041.628465777284
 32
0
 13
250
 23
-2041.628465777284
 33
0
  0
SOLID
  5
12A
100
AcDbEntity
  8
Bemaßung Wege Hauptwege
  6
ByBlock
 62
    0
370
   -2
100
AcDbTrace
 10
5600
 20
-2000
 30
0
 11
5350
 21
-2041.628465777284
 31
0
 12
5350
 22
-1958.371534222716
 32
0
 13
5350
 23
-1958.371534222716
 33
0
  0
LINE
  5
12B
100
AcDbEntity
  8
Bemaßung Wege Hauptwege
  6
ByBlock
 62
    0
370
   -2
100
AcDbLine
 10
-1.148068456708479e-14
 20
-62.5
 11
-2.296136913416957e-14
 21
-2125
  0
LINE
  5
12C
100
AcDbEntity
  8
Bemaßung Wege Hauptwege
  6
ByBlock
 62
    0
370
   -2
100
AcDbLine
 10
5600
 20
-62.5
 11
5600
 21
-2125
  0
ENDBLK
  5
8A
330
88
100
AcDbEntity
  8
0
100
AcDbBlockEnd
  0
BLOCK
  5
8C
330
8B
100
AcDbEntity
  8
0
100
AcDbBlockBegin
  2
*D32
 70
    1
 10
0
 20
0
  3
*D32
  1

  0
LINE
  5
12D
100
AcDbEntity
  8
Bemaßung Wege Hauptwege
  6
ByBlock
 62
    0
370
   -2
100
AcDbLine
 10
0
 20
18000
 11
24350
 21
18000
  0
MTEXT
  5
12E
100
AcDbEntity
  8
Bemaßung Wege Hauptwege
  6
CONTINUOUS
 62
    0
370
   -2
100
AcDbMText
 10
12175
 20
18187.5
 30
0
 40
250
 41
916.6666666666977
 71
    5
 72
    1
  1
24350
  7
standard
210
0
220
0
230
1
 50
0
 73
    2
 44
1
  0
SOLID
  5
12F
100
AcDbEntity
  8
Bemaßung Wege Hauptwege
  6
ByBlock
 62
    0
370
   -2
100
AcDbTrace
 10
0
 20
18000
 30
0
 11
250
 21
18041.62846577728
 31
0
 12
250
 22
17958.37153422272
 32
0
 13
250
 23
17958.37153422272
 33
0
  0
SOLID
  5
130
100
AcDbEntity
  8
Bemaßung Wege Hauptwege
  6
ByBlock
 62
    0
370
   -2
100
AcDbTrace
 10
24350
 20
18000
 30
0
 11
24100
 21
17958.37153422272
 31
0
 12
24100
 22
18041.62846577728
 32
0
 13
24100
 23
18041.62846577728
 33
0
  0
LINE
  5
131
100
AcDbEntity
  8
Bemaßung Wege Hauptwege
  6
ByBlock
 62
    0
370
   -2
100
AcDbLine
 10
3.826894855694929e-15
 20
-22.49406327062643
 11
7.653789711389858e-15
 21
18125
  0
LINE
  5
132
100
AcDbEntity
  8
Bemaßung Wege Hauptwege
  6
ByBlock
 62
    0
370
   -2
100
AcDbLine
 10
24350
 20
11262.5
 11
24350
 21
18125
  0
ENDBLK
  5
8D
330
8B
100
AcDbEntity
  8
0
100
AcDbBlockEnd
  0
BLOCK
  5
8F
330
8E
100
AcDbEntity
  8
0
100
AcDbBlockBegin
  2
*D13
 70
    1
 10
0
 20
0
  3
*D13
  1

  0
LINE
  5
133
100
AcDbEntity
  8
Bemaßung Wege Hauptwege
  6
ByBlock
 62
    0
370
   -2
100
AcDbLine
 10
-5128.168245919292
 20
0
 11
-5128.168245919292
 21
11200
  0
MTEXT
  5
134
100
AcDbEntity
  8
Bemaßung Wege Hauptwege
  6
CONTINUOUS
 62
    0
370
   -2
100
AcDbMText
 10
-5315.668245919292
 20
5600
 30
0
 40
250
 41
777.7777777777778
 71
    5
 72
    1
  1
11200
  7
standard
210
0
220
0
230
1
 50
90
 73
    2
 44
1
  0
SOLID
  5
135
100
AcDbEntity
  8
Bemaßung Wege Hauptwege
  6
ByBlock
 62
    0
370
   -2
100
AcDbTrace
 10
-5128.168245919292
 20
0
 30
0
 11
-5169.796711696576
 21
250
 31
0
 12
-5086.539780142008
 22
250
 32
0
 13
-5086.539780142008
 23
250
 33
0
  0
SOLID
  5
136
100
AcDbEntity
  8
Bemaßung Wege Hauptwege
  6
ByBlock
 62
    0
370
   -2
100
AcDbTrace
 10
-5128.168245919292
 20
11200
 30
0
 11
-5086.539780142008
 21
10950
 31
0
 12
-5169.796711696576
 22
10950
 32
0
 13
-5169.796711696576
 23
10950
 33
0
  0
LINE
  5
137
100
AcDbEntity
  8
Bemaßung Wege Hauptwege
  6
ByBlock
 62
    0
370
   -2
100
AcDbLine
 10
-62.5
 20
7.653789711389858e-15
 11
-5253.168245919292
 21
1.530757942277972e-14
  0
LINE
  5
138
100
AcDbEntity
  8
Bemaßung Wege Hauptwege
  6
ByBlock
 62
    0
370
   -2
100
AcDbLine
 10
-62.5
 20
11200
 11
-5253.168245919292
 21
11200
  0
ENDBLK
  5
90
330
8E
100
AcDbEntity
  8
0
100
AcDbBlockEnd
  0
BLOCK
  5
92
330
91
100
AcDbEntity
  8
0
100
AcDbBlockBegin
  2
*D17
 70
    1
 10
0
 20
0
  3
*D17
  1

  0
LINE
  5
139
100
AcDbEntity
  8
Bemaßung Wege Hauptwege
  6
ByBlock
 62
    0
370
   -2
100
AcDbLine
 10
0
 20
-4000
 11
7600
 21
-4000
  0
MTEXT
  5
13A
100
AcDbEntity
  8
Bemaßung Wege Hauptwege
  6
CONTINUOUS
 62
    0
370
   -2
100
AcDbMText
 10
3800
 20
-3812.5
 30
0
 40
250
 41
694.44444444446
 71
    5
 72
    1
  1
7600
  7
standard
210
0
220
0
230
1
 50
0
 73
    2
 44
1
  0
SOLID
  5
13B
100
AcDbEntity
  8
Bemaßung Wege Hauptwege
  6
ByBlock
 62
    0
370
   -2
100
AcDbTrace
 10
0
 20
-4000
 30
0
 11
250
 21
-3958.371534222716
 31
0
 12
250
 22
-4041.628465777284
 32
0
 13
250
 23
-4041.628465777284
 33
0
  0
SOLID
  5
13C
100
AcDbEntity
  8
Bemaßung Wege Hauptwege
  6
ByBlock
 62
    0
370
   -2
100
AcDbTrace
 10
7600
 20
-4000
 30
0
 11
7350
 21
-4041.628465777284
 31
0
 12
7350
 22
-3958.371534222716
 32
0
 13
7350
 23
-3958.371534222716
 33
0
  0
LINE
  5
13D
100
AcDbEntity
  8
Bemaßung Wege Hauptwege
  6
ByBlock
 62
    0
370
   -2
100
AcDbLine
 10
-1.148068456708479e-14
 20
-62.5
 11
-2.296136913416957e-14
 21
-4125
  0
LINE
  5
13E
100
AcDbEntity
  8
Bemaßung Wege Hauptwege
  6
ByBlock
 62
    0
370
   -2
100
AcDbLine
 10
7600
 20
322.6851851851852
 11
7600
 21
-4125
  0
ENDBLK
  5
93
330
91
100
AcDbEntity
  8
0
100
AcDbBlockEnd
  0
BLOCK
  5
95
330
94
100
AcDbEntity
  8
0
100
AcDbBlockBegin
  2
*D29
 70
    1
 10
0
 20
0
  3
*D29
  1

  0
LINE
  5
13F
100
AcDbEntity
  8
Bemaßung Wege Hauptwege
  6
ByBlock
 62
    0
370
   -2
100
AcDbLine
 10
57.82387576302062
 20
15000
 11
9700
 21
15000
  0
MTEXT
  5
140
100
AcDbEntity
  8
Bemaßung Wege Hauptwege
  6
CONTINUOUS
 62
    0
370
   -2
100
AcDbMText
 10
4878.91193788151
 20
15187.5
 30
0
 40
250
 41
722.222222222253
 71
    5
 72
    1
  1
9642
  7
standard
210
0
220
0
230
1
 50
0
 73
    2
 44
1
  0
SOLID
  5
141
100
AcDbEntity
  8
Bemaßung Wege Hauptwege
  6
ByBlock
 62
    0
370
   -2
100
AcDbTrace
 10
57.82387576302062
 20
15000
 30
0
 11
307.8238757630206
 21
15041.62846577728
 31
0
 12
307.8238757630206
 22
14958.37153422272
 32
0
 13
307.8238757630206
 23
14958.37153422272
 33
0
  0
SOLID
  5
142
100
AcDbEntity
  8
Bemaßung Wege Hauptwege
  6
ByBlock
 62
    0
370
   -2
100
AcDbTrace
 10
9700
 20
15000
 30
0
 11
9450
 21
14958.37153422272
 31
0
 12
9450
 22
15041.62846577728
 32
0
 13
9450
 23
15041.62846577728
 33
0
  0
LINE
  5
143
100
AcDbEntity
  8
Bemaßung Wege Hauptwege
  6
ByBlock
 62
    0
370
   -2
100
AcDbLine
 10
57.82387576302132
 20
-24.23581364453196
 11
57.82387576302063
 21
15125
  0
LINE
  5
144
100
AcDbEntity
  8
Bemaßung Wege Hauptwege
  6
ByBlock
 62
    0
370
   -2
100
AcDbLine
 10
9700
 20
11262.5
 11
9700
 21
15125
  0
ENDBLK
  5
96
330
94
100
AcDbEntity
  8
0
100
AcDbBlockEnd
  0
BLOCK
  5
98
330
97
100
AcDbEntity
  8
0
100
AcDbBlockBegin
  2
*D23
 70
    1
 10
0
 20
0
  3
*D23
  1

  0
LINE
  5
145
100
AcDbEntity
  8
Bemaßung Wege Hauptwege
  6
ByBlock
 62
    0
370
   -2
100
AcDbLine
 10
0
 20
-10000
 11
20900
 21
-10000
  0
MTEXT
  5
146
100
AcDbEntity
  8
Bemaßung Wege Hauptwege
  6
CONTINUOUS
 62
    0
370
   -2
100
AcDbMText
 10
10450
 20
-9812.5
 30
0
 40
250
 41
888.8888888888889
 71
    5
 72
    1
  1
20900
  7
standard
210
0
220
0
230
1
 50
0
 73
    2
 44
1
  0
SOLID
  5
147
100
AcDbEntity
  8
Bemaßung Wege Hauptwege
  6
ByBlock
 62
    0
370
   -2
100
AcDbTrace
 10
0
 20
-10000
 30
0
 11
250
 21
-9958.371534222715
 31
0
 12
250
 22
-10041.62846577728
 32
0
 13
250
 23
-10041.62846577728
 33
0
  0
SOLID
  5
148
100
AcDbEntity
  8
Bemaßung Wege Hauptwege
  6
ByBlock
 62
    0
370
   -2
100
AcDbTrace
 10
20900
 20
-10000
 30
0
 11
20650
 21
-10041.62846577728
 31
0
 12
20650
 22
-9958.371534222715
 32
0
 13
20650
 23
-9958.371534222715
 33
0
  0
LINE
  5
149
100
AcDbEntity
  8
Bemaßung Wege Hauptwege
  6
ByBlock
 62
    0
370
   -2
100
AcDbLine
 10
-1.148068456708479e-14
 20
-128.2457467425552
 11
-2.296136913416957e-14
 21
-10125
  0
LINE
  5
14A
100
AcDbEntity
  8
Bemaßung Wege Hauptwege
  6
ByBlock
 62
    0
370
   -2
100
AcDbLine
 10
20900
 20
-62.5
 11
20900
 21
-10125
  0
ENDBLK
  5
99
330
97
100
AcDbEntity
  8
0
100
AcDbBlockEnd
  0
BLOCK
  5
9B
330
9A
100
AcDbEntity
  8
0
100
AcDbBlockBegin
  2
*D27
 70
    1
 10
0
 20
0
  3
*D27
  1

  0
LINE
  5
14B
100
AcDbEntity
  8
Bemaßung Wege Hauptwege
  6
ByBlock
 62
    0
370
   -2
100
AcDbLine
 10
0
 20
13000
 11
6300
 21
13000
  0
MTEXT
  5
14C
100
AcDbEntity
  8
Bemaßung Wege Hauptwege
  6
CONTINUOUS
 62
    0
370
   -2
100
AcDbMText
 10
3150
 20
13187.5
 30
0
 40
250
 41
694.4444444444755
 71
    5
 72
    1
  1
6300
  7
standard
210
0
220
0
230
1
 50
0
 73
    2
 44
1
  0
SOLID
  5
14D
100
AcDbEntity
  8
Bemaßung Wege Hauptwege
  6
ByBlock
 62
    0
370
   -2
100
AcDbTrace
 10
0
 20
13000
 30
0
 11
250
 21
13041.62846577728
 31
0
 12
250
 22
12958.37153422272
 32
0
 13
250
 23
12958.37153422272
 33
0
  0
SOLID
  5
14E
100
AcDbEntity
  8
Bemaßung Wege Hauptwege
  6
ByBlock
 62
    0
370
   -2
100
AcDbTrace
 10
6300
 20
13000
 30
0
 11
6050
 21
12958.37153422272
 31
0
 12
6050
 22
13041.62846577728
 32
0
 13
6050
 23
13041.62846577728
 33
0
  0
LINE
  5
14F
100
AcDbEntity
  8
Bemaßung Wege Hauptwege
  6
ByBlock
 62
    0
370
   -2
100
AcDbLine
 10
7.661423764426814e-15
 20
62.5
 11
7.653789711389858e-15
 21
13125
  0
LINE
  5
150
100
AcDbEntity
  8
Bemaßung Wege Hauptwege
  6
ByBlock
 62
    0
370
   -2
100
AcDbLine
 10
6300
 20
11262.5
 11
6300
 21
13125
  0
ENDBLK
  5
9C
330
9A
100
AcDbEntity
  8
0
100
AcDbBlockEnd
  0
BLOCK
  5
9E
330
9D
100
AcDbEntity
  8
0
100
AcDbBlockBegin
  2
*D2
 70
    1
 10
0
 20
0
  3
*D2
  1

  0
LINE
  5
151
100
AcDbEntity
  8
Bemaßung Acker
  6
ByBlock
 62
    0
370
   -2
100
AcDbLine
 10
0
 20
-1000
 11
6800
 21
-1000
  0
MTEXT
  5
152
100
AcDbEntity
  8
Bemaßung Acker
  6
CONTINUOUS
 62
    0
370
   -2
100
AcDbMText
 10
3400
 20
-812.5
 30
0
 40
250
 41
694.44444444446
 71
    5
 72
    1
  1
6800
  7
standard
210
0
220
0
230
1
 50
0
 73
    2
 44
1
  0
SOLID
  5
153
100
AcDbEntity
  8
Bemaßung Acker
  6
ByBlock
 62
    0
370
   -2
100
AcDbTrace
 10
0
 20
-1000
 30
0
 11
250
 21
-958.3715342227159
 31
0
 12
250
 22
-1041.628465777284
 32
0
 13
250
 23
-1041.628465777284
 33
0
  0
SOLID
  5
154
100
AcDbEntity
  8
Bemaßung Acker
  6
ByBlock
 62
    0
370
   -2
100
AcDbTrace
 10
6800
 20
-1000
 30
0
 11
6550
 21
-1041.628465777284
 31
0
 12
6550
 22
-958.3715342227159
 32
0
 13
6550
 23
-958.3715342227159
 33
0
  0
LINE
  5
155
100
AcDbEntity
  8
Bemaßung Acker
  6
ByBlock
 62
    0
370
   -2
100
AcDbLine
 10
-1.148068456708479e-14
 20
-62.5
 11
-2.296136913416957e-14
 21
-1125
  0
LINE
  5
156
100
AcDbEntity
  8
Bemaßung Acker
  6
ByBlock
 62
    0
370
   -2
100
AcDbLine
 10
6800
 20
-62.5
 11
6800
 21
-1125
  0
ENDBLK
  5
9F
330
9D
100
AcDbEntity
  8
0
100
AcDbBlockEnd
  0
BLOCK
  5
A1
330
A0
100
AcDbEntity
  8
0
100
AcDbBlockBegin
  2
*D11
 70
    1
 10
0
 20
0
  3
*D11
  1

  0
LINE
  5
157
100
AcDbEntity
  8
Bemaßung Wege Hauptwege
  6
ByBlock
 62
    0
370
   -2
100
AcDbLine
 10
-3000
 20
0
 11
-3000
 21
8100
  0
MTEXT
  5
158
100
AcDbEntity
  8
Bemaßung Wege Hauptwege
  6
CONTINUOUS
 62
    0
370
   -2
100
AcDbMText
 10
-3187.5
 20
4050
 30
0
 40
250
 41
638.8888888888889
 71
    5
 72
    1
  1
8100
  7
standard
210
0
220
0
230
1
 50
90
 73
    2
 44
1
  0
SOLID
  5
159
100
AcDbEntity
  8
Bemaßung Wege Hauptwege
  6
ByBlock
 62
    0
370
   -2
100
AcDbTrace
 10
-3000
 20
0
 30
0
 11
-3041.628465777284
 21
250
 31
0
 12
-2958.371534222716
 22
250
 32
0
 13
-2958.371534222716
 23
250
 33
0
  0
SOLID
  5
15A
100
AcDbEntity
  8
Bemaßung Wege Hauptwege
  6
ByBlock
 62
    0
370
   -2
100
AcDbTrace
 10
-3000
 20
8100
 30
0
 11
-2958.371534222716
 21
7850
 31
0
 12
-3041.628465777284
 22
7850
 32
0
 13
-3041.628465777284
 23
7850
 33
0
  0
LINE
  5
15B
100
AcDbEntity
  8
Bemaßung Wege Hauptwege
  6
ByBlock
 62
    0
370
   -2
100
AcDbLine
 10
-62.5
 20
7.653789711389858e-15
 11
-3125
 21
1.530757942277972e-14
  0
LINE
  5
15C
100
AcDbEntity
  8
Bemaßung Wege Hauptwege
  6
ByBlock
 62
    0
370
   -2
100
AcDbLine
 10
-62.5
 20
8100
 11
-3125
 21
8100
  0
ENDBLK
  5
A2
330
A0
100
AcDbEntity
  8
0
100
AcDbBlockEnd
  0
BLOCK
  5
A4
330
A3
100
AcDbEntity
  8
0
100
AcDbBlockBegin
  2
*D12
 70
    1
 10
0
 20
0
  3
*D12
  1

  0
LINE
  5
15D
100
AcDbEntity
  8
Bemaßung Wege Hauptwege
  6
ByBlock
 62
    0
370
   -2
100
AcDbLine
 10
-4000
 20
-98.61862011383164
 11
-4000
 21
8800
  0
MTEXT
  5
15E
100
AcDbEntity
  8
Bemaßung Wege Hauptwege
  6
CONTINUOUS
 62
    0
370
   -2
100
AcDbMText
 10
-4187.5
 20
4350.690689943084
 30
0
 40
250
 41
694.4444444444446
 71
    5
 72
    1
  1
8899
  7
standard
210
0
220
0
230
1
 50
90
 73
    2
 44
1
  0
SOLID
  5
15F
100
AcDbEntity
  8
Bemaßung Wege Hauptwege
  6
ByBlock
 62
    0
370
   -2
100
AcDbTrace
 10
-4000
 20
-98.61862011383164
 30
0
 11
-4041.628465777284
 21
151.3813798861684
 31
0
 12
-3958.371534222716
 22
151.3813798861684
 32
0
 13
-3958.371534222716
 23
151.3813798861684
 33
0
  0
SOLID
  5
160
100
AcDbEntity
  8
Bemaßung Wege Hauptwege
  6
ByBlock
 62
    0
370
   -2
100
AcDbTrace
 10
-4000
 20
8800
 30
0
 11
-3958.371534222716
 21
8550
 31
0
 12
-4041.628465777284
 22
8550
 32
0
 13
-4041.628465777284
 23
8550
 33
0
  0
LINE
  5
161
100
AcDbEntity
  8
Bemaßung Wege Hauptwege
  6
ByBlock
 62
    0
370
   -2
100
AcDbLine
 10
-95.37287337127751
 20
-98.61862011383251
 11
-4125
 21
-98.61862011383162
  0
LINE
  5
162
100
AcDbEntity
  8
Bemaßung Wege Hauptwege
  6
ByBlock
 62
    0
370
   -2
100
AcDbLine
 10
-62.5
 20
8800
 11
-4125
 21
8800
  0
ENDBLK
  5
A5
330
A3
100
AcDbEntity
  8
0
100
AcDbBlockEnd
  0
BLOCK
  5
A7
330
A6
100
AcDbEntity
  8
0
100
AcDbBlockBegin
  2
*D20
 70
    1
 10
0
 20
0
  3
*D20
  1

  0
LINE
  5
163
100
AcDbEntity
  8
Bemaßung Wege Hauptwege
  6
ByBlock
 62
    0
370
   -2
100
AcDbLine
 10
34.59914278640099
 20
-7000
 11
15100
 21
-7000
  0
MTEXT
  5
164
100
AcDbEntity
  8
Bemaßung Wege Hauptwege
  6
CONTINUOUS
 62
    0
370
   -2
100
AcDbMText
 10
7567.2995713932
 20
-6812.5
 30
0
 40
250
 41
833.3333333333795
 71
    5
 72
    1
  1
15065
  7
standard
210
0
220
0
230
1
 50
0
 73
    2
 44
1
  0
SOLID
  5
165
100
AcDbEntity
  8
Bemaßung Wege Hauptwege
  6
ByBlock
 62
    0
370
   -2
100
AcDbTrace
 10
34.59914278640099
 20
-7000
 30
0
 11
284.599142786401
 21
-6958.371534222716
 31
0
 12
284.599142786401
 22
-7041.628465777284
 32
0
 13
284.599142786401
 23
-7041.628465777284
 33
0
  0
SOLID
  5
166
100
AcDbEntity
  8
Bemaßung Wege Hauptwege
  6
ByBlock
 62
    0
370
   -2
100
AcDbTrace
 10
15100
 20
-7000
 30
0
 11
14850
 21
-7041.628465777284
 31
0
 12
14850
 22
-6958.371534222716
 32
0
 13
14850
 23
-6958.371534222716
 33
0
  0
LINE
  5
167
100
AcDbEntity
  8
Bemaßung Wege Hauptwege
  6
ByBlock
 62
    0
370
   -2
100
AcDbLine
 10
34.59914278640363
 20
-114.3987141796055
 11
34.59914278640097
 21
-7125
  0
LINE
  5
168
100
AcDbEntity
  8
Bemaßung Wege Hauptwege
  6
ByBlock
 62
    0
370
   -2
100
AcDbLine
 10
15100
 20
1237.5
 11
15100
 21
-7125
  0
ENDBLK
  5
A8
330
A6
100
AcDbEntity
  8
0
100
AcDbBlockEnd
  0
BLOCK
  5
AA
330
A9
100
AcDbEntity
  8
0
100
AcDbBlockBegin
  2
*D22
 70
    1
 10
0
 20
0
  3
*D22
  1

  0
LINE
  5
169
100
AcDbEntity
  8
Bemaßung Wege Hauptwege
  6
ByBlock
 62
    0
370
   -2
100
AcDbLine
 10
0
 20
-9000
 11
20100
 21
-9000
  0
MTEXT
  5
16A
100
AcDbEntity
  8
Bemaßung Wege Hauptwege
  6
CONTINUOUS
 62
    0
370
   -2
100
AcDbMText
 10
10050
 20
-8812.5
 30
0
 40
250
 41
833.3333333333333
 71
    5
 72
    1
  1
20100
  7
standard
210
0
220
0
230
1
 50
0
 73
    2
 44
1
  0
SOLID
  5
16B
100
AcDbEntity
  8
Bemaßung Wege Hauptwege
  6
ByBlock
 62
    0
370
   -2
100
AcDbTrace
 10
0
 20
-9000
 30
0
 11
250
 21
-8958.371534222715
 31
0
 12
250
 22
-9041.628465777285
 32
0
 13
250
 23
-9041.628465777285
 33
0
  0
SOLID
  5
16C
100
AcDbEntity
  8
Bemaßung Wege Hauptwege
  6
ByBlock
 62
    0
370
   -2
100
AcDbTrace
 10
20100
 20
-9000
 30
0
 11
19850
 21
-9041.628465777285
 31
0
 12
19850
 22
-8958.371534222715
 32
0
 13
19850
 23
-8958.371534222715
 33
0
  0
LINE
  5
16D
100
AcDbEntity
  8
Bemaßung Wege Hauptwege
  6
ByBlock
 62
    0
370
   -2
100
AcDbLine
 10
-1.148068456708479e-14
 20
-62.5
 11
-2.296136913416957e-14
 21
-9125
  0
LINE
  5
16E
100
AcDbEntity
  8
Bemaßung Wege Hauptwege
  6
ByBlock
 62
    0
370
   -2
100
AcDbLine
 10
20100
 20
-62.5
 11
20100
 21
-9125
  0
ENDBLK
  5
AB
330
A9
100
AcDbEntity
  8
0
100
AcDbBlockEnd
  0
BLOCK
  5
AD
330
AC
100
AcDbEntity
  8
0
100
AcDbBlockBegin
  2
*D35
 70
    1
 10
0
 20
0
  3
*D35
  1

  0
LINE
  5
16F
100
AcDbEntity
  8
Bemaßung Wege Hauptwege
  6
ByBlock
 62
    0
370
   -2
100
AcDbLine
 10
0
 20
21000
 11
28400
 21
21000
  0
MTEXT
  5
170
100
AcDbEntity
  8
Bemaßung Wege Hauptwege
  6
CONTINUOUS
 62
    0
370
   -2
100
AcDbMText
 10
14200
 20
21187.5
 30
0
 40
250
 41
916.6666666666667
 71
    5
 72
    1
  1
28400
  7
standard
210
0
220
0
230
1
 50
0
 73
    2
 44
1
  0
SOLID
  5
171
100
AcDbEntity
  8
Bemaßung Wege Hauptwege
  6
ByBlock
 62
    0
370
   -2
100
AcDbTrace
 10
0
 20
21000
 30
0
 11
250
 21
21041.62846577728
 31
0
 12
250
 22
20958.37153422272
 32
0
 13
250
 23
20958.37153422272
 33
0
  0
SOLID
  5
172
100
AcDbEntity
  8
Bemaßung Wege Hauptwege
  6
ByBlock
 62
    0
370
   -2
100
AcDbTrace
 10
28400
 20
21000
 30
0
 11
28150
 21
20958.37153422272
 31
0
 12
28150
 22
21041.62846577728
 32
0
 13
28150
 23
21041.62846577728
 33
0
  0
LINE
  5
173
100
AcDbEntity
  8
Bemaßung Wege Hauptwege
  6
ByBlock
 62
    0
370
   -2
100
AcDbLine
 10
3.826894855694929e-15
 20
62.5
 11
7.653789711389858e-15
 21
21125
  0
LINE
  5
174
100
AcDbEntity
  8
Bemaßung Wege Hauptwege
  6
ByBlock
 62
    0
370
   -2
100
AcDbLine
 10
28400
 20
11262.5
 11
28400
 21
21125
  0
ENDBLK
  5
AE
330
AC
100
AcDbEntity
  8
0
100
AcDbBlockEnd
  0
BLOCK
  5
B0
330
AF
100
AcDbEntity
  8
0
100
AcDbBlockBegin
  2
*D7
 70
    1
 10
0
 20
0
  3
*D7
  1

  0
LINE
  5
175
100
AcDbEntity
  8
Bemaßung Acker
  6
ByBlock
 62
    0
370
   -2
100
AcDbLine
 10
-2000
 20
0
 11
-2000
 21
11200
  0
MTEXT
  5
176
100
AcDbEntity
  8
Bemaßung Acker
  6
CONTINUOUS
 62
    0
370
   -2
100
AcDbMText
 10
-2187.5
 20
5600
 30
0
 40
250
 41
777.7777777777778
 71
    5
 72
    1
  1
11200
  7
standard
210
0
220
0
230
1
 50
90
 73
    2
 44
1
  0
SOLID
  5
177
100
AcDbEntity
  8
Bemaßung Acker
  6
ByBlock
 62
    0
370
   -2
100
AcDbTrace
 10
-2000
 20
0
 30
0
 11
-2041.628465777284
 21
250
 31
0
 12
-1958.371534222716
 22
250
 32
0
 13
-1958.371534222716
 23
250
 33
0
  0
SOLID
  5
178
100
AcDbEntity
  8
Bemaßung Acker
  6
ByBlock
 62
    0
370
   -2
100
AcDbTrace
 10
-2000
 20
11200
 30
0
 11
-1958.371534222716
 21
10950
 31
0
 12
-2041.628465777284
 22
10950
 32
0
 13
-2041.628465777284
 23
10950
 33
0
  0
LINE
  5
179
100
AcDbEntity
  8
Bemaßung Acker
  6
ByBlock
 62
    0
370
   -2
100
AcDbLine
 10
-62.5
 20
7.653789711389858e-15
 11
-2125
 21
1.530757942277972e-14
  0
LINE
  5
17A
100
AcDbEntity
  8
Bemaßung Acker
  6
ByBlock
 62
    0
370
   -2
100
AcDbLine
 10
-62.5
 20
11200
 11
-2125
 21
11200
  0
ENDBLK
  5
B1
330
AF
100
AcDbEntity
  8
0
100
AcDbBlockEnd
  0
BLOCK
  5
B3
330
B2
100
AcDbEntity
  8
0
100
AcDbBlockBegin
  2
*D16
 70
    1
 10
0
 20
0
  3
*D16
  1

  0
LINE
  5
17B
100
AcDbEntity
  8
Bemaßung Wege Hauptwege
  6
ByBlock
 62
    0
370
   -2
100
AcDbLine
 10
0
 20
-3000
 11
6900
 21
-3000
  0
MTEXT
  5
17C
100
AcDbEntity
  8
Bemaßung Wege Hauptwege
  6
CONTINUOUS
 62
    0
370
   -2
100
AcDbMText
 10
3450
 20
-2812.5
 30
0
 40
250
 41
694.44444444446
 71
    5
 72
    1
  1
6900
  7
standard
210
0
220
0
230
1
 50
0
 73
    2
 44
1
  0
SOLID
  5
17D
100
AcDbEntity
  8
Bemaßung Wege Hauptwege
  6
ByBlock
 62
    0
370
   -2
100
AcDbTrace
 10
0
 20
-3000
 30
0
 11
250
 21
-2958.371534222716
 31
0
 12
250
 22
-3041.628465777284
 32
0
 13
250
 23
-3041.628465777284
 33
0
  0
SOLID
  5
17E
100
AcDbEntity
  8
Bemaßung Wege Hauptwege
  6
ByBlock
 62
    0
370
   -2
100
AcDbTrace
 10
6900
 20
-3000
 30
0
 11
6650
 21
-3041.628465777284
 31
0
 12
6650
 22
-2958.371534222716
 32
0
 13
6650
 23
-2958.371534222716
 33
0
  0
LINE
  5
17F
100
AcDbEntity
  8
Bemaßung Wege Hauptwege
  6
ByBlock
 62
    0
370
   -2
100
AcDbLine
 10
-1.148068456708479e-14
 20
-62.5
 11
-2.296136913416957e-14
 21
-3125
  0
LINE
  5
180
100
AcDbEntity
  8
Bemaßung Wege Hauptwege
  6
ByBlock
 62
    0
370
   -2
100
AcDbLine
 10
6900
 20
-62.49999999999996
 11
6900
 21
-3125
  0
ENDBLK
  5
B4
330
B2
100
AcDbEntity
  8
0
100
AcDbBlockEnd
  0
BLOCK
  5
B6
330
B5
100
AcDbEntity
  8
0
100
AcDbBlockBegin
  2
*D33
 70
    1
 10
0
 20
0
  3
*D33
  1

  0
LINE
  5
181
100
AcDbEntity
  8
Bemaßung Wege Hauptwege
  6
ByBlock
 62
    0
370
   -2
100
AcDbLine
 10
42.4970316353174
 20
19000
 11
25150
 21
19000
  0
MTEXT
  5
182
100
AcDbEntity
  8
Bemaßung Wege Hauptwege
  6
CONTINUOUS
 62
    0
370
   -2
100
AcDbMText
 10
12596.24851581766
 20
19187.5
 30
0
 40
250
 41
833.3333333333489
 71
    5
 72
    1
  1
25108
  7
standard
210
0
220
0
230
1
 50
0
 73
    2
 44
1
  0
SOLID
  5
183
100
AcDbEntity
  8
Bemaßung Wege Hauptwege
  6
ByBlock
 62
    0
370
   -2
100
AcDbTrace
 10
42.4970316353174
 20
19000
 30
0
 11
292.4970316353174
 21
19041.62846577728
 31
0
 12
292.4970316353174
 22
18958.37153422272
 32
0
 13
292.4970316353174
 23
18958.37153422272
 33
0
  0
SOLID
  5
184
100
AcDbEntity
  8
Bemaßung Wege Hauptwege
  6
ByBlock
 62
    0
370
   -2
100
AcDbTrace
 10
25150
 20
19000
 30
0
 11
24900
 21
18958.37153422272
 31
0
 12
24900
 22
19041.62846577728
 32
0
 13
24900
 23
19041.62846577728
 33
0
  0
LINE
  5
185
100
AcDbEntity
  8
Bemaßung Wege Hauptwege
  6
ByBlock
 62
    0
370
   -2
100
AcDbLine
 10
42.49703163531323
 20
-192.4821898118793
 11
42.49703163531743
 21
19125
  0
LINE
  5
186
100
AcDbEntity
  8
Bemaßung Wege Hauptwege
  6
ByBlock
 62
    0
370
   -2
100
AcDbLine
 10
25150
 20
11262.5
 11
25150
 21
19125
  0
ENDBLK
  5
B7
330
B5
100
AcDbEntity
  8
0
100
AcDbBlockEnd
  0
BLOCK
  5
B9
330
B8
100
AcDbEntity
  8
0
100
AcDbBlockBegin
  2
*D9
 70
    1
 10
0
 20
0
  3
*D9
  1

  0
LINE
  5
187
100
AcDbEntity
  8
Bemaßung Wege Hauptwege
  6
ByBlock
 62
    0
370
   -2
100
AcDbLine
 10
-1000
 20
0
 11
-1000
 21
3900
  0
MTEXT
  5
188
100
AcDbEntity
  8
Bemaßung Wege Hauptwege
  6
CONTINUOUS
 62
    0
370
   -2
100
AcDbMText
 10
-1187.5
 20
1950
 30
0
 40
250
 41
694.44444444446
 71
    5
 72
    1
  1
3900
  7
standard
210
0
220
0
230
1
 50
90
 73
    2
 44
1
  0
SOLID
  5
189
100
AcDbEntity
  8
Bemaßung Wege Hauptwege
  6
ByBlock
 62
    0
370
   -2
100
AcDbTrace
 10
-1000
 20
0
 30
0
 11
-1041.628465777284
 21
250
 31
0
 12
-958.3715342227159
 22
250
 32
0
 13
-958.3715342227159
 23
250
 33
0
  0
SOLID
  5
18A
100
AcDbEntity
  8
Bemaßung Wege Hauptwege
  6
ByBlock
 62
    0
370
   -2
100
AcDbTrace
 10
-1000
 20
3900
 30
0
 11
-958.3715342227159
 21
3650
 31
0
 12
-1041.628465777284
 22
3650
 32
0
 13
-1041.628465777284
 23
3650
 33
0
  0
LINE
  5
18B
100
AcDbEntity
  8
Bemaßung Wege Hauptwege
  6
ByBlock
 62
    0
370
   -2
100
AcDbLine
 10
-62.5
 20
7.653789711389858e-15
 11
-1125
 21
1.530757942277972e-14
  0
LINE
  5
18C
100
AcDbEntity
  8
Bemaßung Wege Hauptwege
  6
ByBlock
 62
    0
370
   -2
100
AcDbLine
 10
-62.5
 20
3900
 11
-1125
 21
3900
  0
ENDBLK
  5
BA
330
B8
100
AcDbEntity
  8
0
100
AcDbBlockEnd
  0
BLOCK
  5
BC
330
BB
100
AcDbEntity
  8
0
100
AcDbBlockBegin
  2
*D4
 70
    1
 10
0
 20
0
  3
*D4
  1

  0
LINE
  5
18D
100
AcDbEntity
  8
Bemaßung Acker
  6
ByBlock
 62
    0
370
   -2
100
AcDbLine
 10
0
 20
-3000
 11
25500
 21
-3000
  0
MTEXT
  5
18E
100
AcDbEntity
  8
Bemaßung Acker
  6
CONTINUOUS
 62
    0
370
   -2
100
AcDbMText
 10
12750
 20
-2812.5
 30
0
 40
250
 41
888.8888888889198
 71
    5
 72
    1
  1
25500
  7
standard
210
0
220
0
230
1
 50
0
 73
    2
 44
1
  0
SOLID
  5
18F
100
AcDbEntity
  8
Bemaßung Acker
  6
ByBlock
 62
    0
370
   -2
100
AcDbTrace
 10
0
 20
-3000
 30
0
 11
250
 21
-2958.371534222716
 31
0
 12
250
 22
-3041.628465777284
 32
0
 13
250
 23
-3041.628465777284
 33
0
  0
SOLID
  5
190
100
AcDbEntity
  8
Bemaßung Acker
  6
ByBlock
 62
    0
370
   -2
100
AcDbTrace
 10
25500
 20
-3000
 30
0
 11
25250
 21
-3041.628465777284
 31
0
 12
25250
 22
-2958.371534222716
 32
0
 13
25250
 23
-2958.371534222716
 33
0
  0
LINE
  5
191
100
AcDbEntity
  8
Bemaßung Acker
  6
ByBlock
 62
    0
370
   -2
100
AcDbLine
 10
-1.148068456708479e-14
 20
-62.5
 11
-2.296136913416957e-14
 21
-3125
  0
LINE
  5
192
100
AcDbEntity
  8
Bemaßung Acker
  6
ByBlock
 62
    0
370
   -2
100
AcDbLine
 10
25500
 20
1237.5
 11
25500
 21
-3125
  0
ENDBLK
  5
BD
330
BB
100
AcDbEntity
  8
0
100
AcDbBlockEnd
  0
BLOCK
  5
BF
330
BE
100
AcDbEntity
  8
0
100
AcDbBlockBegin
  2
Hauptwege
 70
    0
 10
0
 20
0
  3
Hauptwege
  1

  0
ENDBLK
  5
C0
330
BE
100
AcDbEntity
  8
0
100
AcDbBlockEnd
  0
ENDSEC
  0
SECTION
  2
ENTITIES
  0
HATCH
  5
193
100
AcDbEntity
  8
Wege Hauptwege
  6
ByLayer
 62
  256
370
   -1
100
AcDbHatch
 10
0
 20
0
 30
0
210
0
220
0
230
1
  2
SOLID
 70
    1
 71
    0
 91
    1
 92
    0
 93
    4
 72
    1
 10
27750
 20
5300
 11
28400
 21
5300
 72
    1
 10
28400
 20
5300
 11
28400
 21
11200
 72
    1
 10
28400
 20
11200
 11
27750
 21
11200
 72
    1
 10
27750
 20
11200
 11
27750
 21
5300
 97
    0
 75
    0
 76
    1
 98
    0
  0
HATCH
  5
194
100
AcDbEntity
  8
Wege Hauptwege
  6
ByLayer
 62
  256
370
   -1
100
AcDbHatch
 10
0
 20
0
 30
0
210
0
220
0
230
1
  2
SOLID
 70
    1
 71
    0
 91
    1
 92
    0
 93
    4
 72
    1
 10
24350
 20
5300
 11
25150
 21
5300
 72
    1
 10
25150
 20
5300
 11
25150
 21
11200
 72
    1
 10
25150
 20
11200
 11
24350
 21
11200
 72
    1
 10
24350
 20
11200
 11
24350
 21
5300
 97
    0
 75
    0
 76
    1
 98
    0
  0
HATCH
  5
195
100
AcDbEntity
  8
Wege Hauptwege
  6
ByLayer
 62
  256
370
   -1
100
AcDbHatch
 10
0
 20
0
 30
0
210
0
220
0
230
1
  2
SOLID
 70
    1
 71
    0
 91
    1
 92
    0
 93
    4
 72
    1
 10
20100
 20
0
 11
20900
 21
0
 72
    1
 10
20900
 20
0
 11
20900
 21
11200
 72
    1
 10
20900
 20
11200
 11
20100
 21
11200
 72
    1
 10
20100
 20
11200
 11
20100
 21
0
 97
    0
 75
    0
 76
    1
 98
    0
  0
HATCH
  5
196
100
AcDbEntity
  8
Wege Hauptwege
  6
ByLayer
 62
  256
370
   -1
100
AcDbHatch
 10
0
 20
0
 30
0
210
0
220
0
230
1
  2
SOLID
 70
    1
 71
    0
 91
    1
 92
    0
 93
    4
 72
    1
 10
0
 20
3900
 11
32200
 21
3900
 72
    1
 10
32200
 20
3900
 11
32200
 21
5300
 72
    1
 10
32200
 20
5300
 11
0
 21
5300
 72
    1
 10
0
 20
5300
 11
0
 21
3900
 97
    0
 75
    0
 76
    1
 98
    0
  0
HATCH
  5
197
100
AcDbEntity
  8
Wege Hauptwege
  6
ByLayer
 62
  256
370
   -1
100
AcDbHatch
 10
0
 20
0
 30
0
210
0
220
0
230
1
  2
SOLID
 70
    1
 71
    0
 91
    1
 92
    0
 93
    4
 72
    1
 10
9100
 20
5300
 11
9700
 21
5300
 72
    1
 10
9700
 20
5300
 11
9700
 21
11200
 72
    1
 10
9700
 20
11200
 11
9100
 21
11200
 72
    1
 10
9100
 20
11200
 11
9100
 21
5300
 97
    0
 75
    0
 76
    1
 98
    0
  0
HATCH
  5
198
100
AcDbEntity
  8
Wege Hauptwege
  6
ByLayer
 62
  256
370
   -1
100
AcDbHatch
 10
0
 20
0
 30
0
210
0
220
0
230
1
  2
SOLID
 70
    1
 71
    0
 91
    1
 92
    0
 93
    4
 72
    1
 10
5600
 20
5300
 11
6300
 21
5300
 72
    1
 10
6300
 20
5300
 11
6300
 21
11200
 72
    1
 10
6300
 20
11200
 11
5600
 21
11200
 72
    1
 10
5600
 20
11200
 11
5600
 21
5300
 97
    0
 75
    0
 76
    1
 98
    0
  0
HATCH
  5
199
100
AcDbEntity
  8
Wege Hauptwege
  6
ByLayer
 62
  256
370
   -1
100
AcDbHatch
 10
0
 20
0
 30
0
210
0
220
0
230
1
  2
SOLID
 70
    1
 71
    0
 91
    1
 92
    0
 93
    4
 72
    1
 10
26100
 20
1300
 11
26900
 21
1300
 72
    1
 10
26900
 20
1300
 11
26900
 21
3900
 72
    1
 10
26900
 20
3900
 11
26100
 21
3900
 72
    1
 10
26100
 20
3900
 11
26100
 21
1300
 97
    0
 75
    0
 76
    1
 98
    0
  0
HATCH
  5
19A
100
AcDbEntity
  8
Wege Hauptwege
  6
ByLayer
 62
  256
370
   -1
100
AcDbHatch
 10
0
 20
0
 30
0
210
0
220
0
230
1
  2
SOLID
 70
    1
 71
    0
 91
    1
 92
    0
 93
    4
 72
    1
 10
15100
 20
1300
 11
15800
 21
1300
 72
    1
 10
15800
 20
1300
 11
15800
 21
3900
 72
    1
 10
15800
 20
3900
 11
15100
 21
3900
 72
    1
 10
15100
 20
3900
 11
15100
 21
1300
 97
    0
 75
    0
 76
    1
 98
    0
  0
HATCH
  5
19B
100
AcDbEntity
  8
Wege Hauptwege
  6
ByLayer
 62
  256
370
   -1
100
AcDbHatch
 10
0
 20
0
 30
0
210
0
220
0
230
1
  2
SOLID
 70
    1
 71
    0
 91
    1
 92
    0
 93
    4
 72
    1
 10
10900
 20
1300
 11
11700
 21
1300
 72
    1
 10
11700
 20
1300
 11
11700
 21
3900
 72
    1
 10
11700
 20
3900
 11
10900
 21
3900
 72
    1
 10
10900
 20
3900
 11
10900
 21
1300
 97
    0
 75
    0
 76
    1
 98
    0
  0
HATCH
  5
19C
100
AcDbEntity
  8
Wege Hauptwege
  6
ByLayer
 62
  256
370
   -1
100
AcDbHatch
 10
0
 20
0
 30
0
210
0
220
0
230
1
  2
SOLID
 70
    1
 71
    0
 91
    1
 92
    0
 93
    3
 72
    1
 10
6900
 20
0
 11
6900
 21
3900
 72
    1
 10
6900
 20
3900
 11
7600
 21
3900
 72
    1
 10
7600
 20
3900
 11
7600
 21
385.1851851851852
 97
    0
 75
    0
 76
    1
 98
    0
  0
HATCH
  5
19D
100
AcDbEntity
  8
Wege Hauptwege
  6
ByLayer
 62
  256
370
   -1
100
AcDbHatch
 10
0
 20
0
 30
0
210
0
220
0
230
1
  2
SOLID
 70
    1
 71
    0
 91
    1
 92
    0
 93
    4
 72
    1
 10
4900
 20
0
 11
5600
 21
0
 72
    1
 10
5600
 20
0
 11
5600
 21
3900
 72
    1
 10
5600
 20
3900
 11
4900
 21
3900
 72
    1
 10
4900
 20
3900
 11
4900
 21
0
 97
    0
 75
    0
 76
    1
 98
    0
  0
HATCH
  5
19E
100
AcDbEntity
  8
Wege Hauptwege
  6
ByLayer
 62
  256
370
   -1
100
AcDbHatch
 10
0
 20
0
 30
0
210
0
220
0
230
1
  2
SOLID
 70
    1
 71
    0
 91
    1
 92
    0
 93
    4
 72
    1
 10
20900
 20
6900
 11
32200
 21
6900
 72
    1
 10
32200
 20
6900
 11
32200
 21
7600
 72
    1
 10
32200
 20
7600
 11
20900
 21
7600
 72
    1
 10
20900
 20
7600
 11
20900
 21
6900
 97
    0
 75
    0
 76
    1
 98
    0
  0
HATCH
  5
19F
100
AcDbEntity
  8
Wege Hauptwege
  6
ByLayer
 62
  256
370
   -1
100
AcDbHatch
 10
0
 20
0
 30
0
210
0
220
0
230
1
  2
SOLID
 70
    1
 71
    0
 91
    1
 92
    0
 93
    4
 72
    1
 10
0
 20
8100
 11
20100
 21
8100
 72
    1
 10
20100
 20
8100
 11
20100
 21
8800
 72
    1
 10
20100
 20
8800
 11
0
 21
8800
 72
    1
 10
0
 20
8800
 11
0
 21
8100
 97
    0
 75
    0
 76
    1
 98
    0
  0
HATCH
  5
1A0
100
AcDbEntity
  8
Acker
  6
ByLayer
 62
  256
370
   -1
100
AcDbHatch
 10
0
 20
0
 30
0
210
0
220
0
230
1
  2
sand
 70
    0
 71
    0
 91
    1
 92
    0
 93
    8
 72
    1
 10
25500
 20
1300
 11
28000
 21
0
 72
    1
 10
28000
 20
0
 11
32200
 21
0
 72
    1
 10
32200
 20
0
 11
32200
 21
11200
 72
    1
 10
32200
 20
11200
 11
0
 21
11200
 72
    1
 10
0
 20
11200
 11
0
 21
0
 72
    1
 10
0
 20
0
 11
6800
 21
0
 72
    1
 10
6800
 20
0
 11
9500
 21
1300
 72
    1
 10
9500
 20
1300
 11
25500
 21
1300
 97
    0
 75
    0
 76
    1
 52
0
 41
100
 77
    0
 78
    0
 98
    0
  0
LWPOLYLINE
  5
1A1
100
AcDbEntity
  8
Acker
  6
ByLayer
 62
  256
370
   -1
100
AcDbPolyline
 90
    8
 70
    1
 43
0
 10
25500
 20
1300
 10
28000
 20
0
 10
32200
 20
0
 10
32200
 20
11200
 10
0
 20
11200
 10
0
 20
0
 10
6800
 20
0
 10
9500
 20
1300
  0
DIMENSION
  5
1A2
100
AcDbEntity
  8
Bemaßung Acker
  6
ByLayer
 62
  256
370
   -1
100
AcDbDimension
  2
*D1
 10
32200
 20
12000
 30
0
 11
16100
 21
12187.5
 31
0
 70
   32
 71
    5
  3
Standard
 53
0
210
0
220
0
230
1
100
AcDbAlignedDimension
 13
0
 23
11200
 33
0
 14
32200
 24
11200
 34
0
100
AcDbRotatedDimension
  0
DIMENSION
  5
1A3
100
AcDbEntity
  8
Bemaßung Acker
  6
ByLayer
 62
  256
370
   -1
100
AcDbDimension
  2
*D2
 10
6800
 20
-1000
 30
0
 11
3400
 21
-812.5
 31
0
 70
   32
 71
    5
  3
Standard
 53
0
210
0
220
0
230
1
100
AcDbAlignedDimension
 13
0
 23
0
 33
0
 14
6800
 24
0
 34
0
100
AcDbRotatedDimension
  0
DIMENSION
  5
1A4
100
AcDbEntity
  8
Bemaßung Acker
  6
ByLayer
 62
  256
370
   -1
100
AcDbDimension
  2
*D3
 10
9500
 20
-2000
 30
0
 11
4750
 21
-1812.5
 31
0
 70
   32
 71
    5
  3
Standard
 53
0
210
0
220
0
230
1
100
AcDbAlignedDimension
 13
0
 23
0
 33
0
 14
9500
 24
1300
 34
0
100
AcDbRotatedDimension
  0
DIMENSION
  5
1A5
100
AcDbEntity
  8
Bemaßung Acker
  6
ByLayer
 62
  256
370
   -1
100
AcDbDimension
  2
*D4
 10
25500
 20
-3000
 30
0
 11
12750
 21
-2812.5
 31
0
 70
   32
 71
    5
  3
Standard
 53
0
210
0
220
0
230
1
100
AcDbAlignedDimension
 13
0
 23
0
 33
0
 14
25500
 24
1300
 34
0
100
AcDbRotatedDimension
  0
DIMENSION
  5
1A6
100
AcDbEntity
  8
Bemaßung Acker
  6
ByLayer
 62
  256
370
   -1
100
AcDbDimension
  2
*D5
 10
28000
 20
-4000
 30
0
 11
14000
 21
-3812.5
 31
0
 70
   32
 71
    5
  3
Standard
 53
0
210
0
220
0
230
1
100
AcDbAlignedDimension
 13
0
 23
0
 33
0
 14
28000
 24
0
 34
0
100
AcDbRotatedDimension
  0
DIMENSION
  5
1A7
100
AcDbEntity
  8
Bemaßung Acker
  6
ByLayer
 62
  256
370
   -1
100
AcDbDimension
  2
*D6
 10
32200
 20
-5161.041119290518
 30
0
 11
16100
 21
-4973.541119290518
 31
0
 70
   32
 71
    5
  3
Standard
 53
0
210
0
220
0
230
1
100
AcDbAlignedDimension
 13
0
 23
0
 33
0
 14
32200
 24
0
 34
0
100
AcDbRotatedDimension
  0
DIMENSION
  5
1A8
100
AcDbEntity
  8
Bemaßung Acker
  6
ByLayer
 62
  256
370
   -1
100
AcDbDimension
  2
*D7
 10
-2000
 20
11200
 30
0
 11
-2187.5
 21
5600
 31
0
 70
   32
 71
    5
  3
Standard
 53
0
210
0
220
0
230
1
100
AcDbAlignedDimension
 13
0
 23
0
 33
0
 14
0
 24
11200
 34
0
 50
90
100
AcDbRotatedDimension
  0
LINE
  5
1A9
100
AcDbEntity
  8
Wege Hauptwege
  6
ByLayer
 62
  256
370
   -1
100
AcDbLine
 10
0
 20
390
 11
10
 21
390
  0
LINE
  5
1AA
100
AcDbEntity
  8
Wege Hauptwege
  6
ByLayer
 62
  256
370
   -1
100
AcDbLine
 10
32000
 20
390
 11
32010
 21
390
  0
LWPOLYLINE
  5
1AB
100
AcDbEntity
  8
Wege Hauptwege
  6
ByLayer
 62
  256
370
   -1
100
AcDbPolyline
 90
    4
 70
    1
 43
0
 10
0
 20
3900
 10
32200
 20
3900
 10
32200
 20
5300
 10
0
 20
5300
  0
LWPOLYLINE
  5
1AC
100
AcDbEntity
  8
Wege Hauptwege
  6
ByLayer
 62
  256
370
   -1
100
AcDbPolyline
 90
    4
 70
    1
 43
0
 10
20100
 20
0
 10
20900
 20
0
 10
20900
 20
11200
 10
20100
 20
11200
  0
LWPOLYLINE
  5
1AD
100
AcDbEntity
  8
Wege Hauptwege
  6
ByLayer
 62
  256
370
   -1
100
AcDbPolyline
 90
    4
 70
    1
 43
0
 10
0
 20
8100
 10
20100
 20
8100
 10
20100
 20
8800
 10
0
 20
8800
  0
LWPOLYLINE
  5
1AE
100
AcDbEntity
  8
Wege Hauptwege
  6
ByLayer
 62
  256
370
   -1
100
AcDbPolyline
 90
    4
 70
    1
 43
0
 10
20900
 20
6900
 10
32200
 20
6900
 10
32200
 20
7600
 10
20900
 20
7600
  0
LWPOLYLINE
  5
1AF
100
AcDbEntity
  8
Wege Hauptwege
  6
ByLayer
 62
  256
370
   -1
100
AcDbPolyline
 90
    4
 70
    1
 43
0
 10
4900
 20
0
 10
5600
 20
0
 10
5600
 20
3900
 10
4900
 20
3900
  0
LWPOLYLINE
  5
1B0
100
AcDbEntity
  8
Wege Hauptwege
  6
ByLayer
 62
  256
370
   -1
100
AcDbPolyline
 90
    4
 70
    0
 43
0
 10
6900
 20
0
 10
6900
 20
3900
 10
7600
 20
3900
 10
7600
 20
385.1851851851852
  0
LINE
  5
1B1
100
AcDbEntity
  8
Wege Hauptwege
  6
ByLayer
 62
  256
370
   -1
100
AcDbLine
 10
7600
 20
385.1851851851852
 11
6900
 21
0
  0
DIMENSION
  5
1B2
100
AcDbEntity
  8
Bemaßung Acker
  6
ByLayer
 62
  256
370
   -1
100
AcDbDimension
  2
*D8
 10
-1000
 20
1300
 30
0
 11
-1187.5
 21
650
 31
0
 70
   32
 71
    5
  3
Standard
 53
0
210
0
220
0
230
1
100
AcDbAlignedDimension
 13
0
 23
0
 33
0
 14
9500
 24
1300
 34
0
 50
90
100
AcDbRotatedDimension
  0
LWPOLYLINE
  5
1B3
100
AcDbEntity
  8
Wege Hauptwege
  6
ByLayer
 62
  256
370
   -1
100
AcDbPolyline
 90
    4
 70
    1
 43
0
 10
10900
 20
1300
 10
11700
 20
1300
 10
11700
 20
3900
 10
10900
 20
3900
  0
LWPOLYLINE
  5
1B4
100
AcDbEntity
  8
Wege Hauptwege
  6
ByLayer
 62
  256
370
   -1
100
AcDbPolyline
 90
    4
 70
    1
 43
0
 10
15100
 20
1300
 10
15800
 20
1300
 10
15800
 20
3900
 10
15100
 20
3900
  0
LWPOLYLINE
  5
1B5
100
AcDbEntity
  8
Wege Hauptwege
  6
ByLayer
 62
  256
370
   -1
100
AcDbPolyline
 90
    4
 70
    1
 43
0
 10
26100
 20
1300
 10
26900
 20
1300
 10
26900
 20
3900
 10
26100
 20
3900
  0
LWPOLYLINE
  5
1B6
100
AcDbEntity
  8
Wege Hauptwege
  6
ByLayer
 62
  256
370
   -1
100
AcDbPolyline
 90
    4
 70
    1
 43
0
 10
5600
 20
5300
 10
6300
 20
5300
 10
6300
 20
11200
 10
5600
 20
11200
  0
LWPOLYLINE
  5
1B7
100
AcDbEntity
  8
Wege Hauptwege
  6
ByLayer
 62
  256
370
   -1
100
AcDbPolyline
 90
    4
 70
    1
 43
0
 10
9100
 20
5300
 10
9700
 20
5300
 10
9700
 20
11200
 10
9100
 20
11200
  0
LWPOLYLINE
  5
1B8
100
AcDbEntity
  8
Wege Hauptwege
  6
ByLayer
 62
  256
370
   -1
100
AcDbPolyline
 90
    4
 70
    1
 43
0
 10
24350
 20
5300
 10
25150
 20
5300
 10
25150
 20
11200
 10
24350
 20
11200
  0
LWPOLYLINE
  5
1B9
100
AcDbEntity
  8
Wege Hauptwege
  6
ByLayer
 62
  256
370
   -1
100
AcDbPolyline
 90
    4
 70
    1
 43
0
 10
27750
 20
5300
 10
28400
 20
5300
 10
28400
 20
11200
 10
27750
 20
11200
  0
DIMENSION
  5
1BA
100
AcDbEntity
  8
Bemaßung Wege Hauptwege
  6
ByLayer
 62
  256
370
   -1
100
AcDbDimension
  2
*D9
 10
-1000
 20
3900
 30
0
 11
-1187.5
 21
1950
 31
0
 70
   32
 71
    5
 72
    0
  3
Standard
 53
0
210
0
220
0
230
1
100
AcDbAlignedDimension
 13
0
 23
0
 33
0
 14
0
 24
3900
 34
0
 50
90
100
AcDbRotatedDimension
  0
DIMENSION
  5
1BB
100
AcDbEntity
  8
Bemaßung Wege Hauptwege
  6
ByLayer
 62
  256
370
   -1
100
AcDbDimension
  2
*D10
 10
-2000
 20
5300
 30
0
 11
-2187.5
 21
2650
 31
0
 70
   32
 71
    5
 72
    0
  3
Standard
 53
0
210
0
220
0
230
1
100
AcDbAlignedDimension
 13
0
 23
0
 33
0
 14
0
 24
5300
 34
0
 50
90
100
AcDbRotatedDimension
  0
DIMENSION
  5
1BC
100
AcDbEntity
  8
Bemaßung Wege Hauptwege
  6
ByLayer
 62
  256
370
   -1
100
AcDbDimension
  2
*D11
 10
-3000
 20
8100
 30
0
 11
-3187.5
 21
4050
 31
0
 70
   32
 71
    5
 72
    0
  3
Standard
 53
0
210
0
220
0
230
1
100
AcDbAlignedDimension
 13
0
 23
0
 33
0
 14
0
 24
8100
 34
0
 50
90
100
AcDbRotatedDimension
  0
DIMENSION
  5
1BD
100
AcDbEntity
  8
Bemaßung Wege Hauptwege
  6
ByLayer
 62
  256
370
   -1
100
AcDbDimension
  2
*D12
 10
-4000
 20
8800
 30
0
 11
-4187.5
 21
4350.690689943084
 31
0
 70
   32
 71
    5
 72
    0
  3
Standard
 53
0
210
0
220
0
230
1
100
AcDbAlignedDimension
 13
-32.87287337127751
 23
-98.61862011383252
 33
0
 14
0
 24
8800
 34
0
 50
90
100
AcDbRotatedDimension
  0
DIMENSION
  5
1BE
100
AcDbEntity
  8
Bemaßung Wege Hauptwege
  6
ByLayer
 62
  256
370
   -1
100
AcDbDimension
  2
*D13
 10
-5128.168245919292
 20
11200
 30
0
 11
-5315.668245919292
 21
5600
 31
0
 70
   32
 71
    5
 72
    0
  3
Standard
 53
0
210
0
220
0
230
1
100
AcDbAlignedDimension
 13
0
 23
0
 33
0
 14
0
 24
11200
 34
0
 50
90
100
AcDbRotatedDimension
  0
DIMENSION
  5
1BF
100
AcDbEntity
  8
Bemaßung Wege Hauptwege
  6
ByLayer
 62
  256
370
   -1
100
AcDbDimension
  2
*D14
 10
4900
 20
-1000
 30
0
 11
2433.563563314361
 21
-812.5
 31
0
 70
   32
 71
    5
 72
    0
  3
Standard
 53
0
210
0
220
0
230
1
100
AcDbAlignedDimension
 13
-32.87287337127751
 23
-32.87287337127751
 33
0
 14
4900
 24
0
 34
0
100
AcDbRotatedDimension
  0
DIMENSION
  5
1C0
100
AcDbEntity
  8
Bemaßung Wege Hauptwege
  6
ByLayer
 62
  256
370
   -1
100
AcDbDimension
  2
*D15
 10
5600
 20
-2000
 30
0
 11
2800
 21
-1812.5
 31
0
 70
   32
 71
    5
 72
    0
  3
Standard
 53
0
210
0
220
0
230
1
100
AcDbAlignedDimension
 13
0
 23
0
 33
0
 14
5600
 24
0
 34
0
100
AcDbRotatedDimension
  0
DIMENSION
  5
1C1
100
AcDbEntity
  8
Bemaßung Wege Hauptwege
  6
ByLayer
 62
  256
370
   -1
100
AcDbDimension
  2
*D16
 10
6900
 20
-3000
 30
0
 11
3450
 21
-2812.5
 31
0
 70
   32
 71
    5
 72
    0
  3
Standard
 53
0
210
0
220
0
230
1
100
AcDbAlignedDimension
 13
0
 23
0
 33
0
 14
6900
 24
3.637978807091713e-14
 34
0
100
AcDbRotatedDimension
  0
DIMENSION
  5
1C2
100
AcDbEntity
  8
Bemaßung Wege Hauptwege
  6
ByLayer
 62
  256
370
   -1
100
AcDbDimension
  2
*D17
 10
7600
 20
-4000
 30
0
 11
3800
 21
-3812.5
 31
0
 70
   32
 71
    5
 72
    0
  3
Standard
 53
0
210
0
220
0
230
1
100
AcDbAlignedDimension
 13
0
 23
0
 33
0
 14
7600
 24
385.1851851851852
 34
0
100
AcDbRotatedDimension
  0
DIMENSION
  5
1C3
100
AcDbEntity
  8
Bemaßung Wege Hauptwege
  6
ByLayer
 62
  256
370
   -1
100
AcDbDimension
  2
*D18
 10
10900
 20
-5000
 30
0
 11
5450
 21
-4812.5
 31
0
 70
   32
 71
    5
 72
    0
  3
Standard
 53
0
210
0
220
0
230
1
100
AcDbAlignedDimension
 13
0
 23
-34.59914278640364
 33
0
 14
10900
 24
1300
 34
0
100
AcDbRotatedDimension
  0
DIMENSION
  5
1C4
100
AcDbEntity
  8
Bemaßung Wege Hauptwege
  6
ByLayer
 62
  256
370
   -1
100
AcDbDimension
  2
*D19
 10
11700
 20
-6000
 30
0
 11
5850
 21
-5812.5
 31
0
 70
   32
 71
    5
 72
    0
  3
Standard
 53
0
210
0
220
0
230
1
100
AcDbAlignedDimension
 13
0
 23
0
 33
0
 14
11700
 24
1300
 34
0
100
AcDbRotatedDimension
  0
DIMENSION
  5
1C5
100
AcDbEntity
  8
Bemaßung Wege Hauptwege
  6
ByLayer
 62
  256
370
   -1
100
AcDbDimension
  2
*D20
 10
15100
 20
-7000
 30
0
 11
7567.2995713932
 21
-6812.5
 31
0
 70
   32
 71
    5
 72
    0
  3
Standard
 53
0
210
0
220
0
230
1
100
AcDbAlignedDimension
 13
34.59914278640365
 23
-51.89871417960547
 33
0
 14
15100
 24
1300
 34
0
100
AcDbRotatedDimension
  0
DIMENSION
  5
1C6
100
AcDbEntity
  8
Bemaßung Wege Hauptwege
  6
ByLayer
 62
  256
370
   -1
100
AcDbDimension
  2
*D21
 10
15800
 20
-8000
 30
0
 11
7900
 21
-7812.5
 31
0
 70
   32
 71
    5
 72
    0
  3
Standard
 53
0
210
0
220
0
230
1
100
AcDbAlignedDimension
 13
0
 23
0
 33
0
 14
15800
 24
1300
 34
0
100
AcDbRotatedDimension
  0
DIMENSION
  5
1C7
100
AcDbEntity
  8
Bemaßung Wege Hauptwege
  6
ByLayer
 62
  256
370
   -1
100
AcDbDimension
  2
*D22
 10
20100
 20
-9000
 30
0
 11
10050
 21
-8812.5
 31
0
 70
   32
 71
    5
 72
    0
  3
Standard
 53
0
210
0
220
0
230
1
100
AcDbAlignedDimension
 13
0
 23
0
 33
0
 14
20100
 24
0
 34
0
100
AcDbRotatedDimension
  0
DIMENSION
  5
1C8
100
AcDbEntity
  8
Bemaßung Wege Hauptwege
  6
ByLayer
 62
  256
370
   -1
100
AcDbDimension
  2
*D23
 10
20900
 20
-10000
 30
0
 11
10450
 21
-9812.5
 31
0
 70
   32
 71
    5
 72
    0
  3
Standard
 53
0
210
0
220
0
230
1
100
AcDbAlignedDimension
 13
0
 23
-65.74574674255521
 33
0
 14
20900
 24
0
 34
0
100
AcDbRotatedDimension
  0
DIMENSION
  5
1C9
100
AcDbEntity
  8
Bemaßung Wege Hauptwege
  6
ByLayer
 62
  256
370
   -1
100
AcDbDimension
  2
*D24
 10
26100
 20
-11000
 30
0
 11
13050
 21
-10812.5
 31
0
 70
   32
 71
    5
 72
    0
  3
Standard
 53
0
210
0
220
0
230
1
100
AcDbAlignedDimension
 13
0
 23
0
 33
0
 14
26100
 24
1300
 34
0
100
AcDbRotatedDimension
  0
DIMENSION
  5
1CA
100
AcDbEntity
  8
Bemaßung Wege Hauptwege
  6
ByLayer
 62
  256
370
   -1
100
AcDbDimension
  2
*D25
 10
26900
 20
-12000
 30
0
 11
13450
 21
-11812.5
 31
0
 70
   32
 71
    5
 72
    0
  3
Standard
 53
0
210
0
220
0
230
1
100
AcDbAlignedDimension
 13
0
 23
0
 33
0
 14
26900
 24
1300
 34
0
100
AcDbRotatedDimension
  0
DIMENSION
  5
1CB
100
AcDbEntity
  8
Bemaßung Wege Hauptwege
  6
ByLayer
 62
  256
370
   -1
100
AcDbDimension
  2
*D26
 10
5600
 20
12000
 30
0
 11
2800
 21
12187.5
 31
0
 70
   32
 71
    5
 72
    0
  3
Standard
 53
0
210
0
220
0
230
1
100
AcDbAlignedDimension
 13
0
 23
-86.73581364453196
 33
0
 14
5600
 24
11200
 34
0
100
AcDbRotatedDimension
  0
DIMENSION
  5
1CC
100
AcDbEntity
  8
Bemaßung Wege Hauptwege
  6
ByLayer
 62
  256
370
   -1
100
AcDbDimension
  2
*D27
 10
6300
 20
13000
 30
0
 11
3150
 21
13187.5
 31
0
 70
   32
 71
    5
 72
    0
  3
Standard
 53
0
210
0
220
0
230
1
100
AcDbAlignedDimension
 13
3.834528908731885e-15
 23
0
 33
0
 14
6300
 24
11200
 34
0
100
AcDbRotatedDimension
  0
DIMENSION
  5
1CD
100
AcDbEntity
  8
Bemaßung Wege Hauptwege
  6
ByLayer
 62
  256
370
   -1
100
AcDbDimension
  2
*D28
 10
9100
 20
14000
 30
0
 11
4550
 21
14187.5
 31
0
 70
   32
 71
    5
 72
    0
  3
Standard
 53
0
210
0
220
0
230
1
100
AcDbAlignedDimension
 13
0
 23
0
 33
0
 14
9100
 24
11200
 34
0
100
AcDbRotatedDimension
  0
DIMENSION
  5
1CE
100
AcDbEntity
  8
Bemaßung Wege Hauptwege
  6
ByLayer
 62
  256
370
   -1
100
AcDbDimension
  2
*D29
 10
9700
 20
15000
 30
0
 11
4878.91193788151
 21
15187.5
 31
0
 70
   32
 71
    5
 72
    0
  3
Standard
 53
0
210
0
220
0
230
1
100
AcDbAlignedDimension
 13
57.82387576302131
 23
-86.73581364453196
 33
0
 14
9700
 24
11200
 34
0
100
AcDbRotatedDimension
  0
DIMENSION
  5
1CF
100
AcDbEntity
  8
Bemaßung Wege Hauptwege
  6
ByLayer
 62
  256
370
   -1
100
AcDbDimension
  2
*D30
 10
20124.17316546534
 20
16000
 30
0
 11
10090.99852061418
 21
16187.5
 31
0
 70
   32
 71
    5
 72
    0
  3
Standard
 53
0
210
0
220
0
230
1
100
AcDbAlignedDimension
 13
57.82387576302131
 23
-115.6477515260426
 33
0
 14
20124.17316546534
 24
11200
 34
0
100
AcDbRotatedDimension
  0
DIMENSION
  5
1D0
100
AcDbEntity
  8
Bemaßung Wege Hauptwege
  6
ByLayer
 62
  256
370
   -1
100
AcDbDimension
  2
*D31
 10
20900
 20
17000
 30
0
 11
10450
 21
17187.5
 31
0
 70
   32
 71
    5
 72
    0
  3
Standard
 53
0
210
0
220
0
230
1
100
AcDbAlignedDimension
 13
3.834528908731885e-15
 23
0
 33
0
 14
20900
 24
11200
 34
0
100
AcDbRotatedDimension
  0
DIMENSION
  5
1D1
100
AcDbEntity
  8
Bemaßung Wege Hauptwege
  6
ByLayer
 62
  256
370
   -1
100
AcDbDimension
  2
*D32
 10
24350
 20
18000
 30
0
 11
12175
 21
18187.5
 31
0
 70
   32
 71
    5
 72
    0
  3
Standard
 53
0
210
0
220
0
230
1
100
AcDbAlignedDimension
 13
0
 23
-84.99406327062643
 33
0
 14
24350
 24
11200
 34
0
100
AcDbRotatedDimension
  0
DIMENSION
  5
1D2
100
AcDbEntity
  8
Bemaßung Wege Hauptwege
  6
ByLayer
 62
  256
370
   -1
100
AcDbDimension
  2
*D33
 10
25150
 20
19000
 30
0
 11
12596.24851581766
 21
19187.5
 31
0
 70
   32
 71
    5
 72
    0
  3
Standard
 53
0
210
0
220
0
230
1
100
AcDbAlignedDimension
 13
42.49703163531321
 23
-254.9821898118793
 33
0
 14
25150
 24
11200
 34
0
100
AcDbRotatedDimension
  0
DIMENSION
  5
1D3
100
AcDbEntity
  8
Bemaßung Wege Hauptwege
  6
ByLayer
 62
  256
370
   -1
100
AcDbDimension
  2
*D34
 10
27750
 20
20000
 30
0
 11
13896.24851581766
 21
20187.5
 31
0
 70
   32
 71
    5
 72
    0
  3
Standard
 53
0
210
0
220
0
230
1
100
AcDbAlignedDimension
 13
42.49703163531327
 23
0
 33
0
 14
27750
 24
11200
 34
0
100
AcDbRotatedDimension
  0
DIMENSION
  5
1D4
100
AcDbEntity
  8
Bemaßung Wege Hauptwege
  6
ByLayer
 62
  256
370
   -1
100
AcDbDimension
  2
*D35
 10
28400
 20
21000
 30
0
 11
14200
 21
21187.5
 31
0
 70
   32
 71
    5
 72
    0
  3
Standard
 53
0
210
0
220
0
230
1
100
AcDbAlignedDimension
 13
0
 23
0
 33
0
 14
28400
 24
11200
 34
0
100
AcDbRotatedDimension
  0
LWPOLYLINE
  5
1D5
100
AcDbEntity
  8
Beete
  6
ByLayer
 62
  256
370
   -1
100
AcDbPolyline
 90
    4
 70
    1
 43
0
 10
0
 20
0
 10
4900
 20
0
 10
4900
 20
3900
 10
0
 20
3900
  0
LINE
  5
1D6
100
AcDbEntity
  8
Hilfslinien
  6
ByLayer
 62
  256
370
   -1
100
AcDbLine
 10
0
 20
0
 11
4900
 21
3900
  0
LINE
  5
1D7
100
AcDbEntity
  8
Hilfslinien
  6
ByLayer
 62
  256
370
   -1
100
AcDbLine
 10
0
 20
3900
 11
4900
 21
0
  0
MTEXT
  5
1D8
100
AcDbEntity
  8
Beete
  6
ByLayer
 62
  256
370
   -1
100
AcDbMText
 10
2450
 20
1950
 30
0
 40
1000
 41
3305.555555555602
 71
    5
 72
    1
  1
19 m²
  7
standard
210
0
220
0
230
1
 50
0
 73
    2
 44
1
  0
ENDSEC
  0
SECTION
  2
OBJECTS
  0
DICTIONARY
  5
C
330
0
100
AcDbDictionary
281
    1
  3
ACAD_GROUP
350
D
  0
DICTIONARY
  5
D
330
C
100
AcDbDictionary
281
    1
  0
PLOTSETTINGS
  5
1D9
100
AcDbPlotSettings
  6
1x1
 40
0
 41
0
 42
0
 43
0
  0
ENDSEC
  0
EOF
