999
dxfrw 0.6.3
  0
SECTION
  2
HEADER
  9
$ACADVER
  1
AC1021
  9
$DWGCODEPAGE
  3
ANSI_1252
  9
$INSBASE
 10
0
 20
0
 30
0
  9
$EXTMIN
 10
-5.478168245919292
 20
-12.1
 30
0
  9
$EXTMAX
 10
32.2
 20
21.35
 30
0
  9
$LIMMIN
 10
0
 20
0
  9
$LIMMAX
 10
420
 20
297
  9
$ORTHOMODE
 70
    0
  9
$REGENMODE
 70
    1
  9
$FILLMODE
 70
    1
  9
$QTEXTMODE
 70
    0
  9
$MIRRTEXT
 70
    0
  9
$LTSCALE
 40
1
  9
$ATTMODE
 70
    0
  9
$TEXTSIZE
 40
2.5
  9
$TRACEWID
 40
15.68
  9
$TEXTSTYLE
  7
STANDARD
  9
$CLAYER
  8
Beete
  9
$CELTYPE
  6
BYLAYER
  9
$CECOLOR
 62
  256
  9
$CELTSCALE
 40
1
  9
$DISPSILH
 70
    0
  9
$DIMSCALE
 40
100
  9
$DIMASZ
 40
0.002
  9
$DIMEXO
 40
0.002
  9
$DIMDLI
 40
3.75
  9
$DIMRND
 40
0
  9
$DIMDLE
 40
0
  9
$DIMEXE
 40
0.001
  9
$DIMTP
 40
0
  9
$DIMTM
 40
0
  9
$DIMTXT
 40
0.0025
  9
$DIMCEN
 40
2.5
  9
$DIMTSZ
 40
0
  9
$DIMTOL
 70
    0
  9
$DIMLIM
 70
    0
  9
$DIMTIH
 70
    0
  9
$DIMTOH
 70
    0
  9
$DIMSE1
 70
    0
  9
$DIMSE2
 70
    0
  9
$DIMTAD
 70
    1
  9
$DIMZIN
 70
    8
  9
$DIMBLK
  1

  9
$DIMASO
 70
    1
  9
$DIMSHO
 70
    1
  9
$DIMPOST
  1

  9
$DIMAPOST
  1

  9
$DIMALT
 70
    0
  9
$DIMALTD
 70
    3
  9
$DIMALTF
 40
0.03937
  9
$DIMLFAC
 40
1
  9
$DIMTOFL
 70
    1
  9
$DIMTVP
 40
0
  9
$DIMTIX
 70
    0
  9
$DIMSOXD
 70
    0
  9
$DIMSAH
 70
    0
  9
$DIMBLK1
  1

  9
$DIMBLK2
  1

  9
$DIMSTYLE
  2
STANDARD
  9
$DIMCLRD
 70
    0
  9
$DIMCLRE
 70
    0
  9
$DIMCLRT
 70
    0
  9
$DIMTFAC
 40
1
  9
$DIMGAP
 40
0.001
  9
$DIMJUST
 70
    0
  9
$DIMSD1
 70
    0
  9
$DIMSD2
 70
    0
  9
$DIMTOLJ
 70
    0
  9
$DIMTZIN
 70
    8
  9
$DIMALTZ
 70
    0
  9
$DIMALTTZ
 70
    0
  9
$DIMUPT
 70
    0
  9
$DIMDEC
 70
    3
  9
$DIMTDEC
 70
    2
  9
$DIMALTU
 70
    2
  9
$DIMALTTD
 70
    3
  9
$DIMTXSTY
  7
standard
  9
$DIMAUNIT
 70
    0
  9
$DIMADEC
 70
    2
  9
$DIMALTRND
 40
0
  9
$DIMAZIN
 70
    0
  9
$DIMDSEP
 70
   44
  9
$DIMATFIT
 70
    3
  9
$DIMFRAC
 70
    0
  9
$DIMLDRBLK
  1
STANDARD
  9
$DIMLUNIT
 70
    2
  9
$DIMLWD
 70
   -2
  9
$DIMLWE
 70
   -2
  9
$DIMTMOVE
 70
    0
  9
$DIMFXL
 40
0.004
  9
$DIMFXLON
 70
    0
  9
$DIMJOGANG
 40
0.7854
  9
$DIMTFILL
 70
    0
  9
$DIMTFILLCLR
 70
    0
  9
$DIMARCSYM
 70
    0
  9
$DIMLTYPE
  6

  9
$DIMLTEX1
  6

  9
$DIMLTEX2
  6

  9
$LUNITS
 70
    2
  9
$LUPREC
 70
    4
  9
$SKETCHINC
 40
1
  9
$FILLETRAD
 40
0
  9
$AUNITS
 70
    0
  9
$AUPREC
 70
    2
  9
$MENU
  1
.
  9
$ELEVATION
 40
0
  9
$PELEVATION
 40
0
  9
$THICKNESS
 40
0
  9
$LIMCHECK
 70
    0
  9
$CHAMFERA
 40
0
  9
$CHAMFERB
 40
0
  9
$CHAMFERC
 40
0
  9
$CHAMFERD
 40
0
  9
$SKPOLY
 70
    0
  9
$USRTIMER
 70
    1
  9
$ANGBASE
 50
0
  9
$ANGDIR
 70
    0
  9
$PDMODE
 70
   34
  9
$PDSIZE
 40
0
  9
$PLINEWID
 40
0
  9
$SPLFRAME
 70
    0
  9
$SPLINETYPE
 70
    2
  9
$SPLINESEGS
 70
    8
  9
$HANDSEED
  5
20000
  9
$SURFTAB1
 70
    6
  9
$SURFTAB2
 70
    6
  9
$SURFTYPE
 70
    6
  9
$SURFU
 70
    6
  9
$SURFV
 70
    6
  9
$UCSBASE
  2

  9
$UCSNAME
  2

  9
$UCSORG
 10
0
 20
0
 30
0
  9
$UCSXDIR
 10
1
 20
0
 30
0
  9
$UCSYDIR
 10
0
 20
1
 30
0
  9
$UCSORTHOREF
  2

  9
$UCSORTHOVIEW
 70
    0
  9
$UCSORGTOP
 10
0
 20
0
 30
0
  9
$UCSORGBOTTOM
 10
0
 20
0
 30
0
  9
$UCSORGLEFT
 10
0
 20
0
 30
0
  9
$UCSORGRIGHT
 10
0
 20
0
 30
0
  9
$UCSORGFRONT
 10
0
 20
0
 30
0
  9
$UCSORGBACK
 10
0
 20
0
 30
0
  9
$PUCSBASE
  2

  9
$PUCSNAME
  2

  9
$PUCSORG
 10
0
 20
0
 30
0
  9
$PUCSXDIR
 10
1
 20
0
 30
0
  9
$PUCSYDIR
 10
0
 20
1
 30
0
  9
$PUCSORTHOREF
  2

  9
$PUCSORTHOVIEW
 70
    0
  9
$PUCSORGTOP
 10
0
 20
0
 30
0
  9
$PUCSORGBOTTOM
 10
0
 20
0
 30
0
  9
$PUCSORGLEFT
 10
0
 20
0
 30
0
  9
$PUCSORGRIGHT
 10
0
 20
0
 30
0
  9
$PUCSORGFRONT
 10
0
 20
0
 30
0
  9
$PUCSORGBACK
 10
0
 20
0
 30
0
  9
$USERI1
 70
    0
  9
$USERI2
 70
    0
  9
$USERI3
 70
    0
  9
$USERI4
 70
    0
  9
$USERI5
 70
    0
  9
$USERR1
 40
0
  9
$USERR2
 40
0
  9
$USERR3
 40
0
  9
$USERR4
 40
0
  9
$USERR5
 40
0
  9
$WORLDVIEW
 70
    1
  9
$SHADEDGE
 70
    3
  9
$SHADEDIF
 70
   70
  9
$TILEMODE
 70
    1
  9
$MAXACTVP
 70
   64
  9
$PINSBASE
 10
0.01489084122959643
 20
0.05874999999999998
 30
0
  9
$PLIMCHECK
 70
    0
  9
$PEXTMIN
 10
0
 20
0
 30
0
  9
$PEXTMAX
 10
0
 20
0
 30
0
  9
$GRIDMODE
 70
    1
  9
$SNAPSTYLE
 70
    0
  9
$GRIDUNIT
 10
0
 20
0
  9
$PLIMMIN
 10
0
 20
0
  9
$PLIMMAX
 10
0.297
 20
0.21
  9
$UNITMODE
 70
    0
  9
$VISRETAIN
 70
    1
  9
$PLINEGEN
 70
    0
  9
$PSLTSCALE
 70
    1
  9
$TREEDEPTH
 70
 3020
  9
$CMLSTYLE
  2
Standard
  9
$CMLJUST
 70
    0
  9
$CMLSCALE
 40
20
  9
$PROXYGRAPHICS
 70
    1
  9
$MEASUREMENT
 70
    1
  9
$CELWEIGHT
370
   -1
  9
$ENDCAPS
280
    0
  9
$JOINSTYLE
280
    0
  9
$LWDISPLAY
290
    0
  9
$INSUNITS
 70
    6
  9
$HYPERLINKBASE
  1

  9
$STYLESHEET
  1

  9
$XEDIT
290
    1
  9
$CEPSNTYPE
380
    0
  9
$PSTYLEMODE
290
    1
  9
$EXTNAMES
290
    1
  9
$PSVPSCALE
 40
0.01
  9
$OLESTARTUP
290
    0
  9
$SORTENTS
280
  127
  9
$INDEXCTL
280
    0
  9
$HIDETEXT
280
    1
  9
$XCLIPFRAME
290
    0
  9
$HALOGAP
280
    0
  9
$OBSCOLOR
 70
  257
  9
$OBSLTYPE
280
    0
  9
$INTERSECTIONDISPLAY
280
    0
  9
$INTERSECTIONCOLOR
 70
  257
  9
$DIMASSOC
280
    1
  9
$PROJECTNAME
  1

  9
$CAMERADISPLAY
290
    0
  9
$LENSLENGTH
 40
50
  9
$CAMERAHEIGHT
 40
0
  9
$STEPSPERSEC
 40
2
  9
$STEPSIZE
 40
50
  9
$3DDWFPREC
 40
2
  9
$PSOLWIDTH
 40
5
  9
$PSOLHEIGHT
 40
80
  9
$LOFTANG1
 40
1.570796326794897
  9
$LOFTANG2
 40
1.570796326794897
  9
$LOFTMAG1
 40
0
  9
$LOFTMAG2
 40
0
  9
$LOFTPARAM
 70
    7
  9
$LOFTNORMALS
280
    1
  9
$LATITUDE
 40
1
  9
$LONGITUDE
 40
1
  9
$NORTHDIRECTION
 40
0
  9
$TIMEZONE
 70
-8000
  9
$LIGHTGLYPHDISPLAY
280
    1
  9
$TILEMODELIGHTSYNCH
280
    1
  9
$SOLIDHIST
280
    1
  9
$SHOWHIST
280
    1
  9
$DWFFRAME
280
    2
  9
$DGNFRAME
280
    0
  9
$REALWORLDSCALE
290
    1
  9
$INTERFERECOLOR
 62
    1
  9
$CSHADOW
280
    0
  9
$SHADOWPLANELOCATION
 40
0
  0
ENDSEC
  0
SECTION
  2
CLASSES
  0
ENDSEC
  0
SECTION
  2
TABLES
  0
TABLE
  2
VPORT
  5
8
330
0
100
AcDbSymbolTable
 70
    1
  0
VPORT
  5
31
330
2
100
AcDbSymbolTableRecord
100
AcDbViewportTableRecord
  2
*ACTIVE
 70
    0
 10
0
 20
0
 11
1
 21
1
 12
19.94003067484663
 22
10.8592791411043
 13
0
 23
0
 14
10
 24
10
 15
10
 25
10
 16
0
 26
0
 36
1
 17
0
 27
0
 37
0
 40
34.1340490797546
 41
1.55310621242485
 42
50
 43
0
 44
0
 50
0
 51
0
 71
    0
 72
  100
 73
    1
 74
    3
 75
    0
 76
    1
 77
    0
 78
    0
281
    0
 65
    1
110
0
120
0
130
0
111
1
121
0
131
0
112
0
122
1
132
0
 79
    0
146
0
348
10020
 60
    7
 61
    5
292
1
282
    1
141
0
142
0
 63
  250
421
3358443
  0
ENDTAB
  0
TABLE
  2
LTYPE
  5
5
330
0
100
AcDbSymbolTable
 70
    4
  0
LTYPE
  5
14
330
5
100
AcDbSymbolTableRecord
100
AcDbLinetypeTableRecord
  2
ByBlock
 70
    0
  3

 72
   65
 73
    0
 40
0
  0
LTYPE
  5
15
330
5
100
AcDbSymbolTableRecord
100
AcDbLinetypeTableRecord
  2
ByLayer
 70
    0
  3

 72
   65
 73
    0
 40
0
  0
LTYPE
  5
16
330
5
100
AcDbSymbolTableRecord
100
AcDbLinetypeTableRecord
  2
Continuous
 70
    0
  3
Solid line
 72
   65
 73
    0
 40
0
  0
LTYPE
  5
32
330
5
100
AcDbSymbolTableRecord
100
AcDbLinetypeTableRecord
  2
DOT
 70
    0
  3
Dot . . . . . . . . . . . . . . . . . . . . . .
 72
   65
 73
    2
 40
6.35
 49
0
 74
    0
 49
-6.35
 74
    0
  0
LTYPE
  5
33
330
5
100
AcDbSymbolTableRecord
100
AcDbLinetypeTableRecord
  2
DOTTINY
 70
    0
  3
Dot (.15x) .....................................
 72
   65
 73
    2
 40
0.9525
 49
0
 74
    0
 49
-0.9525
 74
    0
  0
LTYPE
  5
34
330
5
100
AcDbSymbolTableRecord
100
AcDbLinetypeTableRecord
  2
DOT2
 70
    0
  3
Dot (.5x) .....................................
 72
   65
 73
    2
 40
3.175
 49
0
 74
    0
 49
-3.175
 74
    0
  0
LTYPE
  5
35
330
5
100
AcDbSymbolTableRecord
100
AcDbLinetypeTableRecord
  2
DOTX2
 70
    0
  3
Dot (2x) .  .  .  .  .  .  .  .  .  .  .  .  .
 72
   65
 73
    2
 40
12.7
 49
0
 74
    0
 49
-12.7
 74
    0
  0
LTYPE
  5
36
330
5
100
AcDbSymbolTableRecord
100
AcDbLinetypeTableRecord
  2
DASHED
 70
    0
  3
Dashed _ _ _ _ _ _ _ _ _ _ _ _ _ _ _ _ _
 72
   65
 73
    2
 40
19.05
 49
12.7
 74
    0
 49
-6.35
 74
    0
  0
LTYPE
  5
37
330
5
100
AcDbSymbolTableRecord
100
AcDbLinetypeTableRecord
  2
DASHEDTINY
 70
    0
  3
Dashed (.15x) _ _ _ _ _ _ _ _ _ _ _ _ _ _ _ _ _
 72
   65
 73
    2
 40
2.8575
 49
1.905
 74
    0
 49
-0.9525
 74
    0
  0
LTYPE
  5
38
330
5
100
AcDbSymbolTableRecord
100
AcDbLinetypeTableRecord
  2
DASHED2
 70
    0
  3
Dashed (.5x) _ _ _ _ _ _ _ _ _ _ _ _ _ _ _ _ _
 72
   65
 73
    2
 40
9.524999999999999
 49
6.35
 74
    0
 49
-3.175
 74
    0
  0
LTYPE
  5
39
330
5
100
AcDbSymbolTableRecord
100
AcDbLinetypeTableRecord
  2
DASHEDX2
 70
    0
  3
Dashed (2x) ____  ____  ____  ____  ____  ___
 72
   65
 73
    2
 40
38.09999999999999
 49
25.4
 74
    0
 49
-12.7
 74
    0
  0
LTYPE
  5
3A
330
5
100
AcDbSymbolTableRecord
100
AcDbLinetypeTableRecord
  2
DASHDOT
 70
    0
  3
Dash dot __ . __ . __ . __ . __ . __ . __ . __
 72
   65
 73
    4
 40
25.4
 49
12.7
 74
    0
 49
-6.35
 74
    0
 49
0
 74
    0
 49
-6.35
 74
    0
  0
LTYPE
  5
3B
330
5
100
AcDbSymbolTableRecord
100
AcDbLinetypeTableRecord
  2
DASHDOTTINY
 70
    0
  3
Dash dot (.15x) _._._._._._._._._._._._._._._.
 72
   65
 73
    4
 40
3.81
 49
1.905
 74
    0
 49
-0.9525
 74
    0
 49
0
 74
    0
 49
-0.9525
 74
    0
  0
LTYPE
  5
3C
330
5
100
AcDbSymbolTableRecord
100
AcDbLinetypeTableRecord
  2
DASHDOT2
 70
    0
  3
Dash dot (.5x) _._._._._._._._._._._._._._._.
 72
   65
 73
    4
 40
12.7
 49
6.35
 74
    0
 49
-3.175
 74
    0
 49
0
 74
    0
 49
-3.175
 74
    0
  0
LTYPE
  5
3D
330
5
100
AcDbSymbolTableRecord
100
AcDbLinetypeTableRecord
  2
DASHDOTX2
 70
    0
  3
Dash dot (2x) ____  .  ____  .  ____  .  ___
 72
   65
 73
    4
 40
50.8
 49
25.4
 74
    0
 49
-12.7
 74
    0
 49
0
 74
    0
 49
-12.7
 74
    0
  0
LTYPE
  5
3E
330
5
100
AcDbSymbolTableRecord
100
AcDbLinetypeTableRecord
  2
DIVIDE
 70
    0
  3
Divide ____ . . ____ . . ____ . . ____ . . ____
 72
   65
 73
    6
 40
31.75
 49
12.7
 74
    0
 49
-6.35
 74
    0
 49
0
 74
    0
 49
-6.35
 74
    0
 49
0
 74
    0
 49
-6.35
 74
    0
  0
LTYPE
  5
3F
330
5
100
AcDbSymbolTableRecord
100
AcDbLinetypeTableRecord
  2
DIVIDETINY
 70
    0
  3
Divide (.15x) __..__..__..__..__..__..__..__.._
 72
   65
 73
    6
 40
4.7625
 49
1.905
 74
    0
 49
-0.9525
 74
    0
 49
0
 74
    0
 49
-0.9525
 74
    0
 49
0
 74
    0
 49
-0.9525
 74
    0
  0
LTYPE
  5
40
330
5
100
AcDbSymbolTableRecord
100
AcDbLinetypeTableRecord
  2
DIVIDE2
 70
    0
  3
Divide (.5x) __..__..__..__..__..__..__..__.._
 72
   65
 73
    6
 40
15.875
 49
6.35
 74
    0
 49
-3.175
 74
    0
 49
0
 74
    0
 49
-3.175
 74
    0
 49
0
 74
    0
 49
-3.175
 74
    0
  0
LTYPE
  5
41
330
5
100
AcDbSymbolTableRecord
100
AcDbLinetypeTableRecord
  2
DIVIDEX2
 70
    0
  3
Divide (2x) ________  .  .  ________  .  .  _
 72
   65
 73
    6
 40
63.5
 49
25.4
 74
    0
 49
-12.7
 74
    0
 49
0
 74
    0
 49
-12.7
 74
    0
 49
0
 74
    0
 49
-12.7
 74
    0
  0
LTYPE
  5
42
330
5
100
AcDbSymbolTableRecord
100
AcDbLinetypeTableRecord
  2
BORDER
 70
    0
  3
Border __ __ . __ __ . __ __ . __ __ . __ __ .
 72
   65
 73
    6
 40
44.45
 49
12.7
 74
    0
 49
-6.35
 74
    0
 49
12.7
 74
    0
 49
-6.35
 74
    0
 49
0
 74
    0
 49
-6.35
 74
    0
  0
LTYPE
  5
43
330
5
100
AcDbSymbolTableRecord
100
AcDbLinetypeTableRecord
  2
BORDERTINY
 70
    0
  3
Border (.15x) __.__.__.__.__.__.__.__.__.__.__.
 72
   65
 73
    6
 40
6.6675
 49
1.905
 74
    0
 49
-0.9525
 74
    0
 49
1.905
 74
    0
 49
-0.9525
 74
    0
 49
0
 74
    0
 49
-0.9525
 74
    0
  0
LTYPE
  5
44
330
5
100
AcDbSymbolTableRecord
100
AcDbLinetypeTableRecord
  2
BORDER2
 70
    0
  3
Border (.5x) __.__.__.__.__.__.__.__.__.__.__.
 72
   65
 73
    6
 40
22.225
 49
6.35
 74
    0
 49
-3.175
 74
    0
 49
6.35
 74
    0
 49
-3.175
 74
    0
 49
0
 74
    0
 49
-3.175
 74
    0
  0
LTYPE
  5
45
330
5
100
AcDbSymbolTableRecord
100
AcDbLinetypeTableRecord
  2
BORDERX2
 70
    0
  3
Border (2x) ____  ____  .  ____  ____  .  ___
 72
   65
 73
    6
 40
88.89999999999999
 49
25.4
 74
    0
 49
-12.7
 74
    0
 49
25.4
 74
    0
 49
-12.7
 74
    0
 49
0
 74
    0
 49
-12.7
 74
    0
  0
LTYPE
  5
46
330
5
100
AcDbSymbolTableRecord
100
AcDbLinetypeTableRecord
  2
CENTER
 70
    0
  3
Center ____ _ ____ _ ____ _ ____ _ ____ _ ____
 72
   65
 73
    4
 40
50.8
 49
31.75
 74
    0
 49
-6.35
 74
    0
 49
6.35
 74
    0
 49
-6.35
 74
    0
  0
LTYPE
  5
47
330
5
100
AcDbSymbolTableRecord
100
AcDbLinetypeTableRecord
  2
CENTERTINY
 70
    0
  3
Center (.15x) ___ _ ___ _ ___ _ ___ _ ___ _ ___
 72
   65
 73
    4
 40
7.62
 49
4.7625
 74
    0
 49
-0.9525
 74
    0
 49
0.9525
 74
    0
 49
-0.9525
 74
    0
  0
LTYPE
  5
48
330
5
100
AcDbSymbolTableRecord
100
AcDbLinetypeTableRecord
  2
CENTER2
 70
    0
  3
Center (.5x) ___ _ ___ _ ___ _ ___ _ ___ _ ___
 72
   65
 73
    4
 40
28.575
 49
19.05
 74
    0
 49
-3.175
 74
    0
 49
3.175
 74
    0
 49
-3.175
 74
    0
  0
LTYPE
  5
49
330
5
100
AcDbSymbolTableRecord
100
AcDbLinetypeTableRecord
  2
CENTERX2
 70
    0
  3
Center (2x) ________  __  ________  __  _____
 72
   65
 73
    4
 40
101.6
 49
63.5
 74
    0
 49
-12.7
 74
    0
 49
12.7
 74
    0
 49
-12.7
 74
    0
  0
ENDTAB
  0
TABLE
  2
LAYER
  5
2
330
0
100
AcDbSymbolTable
 70
    1
  0
LAYER
  5
10
330
2
100
AcDbSymbolTableRecord
100
AcDbLayerTableRecord
  2
0
 70
    0
 62
    7
  6
CONTINUOUS
370
    0
390
F
  0
LAYER
  5
4A
330
2
100
AcDbSymbolTableRecord
100
AcDbLayerTableRecord
  2
Acker
 70
    0
 62
   96
420
32768
  6
CONTINUOUS
370
    0
390
F
  0
LAYER
  5
4B
330
2
100
AcDbSymbolTableRecord
100
AcDbLayerTableRecord
  2
Beete
 70
    0
 62
    6
  6
CONTINUOUS
370
    0
390
F
  0
LAYER
  5
4C
330
2
100
AcDbSymbolTableRecord
100
AcDbLayerTableRecord
  2
Bemaßung Acker
 70
    0
 62
    7
  6
CONTINUOUS
370
    0
390
F
  0
LAYER
  5
4D
330
2
100
AcDbSymbolTableRecord
100
AcDbLayerTableRecord
  2
Bemaßung Beete
 70
    0
 62
    7
  6
CONTINUOUS
370
    0
390
F
  0
LAYER
  5
4E
330
2
100
AcDbSymbolTableRecord
100
AcDbLayerTableRecord
  2
Bemaßung Wege Hauptwege
 70
    0
 62
    7
  6
CONTINUOUS
370
    0
390
F
  0
LAYER
  5
4F
330
2
100
AcDbSymbolTableRecord
100
AcDbLayerTableRecord
  2
Bemaßung Wege im Beet
 70
    0
 62
    7
  6
CONTINUOUS
370
    0
390
F
  0
LAYER
  5
50
330
2
100
AcDbSymbolTableRecord
100
AcDbLayerTableRecord
  2
Hilfslinien
 70
    0
 62
  216
420
8388736
  6
CONTINUOUS
370
    0
390
F
  0
LAYER
  5
51
330
2
100
AcDbSymbolTableRecord
100
AcDbLayerTableRecord
  2
Wege Hauptwege
 70
    0
 62
   41
420
16771916
  6
CONTINUOUS
370
    0
390
F
  0
ENDTAB
  0
TABLE
  2
STYLE
  5
3
330
0
100
AcDbSymbolTable
 70
    3
  0
STYLE
  5
52
330
2
100
AcDbSymbolTableRecord
100
AcDbTextStyleTableRecord
  2
standard
 70
    0
 40
0
 41
1
 50
0
 71
    0
 42
1
  3
standard
  4

  0
ENDTAB
  0
TABLE
  2
VIEW
  5
6
330
0
100
AcDbSymbolTable
 70
    0
  0
ENDTAB
  0
TABLE
  2
UCS
  5
7
330
0
100
AcDbSymbolTable
 70
    0
  0
ENDTAB
  0
TABLE
  2
APPID
  5
9
330
0
100
AcDbSymbolTable
 70
    1
  0
APPID
  5
12
330
9
100
AcDbSymbolTableRecord
100
AcDbRegAppTableRecord
  2
ACAD
 70
    0
  0
APPID
  5
53
330
9
100
AcDbSymbolTableRecord
100
AcDbRegAppTableRecord
  2
LibreCad
 70
    0
  0
ENDTAB
  0
TABLE
  2
DIMSTYLE
  5
A
330
0
100
AcDbSymbolTable
 70
    1
100
AcDbDimStyleTable
 71
    1
  0
DIMSTYLE
105
54
330
A
100
AcDbSymbolTableRecord
100
AcDbDimStyleTableRecord
  2
Standard
 70
    0
 40
100
 41
0.002
 42
0.002
 43
0.38
 44
0.001
 45
0
 46
0
 47
0
 48
0
 49
0.004
140
0.0025
141
0.09
142
0
143
25.4
144
1
145
0
146
1
147
0.001
148
0
 71
    0
 72
    0
 73
    0
 74
    1
 75
    0
 76
    0
 77
    0
 78
    8
 79
    0
170
    0
171
    2
172
    0
173
    0
174
    0
175
    0
176
    0
177
    0
178
    0
179
    2
271
    3
272
    4
273
    2
274
    2
275
    0
276
    0
277
    2
278
   44
279
    0
280
    0
281
    0
282
    0
283
    1
284
    0
285
    0
286
    0
288
    0
289
    3
340
standard
341

371
   -2
372
   -2
  0
ENDTAB
  0
TABLE
  2
BLOCK_RECORD
  5
1
330
0
100
AcDbSymbolTable
 70
    2
  0
BLOCK_RECORD
  5
1F
330
1
100
AcDbSymbolTableRecord
100
AcDbBlockTableRecord
  2
*Model_Space
 70
    0
280
    1
281
    0
  0
BLOCK_RECORD
  5
1E
330
1
100
AcDbSymbolTableRecord
100
AcDbBlockTableRecord
  2
*Paper_Space
 70
    0
280
    1
281
    0
  0
BLOCK_RECORD
  5
55
330
1
100
AcDbSymbolTableRecord
100
AcDbBlockTableRecord
  2
*D26
 70
    0
280
    1
281
    0
  0
BLOCK_RECORD
  5
58
330
1
100
AcDbSymbolTableRecord
100
AcDbBlockTableRecord
  2
*D33
 70
    0
280
    1
281
    0
  0
BLOCK_RECORD
  5
5B
330
1
100
AcDbSymbolTableRecord
100
AcDbBlockTableRecord
  2
*D23
 70
    0
280
    1
281
    0
  0
BLOCK_RECORD
  5
5E
330
1
100
AcDbSymbolTableRecord
100
AcDbBlockTableRecord
  2
*D13
 70
    0
280
    1
281
    0
  0
BLOCK_RECORD
  5
61
330
1
100
AcDbSymbolTableRecord
100
AcDbBlockTableRecord
  2
*D31
 70
    0
280
    1
281
    0
  0
BLOCK_RECORD
  5
64
330
1
100
AcDbSymbolTableRecord
100
AcDbBlockTableRecord
  2
*D12
 70
    0
280
    1
281
    0
  0
BLOCK_RECORD
  5
67
330
1
100
AcDbSymbolTableRecord
100
AcDbBlockTableRecord
  2
*D28
 70
    0
280
    1
281
    0
  0
BLOCK_RECORD
  5
6A
330
1
100
AcDbSymbolTableRecord
100
AcDbBlockTableRecord
  2
*D18
 70
    0
280
    1
281
    0
  0
BLOCK_RECORD
  5
6D
330
1
100
AcDbSymbolTableRecord
100
AcDbBlockTableRecord
  2
*D29
 70
    0
280
    1
281
    0
  0
BLOCK_RECORD
  5
70
330
1
100
AcDbSymbolTableRecord
100
AcDbBlockTableRecord
  2
*D21
 70
    0
280
    1
281
    0
  0
BLOCK_RECORD
  5
73
330
1
100
AcDbSymbolTableRecord
100
AcDbBlockTableRecord
  2
*D7
 70
    0
280
    1
281
    0
  0
BLOCK_RECORD
  5
76
330
1
100
AcDbSymbolTableRecord
100
AcDbBlockTableRecord
  2
*D22
 70
    0
280
    1
281
    0
  0
BLOCK_RECORD
  5
79
330
1
100
AcDbSymbolTableRecord
100
AcDbBlockTableRecord
  2
*D4
 70
    0
280
    1
281
    0
  0
BLOCK_RECORD
  5
7C
330
1
100
AcDbSymbolTableRecord
100
AcDbBlockTableRecord
  2
*D1
 70
    0
280
    1
281
    0
  0
BLOCK_RECORD
  5
7F
330
1
100
AcDbSymbolTableRecord
100
AcDbBlockTableRecord
  2
*D6
 70
    0
280
    1
281
    0
  0
BLOCK_RECORD
  5
82
330
1
100
AcDbSymbolTableRecord
100
AcDbBlockTableRecord
  2
*D8
 70
    0
280
    1
281
    0
  0
BLOCK_RECORD
  5
85
330
1
100
AcDbSymbolTableRecord
100
AcDbBlockTableRecord
  2
*D27
 70
    0
280
    1
281
    0
  0
BLOCK_RECORD
  5
88
330
1
100
AcDbSymbolTableRecord
100
AcDbBlockTableRecord
  2
*D30
 70
    0
280
    1
281
    0
  0
BLOCK_RECORD
  5
8B
330
1
100
AcDbSymbolTableRecord
100
AcDbBlockTableRecord
  2
*D5
 70
    0
280
    1
281
    0
  0
BLOCK_RECORD
  5
8E
330
1
100
AcDbSymbolTableRecord
100
AcDbBlockTableRecord
  2
*D16
 70
    0
280
    1
281
    0
  0
BLOCK_RECORD
  5
91
330
1
100
AcDbSymbolTableRecord
100
AcDbBlockTableRecord
  2
*D10
 70
    0
280
    1
281
    0
  0
BLOCK_RECORD
  5
94
330
1
100
AcDbSymbolTableRecord
100
AcDbBlockTableRecord
  2
*D24
 70
    0
280
    1
281
    0
  0
BLOCK_RECORD
  5
97
330
1
100
AcDbSymbolTableRecord
100
AcDbBlockTableRecord
  2
*D3
 70
    0
280
    1
281
    0
  0
BLOCK_RECORD
  5
9A
330
1
100
AcDbSymbolTableRecord
100
AcDbBlockTableRecord
  2
*D34
 70
    0
280
    1
281
    0
  0
BLOCK_RECORD
  5
9D
330
1
100
AcDbSymbolTableRecord
100
AcDbBlockTableRecord
  2
*D19
 70
    0
280
    1
281
    0
  0
BLOCK_RECORD
  5
A0
330
1
100
AcDbSymbolTableRecord
100
AcDbBlockTableRecord
  2
*D20
 70
    0
280
    1
281
    0
  0
BLOCK_RECORD
  5
A3
330
1
100
AcDbSymbolTableRecord
100
AcDbBlockTableRecord
  2
*D32
 70
    0
280
    1
281
    0
  0
BLOCK_RECORD
  5
A6
330
1
100
AcDbSymbolTableRecord
100
AcDbBlockTableRecord
  2
*D35
 70
    0
280
    1
281
    0
  0
BLOCK_RECORD
  5
A9
330
1
100
AcDbSymbolTableRecord
100
AcDbBlockTableRecord
  2
*D15
 70
    0
280
    1
281
    0
  0
BLOCK_RECORD
  5
AC
330
1
100
AcDbSymbolTableRecord
100
AcDbBlockTableRecord
  2
*D11
 70
    0
280
    1
281
    0
  0
BLOCK_RECORD
  5
AF
330
1
100
AcDbSymbolTableRecord
100
AcDbBlockTableRecord
  2
*D14
 70
    0
280
    1
281
    0
  0
BLOCK_RECORD
  5
B2
330
1
100
AcDbSymbolTableRecord
100
AcDbBlockTableRecord
  2
*D2
 70
    0
280
    1
281
    0
  0
BLOCK_RECORD
  5
B5
330
1
100
AcDbSymbolTableRecord
100
AcDbBlockTableRecord
  2
*D25
 70
    0
280
    1
281
    0
  0
BLOCK_RECORD
  5
B8
330
1
100
AcDbSymbolTableRecord
100
AcDbBlockTableRecord
  2
*D9
 70
    0
280
    1
281
    0
  0
BLOCK_RECORD
  5
BB
330
1
100
AcDbSymbolTableRecord
100
AcDbBlockTableRecord
  2
*D17
 70
    0
280
    1
281
    0
  0
BLOCK_RECORD
  5
BE
330
1
100
AcDbSymbolTableRecord
100
AcDbBlockTableRecord
  2
Hauptwege
 70
    0
280
    1
281
    0
  0
ENDTAB
  0
ENDSEC
  0
SECTION
  2
BLOCKS
  0
BLOCK
  5
20
330
1F
100
AcDbEntity
  8
0
100
AcDbBlockBegin
  2
*Model_Space
 70
    0
 10
0
 20
0
 30
0
  3
*Model_Space
  1

  0
ENDBLK
  5
21
330
1F
100
AcDbEntity
  8
0
100
AcDbBlockEnd
  0
BLOCK
  5
1C
330
1B
100
AcDbEntity
  8
0
100
AcDbBlockBegin
  2
*Paper_Space
 70
    0
 10
0
 20
0
 30
0
  3
*Paper_Space
  1

  0
ENDBLK
  5
1D
330
1F
100
AcDbEntity
  8
0
100
AcDbBlockEnd
  0
BLOCK
  5
56
330
55
100
AcDbEntity
  8
0
100
AcDbBlockBegin
  2
*D26
 70
    1
 10
0
 20
0
  3
*D26
  1

  0
LINE
  5
C1
100
AcDbEntity
  8
Bemaßung Wege Hauptwege
  6
ByBlock
 62
    0
370
   -2
100
AcDbLine
 10
8.881784197001252e-016
 20
12
 11
5.600000000000001
 21
12
  0
MTEXT
  5
C2
100
AcDbEntity
  8
Bemaßung Wege Hauptwege
  6
CONTINUOUS
 62
    0
370
   -2
100
AcDbMText
 10
2.800000000000001
 20
12.225
 30
0
 40
0.25
 41
0.4027777777778088
 71
    5
 72
    1
  1
5,6
  7
standard
210
0
220
0
230
1
 50
0
 73
    2
 44
1
  0
SOLID
  5
C3
100
AcDbEntity
  8
Bemaßung Wege Hauptwege
  6
ByBlock
 62
    0
370
   -2
100
AcDbTrace
 10
8.881784197001252e-016
 20
12
 30
0
 11
0.2000000000000009
 21
12.03330277262183
 31
0
 12
0.2000000000000009
 22
11.96669722737817
 32
0
 13
0.2000000000000009
 23
11.96669722737817
 33
0
  0
SOLID
  5
C4
100
AcDbEntity
  8
Bemaßung Wege Hauptwege
  6
ByBlock
 62
    0
370
   -2
100
AcDbTrace
 10
5.600000000000001
 20
12
 30
0
 11
5.4
 21
11.96669722737817
 31
0
 12
5.4
 22
12.03330277262183
 32
0
 13
5.4
 23
12.03330277262183
 33
0
  0
LINE
  5
C5
100
AcDbEntity
  8
Bemaßung Wege Hauptwege
  6
ByBlock
 62
    0
370
   -2
100
AcDbLine
 10
1.224606353822377e-017
 20
0.113264186355468
 11
8.943014514692372e-016
 21
12.1
  0
LINE
  5
C6
100
AcDbEntity
  8
Bemaßung Wege Hauptwege
  6
ByBlock
 62
    0
370
   -2
100
AcDbLine
 10
5.600000000000001
 20
11.4
 11
5.600000000000001
 21
12.1
  0
ENDBLK
  5
57
330
55
100
AcDbEntity
  8
0
100
AcDbBlockEnd
  0
BLOCK
  5
59
330
58
100
AcDbEntity
  8
0
100
AcDbBlockBegin
  2
*D33
 70
    1
 10
0
 20
0
  3
*D33
  1

  0
LINE
  5
C7
100
AcDbEntity
  8
Bemaßung Wege Hauptwege
  6
ByBlock
 62
    0
370
   -2
100
AcDbLine
 10
0.04249703163531393
 20
19
 11
25.15
 21
19
  0
MTEXT
  5
C8
100
AcDbEntity
  8
Bemaßung Wege Hauptwege
  6
CONTINUOUS
 62
    0
370
   -2
100
AcDbMText
 10
12.59624851581766
 20
19.225
 30
0
 40
0.25
 41
0.9305555555555711
 71
    5
 72
    1
  1
25,108
  7
standard
210
0
220
0
230
1
 50
0
 73
    2
 44
1
  0
SOLID
  5
C9
100
AcDbEntity
  8
Bemaßung Wege Hauptwege
  6
ByBlock
 62
    0
370
   -2
100
AcDbTrace
 10
0.04249703163531393
 20
19
 30
0
 11
0.2424970316353139
 21
19.03330277262183
 31
0
 12
0.2424970316353139
 22
18.96669722737817
 32
0
 13
0.2424970316353139
 23
18.96669722737817
 33
0
  0
SOLID
  5
CA
100
AcDbEntity
  8
Bemaßung Wege Hauptwege
  6
ByBlock
 62
    0
370
   -2
100
AcDbTrace
 10
25.15
 20
19
 30
0
 11
24.95
 21
18.96669722737817
 31
0
 12
24.95
 22
19.03330277262183
 32
0
 13
24.95
 23
19.03330277262183
 33
0
  0
LINE
  5
CB
100
AcDbEntity
  8
Bemaßung Wege Hauptwege
  6
ByBlock
 62
    0
370
   -2
100
AcDbLine
 10
0.04249703163531323
 20
-0.0549821898118793
 11
0.04249703163531394
 21
19.1
  0
LINE
  5
CC
100
AcDbEntity
  8
Bemaßung Wege Hauptwege
  6
ByBlock
 62
    0
370
   -2
100
AcDbLine
 10
25.15
 20
11.4
 11
25.15
 21
19.1
  0
ENDBLK
  5
5A
330
58
100
AcDbEntity
  8
0
100
AcDbBlockEnd
  0
BLOCK
  5
5C
330
5B
100
AcDbEntity
  8
0
100
AcDbBlockBegin
  2
*D23
 70
    1
 10
0
 20
0
  3
*D23
  1

  0
LINE
  5
CD
100
AcDbEntity
  8
Bemaßung Wege Hauptwege
  6
ByBlock
 62
    0
370
   -2
100
AcDbLine
 10
3.552713678800501e-015
 20
-10
 11
20.9
 21
-10
  0
MTEXT
  5
CE
100
AcDbEntity
  8
Bemaßung Wege Hauptwege
  6
CONTINUOUS
 62
    0
370
   -2
100
AcDbMText
 10
10.45
 20
-9.775
 30
0
 40
0.25
 41
0.5972222222222222
 71
    5
 72
    1
  1
20,9
  7
standard
210
0
220
0
230
1
 50
0
 73
    2
 44
1
  0
SOLID
  5
CF
100
AcDbEntity
  8
Bemaßung Wege Hauptwege
  6
ByBlock
 62
    0
370
   -2
100
AcDbTrace
 10
3.552713678800501e-015
 20
-10
 30
0
 11
0.2000000000000036
 21
-9.966697227378173
 31
0
 12
0.2000000000000036
 22
-10.03330277262183
 32
0
 13
0.2000000000000036
 23
-10.03330277262183
 33
0
  0
SOLID
  5
D0
100
AcDbEntity
  8
Bemaßung Wege Hauptwege
  6
ByBlock
 62
    0
370
   -2
100
AcDbTrace
 10
20.9
 20
-10
 30
0
 11
20.7
 21
-10.03330277262183
 31
0
 12
20.7
 22
-9.966697227378173
 32
0
 13
20.7
 23
-9.966697227378173
 33
0
  0
LINE
  5
D1
100
AcDbEntity
  8
Bemaßung Wege Hauptwege
  6
ByBlock
 62
    0
370
   -2
100
AcDbLine
 10
-3.673819061467132e-017
 20
-0.2657457467425552
 11
3.534344583493165e-015
 21
-10.1
  0
LINE
  5
D2
100
AcDbEntity
  8
Bemaßung Wege Hauptwege
  6
ByBlock
 62
    0
370
   -2
100
AcDbLine
 10
20.9
 20
-0.2
 11
20.9
 21
-10.1
  0
ENDBLK
  5
5D
330
5B
100
AcDbEntity
  8
0
100
AcDbBlockEnd
  0
BLOCK
  5
5F
330
5E
100
AcDbEntity
  8
0
100
AcDbBlockBegin
  2
*D13
 70
    1
 10
0
 20
0
  3
*D13
  1

  0
LINE
  5
D3
100
AcDbEntity
  8
Bemaßung Wege Hauptwege
  6
ByBlock
 62
    0
370
   -2
100
AcDbLine
 10
-5.128168245919293
 20
1.77635683940025e-015
 11
-5.128168245919292
 21
11.2
  0
MTEXT
  5
D4
100
AcDbEntity
  8
Bemaßung Wege Hauptwege
  6
CONTINUOUS
 62
    0
370
   -2
100
AcDbMText
 10
-5.353168245919292
 20
5.600000000000001
 30
0
 40
0.25
 41
0.4861111111111111
 71
    5
 72
    1
  1
11,2
  7
standard
210
0
220
0
230
1
 50
90
 73
    2
 44
1
  0
SOLID
  5
D5
100
AcDbEntity
  8
Bemaßung Wege Hauptwege
  6
ByBlock
 62
    0
370
   -2
100
AcDbTrace
 10
-5.128168245919293
 20
1.77635683940025e-015
 30
0
 11
-5.161471018541119
 21
0.2000000000000018
 31
0
 12
-5.094865473297466
 22
0.2000000000000018
 32
0
 13
-5.094865473297466
 23
0.2000000000000018
 33
0
  0
SOLID
  5
D6
100
AcDbEntity
  8
Bemaßung Wege Hauptwege
  6
ByBlock
 62
    0
370
   -2
100
AcDbTrace
 10
-5.128168245919292
 20
11.2
 30
0
 11
-5.094865473297465
 21
11
 31
0
 12
-5.161471018541119
 22
11
 32
0
 13
-5.161471018541119
 23
11
 33
0
  0
LINE
  5
D7
100
AcDbEntity
  8
Bemaßung Wege Hauptwege
  6
ByBlock
 62
    0
370
   -2
100
AcDbLine
 10
-0.2
 20
1.133099690464601e-016
 11
-5.228168245919292
 21
1.83301182392348e-015
  0
LINE
  5
D8
100
AcDbEntity
  8
Bemaßung Wege Hauptwege
  6
ByBlock
 62
    0
370
   -2
100
AcDbLine
 10
-0.2
 20
11.2
 11
-5.228168245919291
 21
11.2
  0
ENDBLK
  5
60
330
5E
100
AcDbEntity
  8
0
100
AcDbBlockEnd
  0
BLOCK
  5
62
330
61
100
AcDbEntity
  8
0
100
AcDbBlockBegin
  2
*D31
 70
    1
 10
0
 20
0
  3
*D31
  1

  0
LINE
  5
D9
100
AcDbEntity
  8
Bemaßung Wege Hauptwege
  6
ByBlock
 62
    0
370
   -2
100
AcDbLine
 10
3.552713678800501e-015
 20
17
 11
20.9
 21
17
  0
MTEXT
  5
DA
100
AcDbEntity
  8
Bemaßung Wege Hauptwege
  6
CONTINUOUS
 62
    0
370
   -2
100
AcDbMText
 10
10.45
 20
17.225
 30
0
 40
0.25
 41
0.5972222222222222
 71
    5
 72
    1
  1
20,9
  7
standard
210
0
220
0
230
1
 50
0
 73
    2
 44
1
  0
SOLID
  5
DB
100
AcDbEntity
  8
Bemaßung Wege Hauptwege
  6
ByBlock
 62
    0
370
   -2
100
AcDbTrace
 10
3.552713678800501e-015
 20
17
 30
0
 11
0.2000000000000036
 21
17.03330277262183
 31
0
 12
0.2000000000000036
 22
16.96669722737817
 32
0
 13
0.2000000000000036
 23
16.96669722737817
 33
0
  0
SOLID
  5
DC
100
AcDbEntity
  8
Bemaßung Wege Hauptwege
  6
ByBlock
 62
    0
370
   -2
100
AcDbTrace
 10
20.9
 20
17
 30
0
 11
20.7
 21
16.96669722737817
 31
0
 12
20.7
 22
17.03330277262183
 32
0
 13
20.7
 23
17.03330277262183
 33
0
  0
LINE
  5
DD
100
AcDbEntity
  8
Bemaßung Wege Hauptwege
  6
ByBlock
 62
    0
370
   -2
100
AcDbLine
 10
6.048951343196192e-017
 20
0.2
 11
3.581041171062116e-015
 21
17.1
  0
LINE
  5
DE
100
AcDbEntity
  8
Bemaßung Wege Hauptwege
  6
ByBlock
 62
    0
370
   -2
100
AcDbLine
 10
20.9
 20
11.4
 11
20.9
 21
17.1
  0
ENDBLK
  5
63
330
61
100
AcDbEntity
  8
0
100
AcDbBlockEnd
  0
BLOCK
  5
65
330
64
100
AcDbEntity
  8
0
100
AcDbBlockBegin
  2
*D12
 70
    1
 10
0
 20
0
  3
*D12
  1

  0
LINE
  5
DF
100
AcDbEntity
  8
Bemaßung Wege Hauptwege
  6
ByBlock
 62
    0
370
   -2
100
AcDbLine
 10
-4.000000000000001
 20
-0.09861862011383238
 11
-4
 21
8.800000000000001
  0
MTEXT
  5
E0
100
AcDbEntity
  8
Bemaßung Wege Hauptwege
  6
CONTINUOUS
 62
    0
370
   -2
100
AcDbMText
 10
-4.225
 20
4.350690689943084
 30
0
 40
0.25
 41
0.7916666666666667
 71
    5
 72
    1
  1
8,899
  7
standard
210
0
220
0
230
1
 50
90
 73
    2
 44
1
  0
SOLID
  5
E1
100
AcDbEntity
  8
Bemaßung Wege Hauptwege
  6
ByBlock
 62
    0
370
   -2
100
AcDbTrace
 10
-4.000000000000001
 20
-0.09861862011383238
 30
0
 11
-4.033302772621828
 21
0.1013813798861676
 31
0
 12
-3.966697227378174
 22
0.1013813798861676
 32
0
 13
-3.966697227378174
 23
0.1013813798861676
 33
0
  0
SOLID
  5
E2
100
AcDbEntity
  8
Bemaßung Wege Hauptwege
  6
ByBlock
 62
    0
370
   -2
100
AcDbTrace
 10
-4
 20
8.800000000000001
 30
0
 11
-3.966697227378173
 21
8.600000000000001
 31
0
 12
-4.033302772621827
 22
8.600000000000001
 32
0
 13
-4.033302772621827
 23
8.600000000000001
 33
0
  0
LINE
  5
E3
100
AcDbEntity
  8
Bemaßung Wege Hauptwege
  6
ByBlock
 62
    0
370
   -2
100
AcDbLine
 10
-0.2328728733712775
 20
-0.09861862011383249
 11
-4.100000000000001
 21
-0.09861862011383236
  0
LINE
  5
E4
100
AcDbEntity
  8
Bemaßung Wege Hauptwege
  6
ByBlock
 62
    0
370
   -2
100
AcDbLine
 10
-0.2
 20
8.800000000000001
 11
-4.1
 21
8.800000000000001
  0
ENDBLK
  5
66
330
64
100
AcDbEntity
  8
0
100
AcDbBlockEnd
  0
BLOCK
  5
68
330
67
100
AcDbEntity
  8
0
100
AcDbBlockBegin
  2
*D28
 70
    1
 10
0
 20
0
  3
*D28
  1

  0
LINE
  5
E5
100
AcDbEntity
  8
Bemaßung Wege Hauptwege
  6
ByBlock
 62
    0
370
   -2
100
AcDbLine
 10
0
 20
14
 11
9.1
 21
14
  0
MTEXT
  5
E6
100
AcDbEntity
  8
Bemaßung Wege Hauptwege
  6
CONTINUOUS
 62
    0
370
   -2
100
AcDbMText
 10
4.55
 20
14.225
 30
0
 40
0.25
 41
0.3472222222222378
 71
    5
 72
    1
  1
9,1
  7
standard
210
0
220
0
230
1
 50
0
 73
    2
 44
1
  0
SOLID
  5
E7
100
AcDbEntity
  8
Bemaßung Wege Hauptwege
  6
ByBlock
 62
    0
370
   -2
100
AcDbTrace
 10
0
 20
14
 30
0
 11
0.2
 21
14.03330277262183
 31
0
 12
0.2
 22
13.96669722737817
 32
0
 13
0.2
 23
13.96669722737817
 33
0
  0
SOLID
  5
E8
100
AcDbEntity
  8
Bemaßung Wege Hauptwege
  6
ByBlock
 62
    0
370
   -2
100
AcDbTrace
 10
9.1
 20
14
 30
0
 11
8.9
 21
13.96669722737817
 31
0
 12
8.9
 22
14.03330277262183
 32
0
 13
8.9
 23
14.03330277262183
 33
0
  0
LINE
  5
E9
100
AcDbEntity
  8
Bemaßung Wege Hauptwege
  6
ByBlock
 62
    0
370
   -2
100
AcDbLine
 10
1.224606353822377e-017
 20
0.2
 11
6.123031769111886e-018
 21
14.1
  0
LINE
  5
EA
100
AcDbEntity
  8
Bemaßung Wege Hauptwege
  6
ByBlock
 62
    0
370
   -2
100
AcDbLine
 10
9.1
 20
11.4
 11
9.1
 21
14.1
  0
ENDBLK
  5
69
330
67
100
AcDbEntity
  8
0
100
AcDbBlockEnd
  0
BLOCK
  5
6B
330
6A
100
AcDbEntity
  8
0
100
AcDbBlockBegin
  2
*D18
 70
    1
 10
0
 20
0
  3
*D18
  1

  0
LINE
  5
EB
100
AcDbEntity
  8
Bemaßung Wege Hauptwege
  6
ByBlock
 62
    0
370
   -2
100
AcDbLine
 10
0
 20
-5
 11
10.9
 21
-5
  0
MTEXT
  5
EC
100
AcDbEntity
  8
Bemaßung Wege Hauptwege
  6
CONTINUOUS
 62
    0
370
   -2
100
AcDbMText
 10
5.45
 20
-4.775
 30
0
 40
0.25
 41
0.5416666666666666
 71
    5
 72
    1
  1
10,9
  7
standard
210
0
220
0
230
1
 50
0
 73
    2
 44
1
  0
SOLID
  5
ED
100
AcDbEntity
  8
Bemaßung Wege Hauptwege
  6
ByBlock
 62
    0
370
   -2
100
AcDbTrace
 10
0
 20
-5
 30
0
 11
0.2
 21
-4.966697227378173
 31
0
 12
0.2
 22
-5.033302772621827
 32
0
 13
0.2
 23
-5.033302772621827
 33
0
  0
SOLID
  5
EE
100
AcDbEntity
  8
Bemaßung Wege Hauptwege
  6
ByBlock
 62
    0
370
   -2
100
AcDbTrace
 10
10.9
 20
-5
 30
0
 11
10.7
 21
-5.033302772621827
 31
0
 12
10.7
 22
-4.966697227378173
 32
0
 13
10.7
 23
-4.966697227378173
 33
0
  0
LINE
  5
EF
100
AcDbEntity
  8
Bemaßung Wege Hauptwege
  6
ByBlock
 62
    0
370
   -2
100
AcDbLine
 10
-3.673819061467132e-017
 20
-0.2345991427864036
 11
-1.836909530733566e-017
 21
-5.1
  0
LINE
  5
F0
100
AcDbEntity
  8
Bemaßung Wege Hauptwege
  6
ByBlock
 62
    0
370
   -2
100
AcDbLine
 10
10.9
 20
1.1
 11
10.9
 21
-5.1
  0
ENDBLK
  5
6C
330
6A
100
AcDbEntity
  8
0
100
AcDbBlockEnd
  0
BLOCK
  5
6E
330
6D
100
AcDbEntity
  8
0
100
AcDbBlockBegin
  2
*D29
 70
    1
 10
0
 20
0
  3
*D29
  1

  0
LINE
  5
F1
100
AcDbEntity
  8
Bemaßung Wege Hauptwege
  6
ByBlock
 62
    0
370
   -2
100
AcDbLine
 10
0.05782387576302206
 20
15
 11
9.700000000000001
 21
15
  0
MTEXT
  5
F2
100
AcDbEntity
  8
Bemaßung Wege Hauptwege
  6
CONTINUOUS
 62
    0
370
   -2
100
AcDbMText
 10
4.878911937881512
 20
15.225
 30
0
 40
0.25
 41
0.8194444444444755
 71
    5
 72
    1
  1
9,642
  7
standard
210
0
220
0
230
1
 50
0
 73
    2
 44
1
  0
SOLID
  5
F3
100
AcDbEntity
  8
Bemaßung Wege Hauptwege
  6
ByBlock
 62
    0
370
   -2
100
AcDbTrace
 10
0.05782387576302206
 20
15
 30
0
 11
0.2578238757630221
 21
15.03330277262183
 31
0
 12
0.2578238757630221
 22
14.96669722737817
 32
0
 13
0.2578238757630221
 23
14.96669722737817
 33
0
  0
SOLID
  5
F4
100
AcDbEntity
  8
Bemaßung Wege Hauptwege
  6
ByBlock
 62
    0
370
   -2
100
AcDbTrace
 10
9.700000000000001
 20
15
 30
0
 11
9.500000000000002
 21
14.96669722737817
 31
0
 12
9.500000000000002
 22
15.03330277262183
 32
0
 13
9.500000000000002
 23
15.03330277262183
 33
0
  0
LINE
  5
F5
100
AcDbEntity
  8
Bemaßung Wege Hauptwege
  6
ByBlock
 62
    0
370
   -2
100
AcDbLine
 10
0.05782387576302133
 20
0.113264186355468
 11
0.05782387576302207
 21
15.1
  0
LINE
  5
F6
100
AcDbEntity
  8
Bemaßung Wege Hauptwege
  6
ByBlock
 62
    0
370
   -2
100
AcDbLine
 10
9.700000000000001
 20
11.4
 11
9.700000000000001
 21
15.1
  0
ENDBLK
  5
6F
330
6D
100
AcDbEntity
  8
0
100
AcDbBlockEnd
  0
BLOCK
  5
71
330
70
100
AcDbEntity
  8
0
100
AcDbBlockBegin
  2
*D21
 70
    1
 10
0
 20
0
  3
*D21
  1

  0
LINE
  5
F7
100
AcDbEntity
  8
Bemaßung Wege Hauptwege
  6
ByBlock
 62
    0
370
   -2
100
AcDbLine
 10
0
 20
-8
 11
15.8
 21
-8
  0
MTEXT
  5
F8
100
AcDbEntity
  8
Bemaßung Wege Hauptwege
  6
CONTINUOUS
 62
    0
370
   -2
100
AcDbMText
 10
7.9
 20
-7.775
 30
0
 40
0.25
 41
0.5416666666666822
 71
    5
 72
    1
  1
15,8
  7
standard
210
0
220
0
230
1
 50
0
 73
    2
 44
1
  0
SOLID
  5
F9
100
AcDbEntity
  8
Bemaßung Wege Hauptwege
  6
ByBlock
 62
    0
370
   -2
100
AcDbTrace
 10
0
 20
-8
 30
0
 11
0.2
 21
-7.966697227378173
 31
0
 12
0.2
 22
-8.033302772621827
 32
0
 13
0.2
 23
-8.033302772621827
 33
0
  0
SOLID
  5
FA
100
AcDbEntity
  8
Bemaßung Wege Hauptwege
  6
ByBlock
 62
    0
370
   -2
100
AcDbTrace
 10
15.8
 20
-8
 30
0
 11
15.6
 21
-8.033302772621827
 31
0
 12
15.6
 22
-7.966697227378173
 32
0
 13
15.6
 23
-7.966697227378173
 33
0
  0
LINE
  5
FB
100
AcDbEntity
  8
Bemaßung Wege Hauptwege
  6
ByBlock
 62
    0
370
   -2
100
AcDbLine
 10
-3.673819061467132e-017
 20
-0.2
 11
-1.836909530733566e-017
 21
-8.1
  0
LINE
  5
FC
100
AcDbEntity
  8
Bemaßung Wege Hauptwege
  6
ByBlock
 62
    0
370
   -2
100
AcDbLine
 10
15.8
 20
1.1
 11
15.8
 21
-8.1
  0
ENDBLK
  5
72
330
70
100
AcDbEntity
  8
0
100
AcDbBlockEnd
  0
BLOCK
  5
74
330
73
100
AcDbEntity
  8
0
100
AcDbBlockBegin
  2
*D7
 70
    1
 10
0
 20
0
  3
*D7
  1

  0
LINE
  5
FD
100
AcDbEntity
  8
Bemaßung Acker
  6
ByBlock
 62
    0
370
   -2
100
AcDbLine
 10
-2.000000000000001
 20
1.77635683940025e-015
 11
-2
 21
11.2
  0
MTEXT
  5
FE
100
AcDbEntity
  8
Bemaßung Acker
  6
CONTINUOUS
 62
    0
370
   -2
100
AcDbMText
 10
-2.225000000000001
 20
5.600000000000001
 30
0
 40
0.25
 41
0.4861111111111111
 71
    5
 72
    1
  1
11,2
  7
standard
210
0
220
0
230
1
 50
90
 73
    2
 44
1
  0
SOLID
  5
FF
100
AcDbEntity
  8
Bemaßung Acker
  6
ByBlock
 62
    0
370
   -2
100
AcDbTrace
 10
-2.000000000000001
 20
1.77635683940025e-015
 30
0
 11
-2.033302772621828
 21
0.2000000000000018
 31
0
 12
-1.966697227378174
 22
0.2000000000000018
 32
0
 13
-1.966697227378174
 23
0.2000000000000018
 33
0
  0
SOLID
  5
100
100
AcDbEntity
  8
Bemaßung Acker
  6
ByBlock
 62
    0
370
   -2
100
AcDbTrace
 10
-2
 20
11.2
 30
0
 11
-1.966697227378173
 21
11
 31
0
 12
-2.033302772621827
 22
11
 32
0
 13
-2.033302772621827
 23
11
 33
0
  0
LINE
  5
101
100
AcDbEntity
  8
Bemaßung Acker
  6
ByBlock
 62
    0
370
   -2
100
AcDbLine
 10
-0.2
 20
2.021278110164726e-016
 11
-2.100000000000001
 21
1.877420744908487e-015
  0
LINE
  5
102
100
AcDbEntity
  8
Bemaßung Acker
  6
ByBlock
 62
    0
370
   -2
100
AcDbLine
 10
-0.2
 20
11.2
 11
-2.1
 21
11.2
  0
ENDBLK
  5
75
330
73
100
AcDbEntity
  8
0
100
AcDbBlockEnd
  0
BLOCK
  5
77
330
76
100
AcDbEntity
  8
0
100
AcDbBlockBegin
  2
*D22
 70
    1
 10
0
 20
0
  3
*D22
  1

  0
LINE
  5
103
100
AcDbEntity
  8
Bemaßung Wege Hauptwege
  6
ByBlock
 62
    0
370
   -2
100
AcDbLine
 10
0
 20
-9
 11
20.1
 21
-9
  0
MTEXT
  5
104
100
AcDbEntity
  8
Bemaßung Wege Hauptwege
  6
CONTINUOUS
 62
    0
370
   -2
100
AcDbMText
 10
10.05
 20
-8.775
 30
0
 40
0.25
 41
0.5416666666666666
 71
    5
 72
    1
  1
20,1
  7
standard
210
0
220
0
230
1
 50
0
 73
    2
 44
1
  0
SOLID
  5
105
100
AcDbEntity
  8
Bemaßung Wege Hauptwege
  6
ByBlock
 62
    0
370
   -2
100
AcDbTrace
 10
0
 20
-9
 30
0
 11
0.2
 21
-8.966697227378173
 31
0
 12
0.2
 22
-9.033302772621827
 32
0
 13
0.2
 23
-9.033302772621827
 33
0
  0
SOLID
  5
106
100
AcDbEntity
  8
Bemaßung Wege Hauptwege
  6
ByBlock
 62
    0
370
   -2
100
AcDbTrace
 10
20.1
 20
-9
 30
0
 11
19.9
 21
-9.033302772621827
 31
0
 12
19.9
 22
-8.966697227378173
 32
0
 13
19.9
 23
-8.966697227378173
 33
0
  0
LINE
  5
107
100
AcDbEntity
  8
Bemaßung Wege Hauptwege
  6
ByBlock
 62
    0
370
   -2
100
AcDbLine
 10
-3.673819061467132e-017
 20
-0.2
 11
-1.836909530733566e-017
 21
-9.1
  0
LINE
  5
108
100
AcDbEntity
  8
Bemaßung Wege Hauptwege
  6
ByBlock
 62
    0
370
   -2
100
AcDbLine
 10
20.1
 20
-0.2
 11
20.1
 21
-9.1
  0
ENDBLK
  5
78
330
76
100
AcDbEntity
  8
0
100
AcDbBlockEnd
  0
BLOCK
  5
7A
330
79
100
AcDbEntity
  8
0
100
AcDbBlockBegin
  2
*D4
 70
    1
 10
0
 20
0
  3
*D4
  1

  0
LINE
  5
109
100
AcDbEntity
  8
Bemaßung Acker
  6
ByBlock
 62
    0
370
   -2
100
AcDbLine
 10
0
 20
-3
 11
25.5
 21
-3
  0
MTEXT
  5
10A
100
AcDbEntity
  8
Bemaßung Acker
  6
CONTINUOUS
 62
    0
370
   -2
100
AcDbMText
 10
12.75
 20
-2.775
 30
0
 40
0.25
 41
0.5972222222222533
 71
    5
 72
    1
  1
25,5
  7
standard
210
0
220
0
230
1
 50
0
 73
    2
 44
1
  0
SOLID
  5
10B
100
AcDbEntity
  8
Bemaßung Acker
  6
ByBlock
 62
    0
370
   -2
100
AcDbTrace
 10
0
 20
-3
 30
0
 11
0.2
 21
-2.966697227378173
 31
0
 12
0.2
 22
-3.033302772621827
 32
0
 13
0.2
 23
-3.033302772621827
 33
0
  0
SOLID
  5
10C
100
AcDbEntity
  8
Bemaßung Acker
  6
ByBlock
 62
    0
370
   -2
100
AcDbTrace
 10
25.5
 20
-3
 30
0
 11
25.3
 21
-3.033302772621827
 31
0
 12
25.3
 22
-2.966697227378173
 32
0
 13
25.3
 23
-2.966697227378173
 33
0
  0
LINE
  5
10D
100
AcDbEntity
  8
Bemaßung Acker
  6
ByBlock
 62
    0
370
   -2
100
AcDbLine
 10
-3.673819061467132e-017
 20
-0.2
 11
-1.836909530733566e-017
 21
-3.1
  0
LINE
  5
10E
100
AcDbEntity
  8
Bemaßung Acker
  6
ByBlock
 62
    0
370
   -2
100
AcDbLine
 10
25.5
 20
1.1
 11
25.5
 21
-3.1
  0
ENDBLK
  5
7B
330
79
100
AcDbEntity
  8
0
100
AcDbBlockEnd
  0
BLOCK
  5
7D
330
7C
100
AcDbEntity
  8
0
100
AcDbBlockBegin
  2
*D1
 70
    1
 10
0
 20
0
  3
*D1
  1

  0
LINE
  5
10F
100
AcDbEntity
  8
Bemaßung Acker
  6
ByBlock
 62
    0
370
   -2
100
AcDbLine
 10
0
 20
12
 11
32.2
 21
12
  0
MTEXT
  5
110
100
AcDbEntity
  8
Bemaßung Acker
  6
CONTINUOUS
 62
    0
370
   -2
100
AcDbMText
 10
16.1
 20
12.225
 30
0
 40
0.25
 41
0.5972222222222376
 71
    5
 72
    1
  1
32,2
  7
standard
210
0
220
0
230
1
 50
0
 73
    2
 44
1
  0
SOLID
  5
111
100
AcDbEntity
  8
Bemaßung Acker
  6
ByBlock
 62
    0
370
   -2
100
AcDbTrace
 10
0
 20
12
 30
0
 11
0.2
 21
12.03330277262183
 31
0
 12
0.2
 22
11.96669722737817
 32
0
 13
0.2
 23
11.96669722737817
 33
0
  0
SOLID
  5
112
100
AcDbEntity
  8
Bemaßung Acker
  6
ByBlock
 62
    0
370
   -2
100
AcDbTrace
 10
32.2
 20
12
 30
0
 11
32
 21
11.96669722737817
 31
0
 12
32
 22
12.03330277262183
 32
0
 13
32
 23
12.03330277262183
 33
0
  0
LINE
  5
113
100
AcDbEntity
  8
Bemaßung Acker
  6
ByBlock
 62
    0
370
   -2
100
AcDbLine
 10
1.224606353822377e-017
 20
11.4
 11
6.123031769111886e-018
 21
12.1
  0
LINE
  5
114
100
AcDbEntity
  8
Bemaßung Acker
  6
ByBlock
 62
    0
370
   -2
100
AcDbLine
 10
32.2
 20
11.4
 11
32.2
 21
12.1
  0
ENDBLK
  5
7E
330
7C
100
AcDbEntity
  8
0
100
AcDbBlockEnd
  0
BLOCK
  5
80
330
7F
100
AcDbEntity
  8
0
100
AcDbBlockBegin
  2
*D6
 70
    1
 10
0
 20
0
  3
*D6
  1

  0
LINE
  5
115
100
AcDbEntity
  8
Bemaßung Acker
  6
ByBlock
 62
    0
370
   -2
100
AcDbLine
 10
0
 20
-5.161041119290518
 11
32.2
 21
-5.161041119290518
  0
MTEXT
  5
116
100
AcDbEntity
  8
Bemaßung Acker
  6
CONTINUOUS
 62
    0
370
   -2
100
AcDbMText
 10
16.1
 20
-4.936041119290518
 30
0
 40
0.25
 41
0.5972222222222376
 71
    5
 72
    1
  1
32,2
  7
standard
210
0
220
0
230
1
 50
0
 73
    2
 44
1
  0
SOLID
  5
117
100
AcDbEntity
  8
Bemaßung Acker
  6
ByBlock
 62
    0
370
   -2
100
AcDbTrace
 10
0
 20
-5.161041119290518
 30
0
 11
0.2
 21
-5.127738346668691
 31
0
 12
0.2
 22
-5.194343891912345
 32
0
 13
0.2
 23
-5.194343891912345
 33
0
  0
SOLID
  5
118
100
AcDbEntity
  8
Bemaßung Acker
  6
ByBlock
 62
    0
370
   -2
100
AcDbTrace
 10
32.2
 20
-5.161041119290518
 30
0
 11
32
 21
-5.194343891912345
 31
0
 12
32
 22
-5.127738346668691
 32
0
 13
32
 23
-5.127738346668691
 33
0
  0
LINE
  5
119
100
AcDbEntity
  8
Bemaßung Acker
  6
ByBlock
 62
    0
370
   -2
100
AcDbLine
 10
-3.673819061467132e-017
 20
-0.2
 11
-1.836909530733566e-017
 21
-5.261041119290518
  0
LINE
  5
11A
100
AcDbEntity
  8
Bemaßung Acker
  6
ByBlock
 62
    0
370
   -2
100
AcDbLine
 10
32.2
 20
-0.2
 11
32.2
 21
-5.261041119290518
  0
ENDBLK
  5
81
330
7F
100
AcDbEntity
  8
0
100
AcDbBlockEnd
  0
BLOCK
  5
83
330
82
100
AcDbEntity
  8
0
100
AcDbBlockBegin
  2
*D8
 70
    1
 10
0
 20
0
  3
*D8
  1

  0
LINE
  5
11B
100
AcDbEntity
  8
Bemaßung Acker
  6
ByBlock
 62
    0
370
   -2
100
AcDbLine
 10
-1
 20
0
 11
-1
 21
1.300000000000001
  0
MTEXT
  5
11C
100
AcDbEntity
  8
Bemaßung Acker
  6
CONTINUOUS
 62
    0
370
   -2
100
AcDbMText
 10
-1.225
 20
0.6500000000000004
 30
0
 40
0.25
 41
0.3472222222222377
 71
    5
 72
    1
  1
1,3
  7
standard
210
0
220
0
230
1
 50
90
 73
    2
 44
1
  0
SOLID
  5
11D
100
AcDbEntity
  8
Bemaßung Acker
  6
ByBlock
 62
    0
370
   -2
100
AcDbTrace
 10
-1
 20
0
 30
0
 11
-1.033302772621827
 21
0.2
 31
0
 12
-0.9666972273781728
 22
0.2
 32
0
 13
-0.9666972273781728
 23
0.2
 33
0
  0
SOLID
  5
11E
100
AcDbEntity
  8
Bemaßung Acker
  6
ByBlock
 62
    0
370
   -2
100
AcDbTrace
 10
-1
 20
1.300000000000001
 30
0
 11
-0.9666972273781728
 21
1.100000000000001
 31
0
 12
-1.033302772621827
 22
1.100000000000001
 32
0
 13
-1.033302772621827
 23
1.100000000000001
 33
0
  0
LINE
  5
11F
100
AcDbEntity
  8
Bemaßung Acker
  6
ByBlock
 62
    0
370
   -2
100
AcDbLine
 10
-0.2
 20
2.449212707644755e-017
 11
-1.1
 21
1.224606353822377e-017
  0
LINE
  5
120
100
AcDbEntity
  8
Bemaßung Acker
  6
ByBlock
 62
    0
370
   -2
100
AcDbLine
 10
9.300000000000001
 20
1.3
 11
-1.1
 21
1.300000000000001
  0
ENDBLK
  5
84
330
82
100
AcDbEntity
  8
0
100
AcDbBlockEnd
  0
BLOCK
  5
86
330
85
100
AcDbEntity
  8
0
100
AcDbBlockBegin
  2
*D27
 70
    1
 10
0
 20
0
  3
*D27
  1

  0
LINE
  5
121
100
AcDbEntity
  8
Bemaßung Wege Hauptwege
  6
ByBlock
 62
    0
370
   -2
100
AcDbLine
 10
0
 20
13
 11
6.3
 21
13
  0
MTEXT
  5
122
100
AcDbEntity
  8
Bemaßung Wege Hauptwege
  6
CONTINUOUS
 62
    0
370
   -2
100
AcDbMText
 10
3.15
 20
13.225
 30
0
 40
0.25
 41
0.4027777777778088
 71
    5
 72
    1
  1
6,3
  7
standard
210
0
220
0
230
1
 50
0
 73
    2
 44
1
  0
SOLID
  5
123
100
AcDbEntity
  8
Bemaßung Wege Hauptwege
  6
ByBlock
 62
    0
370
   -2
100
AcDbTrace
 10
0
 20
13
 30
0
 11
0.2
 21
13.03330277262183
 31
0
 12
0.2
 22
12.96669722737817
 32
0
 13
0.2
 23
12.96669722737817
 33
0
  0
SOLID
  5
124
100
AcDbEntity
  8
Bemaßung Wege Hauptwege
  6
ByBlock
 62
    0
370
   -2
100
AcDbTrace
 10
6.3
 20
13
 30
0
 11
6.1
 21
12.96669722737817
 31
0
 12
6.1
 22
13.03330277262183
 32
0
 13
6.1
 23
13.03330277262183
 33
0
  0
LINE
  5
125
100
AcDbEntity
  8
Bemaßung Wege Hauptwege
  6
ByBlock
 62
    0
370
   -2
100
AcDbLine
 10
1.608059244695566e-017
 20
0.2
 11
6.123031769111886e-018
 21
13.1
  0
LINE
  5
126
100
AcDbEntity
  8
Bemaßung Wege Hauptwege
  6
ByBlock
 62
    0
370
   -2
100
AcDbLine
 10
6.3
 20
11.4
 11
6.3
 21
13.1
  0
ENDBLK
  5
87
330
85
100
AcDbEntity
  8
0
100
AcDbBlockEnd
  0
BLOCK
  5
89
330
88
100
AcDbEntity
  8
0
100
AcDbBlockBegin
  2
*D30
 70
    1
 10
0
 20
0
  3
*D30
  1

  0
LINE
  5
127
100
AcDbEntity
  8
Bemaßung Wege Hauptwege
  6
ByBlock
 62
    0
370
   -2
100
AcDbLine
 10
0.05782387576302028
 20
16
 11
20.12417316546534
 21
16
  0
MTEXT
  5
128
100
AcDbEntity
  8
Bemaßung Wege Hauptwege
  6
CONTINUOUS
 62
    0
370
   -2
100
AcDbMText
 10
10.09099852061418
 20
16.225
 30
0
 40
0.25
 41
0.986111111111142
 71
    5
 72
    1
  1
20,066
  7
standard
210
0
220
0
230
1
 50
0
 73
    2
 44
1
  0
SOLID
  5
129
100
AcDbEntity
  8
Bemaßung Wege Hauptwege
  6
ByBlock
 62
    0
370
   -2
100
AcDbTrace
 10
0.05782387576302028
 20
16
 30
0
 11
0.2578238757630203
 21
16.03330277262183
 31
0
 12
0.2578238757630203
 22
15.96669722737817
 32
0
 13
0.2578238757630203
 23
15.96669722737817
 33
0
  0
SOLID
  5
12A
100
AcDbEntity
  8
Bemaßung Wege Hauptwege
  6
ByBlock
 62
    0
370
   -2
100
AcDbTrace
 10
20.12417316546534
 20
16
 30
0
 11
19.92417316546534
 21
15.96669722737817
 31
0
 12
19.92417316546534
 22
16.03330277262183
 32
0
 13
19.92417316546534
 23
16.03330277262183
 33
0
  0
LINE
  5
12B
100
AcDbEntity
  8
Bemaßung Wege Hauptwege
  6
ByBlock
 62
    0
370
   -2
100
AcDbLine
 10
0.05782387576302128
 20
0.08435224847395741
 11
0.05782387576302027
 21
16.1
  0
LINE
  5
12C
100
AcDbEntity
  8
Bemaßung Wege Hauptwege
  6
ByBlock
 62
    0
370
   -2
100
AcDbLine
 10
20.12417316546534
 20
11.4
 11
20.12417316546534
 21
16.1
  0
ENDBLK
  5
8A
330
88
100
AcDbEntity
  8
0
100
AcDbBlockEnd
  0
BLOCK
  5
8C
330
8B
100
AcDbEntity
  8
0
100
AcDbBlockBegin
  2
*D5
 70
    1
 10
0
 20
0
  3
*D5
  1

  0
LINE
  5
12D
100
AcDbEntity
  8
Bemaßung Acker
  6
ByBlock
 62
    0
370
   -2
100
AcDbLine
 10
0
 20
-4
 11
28
 21
-4
  0
MTEXT
  5
12E
100
AcDbEntity
  8
Bemaßung Acker
  6
CONTINUOUS
 62
    0
370
   -2
100
AcDbMText
 10
14
 20
-3.775
 30
0
 40
0.25
 41
0.3055555555555556
 71
    5
 72
    1
  1
28
  7
standard
210
0
220
0
230
1
 50
0
 73
    2
 44
1
  0
SOLID
  5
12F
100
AcDbEntity
  8
Bemaßung Acker
  6
ByBlock
 62
    0
370
   -2
100
AcDbTrace
 10
0
 20
-4
 30
0
 11
0.2
 21
-3.966697227378173
 31
0
 12
0.2
 22
-4.033302772621827
 32
0
 13
0.2
 23
-4.033302772621827
 33
0
  0
SOLID
  5
130
100
AcDbEntity
  8
Bemaßung Acker
  6
ByBlock
 62
    0
370
   -2
100
AcDbTrace
 10
28
 20
-4
 30
0
 11
27.8
 21
-4.033302772621827
 31
0
 12
27.8
 22
-3.966697227378173
 32
0
 13
27.8
 23
-3.966697227378173
 33
0
  0
LINE
  5
131
100
AcDbEntity
  8
Bemaßung Acker
  6
ByBlock
 62
    0
370
   -2
100
AcDbLine
 10
-3.673819061467132e-017
 20
-0.2
 11
-1.836909530733566e-017
 21
-4.1
  0
LINE
  5
132
100
AcDbEntity
  8
Bemaßung Acker
  6
ByBlock
 62
    0
370
   -2
100
AcDbLine
 10
28
 20
-0.2
 11
28
 21
-4.1
  0
ENDBLK
  5
8D
330
8B
100
AcDbEntity
  8
0
100
AcDbBlockEnd
  0
BLOCK
  5
8F
330
8E
100
AcDbEntity
  8
0
100
AcDbBlockBegin
  2
*D16
 70
    1
 10
0
 20
0
  3
*D16
  1

  0
LINE
  5
133
100
AcDbEntity
  8
Bemaßung Wege Hauptwege
  6
ByBlock
 62
    0
370
   -2
100
AcDbLine
 10
0
 20
-3
 11
6.9
 21
-3
  0
MTEXT
  5
134
100
AcDbEntity
  8
Bemaßung Wege Hauptwege
  6
CONTINUOUS
 62
    0
370
   -2
100
AcDbMText
 10
3.45
 20
-2.775
 30
0
 40
0.25
 41
0.4027777777777932
 71
    5
 72
    1
  1
6,9
  7
standard
210
0
220
0
230
1
 50
0
 73
    2
 44
1
  0
SOLID
  5
135
100
AcDbEntity
  8
Bemaßung Wege Hauptwege
  6
ByBlock
 62
    0
370
   -2
100
AcDbTrace
 10
0
 20
-3
 30
0
 11
0.2
 21
-2.966697227378173
 31
0
 12
0.2
 22
-3.033302772621827
 32
0
 13
0.2
 23
-3.033302772621827
 33
0
  0
SOLID
  5
136
100
AcDbEntity
  8
Bemaßung Wege Hauptwege
  6
ByBlock
 62
    0
370
   -2
100
AcDbTrace
 10
6.9
 20
-3
 30
0
 11
6.7
 21
-3.033302772621827
 31
0
 12
6.7
 22
-2.966697227378173
 32
0
 13
6.7
 23
-2.966697227378173
 33
0
  0
LINE
  5
137
100
AcDbEntity
  8
Bemaßung Wege Hauptwege
  6
ByBlock
 62
    0
370
   -2
100
AcDbLine
 10
-3.673819061467132e-017
 20
-0.2
 11
-1.836909530733566e-017
 21
-3.1
  0
LINE
  5
138
100
AcDbEntity
  8
Bemaßung Wege Hauptwege
  6
ByBlock
 62
    0
370
   -2
100
AcDbLine
 10
6.9
 20
-0.2
 11
6.9
 21
-3.1
  0
ENDBLK
  5
90
330
8E
100
AcDbEntity
  8
0
100
AcDbBlockEnd
  0
BLOCK
  5
92
330
91
100
AcDbEntity
  8
0
100
AcDbBlockBegin
  2
*D10
 70
    1
 10
0
 20
0
  3
*D10
  1

  0
LINE
  5
139
100
AcDbEntity
  8
Bemaßung Wege Hauptwege
  6
ByBlock
 62
    0
370
   -2
100
AcDbLine
 10
-2
 20
0
 11
-2
 21
5.3
  0
MTEXT
  5
13A
100
AcDbEntity
  8
Bemaßung Wege Hauptwege
  6
CONTINUOUS
 62
    0
370
   -2
100
AcDbMText
 10
-2.225
 20
2.65
 30
0
 40
0.25
 41
0.4027777777778088
 71
    5
 72
    1
  1
5,3
  7
standard
210
0
220
0
230
1
 50
90
 73
    2
 44
1
  0
SOLID
  5
13B
100
AcDbEntity
  8
Bemaßung Wege Hauptwege
  6
ByBlock
 62
    0
370
   -2
100
AcDbTrace
 10
-2
 20
0
 30
0
 11
-2.033302772621828
 21
0.2
 31
0
 12
-1.966697227378173
 22
0.2
 32
0
 13
-1.966697227378173
 23
0.2
 33
0
  0
SOLID
  5
13C
100
AcDbEntity
  8
Bemaßung Wege Hauptwege
  6
ByBlock
 62
    0
370
   -2
100
AcDbTrace
 10
-2
 20
5.3
 30
0
 11
-1.966697227378173
 21
5.1
 31
0
 12
-2.033302772621827
 22
5.1
 32
0
 13
-2.033302772621827
 23
5.1
 33
0
  0
LINE
  5
13D
100
AcDbEntity
  8
Bemaßung Wege Hauptwege
  6
ByBlock
 62
    0
370
   -2
100
AcDbLine
 10
-0.2
 20
2.449212707644755e-017
 11
-2.100000000000001
 21
1.224606353822377e-017
  0
LINE
  5
13E
100
AcDbEntity
  8
Bemaßung Wege Hauptwege
  6
ByBlock
 62
    0
370
   -2
100
AcDbLine
 10
-0.2
 20
5.3
 11
-2.1
 21
5.3
  0
ENDBLK
  5
93
330
91
100
AcDbEntity
  8
0
100
AcDbBlockEnd
  0
BLOCK
  5
95
330
94
100
AcDbEntity
  8
0
100
AcDbBlockBegin
  2
*D24
 70
    1
 10
0
 20
0
  3
*D24
  1

  0
LINE
  5
13F
100
AcDbEntity
  8
Bemaßung Wege Hauptwege
  6
ByBlock
 62
    0
370
   -2
100
AcDbLine
 10
0
 20
-11
 11
26.1
 21
-11
  0
MTEXT
  5
140
100
AcDbEntity
  8
Bemaßung Wege Hauptwege
  6
CONTINUOUS
 62
    0
370
   -2
100
AcDbMText
 10
13.05
 20
-10.775
 30
0
 40
0.25
 41
0.5416666666666823
 71
    5
 72
    1
  1
26,1
  7
standard
210
0
220
0
230
1
 50
0
 73
    2
 44
1
  0
SOLID
  5
141
100
AcDbEntity
  8
Bemaßung Wege Hauptwege
  6
ByBlock
 62
    0
370
   -2
100
AcDbTrace
 10
0
 20
-11
 30
0
 11
0.2
 21
-10.96669722737817
 31
0
 12
0.2
 22
-11.03330277262183
 32
0
 13
0.2
 23
-11.03330277262183
 33
0
  0
SOLID
  5
142
100
AcDbEntity
  8
Bemaßung Wege Hauptwege
  6
ByBlock
 62
    0
370
   -2
100
AcDbTrace
 10
26.1
 20
-11
 30
0
 11
25.9
 21
-11.03330277262183
 31
0
 12
25.9
 22
-10.96669722737817
 32
0
 13
25.9
 23
-10.96669722737817
 33
0
  0
LINE
  5
143
100
AcDbEntity
  8
Bemaßung Wege Hauptwege
  6
ByBlock
 62
    0
370
   -2
100
AcDbLine
 10
-3.673819061467132e-017
 20
-0.2
 11
-1.836909530733566e-017
 21
-11.1
  0
LINE
  5
144
100
AcDbEntity
  8
Bemaßung Wege Hauptwege
  6
ByBlock
 62
    0
370
   -2
100
AcDbLine
 10
26.1
 20
1.1
 11
26.1
 21
-11.1
  0
ENDBLK
  5
96
330
94
100
AcDbEntity
  8
0
100
AcDbBlockEnd
  0
BLOCK
  5
98
330
97
100
AcDbEntity
  8
0
100
AcDbBlockBegin
  2
*D3
 70
    1
 10
0
 20
0
  3
*D3
  1

  0
LINE
  5
145
100
AcDbEntity
  8
Bemaßung Acker
  6
ByBlock
 62
    0
370
   -2
100
AcDbLine
 10
0
 20
-2
 11
9.5
 21
-2
  0
MTEXT
  5
146
100
AcDbEntity
  8
Bemaßung Acker
  6
CONTINUOUS
 62
    0
370
   -2
100
AcDbMText
 10
4.75
 20
-1.775
 30
0
 40
0.25
 41
0.4027777777778088
 71
    5
 72
    1
  1
9,5
  7
standard
210
0
220
0
230
1
 50
0
 73
    2
 44
1
  0
SOLID
  5
147
100
AcDbEntity
  8
Bemaßung Acker
  6
ByBlock
 62
    0
370
   -2
100
AcDbTrace
 10
0
 20
-2
 30
0
 11
0.2
 21
-1.966697227378173
 31
0
 12
0.2
 22
-2.033302772621827
 32
0
 13
0.2
 23
-2.033302772621827
 33
0
  0
SOLID
  5
148
100
AcDbEntity
  8
Bemaßung Acker
  6
ByBlock
 62
    0
370
   -2
100
AcDbTrace
 10
9.5
 20
-2
 30
0
 11
9.300000000000001
 21
-2.033302772621827
 31
0
 12
9.300000000000001
 22
-1.966697227378173
 32
0
 13
9.300000000000001
 23
-1.966697227378173
 33
0
  0
LINE
  5
149
100
AcDbEntity
  8
Bemaßung Acker
  6
ByBlock
 62
    0
370
   -2
100
AcDbLine
 10
-3.673819061467132e-017
 20
-0.2
 11
-1.836909530733566e-017
 21
-2.1
  0
LINE
  5
14A
100
AcDbEntity
  8
Bemaßung Acker
  6
ByBlock
 62
    0
370
   -2
100
AcDbLine
 10
9.5
 20
1.1
 11
9.5
 21
-2.1
  0
ENDBLK
  5
99
330
97
100
AcDbEntity
  8
0
100
AcDbBlockEnd
  0
BLOCK
  5
9B
330
9A
100
AcDbEntity
  8
0
100
AcDbBlockBegin
  2
*D34
 70
    1
 10
0
 20
0
  3
*D34
  1

  0
LINE
  5
14B
100
AcDbEntity
  8
Bemaßung Wege Hauptwege
  6
ByBlock
 62
    0
370
   -2
100
AcDbLine
 10
0.04249703163531393
 20
20
 11
27.75
 21
20
  0
MTEXT
  5
14C
100
AcDbEntity
  8
Bemaßung Wege Hauptwege
  6
CONTINUOUS
 62
    0
370
   -2
100
AcDbMText
 10
13.89624851581766
 20
20.225
 30
0
 40
0.25
 41
0.9861111111111112
 71
    5
 72
    1
  1
27,708
  7
standard
210
0
220
0
230
1
 50
0
 73
    2
 44
1
  0
SOLID
  5
14D
100
AcDbEntity
  8
Bemaßung Wege Hauptwege
  6
ByBlock
 62
    0
370
   -2
100
AcDbTrace
 10
0.04249703163531393
 20
20
 30
0
 11
0.2424970316353139
 21
20.03330277262183
 31
0
 12
0.2424970316353139
 22
19.96669722737817
 32
0
 13
0.2424970316353139
 23
19.96669722737817
 33
0
  0
SOLID
  5
14E
100
AcDbEntity
  8
Bemaßung Wege Hauptwege
  6
ByBlock
 62
    0
370
   -2
100
AcDbTrace
 10
27.75
 20
20
 30
0
 11
27.55
 21
19.96669722737817
 31
0
 12
27.55
 22
20.03330277262183
 32
0
 13
27.55
 23
20.03330277262183
 33
0
  0
LINE
  5
14F
100
AcDbEntity
  8
Bemaßung Wege Hauptwege
  6
ByBlock
 62
    0
370
   -2
100
AcDbLine
 10
0.04249703163531329
 20
0.2
 11
0.04249703163531394
 21
20.1
  0
LINE
  5
150
100
AcDbEntity
  8
Bemaßung Wege Hauptwege
  6
ByBlock
 62
    0
370
   -2
100
AcDbLine
 10
27.75
 20
11.4
 11
27.75
 21
20.1
  0
ENDBLK
  5
9C
330
9A
100
AcDbEntity
  8
0
100
AcDbBlockEnd
  0
BLOCK
  5
9E
330
9D
100
AcDbEntity
  8
0
100
AcDbBlockBegin
  2
*D19
 70
    1
 10
0
 20
0
  3
*D19
  1

  0
LINE
  5
151
100
AcDbEntity
  8
Bemaßung Wege Hauptwege
  6
ByBlock
 62
    0
370
   -2
100
AcDbLine
 10
1.77635683940025e-015
 20
-6
 11
11.7
 21
-6
  0
MTEXT
  5
152
100
AcDbEntity
  8
Bemaßung Wege Hauptwege
  6
CONTINUOUS
 62
    0
370
   -2
100
AcDbMText
 10
5.850000000000001
 20
-5.775
 30
0
 40
0.25
 41
0.4861111111111111
 71
    5
 72
    1
  1
11,7
  7
standard
210
0
220
0
230
1
 50
0
 73
    2
 44
1
  0
SOLID
  5
153
100
AcDbEntity
  8
Bemaßung Wege Hauptwege
  6
ByBlock
 62
    0
370
   -2
100
AcDbTrace
 10
1.77635683940025e-015
 20
-6
 30
0
 11
0.2000000000000018
 21
-5.966697227378173
 31
0
 12
0.2000000000000018
 22
-6.033302772621827
 32
0
 13
0.2000000000000018
 23
-6.033302772621827
 33
0
  0
SOLID
  5
154
100
AcDbEntity
  8
Bemaßung Wege Hauptwege
  6
ByBlock
 62
    0
370
   -2
100
AcDbTrace
 10
11.7
 20
-6
 30
0
 11
11.5
 21
-6.033302772621827
 31
0
 12
11.5
 22
-5.966697227378173
 32
0
 13
11.5
 23
-5.966697227378173
 33
0
  0
LINE
  5
155
100
AcDbEntity
  8
Bemaßung Wege Hauptwege
  6
ByBlock
 62
    0
370
   -2
100
AcDbLine
 10
-3.673819061467132e-017
 20
-0.2
 11
1.757987744092915e-015
 21
-6.1
  0
LINE
  5
156
100
AcDbEntity
  8
Bemaßung Wege Hauptwege
  6
ByBlock
 62
    0
370
   -2
100
AcDbLine
 10
11.7
 20
1.1
 11
11.7
 21
-6.1
  0
ENDBLK
  5
9F
330
9D
100
AcDbEntity
  8
0
100
AcDbBlockEnd
  0
BLOCK
  5
A1
330
A0
100
AcDbEntity
  8
0
100
AcDbBlockBegin
  2
*D20
 70
    1
 10
0
 20
0
  3
*D20
  1

  0
LINE
  5
157
100
AcDbEntity
  8
Bemaßung Wege Hauptwege
  6
ByBlock
 62
    0
370
   -2
100
AcDbLine
 10
0.03459914278640319
 20
-7
 11
15.1
 21
-7
  0
MTEXT
  5
158
100
AcDbEntity
  8
Bemaßung Wege Hauptwege
  6
CONTINUOUS
 62
    0
370
   -2
100
AcDbMText
 10
7.567299571393201
 20
-6.775
 30
0
 40
0.25
 41
0.930555555555602
 71
    5
 72
    1
  1
15,065
  7
standard
210
0
220
0
230
1
 50
0
 73
    2
 44
1
  0
SOLID
  5
159
100
AcDbEntity
  8
Bemaßung Wege Hauptwege
  6
ByBlock
 62
    0
370
   -2
100
AcDbTrace
 10
0.03459914278640319
 20
-7
 30
0
 11
0.2345991427864032
 21
-6.966697227378173
 31
0
 12
0.2345991427864032
 22
-7.033302772621827
 32
0
 13
0.2345991427864032
 23
-7.033302772621827
 33
0
  0
SOLID
  5
15A
100
AcDbEntity
  8
Bemaßung Wege Hauptwege
  6
ByBlock
 62
    0
370
   -2
100
AcDbTrace
 10
15.1
 20
-7
 30
0
 11
14.9
 21
-7.033302772621827
 31
0
 12
14.9
 22
-6.966697227378173
 32
0
 13
14.9
 23
-6.966697227378173
 33
0
  0
LINE
  5
15B
100
AcDbEntity
  8
Bemaßung Wege Hauptwege
  6
ByBlock
 62
    0
370
   -2
100
AcDbLine
 10
0.03459914278640362
 20
-0.2518987141796055
 11
0.03459914278640317
 21
-7.1
  0
LINE
  5
15C
100
AcDbEntity
  8
Bemaßung Wege Hauptwege
  6
ByBlock
 62
    0
370
   -2
100
AcDbLine
 10
15.1
 20
1.1
 11
15.1
 21
-7.1
  0
ENDBLK
  5
A2
330
A0
100
AcDbEntity
  8
0
100
AcDbBlockEnd
  0
BLOCK
  5
A4
330
A3
100
AcDbEntity
  8
0
100
AcDbBlockBegin
  2
*D32
 70
    1
 10
0
 20
0
  3
*D32
  1

  0
LINE
  5
15D
100
AcDbEntity
  8
Bemaßung Wege Hauptwege
  6
ByBlock
 62
    0
370
   -2
100
AcDbLine
 10
0
 20
18
 11
24.35
 21
18
  0
MTEXT
  5
15E
100
AcDbEntity
  8
Bemaßung Wege Hauptwege
  6
CONTINUOUS
 62
    0
370
   -2
100
AcDbMText
 10
12.175
 20
18.225
 30
0
 40
0.25
 41
0.8194444444444754
 71
    5
 72
    1
  1
24,35
  7
standard
210
0
220
0
230
1
 50
0
 73
    2
 44
1
  0
SOLID
  5
15F
100
AcDbEntity
  8
Bemaßung Wege Hauptwege
  6
ByBlock
 62
    0
370
   -2
100
AcDbTrace
 10
0
 20
18
 30
0
 11
0.2
 21
18.03330277262183
 31
0
 12
0.2
 22
17.96669722737817
 32
0
 13
0.2
 23
17.96669722737817
 33
0
  0
SOLID
  5
160
100
AcDbEntity
  8
Bemaßung Wege Hauptwege
  6
ByBlock
 62
    0
370
   -2
100
AcDbTrace
 10
24.35
 20
18
 30
0
 11
24.15
 21
17.96669722737817
 31
0
 12
24.15
 22
18.03330277262183
 32
0
 13
24.15
 23
18.03330277262183
 33
0
  0
LINE
  5
161
100
AcDbEntity
  8
Bemaßung Wege Hauptwege
  6
ByBlock
 62
    0
370
   -2
100
AcDbLine
 10
1.224606353822377e-017
 20
0.1150059367293736
 11
6.123031769111886e-018
 21
18.1
  0
LINE
  5
162
100
AcDbEntity
  8
Bemaßung Wege Hauptwege
  6
ByBlock
 62
    0
370
   -2
100
AcDbLine
 10
24.35
 20
11.4
 11
24.35
 21
18.1
  0
ENDBLK
  5
A5
330
A3
100
AcDbEntity
  8
0
100
AcDbBlockEnd
  0
BLOCK
  5
A7
330
A6
100
AcDbEntity
  8
0
100
AcDbBlockBegin
  2
*D35
 70
    1
 10
0
 20
0
  3
*D35
  1

  0
LINE
  5
163
100
AcDbEntity
  8
Bemaßung Wege Hauptwege
  6
ByBlock
 62
    0
370
   -2
100
AcDbLine
 10
3.552713678800501e-015
 20
21
 11
28.4
 21
21
  0
MTEXT
  5
164
100
AcDbEntity
  8
Bemaßung Wege Hauptwege
  6
CONTINUOUS
 62
    0
370
   -2
100
AcDbMText
 10
14.2
 20
21.225
 30
0
 40
0.25
 41
0.625
 71
    5
 72
    1
  1
28,4
  7
standard
210
0
220
0
230
1
 50
0
 73
    2
 44
1
  0
SOLID
  5
165
100
AcDbEntity
  8
Bemaßung Wege Hauptwege
  6
ByBlock
 62
    0
370
   -2
100
AcDbTrace
 10
3.552713678800501e-015
 20
21
 30
0
 11
0.2000000000000036
 21
21.03330277262183
 31
0
 12
0.2000000000000036
 22
20.96669722737817
 32
0
 13
0.2000000000000036
 23
20.96669722737817
 33
0
  0
SOLID
  5
166
100
AcDbEntity
  8
Bemaßung Wege Hauptwege
  6
ByBlock
 62
    0
370
   -2
100
AcDbTrace
 10
28.4
 20
21
 30
0
 11
28.2
 21
20.96669722737817
 31
0
 12
28.2
 22
21.03330277262183
 32
0
 13
28.2
 23
21.03330277262183
 33
0
  0
LINE
  5
167
100
AcDbEntity
  8
Bemaßung Wege Hauptwege
  6
ByBlock
 62
    0
370
   -2
100
AcDbLine
 10
1.224606353822377e-017
 20
0.2
 11
3.558836710569613e-015
 21
21.1
  0
LINE
  5
168
100
AcDbEntity
  8
Bemaßung Wege Hauptwege
  6
ByBlock
 62
    0
370
   -2
100
AcDbLine
 10
28.4
 20
11.4
 11
28.4
 21
21.1
  0
ENDBLK
  5
A8
330
A6
100
AcDbEntity
  8
0
100
AcDbBlockEnd
  0
BLOCK
  5
AA
330
A9
100
AcDbEntity
  8
0
100
AcDbBlockBegin
  2
*D15
 70
    1
 10
0
 20
0
  3
*D15
  1

  0
LINE
  5
169
100
AcDbEntity
  8
Bemaßung Wege Hauptwege
  6
ByBlock
 62
    0
370
   -2
100
AcDbLine
 10
8.881784197001252e-016
 20
-2
 11
5.600000000000001
 21
-2
  0
MTEXT
  5
16A
100
AcDbEntity
  8
Bemaßung Wege Hauptwege
  6
CONTINUOUS
 62
    0
370
   -2
100
AcDbMText
 10
2.800000000000001
 20
-1.775
 30
0
 40
0.25
 41
0.4027777777778088
 71
    5
 72
    1
  1
5,6
  7
standard
210
0
220
0
230
1
 50
0
 73
    2
 44
1
  0
SOLID
  5
16B
100
AcDbEntity
  8
Bemaßung Wege Hauptwege
  6
ByBlock
 62
    0
370
   -2
100
AcDbTrace
 10
8.881784197001252e-016
 20
-2
 30
0
 11
0.2000000000000009
 21
-1.966697227378173
 31
0
 12
0.2000000000000009
 22
-2.033302772621827
 32
0
 13
0.2000000000000009
 23
-2.033302772621827
 33
0
  0
SOLID
  5
16C
100
AcDbEntity
  8
Bemaßung Wege Hauptwege
  6
ByBlock
 62
    0
370
   -2
100
AcDbTrace
 10
5.600000000000001
 20
-2
 30
0
 11
5.4
 21
-2.033302772621827
 31
0
 12
5.4
 22
-1.966697227378173
 32
0
 13
5.4
 23
-1.966697227378173
 33
0
  0
LINE
  5
16D
100
AcDbEntity
  8
Bemaßung Wege Hauptwege
  6
ByBlock
 62
    0
370
   -2
100
AcDbLine
 10
-3.673819061467132e-017
 20
-0.2
 11
8.698093243927896e-016
 21
-2.1
  0
LINE
  5
16E
100
AcDbEntity
  8
Bemaßung Wege Hauptwege
  6
ByBlock
 62
    0
370
   -2
100
AcDbLine
 10
5.600000000000001
 20
-0.2
 11
5.600000000000001
 21
-2.1
  0
ENDBLK
  5
AB
330
A9
100
AcDbEntity
  8
0
100
AcDbBlockEnd
  0
BLOCK
  5
AD
330
AC
100
AcDbEntity
  8
0
100
AcDbBlockBegin
  2
*D11
 70
    1
 10
0
 20
0
  3
*D11
  1

  0
LINE
  5
16F
100
AcDbEntity
  8
Bemaßung Wege Hauptwege
  6
ByBlock
 62
    0
370
   -2
100
AcDbLine
 10
-3
 20
0
 11
-3
 21
8.1
  0
MTEXT
  5
170
100
AcDbEntity
  8
Bemaßung Wege Hauptwege
  6
CONTINUOUS
 62
    0
370
   -2
100
AcDbMText
 10
-3.225
 20
4.05
 30
0
 40
0.25
 41
0.3472222222222222
 71
    5
 72
    1
  1
8,1
  7
standard
210
0
220
0
230
1
 50
90
 73
    2
 44
1
  0
SOLID
  5
171
100
AcDbEntity
  8
Bemaßung Wege Hauptwege
  6
ByBlock
 62
    0
370
   -2
100
AcDbTrace
 10
-3
 20
0
 30
0
 11
-3.033302772621828
 21
0.2
 31
0
 12
-2.966697227378173
 22
0.2
 32
0
 13
-2.966697227378173
 23
0.2
 33
0
  0
SOLID
  5
172
100
AcDbEntity
  8
Bemaßung Wege Hauptwege
  6
ByBlock
 62
    0
370
   -2
100
AcDbTrace
 10
-3
 20
8.1
 30
0
 11
-2.966697227378173
 21
7.899999999999999
 31
0
 12
-3.033302772621827
 22
7.899999999999999
 32
0
 13
-3.033302772621827
 23
7.899999999999999
 33
0
  0
LINE
  5
173
100
AcDbEntity
  8
Bemaßung Wege Hauptwege
  6
ByBlock
 62
    0
370
   -2
100
AcDbLine
 10
-0.2
 20
2.449212707644755e-017
 11
-3.100000000000001
 21
1.224606353822377e-017
  0
LINE
  5
174
100
AcDbEntity
  8
Bemaßung Wege Hauptwege
  6
ByBlock
 62
    0
370
   -2
100
AcDbLine
 10
-0.2
 20
8.1
 11
-3.1
 21
8.1
  0
ENDBLK
  5
AE
330
AC
100
AcDbEntity
  8
0
100
AcDbBlockEnd
  0
BLOCK
  5
B0
330
AF
100
AcDbEntity
  8
0
100
AcDbBlockBegin
  2
*D14
 70
    1
 10
0
 20
0
  3
*D14
  1

  0
LINE
  5
175
100
AcDbEntity
  8
Bemaßung Wege Hauptwege
  6
ByBlock
 62
    0
370
   -2
100
AcDbLine
 10
-0.03287287337127776
 20
-1
 11
4.9
 21
-1
  0
MTEXT
  5
176
100
AcDbEntity
  8
Bemaßung Wege Hauptwege
  6
CONTINUOUS
 62
    0
370
   -2
100
AcDbMText
 10
2.433563563314361
 20
-0.775
 30
0
 40
0.25
 41
0.8194444444444754
 71
    5
 72
    1
  1
4,933
  7
standard
210
0
220
0
230
1
 50
0
 73
    2
 44
1
  0
SOLID
  5
177
100
AcDbEntity
  8
Bemaßung Wege Hauptwege
  6
ByBlock
 62
    0
370
   -2
100
AcDbTrace
 10
-0.03287287337127776
 20
-1
 30
0
 11
0.1671271266287223
 21
-0.9666972273781728
 31
0
 12
0.1671271266287223
 22
-1.033302772621827
 32
0
 13
0.1671271266287223
 23
-1.033302772621827
 33
0
  0
SOLID
  5
178
100
AcDbEntity
  8
Bemaßung Wege Hauptwege
  6
ByBlock
 62
    0
370
   -2
100
AcDbTrace
 10
4.9
 20
-1
 30
0
 11
4.7
 21
-1.033302772621827
 31
0
 12
4.7
 22
-0.9666972273781728
 32
0
 13
4.7
 23
-0.9666972273781728
 33
0
  0
LINE
  5
179
100
AcDbEntity
  8
Bemaßung Wege Hauptwege
  6
ByBlock
 62
    0
370
   -2
100
AcDbLine
 10
-0.03287287337127754
 20
-0.2328728733712775
 11
-0.03287287337127778
 21
-1.1
  0
LINE
  5
17A
100
AcDbEntity
  8
Bemaßung Wege Hauptwege
  6
ByBlock
 62
    0
370
   -2
100
AcDbLine
 10
4.9
 20
-0.2
 11
4.9
 21
-1.1
  0
ENDBLK
  5
B1
330
AF
100
AcDbEntity
  8
0
100
AcDbBlockEnd
  0
BLOCK
  5
B3
330
B2
100
AcDbEntity
  8
0
100
AcDbBlockBegin
  2
*D2
 70
    1
 10
0
 20
0
  3
*D2
  1

  0
LINE
  5
17B
100
AcDbEntity
  8
Bemaßung Acker
  6
ByBlock
 62
    0
370
   -2
100
AcDbLine
 10
0
 20
-1
 11
6.8
 21
-1
  0
MTEXT
  5
17C
100
AcDbEntity
  8
Bemaßung Acker
  6
CONTINUOUS
 62
    0
370
   -2
100
AcDbMText
 10
3.4
 20
-0.775
 30
0
 40
0.25
 41
0.4027777777777932
 71
    5
 72
    1
  1
6,8
  7
standard
210
0
220
0
230
1
 50
0
 73
    2
 44
1
  0
SOLID
  5
17D
100
AcDbEntity
  8
Bemaßung Acker
  6
ByBlock
 62
    0
370
   -2
100
AcDbTrace
 10
0
 20
-1
 30
0
 11
0.2
 21
-0.9666972273781728
 31
0
 12
0.2
 22
-1.033302772621827
 32
0
 13
0.2
 23
-1.033302772621827
 33
0
  0
SOLID
  5
17E
100
AcDbEntity
  8
Bemaßung Acker
  6
ByBlock
 62
    0
370
   -2
100
AcDbTrace
 10
6.8
 20
-1
 30
0
 11
6.6
 21
-1.033302772621827
 31
0
 12
6.6
 22
-0.9666972273781728
 32
0
 13
6.6
 23
-0.9666972273781728
 33
0
  0
LINE
  5
17F
100
AcDbEntity
  8
Bemaßung Acker
  6
ByBlock
 62
    0
370
   -2
100
AcDbLine
 10
-3.673819061467132e-017
 20
-0.2
 11
-1.836909530733566e-017
 21
-1.1
  0
LINE
  5
180
100
AcDbEntity
  8
Bemaßung Acker
  6
ByBlock
 62
    0
370
   -2
100
AcDbLine
 10
6.8
 20
-0.2
 11
6.8
 21
-1.1
  0
ENDBLK
  5
B4
330
B2
100
AcDbEntity
  8
0
100
AcDbBlockEnd
  0
BLOCK
  5
B6
330
B5
100
AcDbEntity
  8
0
100
AcDbBlockBegin
  2
*D25
 70
    1
 10
0
 20
0
  3
*D25
  1

  0
LINE
  5
181
100
AcDbEntity
  8
Bemaßung Wege Hauptwege
  6
ByBlock
 62
    0
370
   -2
100
AcDbLine
 10
3.552713678800501e-015
 20
-12
 11
26.9
 21
-12
  0
MTEXT
  5
182
100
AcDbEntity
  8
Bemaßung Wege Hauptwege
  6
CONTINUOUS
 62
    0
370
   -2
100
AcDbMText
 10
13.45
 20
-11.775
 30
0
 40
0.25
 41
0.5972222222222379
 71
    5
 72
    1
  1
26,9
  7
standard
210
0
220
0
230
1
 50
0
 73
    2
 44
1
  0
SOLID
  5
183
100
AcDbEntity
  8
Bemaßung Wege Hauptwege
  6
ByBlock
 62
    0
370
   -2
100
AcDbTrace
 10
3.552713678800501e-015
 20
-12
 30
0
 11
0.2000000000000036
 21
-11.96669722737817
 31
0
 12
0.2000000000000036
 22
-12.03330277262183
 32
0
 13
0.2000000000000036
 23
-12.03330277262183
 33
0
  0
SOLID
  5
184
100
AcDbEntity
  8
Bemaßung Wege Hauptwege
  6
ByBlock
 62
    0
370
   -2
100
AcDbTrace
 10
26.9
 20
-12
 30
0
 11
26.7
 21
-12.03330277262183
 31
0
 12
26.7
 22
-11.96669722737817
 32
0
 13
26.7
 23
-11.96669722737817
 33
0
  0
LINE
  5
185
100
AcDbEntity
  8
Bemaßung Wege Hauptwege
  6
ByBlock
 62
    0
370
   -2
100
AcDbLine
 10
-3.673819061467132e-017
 20
-0.2
 11
3.534344583493165e-015
 21
-12.1
  0
LINE
  5
186
100
AcDbEntity
  8
Bemaßung Wege Hauptwege
  6
ByBlock
 62
    0
370
   -2
100
AcDbLine
 10
26.9
 20
1.1
 11
26.9
 21
-12.1
  0
ENDBLK
  5
B7
330
B5
100
AcDbEntity
  8
0
100
AcDbBlockEnd
  0
BLOCK
  5
B9
330
B8
100
AcDbEntity
  8
0
100
AcDbBlockBegin
  2
*D9
 70
    1
 10
0
 20
0
  3
*D9
  1

  0
LINE
  5
187
100
AcDbEntity
  8
Bemaßung Wege Hauptwege
  6
ByBlock
 62
    0
370
   -2
100
AcDbLine
 10
-1
 20
0
 11
-1
 21
3.9
  0
MTEXT
  5
188
100
AcDbEntity
  8
Bemaßung Wege Hauptwege
  6
CONTINUOUS
 62
    0
370
   -2
100
AcDbMText
 10
-1.225
 20
1.95
 30
0
 40
0.25
 41
0.4027777777777932
 71
    5
 72
    1
  1
3,9
  7
standard
210
0
220
0
230
1
 50
90
 73
    2
 44
1
  0
SOLID
  5
189
100
AcDbEntity
  8
Bemaßung Wege Hauptwege
  6
ByBlock
 62
    0
370
   -2
100
AcDbTrace
 10
-1
 20
0
 30
0
 11
-1.033302772621827
 21
0.2
 31
0
 12
-0.966697227378173
 22
0.2
 32
0
 13
-0.966697227378173
 23
0.2
 33
0
  0
SOLID
  5
18A
100
AcDbEntity
  8
Bemaßung Wege Hauptwege
  6
ByBlock
 62
    0
370
   -2
100
AcDbTrace
 10
-1
 20
3.9
 30
0
 11
-0.9666972273781728
 21
3.7
 31
0
 12
-1.033302772621827
 22
3.7
 32
0
 13
-1.033302772621827
 23
3.7
 33
0
  0
LINE
  5
18B
100
AcDbEntity
  8
Bemaßung Wege Hauptwege
  6
ByBlock
 62
    0
370
   -2
100
AcDbLine
 10
-0.2
 20
2.449212707644755e-017
 11
-1.1
 21
1.224606353822377e-017
  0
LINE
  5
18C
100
AcDbEntity
  8
Bemaßung Wege Hauptwege
  6
ByBlock
 62
    0
370
   -2
100
AcDbLine
 10
-0.2
 20
3.9
 11
-1.1
 21
3.9
  0
ENDBLK
  5
BA
330
B8
100
AcDbEntity
  8
0
100
AcDbBlockEnd
  0
BLOCK
  5
BC
330
BB
100
AcDbEntity
  8
0
100
AcDbBlockBegin
  2
*D17
 70
    1
 10
0
 20
0
  3
*D17
  1

  0
LINE
  5
18D
100
AcDbEntity
  8
Bemaßung Wege Hauptwege
  6
ByBlock
 62
    0
370
   -2
100
AcDbLine
 10
8.881784197001252e-016
 20
-4
 11
7.600000000000001
 21
-4
  0
MTEXT
  5
18E
100
AcDbEntity
  8
Bemaßung Wege Hauptwege
  6
CONTINUOUS
 62
    0
370
   -2
100
AcDbMText
 10
3.800000000000001
 20
-3.775
 30
0
 40
0.25
 41
0.4027777777777932
 71
    5
 72
    1
  1
7,6
  7
standard
210
0
220
0
230
1
 50
0
 73
    2
 44
1
  0
SOLID
  5
18F
100
AcDbEntity
  8
Bemaßung Wege Hauptwege
  6
ByBlock
 62
    0
370
   -2
100
AcDbTrace
 10
8.881784197001252e-016
 20
-4
 30
0
 11
0.2000000000000009
 21
-3.966697227378173
 31
0
 12
0.2000000000000009
 22
-4.033302772621827
 32
0
 13
0.2000000000000009
 23
-4.033302772621827
 33
0
  0
SOLID
  5
190
100
AcDbEntity
  8
Bemaßung Wege Hauptwege
  6
ByBlock
 62
    0
370
   -2
100
AcDbTrace
 10
7.600000000000001
 20
-4
 30
0
 11
7.4
 21
-4.033302772621827
 31
0
 12
7.4
 22
-3.966697227378173
 32
0
 13
7.4
 23
-3.966697227378173
 33
0
  0
LINE
  5
191
100
AcDbEntity
  8
Bemaßung Wege Hauptwege
  6
ByBlock
 62
    0
370
   -2
100
AcDbLine
 10
-3.673819061467132e-017
 20
-0.2
 11
8.698093243927896e-016
 21
-4.1
  0
LINE
  5
192
100
AcDbEntity
  8
Bemaßung Wege Hauptwege
  6
ByBlock
 62
    0
370
   -2
100
AcDbLine
 10
7.600000000000001
 20
0.1851851851851852
 11
7.600000000000001
 21
-4.1
  0
ENDBLK
  5
BD
330
BB
100
AcDbEntity
  8
0
100
AcDbBlockEnd
  0
BLOCK
  5
BF
330
BE
100
AcDbEntity
  8
0
100
AcDbBlockBegin
  2
Hauptwege
 70
    0
 10
0
 20
0
  3
Hauptwege
  1

  0
ENDBLK
  5
C0
330
BE
100
AcDbEntity
  8
0
100
AcDbBlockEnd
  0
ENDSEC
  0
SECTION
  2
ENTITIES
  0
HATCH
  5
193
100
AcDbEntity
  8
Acker
  6
ByLayer
 62
  256
370
   -1
100
AcDbHatch
 10
0
 20
0
 30
0
210
0
220
0
230
1
  2
sand
 70
    0
 71
    0
 91
    1
 92
    0
 93
    8
 72
    1
 10
32.2
 20
0
 11
32.2
 21
11.2
 72
    1
 10
32.2
 20
11.2
 11
0
 21
11.2
 72
    1
 10
0
 20
11.2
 11
0
 21
0
 72
    1
 10
0
 20
0
 11
6.8
 21
0
 72
    1
 10
6.8
 20
0
 11
9.5
 21
1.3
 72
    1
 10
9.5
 20
1.3
 11
25.5
 21
1.3
 72
    1
 10
25.5
 20
1.3
 11
28
 21
0
 72
    1
 10
28
 20
0
 11
32.2
 21
0
 97
    0
 75
    0
 76
    1
 52
0
 41
0.1
 77
    0
 78
    0
 98
    0
  0
HATCH
  5
194
100
AcDbEntity
  8
Wege Hauptwege
  6
ByLayer
 62
  256
370
   -1
100
AcDbHatch
 10
0
 20
0
 30
0
210
0
220
0
230
1
  2
SOLID
 70
    1
 71
    0
 91
    1
 92
    0
 93
    4
 72
    1
 10
0
 20
8.1
 11
20.1
 21
8.1
 72
    1
 10
20.1
 20
8.1
 11
20.1
 21
8.800000000000001
 72
    1
 10
20.1
 20
8.800000000000001
 11
0
 21
8.800000000000001
 72
    1
 10
0
 20
8.800000000000001
 11
0
 21
8.1
 97
    0
 75
    0
 76
    1
 98
    0
  0
HATCH
  5
195
100
AcDbEntity
  8
Wege Hauptwege
  6
ByLayer
 62
  256
370
   -1
100
AcDbHatch
 10
0
 20
0
 30
0
210
0
220
0
230
1
  2
SOLID
 70
    1
 71
    0
 91
    1
 92
    0
 93
    4
 72
    1
 10
20.9
 20
6.9
 11
32.2
 21
6.9
 72
    1
 10
32.2
 20
6.9
 11
32.2
 21
7.600000000000001
 72
    1
 10
32.2
 20
7.600000000000001
 11
20.9
 21
7.600000000000001
 72
    1
 10
20.9
 20
7.600000000000001
 11
20.9
 21
6.9
 97
    0
 75
    0
 76
    1
 98
    0
  0
HATCH
  5
196
100
AcDbEntity
  8
Wege Hauptwege
  6
ByLayer
 62
  256
370
   -1
100
AcDbHatch
 10
0
 20
0
 30
0
210
0
220
0
230
1
  2
SOLID
 70
    1
 71
    0
 91
    1
 92
    0
 93
    4
 72
    1
 10
4.9
 20
0
 11
5.600000000000001
 21
0
 72
    1
 10
5.600000000000001
 20
0
 11
5.600000000000001
 21
3.9
 72
    1
 10
5.600000000000001
 20
3.9
 11
4.9
 21
3.9
 72
    1
 10
4.9
 20
3.9
 11
4.9
 21
0
 97
    0
 75
    0
 76
    1
 98
    0
  0
HATCH
  5
197
100
AcDbEntity
  8
Wege Hauptwege
  6
ByLayer
 62
  256
370
   -1
100
AcDbHatch
 10
0
 20
0
 30
0
210
0
220
0
230
1
  2
SOLID
 70
    1
 71
    0
 91
    1
 92
    0
 93
    3
 72
    1
 10
6.9
 20
0
 11
6.9
 21
3.9
 72
    1
 10
6.9
 20
3.9
 11
7.600000000000001
 21
3.9
 72
    1
 10
7.600000000000001
 20
3.9
 11
7.600000000000001
 21
0.3851851851851852
 97
    0
 75
    0
 76
    1
 98
    0
  0
HATCH
  5
198
100
AcDbEntity
  8
Wege Hauptwege
  6
ByLayer
 62
  256
370
   -1
100
AcDbHatch
 10
0
 20
0
 30
0
210
0
220
0
230
1
  2
SOLID
 70
    1
 71
    0
 91
    1
 92
    0
 93
    4
 72
    1
 10
10.9
 20
1.3
 11
11.7
 21
1.3
 72
    1
 10
11.7
 20
1.3
 11
11.7
 21
3.9
 72
    1
 10
11.7
 20
3.9
 11
10.9
 21
3.9
 72
    1
 10
10.9
 20
3.9
 11
10.9
 21
1.3
 97
    0
 75
    0
 76
    1
 98
    0
  0
HATCH
  5
199
100
AcDbEntity
  8
Wege Hauptwege
  6
ByLayer
 62
  256
370
   -1
100
AcDbHatch
 10
0
 20
0
 30
0
210
0
220
0
230
1
  2
SOLID
 70
    1
 71
    0
 91
    1
 92
    0
 93
    4
 72
    1
 10
15.1
 20
1.3
 11
15.8
 21
1.3
 72
    1
 10
15.8
 20
1.3
 11
15.8
 21
3.9
 72
    1
 10
15.8
 20
3.9
 11
15.1
 21
3.9
 72
    1
 10
15.1
 20
3.9
 11
15.1
 21
1.3
 97
    0
 75
    0
 76
    1
 98
    0
  0
HATCH
  5
19A
100
AcDbEntity
  8
Wege Hauptwege
  6
ByLayer
 62
  256
370
   -1
100
AcDbHatch
 10
0
 20
0
 30
0
210
0
220
0
230
1
  2
SOLID
 70
    1
 71
    0
 91
    1
 92
    0
 93
    4
 72
    1
 10
26.1
 20
1.3
 11
26.9
 21
1.3
 72
    1
 10
26.9
 20
1.3
 11
26.9
 21
3.9
 72
    1
 10
26.9
 20
3.9
 11
26.1
 21
3.9
 72
    1
 10
26.1
 20
3.9
 11
26.1
 21
1.3
 97
    0
 75
    0
 76
    1
 98
    0
  0
HATCH
  5
19B
100
AcDbEntity
  8
Wege Hauptwege
  6
ByLayer
 62
  256
370
   -1
100
AcDbHatch
 10
0
 20
0
 30
0
210
0
220
0
230
1
  2
SOLID
 70
    1
 71
    0
 91
    1
 92
    0
 93
    4
 72
    1
 10
5.600000000000001
 20
5.3
 11
6.3
 21
5.3
 72
    1
 10
6.3
 20
5.3
 11
6.3
 21
11.2
 72
    1
 10
6.3
 20
11.2
 11
5.600000000000001
 21
11.2
 72
    1
 10
5.600000000000001
 20
11.2
 11
5.600000000000001
 21
5.3
 97
    0
 75
    0
 76
    1
 98
    0
  0
HATCH
  5
19C
100
AcDbEntity
  8
Wege Hauptwege
  6
ByLayer
 62
  256
370
   -1
100
AcDbHatch
 10
0
 20
0
 30
0
210
0
220
0
230
1
  2
SOLID
 70
    1
 71
    0
 91
    1
 92
    0
 93
    4
 72
    1
 10
9.1
 20
5.3
 11
9.700000000000001
 21
5.3
 72
    1
 10
9.700000000000001
 20
5.3
 11
9.700000000000001
 21
11.2
 72
    1
 10
9.700000000000001
 20
11.2
 11
9.1
 21
11.2
 72
    1
 10
9.1
 20
11.2
 11
9.1
 21
5.3
 97
    0
 75
    0
 76
    1
 98
    0
  0
HATCH
  5
19D
100
AcDbEntity
  8
Wege Hauptwege
  6
ByLayer
 62
  256
370
   -1
100
AcDbHatch
 10
0
 20
0
 30
0
210
0
220
0
230
1
  2
SOLID
 70
    1
 71
    0
 91
    1
 92
    0
 93
    4
 72
    1
 10
0
 20
3.9
 11
32.2
 21
3.9
 72
    1
 10
32.2
 20
3.9
 11
32.2
 21
5.3
 72
    1
 10
32.2
 20
5.3
 11
0
 21
5.3
 72
    1
 10
0
 20
5.3
 11
0
 21
3.9
 97
    0
 75
    0
 76
    1
 98
    0
  0
HATCH
  5
19E
100
AcDbEntity
  8
Wege Hauptwege
  6
ByLayer
 62
  256
370
   -1
100
AcDbHatch
 10
0
 20
0
 30
0
210
0
220
0
230
1
  2
SOLID
 70
    1
 71
    0
 91
    1
 92
    0
 93
    4
 72
    1
 10
20.1
 20
0
 11
20.9
 21
0
 72
    1
 10
20.9
 20
0
 11
20.9
 21
11.2
 72
    1
 10
20.9
 20
11.2
 11
20.1
 21
11.2
 72
    1
 10
20.1
 20
11.2
 11
20.1
 21
0
 97
    0
 75
    0
 76
    1
 98
    0
  0
HATCH
  5
19F
100
AcDbEntity
  8
Wege Hauptwege
  6
ByLayer
 62
  256
370
   -1
100
AcDbHatch
 10
0
 20
0
 30
0
210
0
220
0
230
1
  2
SOLID
 70
    1
 71
    0
 91
    1
 92
    0
 93
    4
 72
    1
 10
24.35
 20
5.3
 11
25.15
 21
5.3
 72
    1
 10
25.15
 20
5.3
 11
25.15
 21
11.2
 72
    1
 10
25.15
 20
11.2
 11
24.35
 21
11.2
 72
    1
 10
24.35
 20
11.2
 11
24.35
 21
5.3
 97
    0
 75
    0
 76
    1
 98
    0
  0
HATCH
  5
1A0
100
AcDbEntity
  8
Wege Hauptwege
  6
ByLayer
 62
  256
370
   -1
100
AcDbHatch
 10
0
 20
0
 30
0
210
0
220
0
230
1
  2
SOLID
 70
    1
 71
    0
 91
    1
 92
    0
 93
    4
 72
    1
 10
27.75
 20
5.3
 11
28.4
 21
5.3
 72
    1
 10
28.4
 20
5.3
 11
28.4
 21
11.2
 72
    1
 10
28.4
 20
11.2
 11
27.75
 21
11.2
 72
    1
 10
27.75
 20
11.2
 11
27.75
 21
5.3
 97
    0
 75
    0
 76
    1
 98
    0
  0
LWPOLYLINE
  5
1A1
100
AcDbEntity
  8
Acker
  6
ByLayer
 62
  256
370
   -1
100
AcDbPolyline
 90
    8
 70
    1
 43
0
 10
25.5
 20
1.3
 10
28
 20
0
 10
32.2
 20
0
 10
32.2
 20
11.2
 10
0
 20
11.2
 10
0
 20
0
 10
6.8
 20
0
 10
9.5
 20
1.3
  0
DIMENSION
  5
1A2
100
AcDbEntity
  8
Bemaßung Acker
  6
ByLayer
 62
  256
370
   -1
100
AcDbDimension
  2
*D1
 10
32.2
 20
12
 30
0
 11
16.1
 21
12.225
 31
0
 70
   32
 71
    5
 72
    0
  3
Standard
 53
0
210
0
220
0
230
1
100
AcDbAlignedDimension
 13
0
 23
11.2
 33
0
 14
32.2
 24
11.2
 34
0
100
AcDbRotatedDimension
  0
DIMENSION
  5
1A3
100
AcDbEntity
  8
Bemaßung Acker
  6
ByLayer
 62
  256
370
   -1
100
AcDbDimension
  2
*D2
 10
6.8
 20
-1
 30
0
 11
3.4
 21
-0.775
 31
0
 70
   32
 71
    5
 72
    0
  3
Standard
 53
0
210
0
220
0
230
1
100
AcDbAlignedDimension
 13
0
 23
0
 33
0
 14
6.8
 24
0
 34
0
100
AcDbRotatedDimension
  0
DIMENSION
  5
1A4
100
AcDbEntity
  8
Bemaßung Acker
  6
ByLayer
 62
  256
370
   -1
100
AcDbDimension
  2
*D3
 10
9.5
 20
-2
 30
0
 11
4.75
 21
-1.775
 31
0
 70
   32
 71
    5
 72
    0
  3
Standard
 53
0
210
0
220
0
230
1
100
AcDbAlignedDimension
 13
0
 23
0
 33
0
 14
9.5
 24
1.3
 34
0
100
AcDbRotatedDimension
  0
DIMENSION
  5
1A5
100
AcDbEntity
  8
Bemaßung Acker
  6
ByLayer
 62
  256
370
   -1
100
AcDbDimension
  2
*D4
 10
25.5
 20
-3
 30
0
 11
12.75
 21
-2.775
 31
0
 70
   32
 71
    5
 72
    0
  3
Standard
 53
0
210
0
220
0
230
1
100
AcDbAlignedDimension
 13
0
 23
0
 33
0
 14
25.5
 24
1.3
 34
0
100
AcDbRotatedDimension
  0
DIMENSION
  5
1A6
100
AcDbEntity
  8
Bemaßung Acker
  6
ByLayer
 62
  256
370
   -1
100
AcDbDimension
  2
*D5
 10
28
 20
-4
 30
0
 11
14
 21
-3.775
 31
0
 70
   32
 71
    5
 72
    0
  3
Standard
 53
0
210
0
220
0
230
1
100
AcDbAlignedDimension
 13
0
 23
0
 33
0
 14
28
 24
0
 34
0
100
AcDbRotatedDimension
  0
DIMENSION
  5
1A7
100
AcDbEntity
  8
Bemaßung Acker
  6
ByLayer
 62
  256
370
   -1
100
AcDbDimension
  2
*D6
 10
32.2
 20
-5.161041119290518
 30
0
 11
16.1
 21
-4.936041119290518
 31
0
 70
   32
 71
    5
 72
    0
  3
Standard
 53
0
210
0
220
0
230
1
100
AcDbAlignedDimension
 13
0
 23
0
 33
0
 14
32.2
 24
0
 34
0
100
AcDbRotatedDimension
  0
DIMENSION
  5
1A8
100
AcDbEntity
  8
Bemaßung Acker
  6
ByLayer
 62
  256
370
   -1
100
AcDbDimension
  2
*D7
 10
-2
 20
11.2
 30
0
 11
-2.225000000000001
 21
5.600000000000001
 31
0
 70
   32
 71
    5
 72
    0
  3
Standard
 53
0
210
0
220
0
230
1
100
AcDbAlignedDimension
 13
0
 23
0
 33
0
 14
0
 24
11.2
 34
0
 50
90
100
AcDbRotatedDimension
  0
LINE
  5
1A9
100
AcDbEntity
  8
Wege Hauptwege
  6
ByLayer
 62
  256
370
   -1
100
AcDbLine
 10
0
 20
0.39
 11
0.01
 21
0.39
  0
LINE
  5
1AA
100
AcDbEntity
  8
Wege Hauptwege
  6
ByLayer
 62
  256
370
   -1
100
AcDbLine
 10
32
 20
0.39
 11
32.01
 21
0.39
  0
LWPOLYLINE
  5
1AB
100
AcDbEntity
  8
Wege Hauptwege
  6
ByLayer
 62
  256
370
   -1
100
AcDbPolyline
 90
    4
 70
    1
 43
0
 10
0
 20
3.9
 10
32.2
 20
3.9
 10
32.2
 20
5.3
 10
0
 20
5.3
  0
LWPOLYLINE
  5
1AC
100
AcDbEntity
  8
Wege Hauptwege
  6
ByLayer
 62
  256
370
   -1
100
AcDbPolyline
 90
    4
 70
    1
 43
0
 10
20.1
 20
0
 10
20.9
 20
0
 10
20.9
 20
11.2
 10
20.1
 20
11.2
  0
LWPOLYLINE
  5
1AD
100
AcDbEntity
  8
Wege Hauptwege
  6
ByLayer
 62
  256
370
   -1
100
AcDbPolyline
 90
    4
 70
    1
 43
0
 10
0
 20
8.1
 10
20.1
 20
8.1
 10
20.1
 20
8.800000000000001
 10
0
 20
8.800000000000001
  0
LWPOLYLINE
  5
1AE
100
AcDbEntity
  8
Wege Hauptwege
  6
ByLayer
 62
  256
370
   -1
100
AcDbPolyline
 90
    4
 70
    1
 43
0
 10
20.9
 20
6.9
 10
32.2
 20
6.9
 10
32.2
 20
7.600000000000001
 10
20.9
 20
7.600000000000001
  0
LWPOLYLINE
  5
1AF
100
AcDbEntity
  8
Wege Hauptwege
  6
ByLayer
 62
  256
370
   -1
100
AcDbPolyline
 90
    4
 70
    1
 43
0
 10
4.9
 20
0
 10
5.600000000000001
 20
0
 10
5.600000000000001
 20
3.9
 10
4.9
 20
3.9
  0
LWPOLYLINE
  5
1B0
100
AcDbEntity
  8
Wege Hauptwege
  6
ByLayer
 62
  256
370
   -1
100
AcDbPolyline
 90
    4
 70
    0
 43
0
 10
6.9
 20
0
 10
6.9
 20
3.9
 10
7.600000000000001
 20
3.9
 10
7.600000000000001
 20
0.3851851851851852
  0
LINE
  5
1B1
100
AcDbEntity
  8
Wege Hauptwege
  6
ByLayer
 62
  256
370
   -1
100
AcDbLine
 10
7.600000000000001
 20
0.3851851851851852
 11
6.9
 21
0
  0
DIMENSION
  5
1B2
100
AcDbEntity
  8
Bemaßung Acker
  6
ByLayer
 62
  256
370
   -1
100
AcDbDimension
  2
*D8
 10
-1
 20
1.3
 30
0
 11
-1.225
 21
0.6500000000000004
 31
0
 70
   32
 71
    5
 72
    0
  3
Standard
 53
0
210
0
220
0
230
1
100
AcDbAlignedDimension
 13
0
 23
0
 33
0
 14
9.5
 24
1.3
 34
0
 50
90
100
AcDbRotatedDimension
  0
LWPOLYLINE
  5
1B3
100
AcDbEntity
  8
Wege Hauptwege
  6
ByLayer
 62
  256
370
   -1
100
AcDbPolyline
 90
    4
 70
    1
 43
0
 10
10.9
 20
1.3
 10
11.7
 20
1.3
 10
11.7
 20
3.9
 10
10.9
 20
3.9
  0
LWPOLYLINE
  5
1B4
100
AcDbEntity
  8
Wege Hauptwege
  6
ByLayer
 62
  256
370
   -1
100
AcDbPolyline
 90
    4
 70
    1
 43
0
 10
15.1
 20
1.3
 10
15.8
 20
1.3
 10
15.8
 20
3.9
 10
15.1
 20
3.9
  0
LWPOLYLINE
  5
1B5
100
AcDbEntity
  8
Wege Hauptwege
  6
ByLayer
 62
  256
370
   -1
100
AcDbPolyline
 90
    4
 70
    1
 43
0
 10
26.1
 20
1.3
 10
26.9
 20
1.3
 10
26.9
 20
3.9
 10
26.1
 20
3.9
  0
LWPOLYLINE
  5
1B6
100
AcDbEntity
  8
Wege Hauptwege
  6
ByLayer
 62
  256
370
   -1
100
AcDbPolyline
 90
    4
 70
    1
 43
0
 10
5.600000000000001
 20
5.3
 10
6.3
 20
5.3
 10
6.3
 20
11.2
 10
5.600000000000001
 20
11.2
  0
LWPOLYLINE
  5
1B7
100
AcDbEntity
  8
Wege Hauptwege
  6
ByLayer
 62
  256
370
   -1
100
AcDbPolyline
 90
    4
 70
    1
 43
0
 10
9.1
 20
5.3
 10
9.700000000000001
 20
5.3
 10
9.700000000000001
 20
11.2
 10
9.1
 20
11.2
  0
LWPOLYLINE
  5
1B8
100
AcDbEntity
  8
Wege Hauptwege
  6
ByLayer
 62
  256
370
   -1
100
AcDbPolyline
 90
    4
 70
    1
 43
0
 10
24.35
 20
5.3
 10
25.15
 20
5.3
 10
25.15
 20
11.2
 10
24.35
 20
11.2
  0
LWPOLYLINE
  5
1B9
100
AcDbEntity
  8
Wege Hauptwege
  6
ByLayer
 62
  256
370
   -1
100
AcDbPolyline
 90
    4
 70
    1
 43
0
 10
27.75
 20
5.3
 10
28.4
 20
5.3
 10
28.4
 20
11.2
 10
27.75
 20
11.2
  0
DIMENSION
  5
1BA
100
AcDbEntity
  8
Bemaßung Wege Hauptwege
  6
ByLayer
 62
  256
370
   -1
100
AcDbDimension
  2
*D9
 10
-1
 20
3.9
 30
0
 11
-1.225
 21
1.95
 31
0
 70
   32
 71
    5
  3
Standard
 53
0
210
0
220
0
230
1
100
AcDbAlignedDimension
 13
0
 23
0
 33
0
 14
0
 24
3.9
 34
0
 50
90
100
AcDbRotatedDimension
  0
DIMENSION
  5
1BB
100
AcDbEntity
  8
Bemaßung Wege Hauptwege
  6
ByLayer
 62
  256
370
   -1
100
AcDbDimension
  2
*D10
 10
-2
 20
5.3
 30
0
 11
-2.225
 21
2.65
 31
0
 70
   32
 71
    5
  3
Standard
 53
0
210
0
220
0
230
1
100
AcDbAlignedDimension
 13
0
 23
0
 33
0
 14
0
 24
5.3
 34
0
 50
90
100
AcDbRotatedDimension
  0
DIMENSION
  5
1BC
100
AcDbEntity
  8
Bemaßung Wege Hauptwege
  6
ByLayer
 62
  256
370
   -1
100
AcDbDimension
  2
*D11
 10
-3
 20
8.1
 30
0
 11
-3.225
 21
4.05
 31
0
 70
   32
 71
    5
  3
Standard
 53
0
210
0
220
0
230
1
100
AcDbAlignedDimension
 13
0
 23
0
 33
0
 14
0
 24
8.1
 34
0
 50
90
100
AcDbRotatedDimension
  0
DIMENSION
  5
1BD
100
AcDbEntity
  8
Bemaßung Wege Hauptwege
  6
ByLayer
 62
  256
370
   -1
100
AcDbDimension
  2
*D12
 10
-4
 20
8.800000000000001
 30
0
 11
-4.225
 21
4.350690689943084
 31
0
 70
   32
 71
    5
  3
Standard
 53
0
210
0
220
0
230
1
100
AcDbAlignedDimension
 13
-0.03287287337127751
 23
-0.09861862011383252
 33
0
 14
0
 24
8.800000000000001
 34
0
 50
90
100
AcDbRotatedDimension
  0
DIMENSION
  5
1BE
100
AcDbEntity
  8
Bemaßung Wege Hauptwege
  6
ByLayer
 62
  256
370
   -1
100
AcDbDimension
  2
*D13
 10
-5.128168245919292
 20
11.2
 30
0
 11
-5.353168245919292
 21
5.600000000000001
 31
0
 70
   32
 71
    5
  3
Standard
 53
0
210
0
220
0
230
1
100
AcDbAlignedDimension
 13
0
 23
0
 33
0
 14
0
 24
11.2
 34
0
 50
90
100
AcDbRotatedDimension
  0
DIMENSION
  5
1BF
100
AcDbEntity
  8
Bemaßung Wege Hauptwege
  6
ByLayer
 62
  256
370
   -1
100
AcDbDimension
  2
*D14
 10
4.9
 20
-1
 30
0
 11
2.433563563314361
 21
-0.775
 31
0
 70
   32
 71
    5
  3
Standard
 53
0
210
0
220
0
230
1
100
AcDbAlignedDimension
 13
-0.03287287337127751
 23
-0.03287287337127751
 33
0
 14
4.9
 24
0
 34
0
100
AcDbRotatedDimension
  0
DIMENSION
  5
1C0
100
AcDbEntity
  8
Bemaßung Wege Hauptwege
  6
ByLayer
 62
  256
370
   -1
100
AcDbDimension
  2
*D15
 10
5.600000000000001
 20
-2
 30
0
 11
2.800000000000001
 21
-1.775
 31
0
 70
   32
 71
    5
  3
Standard
 53
0
210
0
220
0
230
1
100
AcDbAlignedDimension
 13
0
 23
0
 33
0
 14
5.600000000000001
 24
0
 34
0
100
AcDbRotatedDimension
  0
DIMENSION
  5
1C1
100
AcDbEntity
  8
Bemaßung Wege Hauptwege
  6
ByLayer
 62
  256
370
   -1
100
AcDbDimension
  2
*D16
 10
6.9
 20
-3
 30
0
 11
3.45
 21
-2.775
 31
0
 70
   32
 71
    5
  3
Standard
 53
0
210
0
220
0
230
1
100
AcDbAlignedDimension
 13
0
 23
0
 33
0
 14
6.9
 24
3.637978807091713e-017
 34
0
100
AcDbRotatedDimension
  0
DIMENSION
  5
1C2
100
AcDbEntity
  8
Bemaßung Wege Hauptwege
  6
ByLayer
 62
  256
370
   -1
100
AcDbDimension
  2
*D17
 10
7.600000000000001
 20
-4
 30
0
 11
3.800000000000001
 21
-3.775
 31
0
 70
   32
 71
    5
  3
Standard
 53
0
210
0
220
0
230
1
100
AcDbAlignedDimension
 13
0
 23
0
 33
0
 14
7.600000000000001
 24
0.3851851851851852
 34
0
100
AcDbRotatedDimension
  0
DIMENSION
  5
1C3
100
AcDbEntity
  8
Bemaßung Wege Hauptwege
  6
ByLayer
 62
  256
370
   -1
100
AcDbDimension
  2
*D18
 10
10.9
 20
-5
 30
0
 11
5.45
 21
-4.775
 31
0
 70
   32
 71
    5
  3
Standard
 53
0
210
0
220
0
230
1
100
AcDbAlignedDimension
 13
0
 23
-0.03459914278640364
 33
0
 14
10.9
 24
1.3
 34
0
100
AcDbRotatedDimension
  0
DIMENSION
  5
1C4
100
AcDbEntity
  8
Bemaßung Wege Hauptwege
  6
ByLayer
 62
  256
370
   -1
100
AcDbDimension
  2
*D19
 10
11.7
 20
-6
 30
0
 11
5.850000000000001
 21
-5.775
 31
0
 70
   32
 71
    5
  3
Standard
 53
0
210
0
220
0
230
1
100
AcDbAlignedDimension
 13
0
 23
0
 33
0
 14
11.7
 24
1.3
 34
0
100
AcDbRotatedDimension
  0
DIMENSION
  5
1C5
100
AcDbEntity
  8
Bemaßung Wege Hauptwege
  6
ByLayer
 62
  256
370
   -1
100
AcDbDimension
  2
*D20
 10
15.1
 20
-7
 30
0
 11
7.567299571393201
 21
-6.775
 31
0
 70
   32
 71
    5
  3
Standard
 53
0
210
0
220
0
230
1
100
AcDbAlignedDimension
 13
0.03459914278640365
 23
-0.05189871417960547
 33
0
 14
15.1
 24
1.3
 34
0
100
AcDbRotatedDimension
  0
DIMENSION
  5
1C6
100
AcDbEntity
  8
Bemaßung Wege Hauptwege
  6
ByLayer
 62
  256
370
   -1
100
AcDbDimension
  2
*D21
 10
15.8
 20
-8
 30
0
 11
7.9
 21
-7.775
 31
0
 70
   32
 71
    5
  3
Standard
 53
0
210
0
220
0
230
1
100
AcDbAlignedDimension
 13
0
 23
0
 33
0
 14
15.8
 24
1.3
 34
0
100
AcDbRotatedDimension
  0
DIMENSION
  5
1C7
100
AcDbEntity
  8
Bemaßung Wege Hauptwege
  6
ByLayer
 62
  256
370
   -1
100
AcDbDimension
  2
*D22
 10
20.1
 20
-9
 30
0
 11
10.05
 21
-8.775
 31
0
 70
   32
 71
    5
  3
Standard
 53
0
210
0
220
0
230
1
100
AcDbAlignedDimension
 13
0
 23
0
 33
0
 14
20.1
 24
0
 34
0
100
AcDbRotatedDimension
  0
DIMENSION
  5
1C8
100
AcDbEntity
  8
Bemaßung Wege Hauptwege
  6
ByLayer
 62
  256
370
   -1
100
AcDbDimension
  2
*D23
 10
20.9
 20
-10
 30
0
 11
10.45
 21
-9.775
 31
0
 70
   32
 71
    5
  3
Standard
 53
0
210
0
220
0
230
1
100
AcDbAlignedDimension
 13
0
 23
-0.06574574674255522
 33
0
 14
20.9
 24
0
 34
0
100
AcDbRotatedDimension
  0
DIMENSION
  5
1C9
100
AcDbEntity
  8
Bemaßung Wege Hauptwege
  6
ByLayer
 62
  256
370
   -1
100
AcDbDimension
  2
*D24
 10
26.1
 20
-11
 30
0
 11
13.05
 21
-10.775
 31
0
 70
   32
 71
    5
  3
Standard
 53
0
210
0
220
0
230
1
100
AcDbAlignedDimension
 13
0
 23
0
 33
0
 14
26.1
 24
1.3
 34
0
100
AcDbRotatedDimension
  0
DIMENSION
  5
1CA
100
AcDbEntity
  8
Bemaßung Wege Hauptwege
  6
ByLayer
 62
  256
370
   -1
100
AcDbDimension
  2
*D25
 10
26.9
 20
-12
 30
0
 11
13.45
 21
-11.775
 31
0
 70
   32
 71
    5
  3
Standard
 53
0
210
0
220
0
230
1
100
AcDbAlignedDimension
 13
0
 23
0
 33
0
 14
26.9
 24
1.3
 34
0
100
AcDbRotatedDimension
  0
DIMENSION
  5
1CB
100
AcDbEntity
  8
Bemaßung Wege Hauptwege
  6
ByLayer
 62
  256
370
   -1
100
AcDbDimension
  2
*D26
 10
5.600000000000001
 20
12
 30
0
 11
2.800000000000001
 21
12.225
 31
0
 70
   32
 71
    5
  3
Standard
 53
0
210
0
220
0
230
1
100
AcDbAlignedDimension
 13
0
 23
-0.08673581364453196
 33
0
 14
5.600000000000001
 24
11.2
 34
0
100
AcDbRotatedDimension
  0
DIMENSION
  5
1CC
100
AcDbEntity
  8
Bemaßung Wege Hauptwege
  6
ByLayer
 62
  256
370
   -1
100
AcDbDimension
  2
*D27
 10
6.3
 20
13
 30
0
 11
3.15
 21
13.225
 31
0
 70
   32
 71
    5
  3
Standard
 53
0
210
0
220
0
230
1
100
AcDbAlignedDimension
 13
3.834528908731884e-018
 23
0
 33
0
 14
6.3
 24
11.2
 34
0
100
AcDbRotatedDimension
  0
DIMENSION
  5
1CD
100
AcDbEntity
  8
Bemaßung Wege Hauptwege
  6
ByLayer
 62
  256
370
   -1
100
AcDbDimension
  2
*D28
 10
9.1
 20
14
 30
0
 11
4.55
 21
14.225
 31
0
 70
   32
 71
    5
  3
Standard
 53
0
210
0
220
0
230
1
100
AcDbAlignedDimension
 13
0
 23
0
 33
0
 14
9.1
 24
11.2
 34
0
100
AcDbRotatedDimension
  0
DIMENSION
  5
1CE
100
AcDbEntity
  8
Bemaßung Wege Hauptwege
  6
ByLayer
 62
  256
370
   -1
100
AcDbDimension
  2
*D29
 10
9.700000000000001
 20
15
 30
0
 11
4.878911937881512
 21
15.225
 31
0
 70
   32
 71
    5
  3
Standard
 53
0
210
0
220
0
230
1
100
AcDbAlignedDimension
 13
0.05782387576302132
 23
-0.08673581364453196
 33
0
 14
9.700000000000001
 24
11.2
 34
0
100
AcDbRotatedDimension
  0
DIMENSION
  5
1CF
100
AcDbEntity
  8
Bemaßung Wege Hauptwege
  6
ByLayer
 62
  256
370
   -1
100
AcDbDimension
  2
*D30
 10
20.12417316546534
 20
16
 30
0
 11
10.09099852061418
 21
16.225
 31
0
 70
   32
 71
    5
  3
Standard
 53
0
210
0
220
0
230
1
100
AcDbAlignedDimension
 13
0.05782387576302132
 23
-0.1156477515260426
 33
0
 14
20.12417316546534
 24
11.2
 34
0
100
AcDbRotatedDimension
  0
DIMENSION
  5
1D0
100
AcDbEntity
  8
Bemaßung Wege Hauptwege
  6
ByLayer
 62
  256
370
   -1
100
AcDbDimension
  2
*D31
 10
20.9
 20
17
 30
0
 11
10.45
 21
17.225
 31
0
 70
   32
 71
    5
  3
Standard
 53
0
210
0
220
0
230
1
100
AcDbAlignedDimension
 13
3.834528908731884e-018
 23
0
 33
0
 14
20.9
 24
11.2
 34
0
100
AcDbRotatedDimension
  0
DIMENSION
  5
1D1
100
AcDbEntity
  8
Bemaßung Wege Hauptwege
  6
ByLayer
 62
  256
370
   -1
100
AcDbDimension
  2
*D32
 10
24.35
 20
18
 30
0
 11
12.175
 21
18.225
 31
0
 70
   32
 71
    5
  3
Standard
 53
0
210
0
220
0
230
1
100
AcDbAlignedDimension
 13
0
 23
-0.08499406327062643
 33
0
 14
24.35
 24
11.2
 34
0
100
AcDbRotatedDimension
  0
DIMENSION
  5
1D2
100
AcDbEntity
  8
Bemaßung Wege Hauptwege
  6
ByLayer
 62
  256
370
   -1
100
AcDbDimension
  2
*D33
 10
25.15
 20
19
 30
0
 11
12.59624851581766
 21
19.225
 31
0
 70
   32
 71
    5
  3
Standard
 53
0
210
0
220
0
230
1
100
AcDbAlignedDimension
 13
0.04249703163531322
 23
-0.2549821898118793
 33
0
 14
25.15
 24
11.2
 34
0
100
AcDbRotatedDimension
  0
DIMENSION
  5
1D3
100
AcDbEntity
  8
Bemaßung Wege Hauptwege
  6
ByLayer
 62
  256
370
   -1
100
AcDbDimension
  2
*D34
 10
27.75
 20
20
 30
0
 11
13.89624851581766
 21
20.225
 31
0
 70
   32
 71
    5
  3
Standard
 53
0
210
0
220
0
230
1
100
AcDbAlignedDimension
 13
0.04249703163531327
 23
0
 33
0
 14
27.75
 24
11.2
 34
0
100
AcDbRotatedDimension
  0
DIMENSION
  5
1D4
100
AcDbEntity
  8
Bemaßung Wege Hauptwege
  6
ByLayer
 62
  256
370
   -1
100
AcDbDimension
  2
*D35
 10
28.4
 20
21
 30
0
 11
14.2
 21
21.225
 31
0
 70
   32
 71
    5
  3
Standard
 53
0
210
0
220
0
230
1
100
AcDbAlignedDimension
 13
0
 23
0
 33
0
 14
28.4
 24
11.2
 34
0
100
AcDbRotatedDimension
  0
LWPOLYLINE
  5
1D5
100
AcDbEntity
  8
Beete
  6
ByLayer
 62
  256
370
   -1
100
AcDbPolyline
 90
    4
 70
    1
 43
0
 10
0
 20
0
 10
4.9
 20
0
 10
4.9
 20
3.9
 10
0
 20
3.9
  0
LINE
  5
1D6
100
AcDbEntity
  8
Hilfslinien
  6
ByLayer
 62
  256
370
   -1
100
AcDbLine
 10
0
 20
0
 11
4.9
 21
3.9
  0
LINE
  5
1D7
100
AcDbEntity
  8
Hilfslinien
  6
ByLayer
 62
  256
370
   -1
100
AcDbLine
 10
0
 20
3.9
 11
4.9
 21
0
  0
MTEXT
  5
1D8
100
AcDbEntity
  8
Beete
  6
ByLayer
 62
  256
370
   -1
100
AcDbMText
 10
2.45
 20
1.95
 30
0
 40
1
 41
3.305555555555602
 71
    5
 72
    1
  1
19 m²
  7
standard
210
0
220
0
230
1
 50
0
 73
    2
 44
1
  0
ENDSEC
  0
SECTION
  2
OBJECTS
  0
DICTIONARY
  5
C
330
0
100
AcDbDictionary
281
    1
  3
ACAD_GROUP
350
D
  0
DICTIONARY
  5
D
330
C
100
AcDbDictionary
281
    1
  0
PLOTSETTINGS
  5
1D9
100
AcDbPlotSettings
  6
1x1
 40
0
 41
0
 42
0
 43
0
  0
ENDSEC
  0
EOF
