999
dxfrw 0.6.3
  0
SECTION
  2
HEADER
  9
$ACADVER
  1
AC1021
  9
$DWGCODEPAGE
  3
ANSI_1252
  9
$INSBASE
 10
0
 20
0
 30
0
  9
$EXTMIN
 10
16.48951326709912
 20
-203.2296382273433
 30
0
  9
$EXTMAX
 10
603.6595726477155
 20
387.1450940971097
 30
0
  9
$LIMMIN
 10
0
 20
0
  9
$LIMMAX
 10
420
 20
297
  9
$ORTHOMODE
 70
    0
  9
$REGENMODE
 70
    1
  9
$FILLMODE
 70
    1
  9
$QTEXTMODE
 70
    0
  9
$MIRRTEXT
 70
    0
  9
$LTSCALE
 40
1
  9
$ATTMODE
 70
    0
  9
$TEXTSIZE
 40
2.5
  9
$TRACEWID
 40
15.68
  9
$TEXTSTYLE
  7
STANDARD
  9
$CLAYER
  8
Text and Dimensions
  9
$CELTYPE
  6
BYLAYER
  9
$CECOLOR
 62
  256
  9
$CELTSCALE
 40
1
  9
$DISPSILH
 70
    0
  9
$DIMSCALE
 40
2.5
  9
$DIMASZ
 40
2.5
  9
$DIMEXO
 40
0.625
  9
$DIMDLI
 40
3.75
  9
$DIMRND
 40
0
  9
$DIMDLE
 40
0
  9
$DIMEXE
 40
1.25
  9
$DIMTP
 40
0
  9
$DIMTM
 40
0
  9
$DIMTXT
 40
2.5
  9
$DIMCEN
 40
2.5
  9
$DIMTSZ
 40
0
  9
$DIMTOL
 70
    0
  9
$DIMLIM
 70
    0
  9
$DIMTIH
 70
    0
  9
$DIMTOH
 70
    0
  9
$DIMSE1
 70
    0
  9
$DIMSE2
 70
    0
  9
$DIMTAD
 70
    1
  9
$DIMZIN
 70
    8
  9
$DIMBLK
  1

  9
$DIMASO
 70
    1
  9
$DIMSHO
 70
    1
  9
$DIMPOST
  1

  9
$DIMAPOST
  1

  9
$DIMALT
 70
    0
  9
$DIMALTD
 70
    3
  9
$DIMALTF
 40
0.03937
  9
$DIMLFAC
 40
1
  9
$DIMTOFL
 70
    1
  9
$DIMTVP
 40
0
  9
$DIMTIX
 70
    0
  9
$DIMSOXD
 70
    0
  9
$DIMSAH
 70
    0
  9
$DIMBLK1
  1

  9
$DIMBLK2
  1

  9
$DIMSTYLE
  2
STANDARD
  9
$DIMCLRD
 70
    0
  9
$DIMCLRE
 70
    0
  9
$DIMCLRT
 70
    0
  9
$DIMTFAC
 40
1
  9
$DIMGAP
 40
0.625
  9
$DIMJUST
 70
    0
  9
$DIMSD1
 70
    0
  9
$DIMSD2
 70
    0
  9
$DIMTOLJ
 70
    0
  9
$DIMTZIN
 70
    8
  9
$DIMALTZ
 70
    0
  9
$DIMALTTZ
 70
    0
  9
$DIMUPT
 70
    0
  9
$DIMDEC
 70
    2
  9
$DIMTDEC
 70
    2
  9
$DIMALTU
 70
    2
  9
$DIMALTTD
 70
    3
  9
$DIMTXSTY
  7
standard
  9
$DIMAUNIT
 70
    0
  9
$DIMADEC
 70
    2
  9
$DIMALTRND
 40
0
  9
$DIMAZIN
 70
    0
  9
$DIMDSEP
 70
   44
  9
$DIMATFIT
 70
    3
  9
$DIMFRAC
 70
    0
  9
$DIMLDRBLK
  1
STANDARD
  9
$DIMLUNIT
 70
    2
  9
$DIMLWD
 70
   -2
  9
$DIMLWE
 70
   -2
  9
$DIMTMOVE
 70
    0
  9
$DIMFXL
 40
1
  9
$DIMFXLON
 70
    0
  9
$DIMJOGANG
 40
0.7854
  9
$DIMTFILL
 70
    0
  9
$DIMTFILLCLR
 70
    0
  9
$DIMARCSYM
 70
    0
  9
$DIMLTYPE
  6

  9
$DIMLTEX1
  6

  9
$DIMLTEX2
  6

  9
$LUNITS
 70
    2
  9
$LUPREC
 70
    4
  9
$SKETCHINC
 40
1
  9
$FILLETRAD
 40
0
  9
$AUNITS
 70
    0
  9
$AUPREC
 70
    2
  9
$MENU
  1
.
  9
$ELEVATION
 40
0
  9
$PELEVATION
 40
0
  9
$THICKNESS
 40
0
  9
$LIMCHECK
 70
    0
  9
$CHAMFERA
 40
0
  9
$CHAMFERB
 40
0
  9
$CHAMFERC
 40
0
  9
$CHAMFERD
 40
0
  9
$SKPOLY
 70
    0
  9
$USRTIMER
 70
    1
  9
$ANGBASE
 50
0
  9
$ANGDIR
 70
    0
  9
$PDMODE
 70
   34
  9
$PDSIZE
 40
0
  9
$PLINEWID
 40
0
  9
$SPLFRAME
 70
    0
  9
$SPLINETYPE
 70
    2
  9
$SPLINESEGS
 70
    8
  9
$HANDSEED
  5
20000
  9
$SURFTAB1
 70
    6
  9
$SURFTAB2
 70
    6
  9
$SURFTYPE
 70
    6
  9
$SURFU
 70
    6
  9
$SURFV
 70
    6
  9
$UCSBASE
  2

  9
$UCSNAME
  2

  9
$UCSORG
 10
0
 20
0
 30
0
  9
$UCSXDIR
 10
1
 20
0
 30
0
  9
$UCSYDIR
 10
0
 20
1
 30
0
  9
$UCSORTHOREF
  2

  9
$UCSORTHOVIEW
 70
    0
  9
$UCSORGTOP
 10
0
 20
0
 30
0
  9
$UCSORGBOTTOM
 10
0
 20
0
 30
0
  9
$UCSORGLEFT
 10
0
 20
0
 30
0
  9
$UCSORGRIGHT
 10
0
 20
0
 30
0
  9
$UCSORGFRONT
 10
0
 20
0
 30
0
  9
$UCSORGBACK
 10
0
 20
0
 30
0
  9
$PUCSBASE
  2

  9
$PUCSNAME
  2

  9
$PUCSORG
 10
0
 20
0
 30
0
  9
$PUCSXDIR
 10
1
 20
0
 30
0
  9
$PUCSYDIR
 10
0
 20
1
 30
0
  9
$PUCSORTHOREF
  2

  9
$PUCSORTHOVIEW
 70
    0
  9
$PUCSORGTOP
 10
0
 20
0
 30
0
  9
$PUCSORGBOTTOM
 10
0
 20
0
 30
0
  9
$PUCSORGLEFT
 10
0
 20
0
 30
0
  9
$PUCSORGRIGHT
 10
0
 20
0
 30
0
  9
$PUCSORGFRONT
 10
0
 20
0
 30
0
  9
$PUCSORGBACK
 10
0
 20
0
 30
0
  9
$USERI1
 70
    0
  9
$USERI2
 70
    0
  9
$USERI3
 70
    0
  9
$USERI4
 70
    0
  9
$USERI5
 70
    0
  9
$USERR1
 40
0
  9
$USERR2
 40
0
  9
$USERR3
 40
0
  9
$USERR4
 40
0
  9
$USERR5
 40
0
  9
$WORLDVIEW
 70
    1
  9
$SHADEDGE
 70
    3
  9
$SHADEDIF
 70
   70
  9
$TILEMODE
 70
    1
  9
$MAXACTVP
 70
   64
  9
$PINSBASE
 10
0.1482587903759259
 20
0.2622089387317835
 30
0
  9
$PLIMCHECK
 70
    0
  9
$PEXTMIN
 10
0
 20
0
 30
0
  9
$PEXTMAX
 10
0
 20
0
 30
0
  9
$GRIDMODE
 70
    1
  9
$SNAPSTYLE
 70
    0
  9
$GRIDUNIT
 10
0
 20
0
  9
$PLIMMIN
 10
0
 20
0
  9
$PLIMMAX
 10
0.9166666666666665
 20
0.7083333333333334
  9
$UNITMODE
 70
    0
  9
$VISRETAIN
 70
    1
  9
$PLINEGEN
 70
    0
  9
$PSLTSCALE
 70
    1
  9
$TREEDEPTH
 70
 3020
  9
$CMLSTYLE
  2
Standard
  9
$CMLJUST
 70
    0
  9
$CMLSCALE
 40
20
  9
$PROXYGRAPHICS
 70
    1
  9
$MEASUREMENT
 70
    0
  9
$CELWEIGHT
370
   -1
  9
$ENDCAPS
280
    0
  9
$JOINSTYLE
280
    0
  9
$LWDISPLAY
290
    0
  9
$INSUNITS
 70
    2
  9
$HYPERLINKBASE
  1

  9
$STYLESHEET
  1

  9
$XEDIT
290
    1
  9
$CEPSNTYPE
380
    0
  9
$PSTYLEMODE
290
    1
  9
$EXTNAMES
290
    1
  9
$PSVPSCALE
 40
0.001
  9
$OLESTARTUP
290
    0
  9
$SORTENTS
280
  127
  9
$INDEXCTL
280
    0
  9
$HIDETEXT
280
    1
  9
$XCLIPFRAME
290
    0
  9
$HALOGAP
280
    0
  9
$OBSCOLOR
 70
  257
  9
$OBSLTYPE
280
    0
  9
$INTERSECTIONDISPLAY
280
    0
  9
$INTERSECTIONCOLOR
 70
  257
  9
$DIMASSOC
280
    1
  9
$PROJECTNAME
  1

  9
$CAMERADISPLAY
290
    0
  9
$LENSLENGTH
 40
50
  9
$CAMERAHEIGHT
 40
0
  9
$STEPSPERSEC
 40
2
  9
$STEPSIZE
 40
50
  9
$3DDWFPREC
 40
2
  9
$PSOLWIDTH
 40
5
  9
$PSOLHEIGHT
 40
80
  9
$LOFTANG1
 40
1.570796326794897
  9
$LOFTANG2
 40
1.570796326794897
  9
$LOFTMAG1
 40
0
  9
$LOFTMAG2
 40
0
  9
$LOFTPARAM
 70
    7
  9
$LOFTNORMALS
280
    1
  9
$LATITUDE
 40
1
  9
$LONGITUDE
 40
1
  9
$NORTHDIRECTION
 40
0
  9
$TIMEZONE
 70
-8000
  9
$LIGHTGLYPHDISPLAY
280
    1
  9
$TILEMODELIGHTSYNCH
280
    1
  9
$SOLIDHIST
280
    1
  9
$SHOWHIST
280
    1
  9
$DWFFRAME
280
    2
  9
$DGNFRAME
280
    0
  9
$REALWORLDSCALE
290
    1
  9
$INTERFERECOLOR
 62
    1
  9
$CSHADOW
280
    0
  9
$SHADOWPLANELOCATION
 40
0
  0
ENDSEC
  0
SECTION
  2
CLASSES
  0
ENDSEC
  0
SECTION
  2
TABLES
  0
TABLE
  2
VPORT
  5
8
330
0
100
AcDbSymbolTable
 70
    1
  0
VPORT
  5
31
330
2
100
AcDbSymbolTableRecord
100
AcDbViewportTableRecord
  2
*ACTIVE
 70
    0
 10
0
 20
0
 11
1
 21
1
 12
389.6593964370494
 22
196.7915774414843
 13
0
 23
0
 14
10
 24
10
 15
10
 25
10
 16
0
 26
0
 36
1
 17
0
 27
0
 37
0
 40
602.4478352349734
 41
1.557114228456914
 42
50
 43
0
 44
0
 50
0
 51
0
 71
    0
 72
  100
 73
    1
 74
    3
 75
    0
 76
    1
 77
    0
 78
    0
281
    0
 65
    1
110
0
120
0
130
0
111
1
121
0
131
0
112
0
122
1
132
0
 79
    0
146
0
348
10020
 60
    7
 61
    5
292
1
282
    1
141
0
142
0
 63
  250
421
3358443
  0
ENDTAB
  0
TABLE
  2
LTYPE
  5
5
330
0
100
AcDbSymbolTable
 70
    4
  0
LTYPE
  5
14
330
5
100
AcDbSymbolTableRecord
100
AcDbLinetypeTableRecord
  2
ByBlock
 70
    0
  3

 72
   65
 73
    0
 40
0
  0
LTYPE
  5
15
330
5
100
AcDbSymbolTableRecord
100
AcDbLinetypeTableRecord
  2
ByLayer
 70
    0
  3

 72
   65
 73
    0
 40
0
  0
LTYPE
  5
16
330
5
100
AcDbSymbolTableRecord
100
AcDbLinetypeTableRecord
  2
Continuous
 70
    0
  3
Solid line
 72
   65
 73
    0
 40
0
  0
LTYPE
  5
32
330
5
100
AcDbSymbolTableRecord
100
AcDbLinetypeTableRecord
  2
DOT
 70
    0
  3
Dot . . . . . . . . . . . . . . . . . . . . . .
 72
   65
 73
    2
 40
6.35
 49
0
 74
    0
 49
-6.35
 74
    0
  0
LTYPE
  5
33
330
5
100
AcDbSymbolTableRecord
100
AcDbLinetypeTableRecord
  2
DOTTINY
 70
    0
  3
Dot (.15x) .....................................
 72
   65
 73
    2
 40
0.9525
 49
0
 74
    0
 49
-0.9525
 74
    0
  0
LTYPE
  5
34
330
5
100
AcDbSymbolTableRecord
100
AcDbLinetypeTableRecord
  2
DOT2
 70
    0
  3
Dot (.5x) .....................................
 72
   65
 73
    2
 40
3.175
 49
0
 74
    0
 49
-3.175
 74
    0
  0
LTYPE
  5
35
330
5
100
AcDbSymbolTableRecord
100
AcDbLinetypeTableRecord
  2
DOTX2
 70
    0
  3
Dot (2x) .  .  .  .  .  .  .  .  .  .  .  .  .
 72
   65
 73
    2
 40
12.7
 49
0
 74
    0
 49
-12.7
 74
    0
  0
LTYPE
  5
36
330
5
100
AcDbSymbolTableRecord
100
AcDbLinetypeTableRecord
  2
DASHED
 70
    0
  3
Dashed _ _ _ _ _ _ _ _ _ _ _ _ _ _ _ _ _
 72
   65
 73
    2
 40
19.05
 49
12.7
 74
    0
 49
-6.35
 74
    0
  0
LTYPE
  5
37
330
5
100
AcDbSymbolTableRecord
100
AcDbLinetypeTableRecord
  2
DASHEDTINY
 70
    0
  3
Dashed (.15x) _ _ _ _ _ _ _ _ _ _ _ _ _ _ _ _ _
 72
   65
 73
    2
 40
2.8575
 49
1.905
 74
    0
 49
-0.9525
 74
    0
  0
LTYPE
  5
38
330
5
100
AcDbSymbolTableRecord
100
AcDbLinetypeTableRecord
  2
DASHED2
 70
    0
  3
Dashed (.5x) _ _ _ _ _ _ _ _ _ _ _ _ _ _ _ _ _
 72
   65
 73
    2
 40
9.524999999999999
 49
6.35
 74
    0
 49
-3.175
 74
    0
  0
LTYPE
  5
39
330
5
100
AcDbSymbolTableRecord
100
AcDbLinetypeTableRecord
  2
DASHEDX2
 70
    0
  3
Dashed (2x) ____  ____  ____  ____  ____  ___
 72
   65
 73
    2
 40
38.09999999999999
 49
25.4
 74
    0
 49
-12.7
 74
    0
  0
LTYPE
  5
3A
330
5
100
AcDbSymbolTableRecord
100
AcDbLinetypeTableRecord
  2
DASHDOT
 70
    0
  3
Dash dot __ . __ . __ . __ . __ . __ . __ . __
 72
   65
 73
    4
 40
25.4
 49
12.7
 74
    0
 49
-6.35
 74
    0
 49
0
 74
    0
 49
-6.35
 74
    0
  0
LTYPE
  5
3B
330
5
100
AcDbSymbolTableRecord
100
AcDbLinetypeTableRecord
  2
DASHDOTTINY
 70
    0
  3
Dash dot (.15x) _._._._._._._._._._._._._._._.
 72
   65
 73
    4
 40
3.81
 49
1.905
 74
    0
 49
-0.9525
 74
    0
 49
0
 74
    0
 49
-0.9525
 74
    0
  0
LTYPE
  5
3C
330
5
100
AcDbSymbolTableRecord
100
AcDbLinetypeTableRecord
  2
DASHDOT2
 70
    0
  3
Dash dot (.5x) _._._._._._._._._._._._._._._.
 72
   65
 73
    4
 40
12.7
 49
6.35
 74
    0
 49
-3.175
 74
    0
 49
0
 74
    0
 49
-3.175
 74
    0
  0
LTYPE
  5
3D
330
5
100
AcDbSymbolTableRecord
100
AcDbLinetypeTableRecord
  2
DASHDOTX2
 70
    0
  3
Dash dot (2x) ____  .  ____  .  ____  .  ___
 72
   65
 73
    4
 40
50.8
 49
25.4
 74
    0
 49
-12.7
 74
    0
 49
0
 74
    0
 49
-12.7
 74
    0
  0
LTYPE
  5
3E
330
5
100
AcDbSymbolTableRecord
100
AcDbLinetypeTableRecord
  2
DIVIDE
 70
    0
  3
Divide ____ . . ____ . . ____ . . ____ . . ____
 72
   65
 73
    6
 40
31.75
 49
12.7
 74
    0
 49
-6.35
 74
    0
 49
0
 74
    0
 49
-6.35
 74
    0
 49
0
 74
    0
 49
-6.35
 74
    0
  0
LTYPE
  5
3F
330
5
100
AcDbSymbolTableRecord
100
AcDbLinetypeTableRecord
  2
DIVIDETINY
 70
    0
  3
Divide (.15x) __..__..__..__..__..__..__..__.._
 72
   65
 73
    6
 40
4.7625
 49
1.905
 74
    0
 49
-0.9525
 74
    0
 49
0
 74
    0
 49
-0.9525
 74
    0
 49
0
 74
    0
 49
-0.9525
 74
    0
  0
LTYPE
  5
40
330
5
100
AcDbSymbolTableRecord
100
AcDbLinetypeTableRecord
  2
DIVIDE2
 70
    0
  3
Divide (.5x) __..__..__..__..__..__..__..__.._
 72
   65
 73
    6
 40
15.875
 49
6.35
 74
    0
 49
-3.175
 74
    0
 49
0
 74
    0
 49
-3.175
 74
    0
 49
0
 74
    0
 49
-3.175
 74
    0
  0
LTYPE
  5
41
330
5
100
AcDbSymbolTableRecord
100
AcDbLinetypeTableRecord
  2
DIVIDEX2
 70
    0
  3
Divide (2x) ________  .  .  ________  .  .  _
 72
   65
 73
    6
 40
63.5
 49
25.4
 74
    0
 49
-12.7
 74
    0
 49
0
 74
    0
 49
-12.7
 74
    0
 49
0
 74
    0
 49
-12.7
 74
    0
  0
LTYPE
  5
42
330
5
100
AcDbSymbolTableRecord
100
AcDbLinetypeTableRecord
  2
BORDER
 70
    0
  3
Border __ __ . __ __ . __ __ . __ __ . __ __ .
 72
   65
 73
    6
 40
44.45
 49
12.7
 74
    0
 49
-6.35
 74
    0
 49
12.7
 74
    0
 49
-6.35
 74
    0
 49
0
 74
    0
 49
-6.35
 74
    0
  0
LTYPE
  5
43
330
5
100
AcDbSymbolTableRecord
100
AcDbLinetypeTableRecord
  2
BORDERTINY
 70
    0
  3
Border (.15x) __.__.__.__.__.__.__.__.__.__.__.
 72
   65
 73
    6
 40
6.6675
 49
1.905
 74
    0
 49
-0.9525
 74
    0
 49
1.905
 74
    0
 49
-0.9525
 74
    0
 49
0
 74
    0
 49
-0.9525
 74
    0
  0
LTYPE
  5
44
330
5
100
AcDbSymbolTableRecord
100
AcDbLinetypeTableRecord
  2
BORDER2
 70
    0
  3
Border (.5x) __.__.__.__.__.__.__.__.__.__.__.
 72
   65
 73
    6
 40
22.225
 49
6.35
 74
    0
 49
-3.175
 74
    0
 49
6.35
 74
    0
 49
-3.175
 74
    0
 49
0
 74
    0
 49
-3.175
 74
    0
  0
LTYPE
  5
45
330
5
100
AcDbSymbolTableRecord
100
AcDbLinetypeTableRecord
  2
BORDERX2
 70
    0
  3
Border (2x) ____  ____  .  ____  ____  .  ___
 72
   65
 73
    6
 40
88.89999999999999
 49
25.4
 74
    0
 49
-12.7
 74
    0
 49
25.4
 74
    0
 49
-12.7
 74
    0
 49
0
 74
    0
 49
-12.7
 74
    0
  0
LTYPE
  5
46
330
5
100
AcDbSymbolTableRecord
100
AcDbLinetypeTableRecord
  2
CENTER
 70
    0
  3
Center ____ _ ____ _ ____ _ ____ _ ____ _ ____
 72
   65
 73
    4
 40
50.8
 49
31.75
 74
    0
 49
-6.35
 74
    0
 49
6.35
 74
    0
 49
-6.35
 74
    0
  0
LTYPE
  5
47
330
5
100
AcDbSymbolTableRecord
100
AcDbLinetypeTableRecord
  2
CENTERTINY
 70
    0
  3
Center (.15x) ___ _ ___ _ ___ _ ___ _ ___ _ ___
 72
   65
 73
    4
 40
7.62
 49
4.7625
 74
    0
 49
-0.9525
 74
    0
 49
0.9525
 74
    0
 49
-0.9525
 74
    0
  0
LTYPE
  5
48
330
5
100
AcDbSymbolTableRecord
100
AcDbLinetypeTableRecord
  2
CENTER2
 70
    0
  3
Center (.5x) ___ _ ___ _ ___ _ ___ _ ___ _ ___
 72
   65
 73
    4
 40
28.575
 49
19.05
 74
    0
 49
-3.175
 74
    0
 49
3.175
 74
    0
 49
-3.175
 74
    0
  0
LTYPE
  5
49
330
5
100
AcDbSymbolTableRecord
100
AcDbLinetypeTableRecord
  2
CENTERX2
 70
    0
  3
Center (2x) ________  __  ________  __  _____
 72
   65
 73
    4
 40
101.6
 49
63.5
 74
    0
 49
-12.7
 74
    0
 49
12.7
 74
    0
 49
-12.7
 74
    0
  0
ENDTAB
  0
TABLE
  2
LAYER
  5
2
330
0
100
AcDbSymbolTable
 70
    1
  0
LAYER
  5
10
330
2
100
AcDbSymbolTableRecord
100
AcDbLayerTableRecord
  2
0
 70
    0
 62
    7
  6
CONTINUOUS
370
    0
390
F
  0
LAYER
  5
4A
330
2
100
AcDbSymbolTableRecord
100
AcDbLayerTableRecord
  2
Outline
 70
    0
 62
  176
420
  128
  6
CONTINUOUS
370
   18
390
F
  0
LAYER
  5
4B
330
2
100
AcDbSymbolTableRecord
100
AcDbLayerTableRecord
  2
Text and Dimensions
 70
    0
 62
    7
  6
CONTINUOUS
370
   13
390
F
  0
LAYER
  5
4C
330
2
100
AcDbSymbolTableRecord
100
AcDbLayerTableRecord
  2
main layer
 70
    0
 62
    7
  6
CONTINUOUS
370
   13
390
F
  0
ENDTAB
  0
TABLE
  2
STYLE
  5
3
330
0
100
AcDbSymbolTable
 70
    3
  0
STYLE
  5
4D
330
2
100
AcDbSymbolTableRecord
100
AcDbTextStyleTableRecord
  2
standard
 70
    0
 40
0
 41
1
 50
0
 71
    0
 42
1
  3
standard
  4

  0
ENDTAB
  0
TABLE
  2
VIEW
  5
6
330
0
100
AcDbSymbolTable
 70
    0
  0
ENDTAB
  0
TABLE
  2
UCS
  5
7
330
0
100
AcDbSymbolTable
 70
    0
  0
ENDTAB
  0
TABLE
  2
APPID
  5
9
330
0
100
AcDbSymbolTable
 70
    1
  0
APPID
  5
12
330
9
100
AcDbSymbolTableRecord
100
AcDbRegAppTableRecord
  2
ACAD
 70
    0
  0
APPID
  5
4E
330
9
100
AcDbSymbolTableRecord
100
AcDbRegAppTableRecord
  2
LibreCad
 70
    0
  0
ENDTAB
  0
TABLE
  2
DIMSTYLE
  5
A
330
0
100
AcDbSymbolTable
 70
    1
100
AcDbDimStyleTable
 71
    1
  0
DIMSTYLE
105
4F
330
A
100
AcDbSymbolTableRecord
100
AcDbDimStyleTableRecord
  2
Standard
 70
    0
 40
2.5
 41
2.5
 42
0.625
 43
0.38
 44
1.25
 45
0
 46
0
 47
0
 48
0
 49
1
140
2.5
141
0.09
142
0
143
25.4
144
1
145
0
146
1
147
0.625
148
0
 71
    0
 72
    0
 73
    0
 74
    1
 75
    0
 76
    0
 77
    0
 78
    8
 79
    0
170
    0
171
    2
172
    0
173
    0
174
    0
175
    0
176
    0
177
    0
178
    0
179
    2
271
    2
272
    4
273
    2
274
    2
275
    0
276
    0
277
    2
278
   44
279
    0
280
    0
281
    0
282
    0
283
    1
284
    0
285
    0
286
    0
288
    0
289
    3
340
standard
341

371
   -2
372
   -2
  0
ENDTAB
  0
TABLE
  2
BLOCK_RECORD
  5
1
330
0
100
AcDbSymbolTable
 70
    2
  0
BLOCK_RECORD
  5
1F
330
1
100
AcDbSymbolTableRecord
100
AcDbBlockTableRecord
  2
*Model_Space
 70
    0
280
    1
281
    0
  0
BLOCK_RECORD
  5
1E
330
1
100
AcDbSymbolTableRecord
100
AcDbBlockTableRecord
  2
*Paper_Space
 70
    0
280
    1
281
    0
  0
BLOCK_RECORD
  5
50
330
1
100
AcDbSymbolTableRecord
100
AcDbBlockTableRecord
  2
*D5
 70
    0
280
    1
281
    0
  0
BLOCK_RECORD
  5
53
330
1
100
AcDbSymbolTableRecord
100
AcDbBlockTableRecord
  2
*D2
 70
    0
280
    1
281
    0
  0
BLOCK_RECORD
  5
56
330
1
100
AcDbSymbolTableRecord
100
AcDbBlockTableRecord
  2
*D4
 70
    0
280
    1
281
    0
  0
BLOCK_RECORD
  5
59
330
1
100
AcDbSymbolTableRecord
100
AcDbBlockTableRecord
  2
*D1
 70
    0
280
    1
281
    0
  0
BLOCK_RECORD
  5
5C
330
1
100
AcDbSymbolTableRecord
100
AcDbBlockTableRecord
  2
*D6
 70
    0
280
    1
281
    0
  0
BLOCK_RECORD
  5
5F
330
1
100
AcDbSymbolTableRecord
100
AcDbBlockTableRecord
  2
*D3
 70
    0
280
    1
281
    0
  0
ENDTAB
  0
ENDSEC
  0
SECTION
  2
BLOCKS
  0
BLOCK
  5
20
330
1F
100
AcDbEntity
  8
0
100
AcDbBlockBegin
  2
*Model_Space
 70
    0
 10
0
 20
0
 30
0
  3
*Model_Space
  1

  0
ENDBLK
  5
21
330
1F
100
AcDbEntity
  8
0
100
AcDbBlockEnd
  0
BLOCK
  5
1C
330
1B
100
AcDbEntity
  8
0
100
AcDbBlockBegin
  2
*Paper_Space
 70
    0
 10
0
 20
0
 30
0
  3
*Paper_Space
  1

  0
ENDBLK
  5
1D
330
1F
100
AcDbEntity
  8
0
100
AcDbBlockEnd
  0
BLOCK
  5
51
330
50
100
AcDbEntity
  8
0
100
AcDbBlockBegin
  2
*D5
 70
    1
 10
0
 20
0
  3
*D5
  1

  0
SOLID
  5
62
100
AcDbEntity
  8
Text and Dimensions
  6
ByBlock
 62
    0
370
   -2
100
AcDbTrace
 10
384.2661187350685
 20
107.1034765756095
 30
0
 11
384.1015577570648
 21
100.7695599033304
 31
0
 12
382.0579755416985
 22
101.164648040921
 32
0
 13
382.0579755416985
 23
101.164648040921
 33
0
  0
LINE
  5
63
100
AcDbEntity
  8
Text and Dimensions
  6
ByBlock
 62
    0
370
   -2
100
AcDbLine
 10
324.269055030825
 20
-203.2296382273433
 11
384.2661187350685
 21
107.1034765756095
  0
MTEXT
  5
64
100
AcDbEntity
  8
Text and Dimensions
  6
CONTINUOUS
 62
    0
370
   -2
100
AcDbMText
 10
349.6653074303339
 20
-47.17331676160174
 30
0
 40
6.25
 41
23.26388888888966
 71
    5
 72
    1
  1
316,08
  7
standard
210
0
220
0
230
1
 50
79.05793415857978
 73
    2
 44
1
  0
ENDBLK
  5
52
330
50
100
AcDbEntity
  8
0
100
AcDbBlockEnd
  0
BLOCK
  5
54
330
53
100
AcDbEntity
  8
0
100
AcDbBlockBegin
  2
*D2
 70
    1
 10
0
 20
0
  3
*D2
  1

  0
LINE
  5
65
100
AcDbEntity
  8
main layer
  6
ByBlock
 62
    0
370
   -2
100
AcDbLine
 10
96.67740834175706
 20
305.262501023878
 11
96.87888047478776
 21
327.2077075136004
  0
LINE
  5
66
100
AcDbEntity
  8
main layer
  6
ByBlock
 62
    0
370
   -2
100
AcDbLine
 10
284.0095138587635
 20
303.5426630765194
 11
284.2109859917942
 21
325.4878695662418
  0
LINE
  5
67
100
AcDbEntity
  8
main layer
  6
ByBlock
 62
    0
370
   -2
100
AcDbLine
 10
96.85019202819069
 20
324.08283920069
 11
284.1822975451972
 21
322.3630012533314
  0
MTEXT
  5
68
100
AcDbEntity
  8
main layer
  6
CONTINUOUS
 62
    0
370
   -2
100
AcDbMText
 10
190.5592774565895
 20
327.9102226963764
 30
0
 40
6.25
 41
23.95833333333372
 71
    5
 72
    1
  1
187,34
  7
standard
210
0
220
0
230
1
 50
359.474
 73
    2
 44
1
  0
SOLID
  5
69
100
AcDbEntity
  8
main layer
  6
ByBlock
 62
    0
370
   -2
100
AcDbTrace
 10
96.85019202819069
 20
324.08283920069
 30
0
 11
103.1094827021506
 21
325.0661300964759
 31
0
 12
103.0903746058727
 22
322.9847945185157
 32
0
 13
103.0903746058727
 23
322.9847945185157
 33
0
  0
SOLID
  5
6A
100
AcDbEntity
  8
main layer
  6
ByBlock
 62
    0
370
   -2
100
AcDbTrace
 10
284.1822975451972
 20
322.3630012533314
 30
0
 11
277.9230068712373
 21
321.3797103575454
 31
0
 12
277.9421149675152
 22
323.4610459355056
 32
0
 13
277.9421149675152
 23
323.4610459355056
 33
0
  0
ENDBLK
  5
55
330
53
100
AcDbEntity
  8
0
100
AcDbBlockEnd
  0
BLOCK
  5
57
330
56
100
AcDbEntity
  8
0
100
AcDbBlockBegin
  2
*D4
 70
    1
 10
0
 20
0
  3
*D4
  1

  0
LINE
  5
6B
100
AcDbEntity
  8
main layer
  6
ByBlock
 62
    0
370
   -2
100
AcDbLine
 10
555.4154119334946
 20
140.6221416141746
 11
571.2234764662905
 21
131.9394447074371
  0
LINE
  5
6C
100
AcDbEntity
  8
main layer
  6
ByBlock
 62
    0
370
   -2
100
AcDbLine
 10
507.9565345018146
 20
54.21661518011385
 11
523.7645990346106
 21
45.53391827337632
  0
LINE
  5
6D
100
AcDbEntity
  8
main layer
  6
ByBlock
 62
    0
370
   -2
100
AcDbLine
 10
568.4844433429524
 20
133.443879002864
 11
521.0255659112725
 21
47.0383525688032
  0
MTEXT
  5
6E
100
AcDbEntity
  8
main layer
  6
CONTINUOUS
 62
    0
370
   -2
100
AcDbMText
 10
540.6464549421052
 20
92.49776722897391
 30
0
 40
6.25
 41
19.79166666666744
 71
    5
 72
    1
  1
98,58
  7
standard
210
0
220
0
230
1
 50
61.22188144912912
 73
    2
 44
1
  0
SOLID
  5
6F
100
AcDbEntity
  8
main layer
  6
ByBlock
 62
    0
370
   -2
100
AcDbTrace
 10
568.4844433429524
 20
133.443879002864
 30
0
 11
566.3877487252005
 21
127.464794423537
 31
0
 12
564.5634007789969
 22
128.4668310888386
 32
0
 13
564.5634007789969
 23
128.4668310888386
 33
0
  0
SOLID
  5
70
100
AcDbEntity
  8
main layer
  6
ByBlock
 62
    0
370
   -2
100
AcDbTrace
 10
521.0255659112725
 20
47.0383525688032
 30
0
 11
523.1222605290244
 21
53.01743714813026
 31
0
 12
524.946608475228
 22
52.01540048282864
 32
0
 13
524.946608475228
 23
52.01540048282864
 33
0
  0
ENDBLK
  5
58
330
56
100
AcDbEntity
  8
0
100
AcDbBlockEnd
  0
BLOCK
  5
5A
330
59
100
AcDbEntity
  8
0
100
AcDbBlockBegin
  2
*D1
 70
    1
 10
0
 20
0
  3
*D1
  1

  0
LINE
  5
71
100
AcDbEntity
  8
main layer
  6
ByBlock
 62
    0
370
   -2
100
AcDbLine
 10
92.00390589091504
 20
69.24115010190343
 11
63.51900492775859
 21
69.61735298911236
  0
LINE
  5
72
100
AcDbEntity
  8
main layer
  6
ByBlock
 62
    0
370
   -2
100
AcDbLine
 10
95.10070037207589
 20
303.7207011590083
 11
66.61579940891944
 21
304.0969040462173
  0
LINE
  5
73
100
AcDbEntity
  8
main layer
  6
ByBlock
 62
    0
370
   -2
100
AcDbLine
 10
66.64373242052385
 20
69.57608440594123
 11
69.7405269016847
 21
304.0556354630461
  0
MTEXT
  5
74
100
AcDbEntity
  8
main layer
  6
CONTINUOUS
 62
    0
370
   -2
100
AcDbMText
 10
63.50503842195639
 20
186.8777628092504
 30
0
 40
6.25
 41
20.48611111111189
 71
    5
 72
    1
  1
234,5
  7
standard
210
0
220
0
230
1
 50
89.24333300000001
 73
    2
 44
1
  0
SOLID
  5
75
100
AcDbEntity
  8
main layer
  6
ByBlock
 62
    0
370
   -2
100
AcDbTrace
 10
66.64373242052385
 20
69.57608440594123
 30
0
 11
65.68564869489875
 21
75.83928297388947
 31
0
 12
67.76689047883342
 22
75.81179580905402
 32
0
 13
67.76689047883342
 23
75.81179580905402
 33
0
  0
SOLID
  5
76
100
AcDbEntity
  8
main layer
  6
ByBlock
 62
    0
370
   -2
100
AcDbTrace
 10
69.7405269016847
 20
304.0556354630461
 30
0
 11
70.6986106273098
 21
297.7924368950979
 31
0
 12
68.61736884337513
 22
297.8199240599334
 32
0
 13
68.61736884337513
 23
297.8199240599334
 33
0
  0
ENDBLK
  5
5B
330
59
100
AcDbEntity
  8
0
100
AcDbBlockEnd
  0
BLOCK
  5
5D
330
5C
100
AcDbEntity
  8
0
100
AcDbBlockBegin
  2
*D6
 70
    1
 10
0
 20
0
  3
*D6
  1

  0
SOLID
  5
77
100
AcDbEntity
  8
Text and Dimensions
  6
ByBlock
 62
    0
370
   -2
100
AcDbTrace
 10
144.3197320357261
 20
64.44001373545878
 30
0
 11
142.7334702182818
 21
58.30573674681743
 31
0
 12
140.8312914960892
 22
59.15074504042407
 32
0
 13
140.8312914960892
 23
59.15074504042407
 33
0
  0
LINE
  5
78
100
AcDbEntity
  8
Text and Dimensions
  6
ByBlock
 62
    0
370
   -2
100
AcDbLine
 10
111.8287941492761
 20
-8.699588774119164
 11
144.3197320357261
 21
64.44001373545878
  0
MTEXT
  5
79
100
AcDbEntity
  8
Text and Dimensions
  6
CONTINUOUS
 62
    0
370
   -2
100
AcDbMText
 10
123.7904334611226
 20
29.77322586457528
 30
0
 40
6.25
 41
19.79166666666706
 71
    5
 72
    1
  1
80,03
  7
standard
210
0
220
0
230
1
 50
66.04768538608182
 73
    2
 44
1
  0
ENDBLK
  5
5E
330
5C
100
AcDbEntity
  8
0
100
AcDbBlockEnd
  0
BLOCK
  5
60
330
5F
100
AcDbEntity
  8
0
100
AcDbBlockBegin
  2
*D3
 70
    1
 10
0
 20
0
  3
*D3
  1

  0
LINE
  5
7A
100
AcDbEntity
  8
main layer
  6
ByBlock
 62
    0
370
   -2
100
AcDbLine
 10
284.7938541425374
 20
303.3231769116716
 11
296.3305708455529
 21
322.7215881602501
  0
LINE
  5
7B
100
AcDbEntity
  8
main layer
  6
ByBlock
 62
    0
370
   -2
100
AcDbLine
 10
554.8445798788979
 20
142.7173067534955
 11
566.3812965819135
 21
162.1157180020741
  0
LINE
  5
7C
100
AcDbEntity
  8
main layer
  6
ByBlock
 62
    0
370
   -2
100
AcDbLine
 10
294.7332018314081
 20
320.0356921770352
 11
564.7839275677686
 21
159.4298220188591
  0
MTEXT
  5
7D
100
AcDbEntity
  8
main layer
  6
CONTINUOUS
 62
    0
370
   -2
100
AcDbMText
 10
432.1546182208056
 20
243.7616010727695
 30
0
 40
6.25
 41
19.09722222222261
 71
    5
 72
    1
  1
314,2
  7
standard
210
0
220
0
230
1
 50
329.259
 73
    2
 44
1
  0
SOLID
  5
7E
100
AcDbEntity
  8
main layer
  6
ByBlock
 62
    0
370
   -2
100
AcDbTrace
 10
294.7332018314081
 20
320.0356921770352
 30
0
 11
300.6369619685501
 21
317.7354319808945
 31
0
 12
299.5730256271258
 22
315.9464763165968
 32
0
 13
299.5730256271258
 23
315.9464763165968
 33
0
  0
SOLID
  5
7F
100
AcDbEntity
  8
main layer
  6
ByBlock
 62
    0
370
   -2
100
AcDbTrace
 10
564.7839275677686
 20
159.4298220188591
 30
0
 11
558.8801674306266
 21
161.7300822149999
 31
0
 12
559.944103772051
 22
163.5190378792976
 32
0
 13
559.944103772051
 23
163.5190378792976
 33
0
  0
ENDBLK
  5
61
330
5F
100
AcDbEntity
  8
0
100
AcDbBlockEnd
  0
ENDSEC
  0
SECTION
  2
ENTITIES
  0
ARC
  5
80
100
AcDbEntity
  8
main layer
  6
ByLayer
 62
  256
370
   -1
100
AcDbCircle
 10
324.269055030825
 20
-203.2296382273433
 40
316.0795624465994
100
AcDbArc
 50
54.77348908977951
 51
123.248734776466
  0
ARC
  5
81
100
AcDbEntity
  8
main layer
  6
ByLayer
 62
  256
370
   -1
100
AcDbCircle
 10
111.8287941492761
 20
-8.699588774119164
 40
80.03163437041763
100
AcDbArc
 50
60.71991688256139
 51
103.1906107122075
  0
DIMENSION
  5
82
100
AcDbEntity
  8
main layer
  6
ByLayer
 62
  256
370
   -1
100
AcDbDimension
  2
*D1
 10
69.7405269016847
 20
304.0556354630461
 30
0
 11
63.50503842195639
 21
186.8777628092504
 31
0
 70
   33
 71
    5
  3
Standard
 53
0
210
0
220
0
230
1
100
AcDbAlignedDimension
 13
93.56626963729767
 23
69.22051581031786
 33
0
 14
96.66306411845852
 24
303.7000668674228
 34
0
  0
DIMENSION
  5
83
100
AcDbEntity
  8
main layer
  6
ByLayer
 62
  256
370
   -1
100
AcDbDimension
  2
*D2
 10
284.1822975451972
 20
322.3630012533314
 30
0
 11
190.5592774565895
 21
327.9102226963764
 31
0
 70
   33
 71
    5
  3
Standard
 53
0
210
0
220
0
230
1
100
AcDbAlignedDimension
 13
96.66306411845852
 23
303.7000668674228
 33
0
 14
283.995169635465
 24
301.9802289200642
 34
0
  0
DIMENSION
  5
84
100
AcDbEntity
  8
main layer
  6
ByLayer
 62
  256
370
   -1
100
AcDbDimension
  2
*D3
 10
564.7839275677686
 20
159.4298220188591
 30
0
 11
432.1546182208056
 21
243.7616010727695
 31
0
 70
   33
 71
    5
  3
Standard
 53
0
210
0
220
0
230
1
100
AcDbAlignedDimension
 13
283.995169635465
 23
301.9802289200642
 33
0
 14
554.0458953718255
 24
141.3743587618881
 34
0
  0
DIMENSION
  5
85
100
AcDbEntity
  8
main layer
  6
ByLayer
 62
  256
370
   -1
100
AcDbDimension
  2
*D4
 10
521.0255659112725
 20
47.0383525688032
 30
0
 11
540.6464549421052
 21
92.49776722897391
 31
0
 70
   33
 71
    5
  3
Standard
 53
0
210
0
220
0
230
1
100
AcDbAlignedDimension
 13
554.0458953718255
 23
141.3743587618881
 33
0
 14
506.5870179401456
 24
54.96883232782729
 34
0
  0
LINE
  5
86
100
AcDbEntity
  8
main layer
  6
ByLayer
 62
  256
370
   -1
100
AcDbLine
 10
96.53530763502269
 20
303.6186741720945
 11
283.8674131520291
 21
301.8988362247359
  0
LINE
  5
87
100
AcDbEntity
  8
main layer
  6
ByLayer
 62
  256
370
   -1
100
AcDbLine
 10
93.43851315386186
 20
69.1391231149895
 11
96.53530763502272
 21
303.6186741720945
  0
LINE
  5
88
100
AcDbEntity
  8
main layer
  6
ByLayer
 62
  256
370
   -1
100
AcDbLine
 10
283.995169635465
 20
301.9802289200642
 11
553.1864086571968
 21
141.8855168464144
  0
LINE
  5
89
100
AcDbEntity
  8
main layer
  6
ByLayer
 62
  256
370
   -1
100
AcDbLine
 10
551.7520337652221
 20
137.5328283885837
 11
506.5870179401455
 21
54.96883232782738
  0
MTEXT
  5
8A
100
AcDbEntity
  8
Text and Dimensions
  6
CONTINUOUS
 62
  256
370
   -1
100
AcDbMText
 10
243.3879944077995
 20
217.537165342442
 30
0
 40
10
 41
171.6666718095412
 71
    5
 72
    1
  1
George's New Playground
  7
standard
210
0
220
0
230
1
 50
0
 73
    2
 44
1
  0
MTEXT
  5
8B
100
AcDbEntity
  8
Text and Dimensions
  6
CONTINUOUS
 62
  256
370
   -1
100
AcDbMText
 10
107.3053281958326
 20
193.1495907524987
 30
0
 40
8
 41
86.88889300318736
 71
    5
 72
    1
  1
89.4783 degrees
  7
standard
210
0
220
0
230
1
 50
90
 73
    2
 44
1
  0
MTEXT
  5
8C
100
AcDbEntity
  8
Text and Dimensions
  6
CONTINUOUS
 62
  256
370
   -1
100
AcDbMText
 10
166.3232587035405
 20
286.3101256861534
 30
0
 40
8
 41
94.88889300318783
 71
    5
 72
    1
  1
359.7444 degrees
  7
standard
210
0
220
0
230
1
 50
0
 73
    2
 44
1
  0
MTEXT
  5
8D
100
AcDbEntity
  8
Text and Dimensions
  6
CONTINUOUS
 62
  256
370
   -1
100
AcDbMText
 10
406.7847441605654
 20
215.5861593752637
 30
0
 40
8
 41
92.22222633652117
 71
    5
 72
    1
  1
329.2592 degrees
  7
standard
210
0
220
0
230
1
 50
329
 73
    2
 44
1
  0
MTEXT
  5
8E
100
AcDbEntity
  8
Text and Dimensions
  6
CONTINUOUS
 62
  256
370
   -1
100
AcDbMText
 10
520.9185932415874
 20
104.3788192450372
 30
0
 40
8
 41
91.33333744763179
 71
    5
 72
    1
  1
241.3200 degrees
  7
standard
210
0
220
0
230
1
 50
61
 73
    2
 44
1
  0
MTEXT
  5
8F
100
AcDbEntity
  8
Text and Dimensions
  6
CONTINUOUS
 62
  256
370
   -1
100
AcDbMText
 10
115.5971035564197
 20
48.28739768812467
 30
0
 40
6
 41
70.33333333333519
 71
    5
 72
    1
  1
80' radius\P115.75' arc length
  7
standard
210
0
220
0
230
1
 50
350
 73
    2
 44
1
  0
DIMENSION
  5
90
100
AcDbEntity
  8
Text and Dimensions
  6
CONTINUOUS
 62
  256
370
   -1
100
AcDbDimension
  2
*D5
 10
324.269055030825
 20
-203.2296382273433
 30
0
 11
349.6653074303339
 21
-47.17331676160174
 31
0
 70
   36
 71
    5
 72
    0
  3
Standard
 53
0
210
0
220
0
230
1
100
AcDbRadialDimension
 15
384.2661187350685
 25
107.1034765756095
 35
0
 40
0
  0
DIMENSION
  5
91
100
AcDbEntity
  8
Text and Dimensions
  6
CONTINUOUS
 62
  256
370
   -1
100
AcDbDimension
  2
*D6
 10
111.8287941492761
 20
-8.699588774119164
 30
0
 11
123.7904334611226
 21
29.77322586457528
 31
0
 70
   36
 71
    5
 72
    0
  3
Standard
 53
0
210
0
220
0
230
1
100
AcDbRadialDimension
 15
144.3197320357261
 25
64.44001373545878
 35
0
 40
0
  0
MTEXT
  5
92
100
AcDbEntity
  8
Text and Dimensions
  6
CONTINUOUS
 62
  256
370
   -1
100
AcDbMText
 10
238.5104794898284
 20
88.28302001566244
 30
0
 40
6
 41
73.00000000000149
 71
    5
 72
    1
  1
316' radius\P222.26' arc length
  7
standard
210
0
220
0
230
1
 50
15.00000000000001
 73
    2
 44
1
  0
LWPOLYLINE
  5
93
100
AcDbEntity
  8
Outline
  6
CONTINUOUS
 62
  256
370
   -1
100
AcDbPolyline
 90
    4
 70
    1
 43
0
 10
16.48951326709912
 20
15.77257790766003
 10
603.6595726477155
 20
15.77257790766003
 10
603.6595726477155
 20
387.1450940971097
 10
16.48951326709912
 20
387.1450940971097
  0
ENDSEC
  0
SECTION
  2
OBJECTS
  0
DICTIONARY
  5
C
330
0
100
AcDbDictionary
281
    1
  3
ACAD_GROUP
350
D
  0
DICTIONARY
  5
D
330
C
100
AcDbDictionary
281
    1
  0
PLOTSETTINGS
  5
94
100
AcDbPlotSettings
  6
1x1
 40
0
 41
0
 42
0
 43
0
  0
ENDSEC
  0
EOF
