999
dxfrw 0.6.3
  0
SECTION
  2
HEADER
  9
$ACADVER
  1
AC1021
  9
$DWGCODEPAGE
  3
ANSI_1252
  9
$INSBASE
 10
0
 20
0
 30
0
  9
$EXTMIN
 10
-1340
 20
-4000
 30
0
  9
$EXTMAX
 10
15460
 20
7880
 30
0
  9
$LIMMIN
 10
0
 20
0
  9
$LIMMAX
 10
420
 20
297
  9
$ORTHOMODE
 70
    0
  9
$REGENMODE
 70
    1
  9
$FILLMODE
 70
    1
  9
$QTEXTMODE
 70
    0
  9
$MIRRTEXT
 70
    0
  9
$LTSCALE
 40
1
  9
$ATTMODE
 70
    0
  9
$TEXTSIZE
 40
2.5
  9
$TRACEWID
 40
15.68
  9
$TEXTSTYLE
  7
STANDARD
  9
$CLAYER
  8
0
  9
$CELTYPE
  6
BYLAYER
  9
$CECOLOR
 62
  256
  9
$CELTSCALE
 40
1
  9
$DISPSILH
 70
    0
  9
$DIMSCALE
 40
2.5
  9
$DIMASZ
 40
5
  9
$DIMEXO
 40
0.625
  9
$DIMDLI
 40
3.75
  9
$DIMRND
 40
0
  9
$DIMDLE
 40
0
  9
$DIMEXE
 40
1.25
  9
$DIMTP
 40
0
  9
$DIMTM
 40
0
  9
$DIMTXT
 40
30
  9
$DIMCEN
 40
2.5
  9
$DIMTSZ
 40
0
  9
$DIMTOL
 70
    0
  9
$DIMLIM
 70
    0
  9
$DIMTIH
 70
    0
  9
$DIMTOH
 70
    0
  9
$DIMSE1
 70
    0
  9
$DIMSE2
 70
    0
  9
$DIMTAD
 70
    1
  9
$DIMZIN
 70
    8
  9
$DIMBLK
  1

  9
$DIMASO
 70
    1
  9
$DIMSHO
 70
    1
  9
$DIMPOST
  1

  9
$DIMAPOST
  1

  9
$DIMALT
 70
    0
  9
$DIMALTD
 70
    3
  9
$DIMALTF
 40
0.03937
  9
$DIMLFAC
 40
1
  9
$DIMTOFL
 70
    1
  9
$DIMTVP
 40
0
  9
$DIMTIX
 70
    0
  9
$DIMSOXD
 70
    0
  9
$DIMSAH
 70
    0
  9
$DIMBLK1
  1

  9
$DIMBLK2
  1

  9
$DIMSTYLE
  2
STANDARD
  9
$DIMCLRD
 70
    0
  9
$DIMCLRE
 70
    0
  9
$DIMCLRT
 70
    0
  9
$DIMTFAC
 40
1
  9
$DIMGAP
 40
5
  9
$DIMJUST
 70
    0
  9
$DIMSD1
 70
    0
  9
$DIMSD2
 70
    0
  9
$DIMTOLJ
 70
    0
  9
$DIMTZIN
 70
    8
  9
$DIMALTZ
 70
    0
  9
$DIMALTTZ
 70
    0
  9
$DIMUPT
 70
    0
  9
$DIMDEC
 70
    2
  9
$DIMTDEC
 70
    2
  9
$DIMALTU
 70
    2
  9
$DIMALTTD
 70
    3
  9
$DIMTXSTY
  7
standard
  9
$DIMAUNIT
 70
    0
  9
$DIMADEC
 70
    0
  9
$DIMALTRND
 40
0
  9
$DIMAZIN
 70
    0
  9
$DIMDSEP
 70
   44
  9
$DIMATFIT
 70
    3
  9
$DIMFRAC
 70
    0
  9
$DIMLDRBLK
  1
STANDARD
  9
$DIMLUNIT
 70
    2
  9
$DIMLWD
 70
   -2
  9
$DIMLWE
 70
   -2
  9
$DIMTMOVE
 70
    0
  9
$DIMFXL
 40
1
  9
$DIMFXLON
 70
    0
  9
$DIMJOGANG
 40
0.7854
  9
$DIMTFILL
 70
    0
  9
$DIMTFILLCLR
 70
    0
  9
$DIMARCSYM
 70
    0
  9
$DIMLTYPE
  6

  9
$DIMLTEX1
  6

  9
$DIMLTEX2
  6

  9
$LUNITS
 70
    2
  9
$LUPREC
 70
    4
  9
$SKETCHINC
 40
1
  9
$FILLETRAD
 40
0
  9
$AUNITS
 70
    0
  9
$AUPREC
 70
    2
  9
$MENU
  1
.
  9
$ELEVATION
 40
0
  9
$PELEVATION
 40
0
  9
$THICKNESS
 40
0
  9
$LIMCHECK
 70
    0
  9
$CHAMFERA
 40
0
  9
$CHAMFERB
 40
0
  9
$CHAMFERC
 40
0
  9
$CHAMFERD
 40
0
  9
$SKPOLY
 70
    0
  9
$USRTIMER
 70
    1
  9
$ANGBASE
 50
0
  9
$ANGDIR
 70
    0
  9
$PDMODE
 70
   34
  9
$PDSIZE
 40
0
  9
$PLINEWID
 40
0
  9
$SPLFRAME
 70
    0
  9
$SPLINETYPE
 70
    2
  9
$SPLINESEGS
 70
    8
  9
$HANDSEED
  5
20000
  9
$SURFTAB1
 70
    6
  9
$SURFTAB2
 70
    6
  9
$SURFTYPE
 70
    6
  9
$SURFU
 70
    6
  9
$SURFV
 70
    6
  9
$UCSBASE
  2

  9
$UCSNAME
  2

  9
$UCSORG
 10
0
 20
0
 30
0
  9
$UCSXDIR
 10
1
 20
0
 30
0
  9
$UCSYDIR
 10
0
 20
1
 30
0
  9
$UCSORTHOREF
  2

  9
$UCSORTHOVIEW
 70
    0
  9
$UCSORGTOP
 10
0
 20
0
 30
0
  9
$UCSORGBOTTOM
 10
0
 20
0
 30
0
  9
$UCSORGLEFT
 10
0
 20
0
 30
0
  9
$UCSORGRIGHT
 10
0
 20
0
 30
0
  9
$UCSORGFRONT
 10
0
 20
0
 30
0
  9
$UCSORGBACK
 10
0
 20
0
 30
0
  9
$PUCSBASE
  2

  9
$PUCSNAME
  2

  9
$PUCSORG
 10
0
 20
0
 30
0
  9
$PUCSXDIR
 10
1
 20
0
 30
0
  9
$PUCSYDIR
 10
0
 20
1
 30
0
  9
$PUCSORTHOREF
  2

  9
$PUCSORTHOVIEW
 70
    0
  9
$PUCSORGTOP
 10
0
 20
0
 30
0
  9
$PUCSORGBOTTOM
 10
0
 20
0
 30
0
  9
$PUCSORGLEFT
 10
0
 20
0
 30
0
  9
$PUCSORGRIGHT
 10
0
 20
0
 30
0
  9
$PUCSORGFRONT
 10
0
 20
0
 30
0
  9
$PUCSORGBACK
 10
0
 20
0
 30
0
  9
$USERI1
 70
    0
  9
$USERI2
 70
    0
  9
$USERI3
 70
    0
  9
$USERI4
 70
    0
  9
$USERI5
 70
    0
  9
$USERR1
 40
0
  9
$USERR2
 40
0
  9
$USERR3
 40
0
  9
$USERR4
 40
0
  9
$USERR5
 40
0
  9
$WORLDVIEW
 70
    1
  9
$SHADEDGE
 70
    3
  9
$SHADEDIF
 70
   70
  9
$TILEMODE
 70
    1
  9
$MAXACTVP
 70
   64
  9
$PINSBASE
 10
45.38552188552189
 20
103.2659932659933
 30
0
  9
$PLIMCHECK
 70
    0
  9
$PEXTMIN
 10
0
 20
0
 30
0
  9
$PEXTMAX
 10
0
 20
0
 30
0
  9
$GRIDMODE
 70
    1
  9
$SNAPSTYLE
 70
    0
  9
$GRIDUNIT
 10
0
 20
0
  9
$PLIMMIN
 10
0
 20
0
  9
$PLIMMAX
 10
420
 20
297
  9
$UNITMODE
 70
    0
  9
$VISRETAIN
 70
    1
  9
$PLINEGEN
 70
    0
  9
$PSLTSCALE
 70
    1
  9
$TREEDEPTH
 70
 3020
  9
$CMLSTYLE
  2
Standard
  9
$CMLJUST
 70
    0
  9
$CMLSCALE
 40
20
  9
$PROXYGRAPHICS
 70
    1
  9
$MEASUREMENT
 70
    1
  9
$CELWEIGHT
370
   -1
  9
$ENDCAPS
280
    0
  9
$JOINSTYLE
280
    0
  9
$LWDISPLAY
290
    0
  9
$INSUNITS
 70
    4
  9
$HYPERLINKBASE
  1

  9
$STYLESHEET
  1

  9
$XEDIT
290
    1
  9
$CEPSNTYPE
380
    0
  9
$PSTYLEMODE
290
    1
  9
$EXTNAMES
290
    1
  9
$PSVPSCALE
 40
0.02331649831649832
  9
$OLESTARTUP
290
    0
  9
$SORTENTS
280
  127
  9
$INDEXCTL
280
    0
  9
$HIDETEXT
280
    1
  9
$XCLIPFRAME
290
    0
  9
$HALOGAP
280
    0
  9
$OBSCOLOR
 70
  257
  9
$OBSLTYPE
280
    0
  9
$INTERSECTIONDISPLAY
280
    0
  9
$INTERSECTIONCOLOR
 70
  257
  9
$DIMASSOC
280
    1
  9
$PROJECTNAME
  1

  9
$CAMERADISPLAY
290
    0
  9
$LENSLENGTH
 40
50
  9
$CAMERAHEIGHT
 40
0
  9
$STEPSPERSEC
 40
2
  9
$STEPSIZE
 40
50
  9
$3DDWFPREC
 40
2
  9
$PSOLWIDTH
 40
5
  9
$PSOLHEIGHT
 40
80
  9
$LOFTANG1
 40
1.570796326794897
  9
$LOFTANG2
 40
1.570796326794897
  9
$LOFTMAG1
 40
0
  9
$LOFTMAG2
 40
0
  9
$LOFTPARAM
 70
    7
  9
$LOFTNORMALS
280
    1
  9
$LATITUDE
 40
1
  9
$LONGITUDE
 40
1
  9
$NORTHDIRECTION
 40
0
  9
$TIMEZONE
 70
-8000
  9
$LIGHTGLYPHDISPLAY
280
    1
  9
$TILEMODELIGHTSYNCH
280
    1
  9
$SOLIDHIST
280
    1
  9
$SHOWHIST
280
    1
  9
$DWFFRAME
280
    2
  9
$DGNFRAME
280
    0
  9
$REALWORLDSCALE
290
    1
  9
$INTERFERECOLOR
 62
    1
  9
$CSHADOW
280
    0
  9
$SHADOWPLANELOCATION
 40
0
  0
ENDSEC
  0
SECTION
  2
CLASSES
  0
ENDSEC
  0
SECTION
  2
TABLES
  0
TABLE
  2
VPORT
  5
8
330
0
100
AcDbSymbolTable
 70
    1
  0
VPORT
  5
31
330
2
100
AcDbSymbolTableRecord
100
AcDbViewportTableRecord
  2
*ACTIVE
 70
    0
 10
0
 20
0
 11
1
 21
1
 12
10854.01291076326
 22
4693.31244961115
 13
0
 23
0
 14
10
 24
10
 15
10
 25
10
 16
0
 26
0
 36
1
 17
0
 27
0
 37
0
 40
15815.18190216363
 41
1.917525773195876
 42
50
 43
0
 44
0
 50
0
 51
0
 71
    0
 72
  100
 73
    1
 74
    3
 75
    0
 76
    1
 77
    0
 78
    0
281
    0
 65
    1
110
0
120
0
130
0
111
1
121
0
131
0
112
0
122
1
132
0
 79
    0
146
0
348
10020
 60
    7
 61
    5
292
1
282
    1
141
0
142
0
 63
  250
421
3358443
  0
ENDTAB
  0
TABLE
  2
LTYPE
  5
5
330
0
100
AcDbSymbolTable
 70
    4
  0
LTYPE
  5
14
330
5
100
AcDbSymbolTableRecord
100
AcDbLinetypeTableRecord
  2
ByBlock
 70
    0
  3

 72
   65
 73
    0
 40
0
  0
LTYPE
  5
15
330
5
100
AcDbSymbolTableRecord
100
AcDbLinetypeTableRecord
  2
ByLayer
 70
    0
  3

 72
   65
 73
    0
 40
0
  0
LTYPE
  5
16
330
5
100
AcDbSymbolTableRecord
100
AcDbLinetypeTableRecord
  2
Continuous
 70
    0
  3
Solid line
 72
   65
 73
    0
 40
0
  0
LTYPE
  5
32
330
5
100
AcDbSymbolTableRecord
100
AcDbLinetypeTableRecord
  2
DOT
 70
    0
  3
Dot . . . . . . . . . . . . . . . . . . . . . .
 72
   65
 73
    2
 40
6.35
 49
0
 74
    0
 49
-6.35
 74
    0
  0
LTYPE
  5
33
330
5
100
AcDbSymbolTableRecord
100
AcDbLinetypeTableRecord
  2
DOTTINY
 70
    0
  3
Dot (.15x) .....................................
 72
   65
 73
    2
 40
0.9525
 49
0
 74
    0
 49
-0.9525
 74
    0
  0
LTYPE
  5
34
330
5
100
AcDbSymbolTableRecord
100
AcDbLinetypeTableRecord
  2
DOT2
 70
    0
  3
Dot (.5x) .....................................
 72
   65
 73
    2
 40
3.175
 49
0
 74
    0
 49
-3.175
 74
    0
  0
LTYPE
  5
35
330
5
100
AcDbSymbolTableRecord
100
AcDbLinetypeTableRecord
  2
DOTX2
 70
    0
  3
Dot (2x) .  .  .  .  .  .  .  .  .  .  .  .  .
 72
   65
 73
    2
 40
12.7
 49
0
 74
    0
 49
-12.7
 74
    0
  0
LTYPE
  5
36
330
5
100
AcDbSymbolTableRecord
100
AcDbLinetypeTableRecord
  2
DASHED
 70
    0
  3
Dashed _ _ _ _ _ _ _ _ _ _ _ _ _ _ _ _ _
 72
   65
 73
    2
 40
19.05
 49
12.7
 74
    0
 49
-6.35
 74
    0
  0
LTYPE
  5
37
330
5
100
AcDbSymbolTableRecord
100
AcDbLinetypeTableRecord
  2
DASHEDTINY
 70
    0
  3
Dashed (.15x) _ _ _ _ _ _ _ _ _ _ _ _ _ _ _ _ _
 72
   65
 73
    2
 40
2.8575
 49
1.905
 74
    0
 49
-0.9525
 74
    0
  0
LTYPE
  5
38
330
5
100
AcDbSymbolTableRecord
100
AcDbLinetypeTableRecord
  2
DASHED2
 70
    0
  3
Dashed (.5x) _ _ _ _ _ _ _ _ _ _ _ _ _ _ _ _ _
 72
   65
 73
    2
 40
9.524999999999999
 49
6.35
 74
    0
 49
-3.175
 74
    0
  0
LTYPE
  5
39
330
5
100
AcDbSymbolTableRecord
100
AcDbLinetypeTableRecord
  2
DASHEDX2
 70
    0
  3
Dashed (2x) ____  ____  ____  ____  ____  ___
 72
   65
 73
    2
 40
38.09999999999999
 49
25.4
 74
    0
 49
-12.7
 74
    0
  0
LTYPE
  5
3A
330
5
100
AcDbSymbolTableRecord
100
AcDbLinetypeTableRecord
  2
DASHDOT
 70
    0
  3
Dash dot __ . __ . __ . __ . __ . __ . __ . __
 72
   65
 73
    4
 40
25.4
 49
12.7
 74
    0
 49
-6.35
 74
    0
 49
0
 74
    0
 49
-6.35
 74
    0
  0
LTYPE
  5
3B
330
5
100
AcDbSymbolTableRecord
100
AcDbLinetypeTableRecord
  2
DASHDOTTINY
 70
    0
  3
Dash dot (.15x) _._._._._._._._._._._._._._._.
 72
   65
 73
    4
 40
3.81
 49
1.905
 74
    0
 49
-0.9525
 74
    0
 49
0
 74
    0
 49
-0.9525
 74
    0
  0
LTYPE
  5
3C
330
5
100
AcDbSymbolTableRecord
100
AcDbLinetypeTableRecord
  2
DASHDOT2
 70
    0
  3
Dash dot (.5x) _._._._._._._._._._._._._._._.
 72
   65
 73
    4
 40
12.7
 49
6.35
 74
    0
 49
-3.175
 74
    0
 49
0
 74
    0
 49
-3.175
 74
    0
  0
LTYPE
  5
3D
330
5
100
AcDbSymbolTableRecord
100
AcDbLinetypeTableRecord
  2
DASHDOTX2
 70
    0
  3
Dash dot (2x) ____  .  ____  .  ____  .  ___
 72
   65
 73
    4
 40
50.8
 49
25.4
 74
    0
 49
-12.7
 74
    0
 49
0
 74
    0
 49
-12.7
 74
    0
  0
LTYPE
  5
3E
330
5
100
AcDbSymbolTableRecord
100
AcDbLinetypeTableRecord
  2
DIVIDE
 70
    0
  3
Divide ____ . . ____ . . ____ . . ____ . . ____
 72
   65
 73
    6
 40
31.75
 49
12.7
 74
    0
 49
-6.35
 74
    0
 49
0
 74
    0
 49
-6.35
 74
    0
 49
0
 74
    0
 49
-6.35
 74
    0
  0
LTYPE
  5
3F
330
5
100
AcDbSymbolTableRecord
100
AcDbLinetypeTableRecord
  2
DIVIDETINY
 70
    0
  3
Divide (.15x) __..__..__..__..__..__..__..__.._
 72
   65
 73
    6
 40
4.7625
 49
1.905
 74
    0
 49
-0.9525
 74
    0
 49
0
 74
    0
 49
-0.9525
 74
    0
 49
0
 74
    0
 49
-0.9525
 74
    0
  0
LTYPE
  5
40
330
5
100
AcDbSymbolTableRecord
100
AcDbLinetypeTableRecord
  2
DIVIDE2
 70
    0
  3
Divide (.5x) __..__..__..__..__..__..__..__.._
 72
   65
 73
    6
 40
15.875
 49
6.35
 74
    0
 49
-3.175
 74
    0
 49
0
 74
    0
 49
-3.175
 74
    0
 49
0
 74
    0
 49
-3.175
 74
    0
  0
LTYPE
  5
41
330
5
100
AcDbSymbolTableRecord
100
AcDbLinetypeTableRecord
  2
DIVIDEX2
 70
    0
  3
Divide (2x) ________  .  .  ________  .  .  _
 72
   65
 73
    6
 40
63.5
 49
25.4
 74
    0
 49
-12.7
 74
    0
 49
0
 74
    0
 49
-12.7
 74
    0
 49
0
 74
    0
 49
-12.7
 74
    0
  0
LTYPE
  5
42
330
5
100
AcDbSymbolTableRecord
100
AcDbLinetypeTableRecord
  2
BORDER
 70
    0
  3
Border __ __ . __ __ . __ __ . __ __ . __ __ .
 72
   65
 73
    6
 40
44.45
 49
12.7
 74
    0
 49
-6.35
 74
    0
 49
12.7
 74
    0
 49
-6.35
 74
    0
 49
0
 74
    0
 49
-6.35
 74
    0
  0
LTYPE
  5
43
330
5
100
AcDbSymbolTableRecord
100
AcDbLinetypeTableRecord
  2
BORDERTINY
 70
    0
  3
Border (.15x) __.__.__.__.__.__.__.__.__.__.__.
 72
   65
 73
    6
 40
6.6675
 49
1.905
 74
    0
 49
-0.9525
 74
    0
 49
1.905
 74
    0
 49
-0.9525
 74
    0
 49
0
 74
    0
 49
-0.9525
 74
    0
  0
LTYPE
  5
44
330
5
100
AcDbSymbolTableRecord
100
AcDbLinetypeTableRecord
  2
BORDER2
 70
    0
  3
Border (.5x) __.__.__.__.__.__.__.__.__.__.__.
 72
   65
 73
    6
 40
22.225
 49
6.35
 74
    0
 49
-3.175
 74
    0
 49
6.35
 74
    0
 49
-3.175
 74
    0
 49
0
 74
    0
 49
-3.175
 74
    0
  0
LTYPE
  5
45
330
5
100
AcDbSymbolTableRecord
100
AcDbLinetypeTableRecord
  2
BORDERX2
 70
    0
  3
Border (2x) ____  ____  .  ____  ____  .  ___
 72
   65
 73
    6
 40
88.89999999999999
 49
25.4
 74
    0
 49
-12.7
 74
    0
 49
25.4
 74
    0
 49
-12.7
 74
    0
 49
0
 74
    0
 49
-12.7
 74
    0
  0
LTYPE
  5
46
330
5
100
AcDbSymbolTableRecord
100
AcDbLinetypeTableRecord
  2
CENTER
 70
    0
  3
Center ____ _ ____ _ ____ _ ____ _ ____ _ ____
 72
   65
 73
    4
 40
50.8
 49
31.75
 74
    0
 49
-6.35
 74
    0
 49
6.35
 74
    0
 49
-6.35
 74
    0
  0
LTYPE
  5
47
330
5
100
AcDbSymbolTableRecord
100
AcDbLinetypeTableRecord
  2
CENTERTINY
 70
    0
  3
Center (.15x) ___ _ ___ _ ___ _ ___ _ ___ _ ___
 72
   65
 73
    4
 40
7.62
 49
4.7625
 74
    0
 49
-0.9525
 74
    0
 49
0.9525
 74
    0
 49
-0.9525
 74
    0
  0
LTYPE
  5
48
330
5
100
AcDbSymbolTableRecord
100
AcDbLinetypeTableRecord
  2
CENTER2
 70
    0
  3
Center (.5x) ___ _ ___ _ ___ _ ___ _ ___ _ ___
 72
   65
 73
    4
 40
28.575
 49
19.05
 74
    0
 49
-3.175
 74
    0
 49
3.175
 74
    0
 49
-3.175
 74
    0
  0
LTYPE
  5
49
330
5
100
AcDbSymbolTableRecord
100
AcDbLinetypeTableRecord
  2
CENTERX2
 70
    0
  3
Center (2x) ________  __  ________  __  _____
 72
   65
 73
    4
 40
101.6
 49
63.5
 74
    0
 49
-12.7
 74
    0
 49
12.7
 74
    0
 49
-12.7
 74
    0
  0
ENDTAB
  0
TABLE
  2
LAYER
  5
2
330
0
100
AcDbSymbolTable
 70
    1
  0
LAYER
  5
10
330
2
100
AcDbSymbolTableRecord
100
AcDbLayerTableRecord
  2
0
 70
    0
 62
    7
  6
CONTINUOUS
370
   35
390
F
  0
LAYER
  5
4A
330
2
100
AcDbSymbolTableRecord
100
AcDbLayerTableRecord
  2
Dimensions
 70
    0
 62
    1
  6
CONTINUOUS
370
   25
390
F
  0
LAYER
  5
4B
330
2
100
AcDbSymbolTableRecord
100
AcDbLayerTableRecord
  2
Drawing Border
 70
    0
 62
    7
  6
CONTINUOUS
370
   35
390
F
  0
LAYER
  5
4C
330
2
100
AcDbSymbolTableRecord
100
AcDbLayerTableRecord
  2
Paper Format
 70
    0
 62
    6
  6
CONTINUOUS
290
0
370
   35
390
F
  0
LAYER
  5
4D
330
2
100
AcDbSymbolTableRecord
100
AcDbLayerTableRecord
  2
Sloping Section
 70
    0
 62
    5
  6
CONTINUOUS
370
   25
390
F
  0
LAYER
  5
4E
330
2
100
AcDbSymbolTableRecord
100
AcDbLayerTableRecord
  2
Title Block
 70
    0
 62
    7
  6
CONTINUOUS
370
   25
390
F
  0
ENDTAB
  0
TABLE
  2
STYLE
  5
3
330
0
100
AcDbSymbolTable
 70
    3
  0
STYLE
  5
4F
330
2
100
AcDbSymbolTableRecord
100
AcDbTextStyleTableRecord
  2
STANDARD
 70
    0
 40
0
 41
1
 50
0
 71
    0
 42
1
  3
STANDARD
  4

  0
ENDTAB
  0
TABLE
  2
VIEW
  5
6
330
0
100
AcDbSymbolTable
 70
    0
  0
ENDTAB
  0
TABLE
  2
UCS
  5
7
330
0
100
AcDbSymbolTable
 70
    0
  0
ENDTAB
  0
TABLE
  2
APPID
  5
9
330
0
100
AcDbSymbolTable
 70
    1
  0
APPID
  5
12
330
9
100
AcDbSymbolTableRecord
100
AcDbRegAppTableRecord
  2
ACAD
 70
    0
  0
APPID
  5
50
330
9
100
AcDbSymbolTableRecord
100
AcDbRegAppTableRecord
  2
LibreCad
 70
    0
  0
ENDTAB
  0
TABLE
  2
DIMSTYLE
  5
A
330
0
100
AcDbSymbolTable
 70
    1
100
AcDbDimStyleTable
 71
    1
  0
DIMSTYLE
105
51
330
A
100
AcDbSymbolTableRecord
100
AcDbDimStyleTableRecord
  2
Standard
 70
    0
 40
2.5
 41
5
 42
0.625
 43
0.38
 44
1.25
 45
0
 46
0
 47
0
 48
0
 49
1
140
30
141
0.09
142
0
143
25.4
144
1
145
0
146
1
147
5
148
0
 71
    0
 72
    0
 73
    0
 74
    1
 75
    0
 76
    0
 77
    0
 78
    8
 79
    0
170
    0
171
    2
172
    0
173
    0
174
    0
175
    0
176
    0
177
    0
178
    0
179
    0
271
    2
272
    4
273
    2
274
    2
275
    0
276
    0
277
    2
278
   44
279
    0
280
    0
281
    0
282
    0
283
    1
284
    0
285
    0
286
    0
288
    0
289
    3
340
standard
341

371
   -2
372
   -2
  0
ENDTAB
  0
TABLE
  2
BLOCK_RECORD
  5
1
330
0
100
AcDbSymbolTable
 70
    2
  0
BLOCK_RECORD
  5
1F
330
1
100
AcDbSymbolTableRecord
100
AcDbBlockTableRecord
  2
*Model_Space
 70
    0
280
    1
281
    0
  0
BLOCK_RECORD
  5
1E
330
1
100
AcDbSymbolTableRecord
100
AcDbBlockTableRecord
  2
*Paper_Space
 70
    0
280
    1
281
    0
  0
BLOCK_RECORD
  5
52
330
1
100
AcDbSymbolTableRecord
100
AcDbBlockTableRecord
  2
*D1
 70
    0
280
    1
281
    0
  0
BLOCK_RECORD
  5
55
330
1
100
AcDbSymbolTableRecord
100
AcDbBlockTableRecord
  2
*D12
 70
    0
280
    1
281
    0
  0
BLOCK_RECORD
  5
58
330
1
100
AcDbSymbolTableRecord
100
AcDbBlockTableRecord
  2
*D7
 70
    0
280
    1
281
    0
  0
BLOCK_RECORD
  5
5B
330
1
100
AcDbSymbolTableRecord
100
AcDbBlockTableRecord
  2
*D11
 70
    0
280
    1
281
    0
  0
BLOCK_RECORD
  5
5E
330
1
100
AcDbSymbolTableRecord
100
AcDbBlockTableRecord
  2
*D6
 70
    0
280
    1
281
    0
  0
BLOCK_RECORD
  5
61
330
1
100
AcDbSymbolTableRecord
100
AcDbBlockTableRecord
  2
*D10
 70
    0
280
    1
281
    0
  0
BLOCK_RECORD
  5
64
330
1
100
AcDbSymbolTableRecord
100
AcDbBlockTableRecord
  2
*D5
 70
    0
280
    1
281
    0
  0
BLOCK_RECORD
  5
67
330
1
100
AcDbSymbolTableRecord
100
AcDbBlockTableRecord
  2
*D9
 70
    0
280
    1
281
    0
  0
BLOCK_RECORD
  5
6A
330
1
100
AcDbSymbolTableRecord
100
AcDbBlockTableRecord
  2
*D2
 70
    0
280
    1
281
    0
  0
BLOCK_RECORD
  5
6D
330
1
100
AcDbSymbolTableRecord
100
AcDbBlockTableRecord
  2
*D3
 70
    0
280
    1
281
    0
  0
BLOCK_RECORD
  5
70
330
1
100
AcDbSymbolTableRecord
100
AcDbBlockTableRecord
  2
*D4
 70
    0
280
    1
281
    0
  0
BLOCK_RECORD
  5
73
330
1
100
AcDbSymbolTableRecord
100
AcDbBlockTableRecord
  2
*D8
 70
    0
280
    1
281
    0
  0
BLOCK_RECORD
  5
76
330
1
100
AcDbSymbolTableRecord
100
AcDbBlockTableRecord
  2
Drawing Template A3 Landscape
 70
    0
280
    1
281
    0
  0
BLOCK_RECORD
  5
79
330
1
100
AcDbSymbolTableRecord
100
AcDbBlockTableRecord
  2
Drawing Template A3 Landscape-0
 70
    0
280
    1
281
    0
  0
BLOCK_RECORD
  5
7C
330
1
100
AcDbSymbolTableRecord
100
AcDbBlockTableRecord
  2
#Drawing Template A3 Landscape
 70
    0
280
    1
281
    0
  0
BLOCK_RECORD
  5
7F
330
1
100
AcDbSymbolTableRecord
100
AcDbBlockTableRecord
  2
#Drawing Template A3 Landscape-0
 70
    0
280
    1
281
    0
  0
BLOCK_RECORD
  5
82
330
1
100
AcDbSymbolTableRecord
100
AcDbBlockTableRecord
  2
#Drawing Template A3 Landscape-1
 70
    0
280
    1
281
    0
  0
BLOCK_RECORD
  5
85
330
1
100
AcDbSymbolTableRecord
100
AcDbBlockTableRecord
  2
Drawing Template A3 Landscape-1
 70
    0
280
    1
281
    0
  0
BLOCK_RECORD
  5
88
330
1
100
AcDbSymbolTableRecord
100
AcDbBlockTableRecord
  2
North_Arrow
 70
    0
280
    1
281
    0
  0
BLOCK_RECORD
  5
8B
330
1
100
AcDbSymbolTableRecord
100
AcDbBlockTableRecord
  2
North_Arrow-0
 70
    0
280
    1
281
    0
  0
BLOCK_RECORD
  5
8E
330
1
100
AcDbSymbolTableRecord
100
AcDbBlockTableRecord
  2
North 01
 70
    0
280
    1
281
    0
  0
BLOCK_RECORD
  5
91
330
1
100
AcDbSymbolTableRecord
100
AcDbBlockTableRecord
  2
North_Arrow-1
 70
    0
280
    1
281
    0
  0
BLOCK_RECORD
  5
94
330
1
100
AcDbSymbolTableRecord
100
AcDbBlockTableRecord
  2
North_Arrow-2
 70
    0
280
    1
281
    0
  0
BLOCK_RECORD
  5
97
330
1
100
AcDbSymbolTableRecord
100
AcDbBlockTableRecord
  2
North 01-0
 70
    0
280
    1
281
    0
  0
ENDTAB
  0
ENDSEC
  0
SECTION
  2
BLOCKS
  0
BLOCK
  5
20
330
1F
100
AcDbEntity
  8
0
100
AcDbBlockBegin
  2
*Model_Space
 70
    0
 10
0
 20
0
 30
0
  3
*Model_Space
  1

  0
ENDBLK
  5
21
330
1F
100
AcDbEntity
  8
0
100
AcDbBlockEnd
  0
BLOCK
  5
1C
330
1B
100
AcDbEntity
  8
0
100
AcDbBlockBegin
  2
*Paper_Space
 70
    0
 10
0
 20
0
 30
0
  3
*Paper_Space
  1

  0
ENDBLK
  5
1D
330
1F
100
AcDbEntity
  8
0
100
AcDbBlockEnd
  0
BLOCK
  5
53
330
52
100
AcDbEntity
  8
0
100
AcDbBlockBegin
  2
*D1
 70
    1
 10
0
 20
0
  3
*D1
  1

  0
LINE
  5
9A
100
AcDbEntity
  8
Dimensions
  6
ByBlock
 62
    0
370
   -2
100
AcDbLine
 10
0
 20
2480
 11
350
 21
2480
  0
MTEXT
  5
9B
100
AcDbEntity
  8
Dimensions
  6
CONTINUOUS
 62
    0
370
   -2
100
AcDbMText
 10
175
 20
2530
 30
0
 40
75
 41
150.0000000000093
 71
    5
 72
    1
  1
350
  7
standard
210
0
220
0
230
1
 50
0
 73
    2
 44
1
  0
SOLID
  5
9C
100
AcDbEntity
  8
Dimensions
  6
ByBlock
 62
    0
370
   -2
100
AcDbTrace
 10
0
 20
2480
 30
0
 11
12.5
 21
2482.081423288864
 31
0
 12
12.5
 22
2477.918576711136
 32
0
 13
12.5
 23
2477.918576711136
 33
0
  0
SOLID
  5
9D
100
AcDbEntity
  8
Dimensions
  6
ByBlock
 62
    0
370
   -2
100
AcDbTrace
 10
350
 20
2480
 30
0
 11
337.5
 21
2477.918576711136
 31
0
 12
337.5
 22
2482.081423288864
 32
0
 13
337.5
 23
2482.081423288864
 33
0
  0
LINE
  5
9E
100
AcDbEntity
  8
Dimensions
  6
ByBlock
 62
    0
370
   -2
100
AcDbLine
 10
-2.870171141771197e-16
 20
2498.4375
 11
-5.740342283542393e-16
 21
2476.875
  0
LINE
  5
9F
100
AcDbEntity
  8
Dimensions
  6
ByBlock
 62
    0
370
   -2
100
AcDbLine
 10
350
 20
2498.4375
 11
350
 21
2476.875
  0
ENDBLK
  5
54
330
52
100
AcDbEntity
  8
0
100
AcDbBlockEnd
  0
BLOCK
  5
56
330
55
100
AcDbEntity
  8
0
100
AcDbBlockBegin
  2
*D12
 70
    1
 10
0
 20
0
  3
*D12
  1

  0
LINE
  5
A0
100
AcDbEntity
  8
Dimensions
  6
ByBlock
 62
    0
370
   -2
100
AcDbLine
 10
14760
 20
0
 11
14760
 21
5905
  0
MTEXT
  5
A1
100
AcDbEntity
  8
Dimensions
  6
CONTINUOUS
 62
    0
370
   -2
100
AcDbMText
 10
14810
 20
2950
 30
0
 40
75
 41
208.3333333333426
 71
    5
 72
    1
  1
5905
  7
standard
210
0
220
0
230
1
 50
90
 73
    2
 44
1
  0
SOLID
  5
A2
100
AcDbEntity
  8
Dimensions
  6
ByBlock
 62
    0
370
   -2
100
AcDbTrace
 10
14760
 20
0
 30
0
 11
14757.91857671114
 21
12.5
 31
0
 12
14762.08142328886
 22
12.5
 32
0
 13
14762.08142328886
 23
12.5
 33
0
  0
SOLID
  5
A3
100
AcDbEntity
  8
Dimensions
  6
ByBlock
 62
    0
370
   -2
100
AcDbTrace
 10
14760
 20
5905
 30
0
 11
14762.08142328886
 21
5892.5
 31
0
 12
14757.91857671114
 22
5892.5
 32
0
 13
14757.91857671114
 23
5892.5
 33
0
  0
LINE
  5
A4
100
AcDbEntity
  8
Dimensions
  6
ByBlock
 62
    0
370
   -2
100
AcDbLine
 10
14566.5625
 20
0
 11
14763.125
 21
0
  0
LINE
  5
A5
100
AcDbEntity
  8
Dimensions
  6
ByBlock
 62
    0
370
   -2
100
AcDbLine
 10
14566.5625
 20
5905
 11
14763.125
 21
5905
  0
ENDBLK
  5
57
330
55
100
AcDbEntity
  8
0
100
AcDbBlockEnd
  0
BLOCK
  5
59
330
58
100
AcDbEntity
  8
0
100
AcDbBlockBegin
  2
*D7
 70
    1
 10
0
 20
0
  3
*D7
  1

  0
LINE
  5
A6
100
AcDbEntity
  8
Dimensions
  6
ByBlock
 62
    0
370
   -2
100
AcDbLine
 10
14000
 20
5905
 11
14000
 21
350
  0
MTEXT
  5
A7
100
AcDbEntity
  8
Dimensions
  6
CONTINUOUS
 62
    0
370
   -2
100
AcDbMText
 10
13950
 20
3127.5
 30
0
 40
75
 41
208.333333333352
 71
    5
 72
    1
  1
5555
  7
standard
210
0
220
0
230
1
 50
90
 73
    2
 44
1
  0
SOLID
  5
A8
100
AcDbEntity
  8
Dimensions
  6
ByBlock
 62
    0
370
   -2
100
AcDbTrace
 10
14000
 20
5905
 30
0
 11
14002.08142328886
 21
5892.5
 31
0
 12
13997.91857671114
 22
5892.5
 32
0
 13
13997.91857671114
 23
5892.5
 33
0
  0
SOLID
  5
A9
100
AcDbEntity
  8
Dimensions
  6
ByBlock
 62
    0
370
   -2
100
AcDbTrace
 10
14000
 20
350
 30
0
 11
13997.91857671114
 21
362.5
 31
0
 12
14002.08142328886
 22
362.5
 32
0
 13
14002.08142328886
 23
362.5
 33
0
  0
LINE
  5
AA
100
AcDbEntity
  8
Dimensions
  6
ByBlock
 62
    0
370
   -2
100
AcDbLine
 10
14213.4375
 20
5905
 11
13996.875
 21
5905
  0
LINE
  5
AB
100
AcDbEntity
  8
Dimensions
  6
ByBlock
 62
    0
370
   -2
100
AcDbLine
 10
14213.4375
 20
350
 11
13996.875
 21
350
  0
ENDBLK
  5
5A
330
58
100
AcDbEntity
  8
0
100
AcDbBlockEnd
  0
BLOCK
  5
5C
330
5B
100
AcDbEntity
  8
0
100
AcDbBlockBegin
  2
*D11
 70
    1
 10
0
 20
0
  3
*D11
  1

  0
LINE
  5
AC
100
AcDbEntity
  8
Dimensions
  6
ByBlock
 62
    0
370
   -2
100
AcDbLine
 10
600
 20
2605
 11
600
 21
350
  0
MTEXT
  5
AD
100
AcDbEntity
  8
Dimensions
  6
CONTINUOUS
 62
    0
370
   -2
100
AcDbMText
 10
650
 20
1480
 30
0
 40
75
 41
208.3333333333426
 71
    5
 72
    1
  1
2255
  7
standard
210
0
220
0
230
1
 50
90
 73
    2
 44
1
  0
SOLID
  5
AE
100
AcDbEntity
  8
Dimensions
  6
ByBlock
 62
    0
370
   -2
100
AcDbTrace
 10
600
 20
2605
 30
0
 11
602.0814232888642
 21
2592.5
 31
0
 12
597.9185767111358
 22
2592.5
 32
0
 13
597.9185767111358
 23
2592.5
 33
0
  0
SOLID
  5
AF
100
AcDbEntity
  8
Dimensions
  6
ByBlock
 62
    0
370
   -2
100
AcDbTrace
 10
600
 20
350
 30
0
 11
597.9185767111358
 21
362.5
 31
0
 12
602.0814232888642
 22
362.5
 32
0
 13
602.0814232888642
 23
362.5
 33
0
  0
LINE
  5
B0
100
AcDbEntity
  8
Dimensions
  6
ByBlock
 62
    0
370
   -2
100
AcDbLine
 10
351.5625
 20
2605
 11
603.125
 21
2605
  0
LINE
  5
B1
100
AcDbEntity
  8
Dimensions
  6
ByBlock
 62
    0
370
   -2
100
AcDbLine
 10
351.5625
 20
350
 11
603.125
 21
350
  0
ENDBLK
  5
5D
330
5B
100
AcDbEntity
  8
0
100
AcDbBlockEnd
  0
BLOCK
  5
5F
330
5E
100
AcDbEntity
  8
0
100
AcDbBlockBegin
  2
*D6
 70
    1
 10
0
 20
0
  3
*D6
  1

  0
LINE
  5
B2
100
AcDbEntity
  8
Dimensions
  6
ByBlock
 62
    0
370
   -2
100
AcDbLine
 10
7805
 20
600
 11
14215
 21
600
  0
MTEXT
  5
B3
100
AcDbEntity
  8
Dimensions
  6
CONTINUOUS
 62
    0
370
   -2
100
AcDbMText
 10
11010
 20
650
 30
0
 40
75
 41
200.0000000000047
 71
    5
 72
    1
  1
6410
  7
standard
210
0
220
0
230
1
 50
0
 73
    2
 44
1
  0
SOLID
  5
B4
100
AcDbEntity
  8
Dimensions
  6
ByBlock
 62
    0
370
   -2
100
AcDbTrace
 10
7805
 20
600
 30
0
 11
7817.5
 21
602.0814232888642
 31
0
 12
7817.5
 22
597.9185767111358
 32
0
 13
7817.5
 23
597.9185767111358
 33
0
  0
SOLID
  5
B5
100
AcDbEntity
  8
Dimensions
  6
ByBlock
 62
    0
370
   -2
100
AcDbTrace
 10
14215
 20
600
 30
0
 11
14202.5
 21
597.9185767111358
 31
0
 12
14202.5
 22
602.0814232888642
 32
0
 13
14202.5
 23
602.0814232888642
 33
0
  0
LINE
  5
B6
100
AcDbEntity
  8
Dimensions
  6
ByBlock
 62
    0
370
   -2
100
AcDbLine
 10
7805
 20
351.5625
 11
7805
 21
603.125
  0
LINE
  5
B7
100
AcDbEntity
  8
Dimensions
  6
ByBlock
 62
    0
370
   -2
100
AcDbLine
 10
14215
 20
351.5625
 11
14215
 21
603.125
  0
ENDBLK
  5
60
330
5E
100
AcDbEntity
  8
0
100
AcDbBlockEnd
  0
BLOCK
  5
62
330
61
100
AcDbEntity
  8
0
100
AcDbBlockBegin
  2
*D10
 70
    1
 10
0
 20
0
  3
*D10
  1

  0
LINE
  5
B8
100
AcDbEntity
  8
Dimensions
  6
ByBlock
 62
    0
370
   -2
100
AcDbLine
 10
14565
 20
-300
 11
7805
 21
-300
  0
MTEXT
  5
B9
100
AcDbEntity
  8
Dimensions
  6
CONTINUOUS
 62
    0
370
   -2
100
AcDbMText
 10
11180
 20
-350
 30
0
 40
75
 41
208.3333333333427
 71
    5
 72
    1
  1
6760
  7
standard
210
0
220
0
230
1
 50
0
 73
    2
 44
1
  0
SOLID
  5
BA
100
AcDbEntity
  8
Dimensions
  6
ByBlock
 62
    0
370
   -2
100
AcDbTrace
 10
14565
 20
-300
 30
0
 11
14552.5
 21
-302.0814232888642
 31
0
 12
14552.5
 22
-297.9185767111358
 32
0
 13
14552.5
 23
-297.9185767111358
 33
0
  0
SOLID
  5
BB
100
AcDbEntity
  8
Dimensions
  6
ByBlock
 62
    0
370
   -2
100
AcDbTrace
 10
7805
 20
-300
 30
0
 11
7817.5
 21
-297.9185767111358
 31
0
 12
7817.5
 22
-302.0814232888642
 32
0
 13
7817.5
 23
-302.0814232888642
 33
0
  0
LINE
  5
BC
100
AcDbEntity
  8
Dimensions
  6
ByBlock
 62
    0
370
   -2
100
AcDbLine
 10
14565
 20
-1.5625
 11
14565
 21
-303.125
  0
LINE
  5
BD
100
AcDbEntity
  8
Dimensions
  6
ByBlock
 62
    0
370
   -2
100
AcDbLine
 10
7805
 20
-1.5625
 11
7805
 21
-303.125
  0
ENDBLK
  5
63
330
61
100
AcDbEntity
  8
0
100
AcDbBlockEnd
  0
BLOCK
  5
65
330
64
100
AcDbEntity
  8
0
100
AcDbBlockBegin
  2
*D5
 70
    1
 10
0
 20
0
  3
*D5
  1

  0
LINE
  5
BE
100
AcDbEntity
  8
Dimensions
  6
ByBlock
 62
    0
370
   -2
100
AcDbLine
 10
14215
 20
5970
 11
14565
 21
5970
  0
MTEXT
  5
BF
100
AcDbEntity
  8
Dimensions
  6
CONTINUOUS
 62
    0
370
   -2
100
AcDbMText
 10
14390
 20
6020
 30
0
 40
75
 41
150.0000000000093
 71
    5
 72
    1
  1
350
  7
standard
210
0
220
0
230
1
 50
0
 73
    2
 44
1
  0
SOLID
  5
C0
100
AcDbEntity
  8
Dimensions
  6
ByBlock
 62
    0
370
   -2
100
AcDbTrace
 10
14215
 20
5970
 30
0
 11
14227.5
 21
5972.081423288864
 31
0
 12
14227.5
 22
5967.918576711136
 32
0
 13
14227.5
 23
5967.918576711136
 33
0
  0
SOLID
  5
C1
100
AcDbEntity
  8
Dimensions
  6
ByBlock
 62
    0
370
   -2
100
AcDbTrace
 10
14565
 20
5970
 30
0
 11
14552.5
 21
5967.918576711136
 31
0
 12
14552.5
 22
5972.081423288864
 32
0
 13
14552.5
 23
5972.081423288864
 33
0
  0
LINE
  5
C2
100
AcDbEntity
  8
Dimensions
  6
ByBlock
 62
    0
370
   -2
100
AcDbLine
 10
14215
 20
5906.5625
 11
14215
 21
5973.125
  0
LINE
  5
C3
100
AcDbEntity
  8
Dimensions
  6
ByBlock
 62
    0
370
   -2
100
AcDbLine
 10
14565
 20
5906.5625
 11
14565
 21
5973.125
  0
ENDBLK
  5
66
330
64
100
AcDbEntity
  8
0
100
AcDbBlockEnd
  0
BLOCK
  5
68
330
67
100
AcDbEntity
  8
0
100
AcDbBlockBegin
  2
*D9
 70
    1
 10
0
 20
0
  3
*D9
  1

  0
LINE
  5
C4
100
AcDbEntity
  8
Dimensions
  6
ByBlock
 62
    0
370
   -2
100
AcDbLine
 10
0
 20
-300
 11
3805
 21
-300
  0
MTEXT
  5
C5
100
AcDbEntity
  8
Dimensions
  6
CONTINUOUS
 62
    0
370
   -2
100
AcDbMText
 10
1900
 20
-350
 30
0
 40
75
 41
208.3333333333426
 71
    5
 72
    1
  1
3805
  7
standard
210
0
220
0
230
1
 50
0
 73
    2
 44
1
  0
SOLID
  5
C6
100
AcDbEntity
  8
Dimensions
  6
ByBlock
 62
    0
370
   -2
100
AcDbTrace
 10
0
 20
-300
 30
0
 11
12.5
 21
-297.9185767111358
 31
0
 12
12.5
 22
-302.0814232888642
 32
0
 13
12.5
 23
-302.0814232888642
 33
0
  0
SOLID
  5
C7
100
AcDbEntity
  8
Dimensions
  6
ByBlock
 62
    0
370
   -2
100
AcDbTrace
 10
3805
 20
-300
 30
0
 11
3792.5
 21
-302.0814232888642
 31
0
 12
3792.5
 22
-297.9185767111358
 32
0
 13
3792.5
 23
-297.9185767111358
 33
0
  0
LINE
  5
C8
100
AcDbEntity
  8
Dimensions
  6
ByBlock
 62
    0
370
   -2
100
AcDbLine
 10
-2.870171141771197e-16
 20
-1.5625
 11
-5.740342283542393e-16
 21
-303.125
  0
LINE
  5
C9
100
AcDbEntity
  8
Dimensions
  6
ByBlock
 62
    0
370
   -2
100
AcDbLine
 10
3805
 20
-1.5625
 11
3805
 21
-303.125
  0
ENDBLK
  5
69
330
67
100
AcDbEntity
  8
0
100
AcDbBlockEnd
  0
BLOCK
  5
6B
330
6A
100
AcDbEntity
  8
0
100
AcDbBlockBegin
  2
*D2
 70
    1
 10
0
 20
0
  3
*D2
  1

  0
LINE
  5
CA
100
AcDbEntity
  8
Dimensions
  6
ByBlock
 62
    0
370
   -2
100
AcDbLine
 10
-500
 20
0
 11
-500
 21
2605
  0
MTEXT
  5
CB
100
AcDbEntity
  8
Dimensions
  6
CONTINUOUS
 62
    0
370
   -2
100
AcDbMText
 10
-550
 20
1302.5
 30
0
 40
75
 41
208.3333333333427
 71
    5
 72
    1
  1
2605
  7
standard
210
0
220
0
230
1
 50
90
 73
    2
 44
1
  0
SOLID
  5
CC
100
AcDbEntity
  8
Dimensions
  6
ByBlock
 62
    0
370
   -2
100
AcDbTrace
 10
-500
 20
0
 30
0
 11
-502.0814232888642
 21
12.5
 31
0
 12
-497.9185767111358
 22
12.5
 32
0
 13
-497.9185767111358
 23
12.5
 33
0
  0
SOLID
  5
CD
100
AcDbEntity
  8
Dimensions
  6
ByBlock
 62
    0
370
   -2
100
AcDbTrace
 10
-500
 20
2605
 30
0
 11
-497.9185767111358
 21
2592.5
 31
0
 12
-502.0814232888642
 22
2592.5
 32
0
 13
-502.0814232888642
 23
2592.5
 33
0
  0
LINE
  5
CE
100
AcDbEntity
  8
Dimensions
  6
ByBlock
 62
    0
370
   -2
100
AcDbLine
 10
-301.5625
 20
1.913447427847464e-16
 11
-503.125
 21
3.826894855694929e-16
  0
LINE
  5
CF
100
AcDbEntity
  8
Dimensions
  6
ByBlock
 62
    0
370
   -2
100
AcDbLine
 10
-301.5625
 20
2605
 11
-503.125
 21
2605
  0
ENDBLK
  5
6C
330
6A
100
AcDbEntity
  8
0
100
AcDbBlockEnd
  0
BLOCK
  5
6E
330
6D
100
AcDbEntity
  8
0
100
AcDbBlockBegin
  2
*D3
 70
    1
 10
0
 20
0
  3
*D3
  1

  0
LINE
  5
D0
100
AcDbEntity
  8
Dimensions
  6
ByBlock
 62
    0
370
   -2
100
AcDbLine
 10
350
 20
600
 11
3805
 21
600
  0
MTEXT
  5
D1
100
AcDbEntity
  8
Dimensions
  6
CONTINUOUS
 62
    0
370
   -2
100
AcDbMText
 10
2077.5
 20
650
 30
0
 40
75
 41
216.6666666666806
 71
    5
 72
    1
  1
3455
  7
standard
210
0
220
0
230
1
 50
0
 73
    2
 44
1
  0
SOLID
  5
D2
100
AcDbEntity
  8
Dimensions
  6
ByBlock
 62
    0
370
   -2
100
AcDbTrace
 10
350
 20
600
 30
0
 11
362.5
 21
602.0814232888642
 31
0
 12
362.5
 22
597.9185767111358
 32
0
 13
362.5
 23
597.9185767111358
 33
0
  0
SOLID
  5
D3
100
AcDbEntity
  8
Dimensions
  6
ByBlock
 62
    0
370
   -2
100
AcDbTrace
 10
3805
 20
600
 30
0
 11
3792.5
 21
597.9185767111358
 31
0
 12
3792.5
 22
602.0814232888642
 32
0
 13
3792.5
 23
602.0814232888642
 33
0
  0
LINE
  5
D4
100
AcDbEntity
  8
Dimensions
  6
ByBlock
 62
    0
370
   -2
100
AcDbLine
 10
350
 20
351.5625
 11
350
 21
603.125
  0
LINE
  5
D5
100
AcDbEntity
  8
Dimensions
  6
ByBlock
 62
    0
370
   -2
100
AcDbLine
 10
3805
 20
351.5625
 11
3805
 21
603.125
  0
ENDBLK
  5
6F
330
6D
100
AcDbEntity
  8
0
100
AcDbBlockEnd
  0
BLOCK
  5
71
330
70
100
AcDbEntity
  8
0
100
AcDbBlockBegin
  2
*D4
 70
    1
 10
0
 20
0
  3
*D4
  1

  0
LINE
  5
D6
100
AcDbEntity
  8
Dimensions
  6
ByBlock
 62
    0
370
   -2
100
AcDbLine
 10
3680
 20
0
 11
3680
 21
350
  0
MTEXT
  5
D7
100
AcDbEntity
  8
Dimensions
  6
CONTINUOUS
 62
    0
370
   -2
100
AcDbMText
 10
3630
 20
175
 30
0
 40
75
 41
150.0000000000093
 71
    5
 72
    1
  1
350
  7
standard
210
0
220
0
230
1
 50
90
 73
    2
 44
1
  0
SOLID
  5
D8
100
AcDbEntity
  8
Dimensions
  6
ByBlock
 62
    0
370
   -2
100
AcDbTrace
 10
3680
 20
0
 30
0
 11
3677.918576711136
 21
12.5
 31
0
 12
3682.081423288864
 22
12.5
 32
0
 13
3682.081423288864
 23
12.5
 33
0
  0
SOLID
  5
D9
100
AcDbEntity
  8
Dimensions
  6
ByBlock
 62
    0
370
   -2
100
AcDbTrace
 10
3680
 20
350
 30
0
 11
3682.081423288864
 21
337.5
 31
0
 12
3677.918576711136
 22
337.5
 32
0
 13
3677.918576711136
 23
337.5
 33
0
  0
LINE
  5
DA
100
AcDbEntity
  8
Dimensions
  6
ByBlock
 62
    0
370
   -2
100
AcDbLine
 10
3698.4375
 20
1.913447427847464e-16
 11
3676.875
 21
3.826894855694929e-16
  0
LINE
  5
DB
100
AcDbEntity
  8
Dimensions
  6
ByBlock
 62
    0
370
   -2
100
AcDbLine
 10
3698.4375
 20
350
 11
3676.875
 21
350
  0
ENDBLK
  5
72
330
70
100
AcDbEntity
  8
0
100
AcDbBlockEnd
  0
BLOCK
  5
74
330
73
100
AcDbEntity
  8
0
100
AcDbBlockBegin
  2
*D8
 70
    1
 10
0
 20
0
  3
*D8
  1

  0
LINE
  5
DC
100
AcDbEntity
  8
Dimensions
  6
ByBlock
 62
    0
370
   -2
100
AcDbLine
 10
8080
 20
350
 11
8080
 21
0
  0
MTEXT
  5
DD
100
AcDbEntity
  8
Dimensions
  6
CONTINUOUS
 62
    0
370
   -2
100
AcDbMText
 10
8030
 20
175
 30
0
 40
75
 41
150.0000000000093
 71
    5
 72
    1
  1
350
  7
standard
210
0
220
0
230
1
 50
90
 73
    2
 44
1
  0
SOLID
  5
DE
100
AcDbEntity
  8
Dimensions
  6
ByBlock
 62
    0
370
   -2
100
AcDbTrace
 10
8080
 20
350
 30
0
 11
8082.081423288864
 21
337.5
 31
0
 12
8077.918576711136
 22
337.5
 32
0
 13
8077.918576711136
 23
337.5
 33
0
  0
SOLID
  5
DF
100
AcDbEntity
  8
Dimensions
  6
ByBlock
 62
    0
370
   -2
100
AcDbTrace
 10
8080
 20
0
 30
0
 11
8077.918576711136
 21
12.5
 31
0
 12
8082.081423288864
 22
12.5
 32
0
 13
8082.081423288864
 23
12.5
 33
0
  0
LINE
  5
E0
100
AcDbEntity
  8
Dimensions
  6
ByBlock
 62
    0
370
   -2
100
AcDbLine
 10
8001.5625
 20
350
 11
8083.125
 21
350
  0
LINE
  5
E1
100
AcDbEntity
  8
Dimensions
  6
ByBlock
 62
    0
370
   -2
100
AcDbLine
 10
8001.5625
 20
0
 11
8083.125
 21
0
  0
ENDBLK
  5
75
330
73
100
AcDbEntity
  8
0
100
AcDbBlockEnd
  0
BLOCK
  5
77
330
76
100
AcDbEntity
  8
0
100
AcDbBlockBegin
  2
Drawing Template A3 Landscape
 70
    0
 10
0
 20
0
  3
Drawing Template A3 Landscape
  1

  0
LINE
  5
E2
100
AcDbEntity
  8
Paper Format
  6
ByLayer
 62
  256
370
   -1
100
AcDbLine
 10
0
 20
0
 11
10
 21
0
  0
LINE
  5
E3
100
AcDbEntity
  8
Paper Format
  6
ByLayer
 62
  256
370
   -1
100
AcDbLine
 10
0
 20
0
 11
420
 21
0
  0
LINE
  5
E4
100
AcDbEntity
  8
Paper Format
  6
ByLayer
 62
  256
370
   -1
100
AcDbLine
 10
420
 20
0
 11
420
 21
297
  0
LINE
  5
E5
100
AcDbEntity
  8
Paper Format
  6
ByLayer
 62
  256
370
   -1
100
AcDbLine
 10
420
 20
297
 11
0
 21
297
  0
LINE
  5
E6
100
AcDbEntity
  8
Paper Format
  6
ByLayer
 62
  256
370
   -1
100
AcDbLine
 10
0
 20
297
 11
0
 21
0
  0
LINE
  5
E7
100
AcDbEntity
  8
Drawing Border
  6
ByLayer
 62
  256
370
   -1
100
AcDbLine
 10
16.125
 20
9.375
 11
410.625
 21
9.375
  0
LINE
  5
E8
100
AcDbEntity
  8
Drawing Border
  6
ByLayer
 62
  256
370
   -1
100
AcDbLine
 10
410.625
 20
9.375
 11
410.625
 21
287.625
  0
LINE
  5
E9
100
AcDbEntity
  8
Drawing Border
  6
ByLayer
 62
  256
370
   70
100
AcDbLine
 10
13
 20
290.75
 11
13
 21
6.25
  0
LINE
  5
EA
100
AcDbEntity
  8
Drawing Border
  6
ByLayer
 62
  256
370
   70
100
AcDbLine
 10
13
 20
6.25
 11
413.75
 21
6.25
  0
LINE
  5
EB
100
AcDbEntity
  8
Drawing Border
  6
ByLayer
 62
  256
370
   70
100
AcDbLine
 10
413.75
 20
290.75
 11
13
 21
290.75
  0
LINE
  5
EC
100
AcDbEntity
  8
Drawing Border
  6
ByLayer
 62
  256
370
   70
100
AcDbLine
 10
413.75
 20
6.25
 11
413.75
 21
290.75
  0
LINE
  5
ED
100
AcDbEntity
  8
Drawing Border
  6
ByLayer
 62
  256
370
   -1
100
AcDbLine
 10
16.125
 20
287.625
 11
16.125
 21
9.375
  0
LINE
  5
EE
100
AcDbEntity
  8
Drawing Border
  6
ByLayer
 62
  256
370
   -1
100
AcDbLine
 10
410.625
 20
287.625
 11
16.125
 21
287.625
  0
LINE
  5
EF
100
AcDbEntity
  8
Drawing Border
  6
ByLayer
 62
  256
370
   -1
100
AcDbLine
 10
114.75
 20
287.625
 11
114.75
 21
290.625
  0
LINE
  5
F0
100
AcDbEntity
  8
Drawing Border
  6
ByLayer
 62
  256
370
   -1
100
AcDbLine
 10
213.375
 20
287.625
 11
213.375
 21
290.625
  0
LINE
  5
F1
100
AcDbEntity
  8
Drawing Border
  6
ByLayer
 62
  256
370
   -1
100
AcDbLine
 10
312
 20
287.625
 11
312
 21
290.625
  0
LINE
  5
F2
100
AcDbEntity
  8
Drawing Border
  6
ByLayer
 62
  256
370
   -1
100
AcDbLine
 10
16.125
 20
194.875
 11
13.125
 21
194.875
  0
LINE
  5
F3
100
AcDbEntity
  8
Drawing Border
  6
ByLayer
 62
  256
370
   -1
100
AcDbLine
 10
16.125
 20
102.125
 11
13.125
 21
102.125
  0
MTEXT
  5
F4
100
AcDbEntity
  8
Drawing Border
  6
ByLayer
 62
  256
370
   -1
100
AcDbMText
 10
63.875
 20
289.1875
 30
0
 40
2
 41
1.333333333333333
 71
    5
 72
    1
  1
A
  7
STANDARD
210
0
220
0
230
1
 50
0
 73
    2
 44
1
  0
MTEXT
  5
F5
100
AcDbEntity
  8
Drawing Border
  6
ByLayer
 62
  256
370
   -1
100
AcDbMText
 10
164.0625
 20
289.125
 30
0
 40
1.5
 41
0.8333333333333333
 71
    5
 72
    1
  1
B
  7
STANDARD
210
0
220
0
230
1
 50
0
 73
    2
 44
1
  0
MTEXT
  5
F6
100
AcDbEntity
  8
Drawing Border
  6
ByLayer
 62
  256
370
   -1
100
AcDbMText
 10
262.6875
 20
289.125
 30
0
 40
1.5
 41
0.6666666666667597
 71
    5
 72
    1
  1
C
  7
STANDARD
210
0
220
0
230
1
 50
0
 73
    2
 44
1
  0
MTEXT
  5
F7
100
AcDbEntity
  8
Drawing Border
  6
ByLayer
 62
  256
370
   -1
100
AcDbMText
 10
361.3125
 20
289.125
 30
0
 40
1.5
 41
0.8333333333334263
 71
    5
 72
    1
  1
D
  7
STANDARD
210
0
220
0
230
1
 50
0
 73
    2
 44
1
  0
MTEXT
  5
F8
100
AcDbEntity
  8
Drawing Border
  6
ByLayer
 62
  256
370
   -1
100
AcDbMText
 10
14.5625
 20
242.8125
 30
0
 40
1.5
 41
0.3333333333333333
 71
    5
 72
    1
  1
1
  7
STANDARD
210
0
220
0
230
1
 50
0
 73
    2
 44
1
  0
MTEXT
  5
F9
100
AcDbEntity
  8
Drawing Border
  6
ByLayer
 62
  256
370
   -1
100
AcDbMText
 10
14.5625
 20
147.9791666666667
 30
0
 40
1.5
 41
0.6666666666666666
 71
    5
 72
    1
  1
2
  7
STANDARD
210
0
220
0
230
1
 50
0
 73
    2
 44
1
  0
MTEXT
  5
FA
100
AcDbEntity
  8
Drawing Border
  6
ByLayer
 62
  256
370
   -1
100
AcDbMText
 10
14.5625
 20
55.22916666666667
 30
0
 40
1.5
 41
0.6666666666667597
 71
    5
 72
    1
  1
3
  7
STANDARD
210
0
220
0
230
1
 50
0
 73
    2
 44
1
  0
LWPOLYLINE
  5
FB
100
AcDbEntity
  8
Drawing Border
  6
ByLayer
 62
  256
370
   -1
100
AcDbPolyline
 90
    4
 70
    1
 43
0
 10
412.25
 20
73.49999999999999
 10
413.75
 20
73.49999999999999
 10
413.75
 20
223.5
 10
412.25
 20
223.5
  0
LINE
  5
FC
100
AcDbEntity
  8
Title Block
  6
ByLayer
 62
  256
370
   -1
100
AcDbLine
 10
16.125
 20
9.375
 11
22.375
 21
9.375
  0
LINE
  5
FD
100
AcDbEntity
  8
Title Block
  6
ByLayer
 62
  256
370
   -1
100
AcDbLine
 10
22.375
 20
19.375
 11
16.125
 21
19.375
  0
LINE
  5
FE
100
AcDbEntity
  8
Title Block
  6
ByLayer
 62
  256
370
   -1
100
AcDbLine
 10
16.125
 20
19.375
 11
16.125
 21
9.375
  0
LINE
  5
FF
100
AcDbEntity
  8
Title Block
  6
ByLayer
 62
  256
370
   -1
100
AcDbLine
 10
22.375
 20
9.375
 11
28.625
 21
9.375
  0
LINE
  5
100
100
AcDbEntity
  8
Title Block
  6
ByLayer
 62
  256
370
   -1
100
AcDbLine
 10
28.625
 20
19.375
 11
22.375
 21
19.375
  0
LINE
  5
101
100
AcDbEntity
  8
Title Block
  6
ByLayer
 62
  256
370
   -1
100
AcDbLine
 10
28.625
 20
9.375
 11
34.875
 21
9.375
  0
LINE
  5
102
100
AcDbEntity
  8
Title Block
  6
ByLayer
 62
  256
370
   -1
100
AcDbLine
 10
34.875
 20
19.375
 11
28.625
 21
19.375
  0
LINE
  5
103
100
AcDbEntity
  8
Title Block
  6
ByLayer
 62
  256
370
   -1
100
AcDbLine
 10
34.875
 20
9.375
 11
41.125
 21
9.375
  0
LINE
  5
104
100
AcDbEntity
  8
Title Block
  6
ByLayer
 62
  256
370
   -1
100
AcDbLine
 10
41.125
 20
19.375
 11
34.875
 21
19.375
  0
LINE
  5
105
100
AcDbEntity
  8
Title Block
  6
ByLayer
 62
  256
370
   -1
100
AcDbLine
 10
41.125
 20
9.375
 11
47.375
 21
9.375
  0
LINE
  5
106
100
AcDbEntity
  8
Title Block
  6
ByLayer
 62
  256
370
   -1
100
AcDbLine
 10
47.375
 20
19.375
 11
41.125
 21
19.375
  0
LINE
  5
107
100
AcDbEntity
  8
Title Block
  6
ByLayer
 62
  256
370
   -1
100
AcDbLine
 10
47.375
 20
9.375
 11
53.625
 21
9.375
  0
LINE
  5
108
100
AcDbEntity
  8
Title Block
  6
ByLayer
 62
  256
370
   -1
100
AcDbLine
 10
53.625
 20
19.375
 11
47.375
 21
19.375
  0
LINE
  5
109
100
AcDbEntity
  8
Title Block
  6
ByLayer
 62
  256
370
   -1
100
AcDbLine
 10
53.625
 20
9.375
 11
59.875
 21
9.375
  0
LINE
  5
10A
100
AcDbEntity
  8
Title Block
  6
ByLayer
 62
  256
370
   -1
100
AcDbLine
 10
59.875
 20
19.375
 11
53.625
 21
19.375
  0
LINE
  5
10B
100
AcDbEntity
  8
Title Block
  6
ByLayer
 62
  256
370
   -1
100
AcDbLine
 10
59.875
 20
9.375
 11
66.125
 21
9.375
  0
LINE
  5
10C
100
AcDbEntity
  8
Title Block
  6
ByLayer
 62
  256
370
   -1
100
AcDbLine
 10
66.125
 20
19.375
 11
59.875
 21
19.375
  0
LINE
  5
10D
100
AcDbEntity
  8
Title Block
  6
ByLayer
 62
  256
370
   -1
100
AcDbLine
 10
66.125
 20
9.375
 11
72.375
 21
9.375
  0
LINE
  5
10E
100
AcDbEntity
  8
Title Block
  6
ByLayer
 62
  256
370
   -1
100
AcDbLine
 10
72.375
 20
19.375
 11
66.125
 21
19.375
  0
LINE
  5
10F
100
AcDbEntity
  8
Title Block
  6
ByLayer
 62
  256
370
   -1
100
AcDbLine
 10
72.375
 20
9.375
 11
78.625
 21
9.375
  0
LINE
  5
110
100
AcDbEntity
  8
Title Block
  6
ByLayer
 62
  256
370
   -1
100
AcDbLine
 10
78.625
 20
19.375
 11
72.375
 21
19.375
  0
LINE
  5
111
100
AcDbEntity
  8
Title Block
  6
ByLayer
 62
  256
370
   -1
100
AcDbLine
 10
78.625
 20
9.375
 11
84.875
 21
9.375
  0
LINE
  5
112
100
AcDbEntity
  8
Title Block
  6
ByLayer
 62
  256
370
   -1
100
AcDbLine
 10
84.875
 20
9.375
 11
84.875
 21
19.375
  0
LINE
  5
113
100
AcDbEntity
  8
Title Block
  6
ByLayer
 62
  256
370
   -1
100
AcDbLine
 10
84.875
 20
19.375
 11
78.625
 21
19.375
  0
LINE
  5
114
100
AcDbEntity
  8
Title Block
  6
ByLayer
 62
  256
370
   -1
100
AcDbLine
 10
84.875
 20
9.375
 11
91.125
 21
9.375
  0
LINE
  5
115
100
AcDbEntity
  8
Title Block
  6
ByLayer
 62
  256
370
   -1
100
AcDbLine
 10
91.125
 20
19.375
 11
84.875
 21
19.375
  0
LINE
  5
116
100
AcDbEntity
  8
Title Block
  6
ByLayer
 62
  256
370
   -1
100
AcDbLine
 10
91.125
 20
9.375
 11
97.375
 21
9.375
  0
LINE
  5
117
100
AcDbEntity
  8
Title Block
  6
ByLayer
 62
  256
370
   -1
100
AcDbLine
 10
97.375
 20
19.375
 11
91.125
 21
19.375
  0
LINE
  5
118
100
AcDbEntity
  8
Title Block
  6
ByLayer
 62
  256
370
   -1
100
AcDbLine
 10
97.375
 20
9.375
 11
103.625
 21
9.375
  0
LINE
  5
119
100
AcDbEntity
  8
Title Block
  6
ByLayer
 62
  256
370
   -1
100
AcDbLine
 10
103.625
 20
19.375
 11
97.375
 21
19.375
  0
LINE
  5
11A
100
AcDbEntity
  8
Title Block
  6
ByLayer
 62
  256
370
   -1
100
AcDbLine
 10
103.625
 20
9.375
 11
109.875
 21
9.375
  0
LINE
  5
11B
100
AcDbEntity
  8
Title Block
  6
ByLayer
 62
  256
370
   -1
100
AcDbLine
 10
109.875
 20
19.375
 11
103.625
 21
19.375
  0
LINE
  5
11C
100
AcDbEntity
  8
Title Block
  6
ByLayer
 62
  256
370
   -1
100
AcDbLine
 10
109.875
 20
9.375
 11
116.125
 21
9.375
  0
LINE
  5
11D
100
AcDbEntity
  8
Title Block
  6
ByLayer
 62
  256
370
   -1
100
AcDbLine
 10
116.125
 20
19.375
 11
109.875
 21
19.375
  0
LINE
  5
11E
100
AcDbEntity
  8
Title Block
  6
ByLayer
 62
  256
370
   -1
100
AcDbLine
 10
116.125
 20
9.375
 11
122.375
 21
9.375
  0
LINE
  5
11F
100
AcDbEntity
  8
Title Block
  6
ByLayer
 62
  256
370
   -1
100
AcDbLine
 10
122.375
 20
19.375
 11
116.125
 21
19.375
  0
LINE
  5
120
100
AcDbEntity
  8
Title Block
  6
ByLayer
 62
  256
370
   -1
100
AcDbLine
 10
122.375
 20
9.375
 11
128.625
 21
9.375
  0
LINE
  5
121
100
AcDbEntity
  8
Title Block
  6
ByLayer
 62
  256
370
   -1
100
AcDbLine
 10
128.625
 20
19.375
 11
122.375
 21
19.375
  0
LINE
  5
122
100
AcDbEntity
  8
Title Block
  6
ByLayer
 62
  256
370
   -1
100
AcDbLine
 10
128.625
 20
9.375
 11
134.875
 21
9.375
  0
LINE
  5
123
100
AcDbEntity
  8
Title Block
  6
ByLayer
 62
  256
370
   -1
100
AcDbLine
 10
134.875
 20
19.375
 11
128.625
 21
19.375
  0
LINE
  5
124
100
AcDbEntity
  8
Title Block
  6
ByLayer
 62
  256
370
   -1
100
AcDbLine
 10
134.875
 20
9.375
 11
141.125
 21
9.375
  0
LINE
  5
125
100
AcDbEntity
  8
Title Block
  6
ByLayer
 62
  256
370
   -1
100
AcDbLine
 10
141.125
 20
19.375
 11
134.875
 21
19.375
  0
LINE
  5
126
100
AcDbEntity
  8
Title Block
  6
ByLayer
 62
  256
370
   -1
100
AcDbLine
 10
141.125
 20
9.375
 11
147.375
 21
9.375
  0
LINE
  5
127
100
AcDbEntity
  8
Title Block
  6
ByLayer
 62
  256
370
   -1
100
AcDbLine
 10
147.375
 20
19.375
 11
141.125
 21
19.375
  0
LINE
  5
128
100
AcDbEntity
  8
Title Block
  6
ByLayer
 62
  256
370
   -1
100
AcDbLine
 10
147.375
 20
9.375
 11
153.625
 21
9.375
  0
LINE
  5
129
100
AcDbEntity
  8
Title Block
  6
ByLayer
 62
  256
370
   -1
100
AcDbLine
 10
153.625
 20
9.375
 11
153.625
 21
19.375
  0
LINE
  5
12A
100
AcDbEntity
  8
Title Block
  6
ByLayer
 62
  256
370
   -1
100
AcDbLine
 10
153.625
 20
19.375
 11
147.375
 21
19.375
  0
LINE
  5
12B
100
AcDbEntity
  8
Title Block
  6
ByLayer
 62
  256
370
   -1
100
AcDbLine
 10
153.625
 20
9.375
 11
159.875
 21
9.375
  0
LINE
  5
12C
100
AcDbEntity
  8
Title Block
  6
ByLayer
 62
  256
370
   -1
100
AcDbLine
 10
159.875
 20
19.375
 11
153.625
 21
19.375
  0
LINE
  5
12D
100
AcDbEntity
  8
Title Block
  6
ByLayer
 62
  256
370
   -1
100
AcDbLine
 10
159.875
 20
9.375
 11
166.125
 21
9.375
  0
LINE
  5
12E
100
AcDbEntity
  8
Title Block
  6
ByLayer
 62
  256
370
   -1
100
AcDbLine
 10
166.125
 20
19.375
 11
159.875
 21
19.375
  0
LINE
  5
12F
100
AcDbEntity
  8
Title Block
  6
ByLayer
 62
  256
370
   -1
100
AcDbLine
 10
166.125
 20
9.375
 11
172.375
 21
9.375
  0
LINE
  5
130
100
AcDbEntity
  8
Title Block
  6
ByLayer
 62
  256
370
   -1
100
AcDbLine
 10
172.375
 20
19.375
 11
166.125
 21
19.375
  0
LINE
  5
131
100
AcDbEntity
  8
Title Block
  6
ByLayer
 62
  256
370
   -1
100
AcDbLine
 10
172.375
 20
9.375
 11
178.625
 21
9.375
  0
LINE
  5
132
100
AcDbEntity
  8
Title Block
  6
ByLayer
 62
  256
370
   -1
100
AcDbLine
 10
178.625
 20
19.375
 11
172.375
 21
19.375
  0
LINE
  5
133
100
AcDbEntity
  8
Title Block
  6
ByLayer
 62
  256
370
   -1
100
AcDbLine
 10
178.625
 20
9.375
 11
184.875
 21
9.375
  0
LINE
  5
134
100
AcDbEntity
  8
Title Block
  6
ByLayer
 62
  256
370
   -1
100
AcDbLine
 10
184.875
 20
19.375
 11
178.625
 21
19.375
  0
LINE
  5
135
100
AcDbEntity
  8
Title Block
  6
ByLayer
 62
  256
370
   -1
100
AcDbLine
 10
184.875
 20
9.375
 11
191.125
 21
9.375
  0
LINE
  5
136
100
AcDbEntity
  8
Title Block
  6
ByLayer
 62
  256
370
   -1
100
AcDbLine
 10
191.125
 20
19.375
 11
184.875
 21
19.375
  0
LINE
  5
137
100
AcDbEntity
  8
Title Block
  6
ByLayer
 62
  256
370
   -1
100
AcDbLine
 10
191.125
 20
9.375
 11
197.375
 21
9.375
  0
LINE
  5
138
100
AcDbEntity
  8
Title Block
  6
ByLayer
 62
  256
370
   -1
100
AcDbLine
 10
197.375
 20
19.375
 11
191.125
 21
19.375
  0
LINE
  5
139
100
AcDbEntity
  8
Title Block
  6
ByLayer
 62
  256
370
   -1
100
AcDbLine
 10
197.375
 20
9.375
 11
203.625
 21
9.375
  0
LINE
  5
13A
100
AcDbEntity
  8
Title Block
  6
ByLayer
 62
  256
370
   -1
100
AcDbLine
 10
203.625
 20
19.375
 11
197.375
 21
19.375
  0
LINE
  5
13B
100
AcDbEntity
  8
Title Block
  6
ByLayer
 62
  256
370
   -1
100
AcDbLine
 10
203.625
 20
9.375
 11
209.875
 21
9.375
  0
LINE
  5
13C
100
AcDbEntity
  8
Title Block
  6
ByLayer
 62
  256
370
   -1
100
AcDbLine
 10
209.875
 20
19.375
 11
203.625
 21
19.375
  0
LINE
  5
13D
100
AcDbEntity
  8
Title Block
  6
ByLayer
 62
  256
370
   -1
100
AcDbLine
 10
209.875
 20
9.375
 11
216.125
 21
9.375
  0
LINE
  5
13E
100
AcDbEntity
  8
Title Block
  6
ByLayer
 62
  256
370
   -1
100
AcDbLine
 10
216.125
 20
19.375
 11
209.875
 21
19.375
  0
LINE
  5
13F
100
AcDbEntity
  8
Title Block
  6
ByLayer
 62
  256
370
   -1
100
AcDbLine
 10
216.125
 20
9.375
 11
222.375
 21
9.375
  0
LINE
  5
140
100
AcDbEntity
  8
Title Block
  6
ByLayer
 62
  256
370
   -1
100
AcDbLine
 10
222.375
 20
19.375
 11
216.125
 21
19.375
  0
LINE
  5
141
100
AcDbEntity
  8
Title Block
  6
ByLayer
 62
  256
370
   -1
100
AcDbLine
 10
222.375
 20
9.375
 11
228.625
 21
9.375
  0
LINE
  5
142
100
AcDbEntity
  8
Title Block
  6
ByLayer
 62
  256
370
   -1
100
AcDbLine
 10
228.625
 20
19.375
 11
222.375
 21
19.375
  0
LINE
  5
143
100
AcDbEntity
  8
Title Block
  6
ByLayer
 62
  256
370
   -1
100
AcDbLine
 10
228.625
 20
9.375
 11
234.875
 21
9.375
  0
LINE
  5
144
100
AcDbEntity
  8
Title Block
  6
ByLayer
 62
  256
370
   -1
100
AcDbLine
 10
234.875
 20
19.375
 11
228.625
 21
19.375
  0
LINE
  5
145
100
AcDbEntity
  8
Title Block
  6
ByLayer
 62
  256
370
   -1
100
AcDbLine
 10
234.875
 20
9.375
 11
241.125
 21
9.375
  0
LINE
  5
146
100
AcDbEntity
  8
Title Block
  6
ByLayer
 62
  256
370
   -1
100
AcDbLine
 10
241.125
 20
19.375
 11
234.875
 21
19.375
  0
LINE
  5
147
100
AcDbEntity
  8
Title Block
  6
ByLayer
 62
  256
370
   -1
100
AcDbLine
 10
241.125
 20
9.375
 11
247.375
 21
9.375
  0
LINE
  5
148
100
AcDbEntity
  8
Title Block
  6
ByLayer
 62
  256
370
   -1
100
AcDbLine
 10
247.375
 20
19.375
 11
241.125
 21
19.375
  0
LINE
  5
149
100
AcDbEntity
  8
Title Block
  6
ByLayer
 62
  256
370
   -1
100
AcDbLine
 10
247.375
 20
9.375
 11
253.625
 21
9.375
  0
LINE
  5
14A
100
AcDbEntity
  8
Title Block
  6
ByLayer
 62
  256
370
   -1
100
AcDbLine
 10
253.625
 20
19.375
 11
247.375
 21
19.375
  0
LINE
  5
14B
100
AcDbEntity
  8
Title Block
  6
ByLayer
 62
  256
370
   -1
100
AcDbLine
 10
253.625
 20
9.375
 11
259.875
 21
9.375
  0
LINE
  5
14C
100
AcDbEntity
  8
Title Block
  6
ByLayer
 62
  256
370
   -1
100
AcDbLine
 10
259.875
 20
19.375
 11
253.625
 21
19.375
  0
LINE
  5
14D
100
AcDbEntity
  8
Title Block
  6
ByLayer
 62
  256
370
   -1
100
AcDbLine
 10
259.875
 20
9.375
 11
266.125
 21
9.375
  0
LINE
  5
14E
100
AcDbEntity
  8
Title Block
  6
ByLayer
 62
  256
370
   -1
100
AcDbLine
 10
266.125
 20
19.375
 11
259.875
 21
19.375
  0
LINE
  5
14F
100
AcDbEntity
  8
Title Block
  6
ByLayer
 62
  256
370
   -1
100
AcDbLine
 10
266.125
 20
9.375
 11
272.375
 21
9.375
  0
LINE
  5
150
100
AcDbEntity
  8
Title Block
  6
ByLayer
 62
  256
370
   -1
100
AcDbLine
 10
272.375
 20
19.375
 11
266.125
 21
19.375
  0
LINE
  5
151
100
AcDbEntity
  8
Title Block
  6
ByLayer
 62
  256
370
   -1
100
AcDbLine
 10
272.375
 20
9.375
 11
278.625
 21
9.375
  0
LINE
  5
152
100
AcDbEntity
  8
Title Block
  6
ByLayer
 62
  256
370
   -1
100
AcDbLine
 10
278.625
 20
19.375
 11
272.375
 21
19.375
  0
LINE
  5
153
100
AcDbEntity
  8
Title Block
  6
ByLayer
 62
  256
370
   -1
100
AcDbLine
 10
278.625
 20
9.375
 11
284.875
 21
9.375
  0
LINE
  5
154
100
AcDbEntity
  8
Title Block
  6
ByLayer
 62
  256
370
   -1
100
AcDbLine
 10
284.875
 20
19.375
 11
278.625
 21
19.375
  0
LINE
  5
155
100
AcDbEntity
  8
Title Block
  6
ByLayer
 62
  256
370
   -1
100
AcDbLine
 10
284.875
 20
9.375
 11
291.125
 21
9.375
  0
LINE
  5
156
100
AcDbEntity
  8
Title Block
  6
ByLayer
 62
  256
370
   -1
100
AcDbLine
 10
291.125
 20
19.375
 11
284.875
 21
19.375
  0
LINE
  5
157
100
AcDbEntity
  8
Title Block
  6
ByLayer
 62
  256
370
   -1
100
AcDbLine
 10
291.125
 20
9.375
 11
297.375
 21
9.375
  0
LINE
  5
158
100
AcDbEntity
  8
Title Block
  6
ByLayer
 62
  256
370
   -1
100
AcDbLine
 10
297.375
 20
19.375
 11
291.125
 21
19.375
  0
LINE
  5
159
100
AcDbEntity
  8
Title Block
  6
ByLayer
 62
  256
370
   -1
100
AcDbLine
 10
297.375
 20
9.375
 11
303.625
 21
9.375
  0
LINE
  5
15A
100
AcDbEntity
  8
Title Block
  6
ByLayer
 62
  256
370
   -1
100
AcDbLine
 10
303.625
 20
19.375
 11
297.375
 21
19.375
  0
LINE
  5
15B
100
AcDbEntity
  8
Title Block
  6
ByLayer
 62
  256
370
   -1
100
AcDbLine
 10
303.625
 20
9.375
 11
309.875
 21
9.375
  0
LINE
  5
15C
100
AcDbEntity
  8
Title Block
  6
ByLayer
 62
  256
370
   -1
100
AcDbLine
 10
309.875
 20
19.375
 11
303.625
 21
19.375
  0
LINE
  5
15D
100
AcDbEntity
  8
Title Block
  6
ByLayer
 62
  256
370
   -1
100
AcDbLine
 10
309.875
 20
9.375
 11
316.125
 21
9.375
  0
LINE
  5
15E
100
AcDbEntity
  8
Title Block
  6
ByLayer
 62
  256
370
   -1
100
AcDbLine
 10
316.125
 20
19.375
 11
309.875
 21
19.375
  0
LINE
  5
15F
100
AcDbEntity
  8
Title Block
  6
ByLayer
 62
  256
370
   -1
100
AcDbLine
 10
316.125
 20
9.375
 11
322.375
 21
9.375
  0
LINE
  5
160
100
AcDbEntity
  8
Title Block
  6
ByLayer
 62
  256
370
   -1
100
AcDbLine
 10
322.375
 20
19.375
 11
316.125
 21
19.375
  0
LINE
  5
161
100
AcDbEntity
  8
Title Block
  6
ByLayer
 62
  256
370
   -1
100
AcDbLine
 10
322.375
 20
9.375
 11
328.625
 21
9.375
  0
LINE
  5
162
100
AcDbEntity
  8
Title Block
  6
ByLayer
 62
  256
370
   -1
100
AcDbLine
 10
328.625
 20
9.375
 11
328.625
 21
19.375
  0
LINE
  5
163
100
AcDbEntity
  8
Title Block
  6
ByLayer
 62
  256
370
   -1
100
AcDbLine
 10
328.625
 20
19.375
 11
322.375
 21
19.375
  0
LINE
  5
164
100
AcDbEntity
  8
Title Block
  6
ByLayer
 62
  256
370
   -1
100
AcDbLine
 10
328.625
 20
9.375
 11
334.875
 21
9.375
  0
LINE
  5
165
100
AcDbEntity
  8
Title Block
  6
ByLayer
 62
  256
370
   -1
100
AcDbLine
 10
334.875
 20
19.375
 11
328.625
 21
19.375
  0
LINE
  5
166
100
AcDbEntity
  8
Title Block
  6
ByLayer
 62
  256
370
   -1
100
AcDbLine
 10
334.875
 20
9.375
 11
341.125
 21
9.375
  0
LINE
  5
167
100
AcDbEntity
  8
Title Block
  6
ByLayer
 62
  256
370
   -1
100
AcDbLine
 10
341.125
 20
19.375
 11
334.875
 21
19.375
  0
LINE
  5
168
100
AcDbEntity
  8
Title Block
  6
ByLayer
 62
  256
370
   -1
100
AcDbLine
 10
341.125
 20
9.375
 11
347.375
 21
9.375
  0
LINE
  5
169
100
AcDbEntity
  8
Title Block
  6
ByLayer
 62
  256
370
   -1
100
AcDbLine
 10
347.375
 20
9.375
 11
347.375
 21
19.375
  0
LINE
  5
16A
100
AcDbEntity
  8
Title Block
  6
ByLayer
 62
  256
370
   -1
100
AcDbLine
 10
347.375
 20
19.375
 11
341.125
 21
19.375
  0
LINE
  5
16B
100
AcDbEntity
  8
Title Block
  6
ByLayer
 62
  256
370
   -1
100
AcDbLine
 10
347.375
 20
9.375
 11
353.625
 21
9.375
  0
LINE
  5
16C
100
AcDbEntity
  8
Title Block
  6
ByLayer
 62
  256
370
   -1
100
AcDbLine
 10
353.625
 20
19.375
 11
347.375
 21
19.375
  0
LINE
  5
16D
100
AcDbEntity
  8
Title Block
  6
ByLayer
 62
  256
370
   -1
100
AcDbLine
 10
353.625
 20
9.375
 11
359.875
 21
9.375
  0
LINE
  5
16E
100
AcDbEntity
  8
Title Block
  6
ByLayer
 62
  256
370
   -1
100
AcDbLine
 10
359.875
 20
19.375
 11
353.625
 21
19.375
  0
LINE
  5
16F
100
AcDbEntity
  8
Title Block
  6
ByLayer
 62
  256
370
   -1
100
AcDbLine
 10
359.875
 20
9.375
 11
366.125
 21
9.375
  0
LINE
  5
170
100
AcDbEntity
  8
Title Block
  6
ByLayer
 62
  256
370
   -1
100
AcDbLine
 10
366.125
 20
19.375
 11
359.875
 21
19.375
  0
LINE
  5
171
100
AcDbEntity
  8
Title Block
  6
ByLayer
 62
  256
370
   -1
100
AcDbLine
 10
366.125
 20
9.375
 11
372.375
 21
9.375
  0
LINE
  5
172
100
AcDbEntity
  8
Title Block
  6
ByLayer
 62
  256
370
   -1
100
AcDbLine
 10
372.375
 20
19.375
 11
366.125
 21
19.375
  0
LINE
  5
173
100
AcDbEntity
  8
Title Block
  6
ByLayer
 62
  256
370
   -1
100
AcDbLine
 10
372.375
 20
9.375
 11
378.625
 21
9.375
  0
LINE
  5
174
100
AcDbEntity
  8
Title Block
  6
ByLayer
 62
  256
370
   -1
100
AcDbLine
 10
378.625
 20
9.375
 11
378.625
 21
19.375
  0
LINE
  5
175
100
AcDbEntity
  8
Title Block
  6
ByLayer
 62
  256
370
   -1
100
AcDbLine
 10
378.625
 20
19.375
 11
372.375
 21
19.375
  0
LINE
  5
176
100
AcDbEntity
  8
Title Block
  6
ByLayer
 62
  256
370
   -1
100
AcDbLine
 10
378.625
 20
9.375
 11
384.875
 21
9.375
  0
LINE
  5
177
100
AcDbEntity
  8
Title Block
  6
ByLayer
 62
  256
370
   -1
100
AcDbLine
 10
384.875
 20
19.375
 11
378.625
 21
19.375
  0
LINE
  5
178
100
AcDbEntity
  8
Title Block
  6
ByLayer
 62
  256
370
   -1
100
AcDbLine
 10
384.875
 20
9.375
 11
391.125
 21
9.375
  0
LINE
  5
179
100
AcDbEntity
  8
Title Block
  6
ByLayer
 62
  256
370
   -1
100
AcDbLine
 10
391.125
 20
19.375
 11
384.875
 21
19.375
  0
LINE
  5
17A
100
AcDbEntity
  8
Title Block
  6
ByLayer
 62
  256
370
   -1
100
AcDbLine
 10
391.125
 20
9.375
 11
397.375
 21
9.375
  0
LINE
  5
17B
100
AcDbEntity
  8
Title Block
  6
ByLayer
 62
  256
370
   -1
100
AcDbLine
 10
397.375
 20
19.375
 11
391.125
 21
19.375
  0
LINE
  5
17C
100
AcDbEntity
  8
Title Block
  6
ByLayer
 62
  256
370
   -1
100
AcDbLine
 10
397.375
 20
9.375
 11
403.625
 21
9.375
  0
LINE
  5
17D
100
AcDbEntity
  8
Title Block
  6
ByLayer
 62
  256
370
   -1
100
AcDbLine
 10
403.625
 20
19.375
 11
397.375
 21
19.375
  0
LINE
  5
17E
100
AcDbEntity
  8
Title Block
  6
ByLayer
 62
  256
370
   -1
100
AcDbLine
 10
403.625
 20
9.375
 11
409.875
 21
9.375
  0
LINE
  5
17F
100
AcDbEntity
  8
Title Block
  6
ByLayer
 62
  256
370
   -1
100
AcDbLine
 10
409.875
 20
19.375
 11
403.625
 21
19.375
  0
MTEXT
  5
180
100
AcDbEntity
  8
Title Block
  6
ByLayer
 62
  256
370
   -1
100
AcDbMText
 10
17
 20
10
 30
0
 40
3
 41
19.2500000000006
 71
    7
 72
    1
  1
Drawn by:
  7
STANDARD
210
0
220
0
230
1
 50
0
 73
    2
 44
1
  0
MTEXT
  5
181
100
AcDbEntity
  8
Title Block
  6
ByLayer
 62
  256
370
   -1
100
AcDbMText
 10
86
 20
10
 30
0
 40
3
 41
9.333333333333659
 71
    7
 72
    1
  1
Date:
  7
STANDARD
210
0
220
0
230
1
 50
0
 73
    2
 44
1
  0
MTEXT
  5
182
100
AcDbEntity
  8
Title Block
  6
ByLayer
 62
  256
370
   -1
100
AcDbMText
 10
380
 20
10
 30
0
 40
3
 41
10.66666603066036
 71
    7
 72
    1
  1
Scale:
  7
STANDARD
210
0
220
0
230
1
 50
0
 73
    2
 44
1
  0
MTEXT
  5
183
100
AcDbEntity
  8
Title Block
  6
ByLayer
 62
  256
370
   -1
100
AcDbMText
 10
348
 20
10
 30
0
 40
3
 41
11.66666603066036
 71
    7
 72
    1
  1
Sheet:
  7
STANDARD
210
0
220
0
230
1
 50
0
 73
    2
 44
1
  0
MTEXT
  5
184
100
AcDbEntity
  8
Title Block
  6
ByLayer
 62
  256
370
   -1
100
AcDbMText
 10
330
 20
10
 30
0
 40
3
 41
7.333333333333333
 71
    7
 72
    1
  1
Rev:
  7
STANDARD
210
0
220
0
230
1
 50
0
 73
    2
 44
1
  0
MTEXT
  5
185
100
AcDbEntity
  8
Title Block
  6
ByLayer
 62
  256
370
   -1
100
AcDbMText
 10
156
 20
10
 30
0
 40
3
 41
27.2500000000006
 71
    7
 72
    1
  1
Drawing Title:
  7
STANDARD
210
0
220
0
230
1
 50
0
 73
    2
 44
1
  0
LINE
  5
186
100
AcDbEntity
  8
Title Block
  6
ByLayer
 62
  256
370
   -1
100
AcDbLine
 10
409.875
 20
19.375
 11
410.6250388567214
 21
19.37413924230033
  0
LINE
  5
187
100
AcDbEntity
  8
Title Block
  6
ByLayer
 62
  256
370
   -1
100
AcDbLine
 10
409.875
 20
9.375
 11
410.625
 21
9.375
  0
ENDBLK
  5
78
330
76
100
AcDbEntity
  8
0
100
AcDbBlockEnd
  0
BLOCK
  5
7A
330
79
100
AcDbEntity
  8
0
100
AcDbBlockBegin
  2
Drawing Template A3 Landscape-0
 70
    0
 10
0
 20
0
  3
Drawing Template A3 Landscape-0
  1

  0
LINE
  5
188
100
AcDbEntity
  8
Paper Format
  6
ByLayer
 62
  256
370
   -1
100
AcDbLine
 10
0
 20
0
 11
10
 21
0
  0
LINE
  5
189
100
AcDbEntity
  8
Paper Format
  6
ByLayer
 62
  256
370
   -1
100
AcDbLine
 10
0
 20
0
 11
420
 21
0
  0
LINE
  5
18A
100
AcDbEntity
  8
Paper Format
  6
ByLayer
 62
  256
370
   -1
100
AcDbLine
 10
420
 20
0
 11
420
 21
297
  0
LINE
  5
18B
100
AcDbEntity
  8
Paper Format
  6
ByLayer
 62
  256
370
   -1
100
AcDbLine
 10
420
 20
297
 11
0
 21
297
  0
LINE
  5
18C
100
AcDbEntity
  8
Paper Format
  6
ByLayer
 62
  256
370
   -1
100
AcDbLine
 10
0
 20
297
 11
0
 21
0
  0
LINE
  5
18D
100
AcDbEntity
  8
Drawing Border
  6
ByLayer
 62
  256
370
   -1
100
AcDbLine
 10
16.125
 20
9.375
 11
410.625
 21
9.375
  0
LINE
  5
18E
100
AcDbEntity
  8
Drawing Border
  6
ByLayer
 62
  256
370
   -1
100
AcDbLine
 10
410.625
 20
9.375
 11
410.625
 21
287.625
  0
LINE
  5
18F
100
AcDbEntity
  8
Drawing Border
  6
ByLayer
 62
  256
370
   70
100
AcDbLine
 10
13
 20
290.75
 11
13
 21
6.25
  0
LINE
  5
190
100
AcDbEntity
  8
Drawing Border
  6
ByLayer
 62
  256
370
   70
100
AcDbLine
 10
13
 20
6.25
 11
413.75
 21
6.25
  0
LINE
  5
191
100
AcDbEntity
  8
Drawing Border
  6
ByLayer
 62
  256
370
   70
100
AcDbLine
 10
413.75
 20
290.75
 11
13
 21
290.75
  0
LINE
  5
192
100
AcDbEntity
  8
Drawing Border
  6
ByLayer
 62
  256
370
   70
100
AcDbLine
 10
413.75
 20
6.25
 11
413.75
 21
290.75
  0
LINE
  5
193
100
AcDbEntity
  8
Drawing Border
  6
ByLayer
 62
  256
370
   -1
100
AcDbLine
 10
16.125
 20
287.625
 11
16.125
 21
9.375
  0
LINE
  5
194
100
AcDbEntity
  8
Drawing Border
  6
ByLayer
 62
  256
370
   -1
100
AcDbLine
 10
410.625
 20
287.625
 11
16.125
 21
287.625
  0
LINE
  5
195
100
AcDbEntity
  8
Drawing Border
  6
ByLayer
 62
  256
370
   -1
100
AcDbLine
 10
114.75
 20
287.625
 11
114.75
 21
290.625
  0
LINE
  5
196
100
AcDbEntity
  8
Drawing Border
  6
ByLayer
 62
  256
370
   -1
100
AcDbLine
 10
213.375
 20
287.625
 11
213.375
 21
290.625
  0
LINE
  5
197
100
AcDbEntity
  8
Drawing Border
  6
ByLayer
 62
  256
370
   -1
100
AcDbLine
 10
312
 20
287.625
 11
312
 21
290.625
  0
LINE
  5
198
100
AcDbEntity
  8
Drawing Border
  6
ByLayer
 62
  256
370
   -1
100
AcDbLine
 10
16.125
 20
194.875
 11
13.125
 21
194.875
  0
LINE
  5
199
100
AcDbEntity
  8
Drawing Border
  6
ByLayer
 62
  256
370
   -1
100
AcDbLine
 10
16.125
 20
102.125
 11
13.125
 21
102.125
  0
MTEXT
  5
19A
100
AcDbEntity
  8
Drawing Border
  6
ByLayer
 62
  256
370
   -1
100
AcDbMText
 10
63.875
 20
289.1875
 30
0
 40
2
 41
1.333333333333333
 71
    5
 72
    1
  1
A
  7
STANDARD
210
0
220
0
230
1
 50
0
 73
    2
 44
1
  0
MTEXT
  5
19B
100
AcDbEntity
  8
Drawing Border
  6
ByLayer
 62
  256
370
   -1
100
AcDbMText
 10
164.0625
 20
289.125
 30
0
 40
1.5
 41
0.8333333333333333
 71
    5
 72
    1
  1
B
  7
STANDARD
210
0
220
0
230
1
 50
0
 73
    2
 44
1
  0
MTEXT
  5
19C
100
AcDbEntity
  8
Drawing Border
  6
ByLayer
 62
  256
370
   -1
100
AcDbMText
 10
262.6875
 20
289.125
 30
0
 40
1.5
 41
0.6666666666667597
 71
    5
 72
    1
  1
C
  7
STANDARD
210
0
220
0
230
1
 50
0
 73
    2
 44
1
  0
MTEXT
  5
19D
100
AcDbEntity
  8
Drawing Border
  6
ByLayer
 62
  256
370
   -1
100
AcDbMText
 10
361.3125
 20
289.125
 30
0
 40
1.5
 41
0.8333333333334263
 71
    5
 72
    1
  1
D
  7
STANDARD
210
0
220
0
230
1
 50
0
 73
    2
 44
1
  0
MTEXT
  5
19E
100
AcDbEntity
  8
Drawing Border
  6
ByLayer
 62
  256
370
   -1
100
AcDbMText
 10
14.5625
 20
242.8125
 30
0
 40
1.5
 41
0.3333333333333333
 71
    5
 72
    1
  1
1
  7
STANDARD
210
0
220
0
230
1
 50
0
 73
    2
 44
1
  0
MTEXT
  5
19F
100
AcDbEntity
  8
Drawing Border
  6
ByLayer
 62
  256
370
   -1
100
AcDbMText
 10
14.5625
 20
147.9791666666667
 30
0
 40
1.5
 41
0.6666666666666666
 71
    5
 72
    1
  1
2
  7
STANDARD
210
0
220
0
230
1
 50
0
 73
    2
 44
1
  0
MTEXT
  5
1A0
100
AcDbEntity
  8
Drawing Border
  6
ByLayer
 62
  256
370
   -1
100
AcDbMText
 10
14.5625
 20
55.22916666666667
 30
0
 40
1.5
 41
0.6666666666667597
 71
    5
 72
    1
  1
3
  7
STANDARD
210
0
220
0
230
1
 50
0
 73
    2
 44
1
  0
LWPOLYLINE
  5
1A1
100
AcDbEntity
  8
Drawing Border
  6
ByLayer
 62
  256
370
   -1
100
AcDbPolyline
 90
    4
 70
    1
 43
0
 10
412.25
 20
73.49999999999999
 10
413.75
 20
73.49999999999999
 10
413.75
 20
223.5
 10
412.25
 20
223.5
  0
LINE
  5
1A2
100
AcDbEntity
  8
Title Block
  6
ByLayer
 62
  256
370
   -1
100
AcDbLine
 10
16.125
 20
9.375
 11
22.375
 21
9.375
  0
LINE
  5
1A3
100
AcDbEntity
  8
Title Block
  6
ByLayer
 62
  256
370
   -1
100
AcDbLine
 10
22.375
 20
19.375
 11
16.125
 21
19.375
  0
LINE
  5
1A4
100
AcDbEntity
  8
Title Block
  6
ByLayer
 62
  256
370
   -1
100
AcDbLine
 10
16.125
 20
19.375
 11
16.125
 21
9.375
  0
LINE
  5
1A5
100
AcDbEntity
  8
Title Block
  6
ByLayer
 62
  256
370
   -1
100
AcDbLine
 10
22.375
 20
9.375
 11
28.625
 21
9.375
  0
LINE
  5
1A6
100
AcDbEntity
  8
Title Block
  6
ByLayer
 62
  256
370
   -1
100
AcDbLine
 10
28.625
 20
19.375
 11
22.375
 21
19.375
  0
LINE
  5
1A7
100
AcDbEntity
  8
Title Block
  6
ByLayer
 62
  256
370
   -1
100
AcDbLine
 10
28.625
 20
9.375
 11
34.875
 21
9.375
  0
LINE
  5
1A8
100
AcDbEntity
  8
Title Block
  6
ByLayer
 62
  256
370
   -1
100
AcDbLine
 10
34.875
 20
19.375
 11
28.625
 21
19.375
  0
LINE
  5
1A9
100
AcDbEntity
  8
Title Block
  6
ByLayer
 62
  256
370
   -1
100
AcDbLine
 10
34.875
 20
9.375
 11
41.125
 21
9.375
  0
LINE
  5
1AA
100
AcDbEntity
  8
Title Block
  6
ByLayer
 62
  256
370
   -1
100
AcDbLine
 10
41.125
 20
19.375
 11
34.875
 21
19.375
  0
LINE
  5
1AB
100
AcDbEntity
  8
Title Block
  6
ByLayer
 62
  256
370
   -1
100
AcDbLine
 10
41.125
 20
9.375
 11
47.375
 21
9.375
  0
LINE
  5
1AC
100
AcDbEntity
  8
Title Block
  6
ByLayer
 62
  256
370
   -1
100
AcDbLine
 10
47.375
 20
19.375
 11
41.125
 21
19.375
  0
LINE
  5
1AD
100
AcDbEntity
  8
Title Block
  6
ByLayer
 62
  256
370
   -1
100
AcDbLine
 10
47.375
 20
9.375
 11
53.625
 21
9.375
  0
LINE
  5
1AE
100
AcDbEntity
  8
Title Block
  6
ByLayer
 62
  256
370
   -1
100
AcDbLine
 10
53.625
 20
19.375
 11
47.375
 21
19.375
  0
LINE
  5
1AF
100
AcDbEntity
  8
Title Block
  6
ByLayer
 62
  256
370
   -1
100
AcDbLine
 10
53.625
 20
9.375
 11
59.875
 21
9.375
  0
LINE
  5
1B0
100
AcDbEntity
  8
Title Block
  6
ByLayer
 62
  256
370
   -1
100
AcDbLine
 10
59.875
 20
19.375
 11
53.625
 21
19.375
  0
LINE
  5
1B1
100
AcDbEntity
  8
Title Block
  6
ByLayer
 62
  256
370
   -1
100
AcDbLine
 10
59.875
 20
9.375
 11
66.125
 21
9.375
  0
LINE
  5
1B2
100
AcDbEntity
  8
Title Block
  6
ByLayer
 62
  256
370
   -1
100
AcDbLine
 10
66.125
 20
19.375
 11
59.875
 21
19.375
  0
LINE
  5
1B3
100
AcDbEntity
  8
Title Block
  6
ByLayer
 62
  256
370
   -1
100
AcDbLine
 10
66.125
 20
9.375
 11
72.375
 21
9.375
  0
LINE
  5
1B4
100
AcDbEntity
  8
Title Block
  6
ByLayer
 62
  256
370
   -1
100
AcDbLine
 10
72.375
 20
19.375
 11
66.125
 21
19.375
  0
LINE
  5
1B5
100
AcDbEntity
  8
Title Block
  6
ByLayer
 62
  256
370
   -1
100
AcDbLine
 10
72.375
 20
9.375
 11
78.625
 21
9.375
  0
LINE
  5
1B6
100
AcDbEntity
  8
Title Block
  6
ByLayer
 62
  256
370
   -1
100
AcDbLine
 10
78.625
 20
19.375
 11
72.375
 21
19.375
  0
LINE
  5
1B7
100
AcDbEntity
  8
Title Block
  6
ByLayer
 62
  256
370
   -1
100
AcDbLine
 10
78.625
 20
9.375
 11
84.875
 21
9.375
  0
LINE
  5
1B8
100
AcDbEntity
  8
Title Block
  6
ByLayer
 62
  256
370
   -1
100
AcDbLine
 10
84.875
 20
9.375
 11
84.875
 21
19.375
  0
LINE
  5
1B9
100
AcDbEntity
  8
Title Block
  6
ByLayer
 62
  256
370
   -1
100
AcDbLine
 10
84.875
 20
19.375
 11
78.625
 21
19.375
  0
LINE
  5
1BA
100
AcDbEntity
  8
Title Block
  6
ByLayer
 62
  256
370
   -1
100
AcDbLine
 10
84.875
 20
9.375
 11
91.125
 21
9.375
  0
LINE
  5
1BB
100
AcDbEntity
  8
Title Block
  6
ByLayer
 62
  256
370
   -1
100
AcDbLine
 10
91.125
 20
19.375
 11
84.875
 21
19.375
  0
LINE
  5
1BC
100
AcDbEntity
  8
Title Block
  6
ByLayer
 62
  256
370
   -1
100
AcDbLine
 10
91.125
 20
9.375
 11
97.375
 21
9.375
  0
LINE
  5
1BD
100
AcDbEntity
  8
Title Block
  6
ByLayer
 62
  256
370
   -1
100
AcDbLine
 10
97.375
 20
19.375
 11
91.125
 21
19.375
  0
LINE
  5
1BE
100
AcDbEntity
  8
Title Block
  6
ByLayer
 62
  256
370
   -1
100
AcDbLine
 10
97.375
 20
9.375
 11
103.625
 21
9.375
  0
LINE
  5
1BF
100
AcDbEntity
  8
Title Block
  6
ByLayer
 62
  256
370
   -1
100
AcDbLine
 10
103.625
 20
19.375
 11
97.375
 21
19.375
  0
LINE
  5
1C0
100
AcDbEntity
  8
Title Block
  6
ByLayer
 62
  256
370
   -1
100
AcDbLine
 10
103.625
 20
9.375
 11
109.875
 21
9.375
  0
LINE
  5
1C1
100
AcDbEntity
  8
Title Block
  6
ByLayer
 62
  256
370
   -1
100
AcDbLine
 10
109.875
 20
19.375
 11
103.625
 21
19.375
  0
LINE
  5
1C2
100
AcDbEntity
  8
Title Block
  6
ByLayer
 62
  256
370
   -1
100
AcDbLine
 10
109.875
 20
9.375
 11
116.125
 21
9.375
  0
LINE
  5
1C3
100
AcDbEntity
  8
Title Block
  6
ByLayer
 62
  256
370
   -1
100
AcDbLine
 10
116.125
 20
19.375
 11
109.875
 21
19.375
  0
LINE
  5
1C4
100
AcDbEntity
  8
Title Block
  6
ByLayer
 62
  256
370
   -1
100
AcDbLine
 10
116.125
 20
9.375
 11
122.375
 21
9.375
  0
LINE
  5
1C5
100
AcDbEntity
  8
Title Block
  6
ByLayer
 62
  256
370
   -1
100
AcDbLine
 10
122.375
 20
19.375
 11
116.125
 21
19.375
  0
LINE
  5
1C6
100
AcDbEntity
  8
Title Block
  6
ByLayer
 62
  256
370
   -1
100
AcDbLine
 10
122.375
 20
9.375
 11
128.625
 21
9.375
  0
LINE
  5
1C7
100
AcDbEntity
  8
Title Block
  6
ByLayer
 62
  256
370
   -1
100
AcDbLine
 10
128.625
 20
19.375
 11
122.375
 21
19.375
  0
LINE
  5
1C8
100
AcDbEntity
  8
Title Block
  6
ByLayer
 62
  256
370
   -1
100
AcDbLine
 10
128.625
 20
9.375
 11
134.875
 21
9.375
  0
LINE
  5
1C9
100
AcDbEntity
  8
Title Block
  6
ByLayer
 62
  256
370
   -1
100
AcDbLine
 10
134.875
 20
19.375
 11
128.625
 21
19.375
  0
LINE
  5
1CA
100
AcDbEntity
  8
Title Block
  6
ByLayer
 62
  256
370
   -1
100
AcDbLine
 10
134.875
 20
9.375
 11
141.125
 21
9.375
  0
LINE
  5
1CB
100
AcDbEntity
  8
Title Block
  6
ByLayer
 62
  256
370
   -1
100
AcDbLine
 10
141.125
 20
19.375
 11
134.875
 21
19.375
  0
LINE
  5
1CC
100
AcDbEntity
  8
Title Block
  6
ByLayer
 62
  256
370
   -1
100
AcDbLine
 10
141.125
 20
9.375
 11
147.375
 21
9.375
  0
LINE
  5
1CD
100
AcDbEntity
  8
Title Block
  6
ByLayer
 62
  256
370
   -1
100
AcDbLine
 10
147.375
 20
19.375
 11
141.125
 21
19.375
  0
LINE
  5
1CE
100
AcDbEntity
  8
Title Block
  6
ByLayer
 62
  256
370
   -1
100
AcDbLine
 10
147.375
 20
9.375
 11
153.625
 21
9.375
  0
LINE
  5
1CF
100
AcDbEntity
  8
Title Block
  6
ByLayer
 62
  256
370
   -1
100
AcDbLine
 10
153.625
 20
9.375
 11
153.625
 21
19.375
  0
LINE
  5
1D0
100
AcDbEntity
  8
Title Block
  6
ByLayer
 62
  256
370
   -1
100
AcDbLine
 10
153.625
 20
19.375
 11
147.375
 21
19.375
  0
LINE
  5
1D1
100
AcDbEntity
  8
Title Block
  6
ByLayer
 62
  256
370
   -1
100
AcDbLine
 10
153.625
 20
9.375
 11
159.875
 21
9.375
  0
LINE
  5
1D2
100
AcDbEntity
  8
Title Block
  6
ByLayer
 62
  256
370
   -1
100
AcDbLine
 10
159.875
 20
19.375
 11
153.625
 21
19.375
  0
LINE
  5
1D3
100
AcDbEntity
  8
Title Block
  6
ByLayer
 62
  256
370
   -1
100
AcDbLine
 10
159.875
 20
9.375
 11
166.125
 21
9.375
  0
LINE
  5
1D4
100
AcDbEntity
  8
Title Block
  6
ByLayer
 62
  256
370
   -1
100
AcDbLine
 10
166.125
 20
19.375
 11
159.875
 21
19.375
  0
LINE
  5
1D5
100
AcDbEntity
  8
Title Block
  6
ByLayer
 62
  256
370
   -1
100
AcDbLine
 10
166.125
 20
9.375
 11
172.375
 21
9.375
  0
LINE
  5
1D6
100
AcDbEntity
  8
Title Block
  6
ByLayer
 62
  256
370
   -1
100
AcDbLine
 10
172.375
 20
19.375
 11
166.125
 21
19.375
  0
LINE
  5
1D7
100
AcDbEntity
  8
Title Block
  6
ByLayer
 62
  256
370
   -1
100
AcDbLine
 10
172.375
 20
9.375
 11
178.625
 21
9.375
  0
LINE
  5
1D8
100
AcDbEntity
  8
Title Block
  6
ByLayer
 62
  256
370
   -1
100
AcDbLine
 10
178.625
 20
19.375
 11
172.375
 21
19.375
  0
LINE
  5
1D9
100
AcDbEntity
  8
Title Block
  6
ByLayer
 62
  256
370
   -1
100
AcDbLine
 10
178.625
 20
9.375
 11
184.875
 21
9.375
  0
LINE
  5
1DA
100
AcDbEntity
  8
Title Block
  6
ByLayer
 62
  256
370
   -1
100
AcDbLine
 10
184.875
 20
19.375
 11
178.625
 21
19.375
  0
LINE
  5
1DB
100
AcDbEntity
  8
Title Block
  6
ByLayer
 62
  256
370
   -1
100
AcDbLine
 10
184.875
 20
9.375
 11
191.125
 21
9.375
  0
LINE
  5
1DC
100
AcDbEntity
  8
Title Block
  6
ByLayer
 62
  256
370
   -1
100
AcDbLine
 10
191.125
 20
19.375
 11
184.875
 21
19.375
  0
LINE
  5
1DD
100
AcDbEntity
  8
Title Block
  6
ByLayer
 62
  256
370
   -1
100
AcDbLine
 10
191.125
 20
9.375
 11
197.375
 21
9.375
  0
LINE
  5
1DE
100
AcDbEntity
  8
Title Block
  6
ByLayer
 62
  256
370
   -1
100
AcDbLine
 10
197.375
 20
19.375
 11
191.125
 21
19.375
  0
LINE
  5
1DF
100
AcDbEntity
  8
Title Block
  6
ByLayer
 62
  256
370
   -1
100
AcDbLine
 10
197.375
 20
9.375
 11
203.625
 21
9.375
  0
LINE
  5
1E0
100
AcDbEntity
  8
Title Block
  6
ByLayer
 62
  256
370
   -1
100
AcDbLine
 10
203.625
 20
19.375
 11
197.375
 21
19.375
  0
LINE
  5
1E1
100
AcDbEntity
  8
Title Block
  6
ByLayer
 62
  256
370
   -1
100
AcDbLine
 10
203.625
 20
9.375
 11
209.875
 21
9.375
  0
LINE
  5
1E2
100
AcDbEntity
  8
Title Block
  6
ByLayer
 62
  256
370
   -1
100
AcDbLine
 10
209.875
 20
19.375
 11
203.625
 21
19.375
  0
LINE
  5
1E3
100
AcDbEntity
  8
Title Block
  6
ByLayer
 62
  256
370
   -1
100
AcDbLine
 10
209.875
 20
9.375
 11
216.125
 21
9.375
  0
LINE
  5
1E4
100
AcDbEntity
  8
Title Block
  6
ByLayer
 62
  256
370
   -1
100
AcDbLine
 10
216.125
 20
19.375
 11
209.875
 21
19.375
  0
LINE
  5
1E5
100
AcDbEntity
  8
Title Block
  6
ByLayer
 62
  256
370
   -1
100
AcDbLine
 10
216.125
 20
9.375
 11
222.375
 21
9.375
  0
LINE
  5
1E6
100
AcDbEntity
  8
Title Block
  6
ByLayer
 62
  256
370
   -1
100
AcDbLine
 10
222.375
 20
19.375
 11
216.125
 21
19.375
  0
LINE
  5
1E7
100
AcDbEntity
  8
Title Block
  6
ByLayer
 62
  256
370
   -1
100
AcDbLine
 10
222.375
 20
9.375
 11
228.625
 21
9.375
  0
LINE
  5
1E8
100
AcDbEntity
  8
Title Block
  6
ByLayer
 62
  256
370
   -1
100
AcDbLine
 10
228.625
 20
19.375
 11
222.375
 21
19.375
  0
LINE
  5
1E9
100
AcDbEntity
  8
Title Block
  6
ByLayer
 62
  256
370
   -1
100
AcDbLine
 10
228.625
 20
9.375
 11
234.875
 21
9.375
  0
LINE
  5
1EA
100
AcDbEntity
  8
Title Block
  6
ByLayer
 62
  256
370
   -1
100
AcDbLine
 10
234.875
 20
19.375
 11
228.625
 21
19.375
  0
LINE
  5
1EB
100
AcDbEntity
  8
Title Block
  6
ByLayer
 62
  256
370
   -1
100
AcDbLine
 10
234.875
 20
9.375
 11
241.125
 21
9.375
  0
LINE
  5
1EC
100
AcDbEntity
  8
Title Block
  6
ByLayer
 62
  256
370
   -1
100
AcDbLine
 10
241.125
 20
19.375
 11
234.875
 21
19.375
  0
LINE
  5
1ED
100
AcDbEntity
  8
Title Block
  6
ByLayer
 62
  256
370
   -1
100
AcDbLine
 10
241.125
 20
9.375
 11
247.375
 21
9.375
  0
LINE
  5
1EE
100
AcDbEntity
  8
Title Block
  6
ByLayer
 62
  256
370
   -1
100
AcDbLine
 10
247.375
 20
19.375
 11
241.125
 21
19.375
  0
LINE
  5
1EF
100
AcDbEntity
  8
Title Block
  6
ByLayer
 62
  256
370
   -1
100
AcDbLine
 10
247.375
 20
9.375
 11
253.625
 21
9.375
  0
LINE
  5
1F0
100
AcDbEntity
  8
Title Block
  6
ByLayer
 62
  256
370
   -1
100
AcDbLine
 10
253.625
 20
19.375
 11
247.375
 21
19.375
  0
LINE
  5
1F1
100
AcDbEntity
  8
Title Block
  6
ByLayer
 62
  256
370
   -1
100
AcDbLine
 10
253.625
 20
9.375
 11
259.875
 21
9.375
  0
LINE
  5
1F2
100
AcDbEntity
  8
Title Block
  6
ByLayer
 62
  256
370
   -1
100
AcDbLine
 10
259.875
 20
19.375
 11
253.625
 21
19.375
  0
LINE
  5
1F3
100
AcDbEntity
  8
Title Block
  6
ByLayer
 62
  256
370
   -1
100
AcDbLine
 10
259.875
 20
9.375
 11
266.125
 21
9.375
  0
LINE
  5
1F4
100
AcDbEntity
  8
Title Block
  6
ByLayer
 62
  256
370
   -1
100
AcDbLine
 10
266.125
 20
19.375
 11
259.875
 21
19.375
  0
LINE
  5
1F5
100
AcDbEntity
  8
Title Block
  6
ByLayer
 62
  256
370
   -1
100
AcDbLine
 10
266.125
 20
9.375
 11
272.375
 21
9.375
  0
LINE
  5
1F6
100
AcDbEntity
  8
Title Block
  6
ByLayer
 62
  256
370
   -1
100
AcDbLine
 10
272.375
 20
19.375
 11
266.125
 21
19.375
  0
LINE
  5
1F7
100
AcDbEntity
  8
Title Block
  6
ByLayer
 62
  256
370
   -1
100
AcDbLine
 10
272.375
 20
9.375
 11
278.625
 21
9.375
  0
LINE
  5
1F8
100
AcDbEntity
  8
Title Block
  6
ByLayer
 62
  256
370
   -1
100
AcDbLine
 10
278.625
 20
19.375
 11
272.375
 21
19.375
  0
LINE
  5
1F9
100
AcDbEntity
  8
Title Block
  6
ByLayer
 62
  256
370
   -1
100
AcDbLine
 10
278.625
 20
9.375
 11
284.875
 21
9.375
  0
LINE
  5
1FA
100
AcDbEntity
  8
Title Block
  6
ByLayer
 62
  256
370
   -1
100
AcDbLine
 10
284.875
 20
19.375
 11
278.625
 21
19.375
  0
LINE
  5
1FB
100
AcDbEntity
  8
Title Block
  6
ByLayer
 62
  256
370
   -1
100
AcDbLine
 10
284.875
 20
9.375
 11
291.125
 21
9.375
  0
LINE
  5
1FC
100
AcDbEntity
  8
Title Block
  6
ByLayer
 62
  256
370
   -1
100
AcDbLine
 10
291.125
 20
19.375
 11
284.875
 21
19.375
  0
LINE
  5
1FD
100
AcDbEntity
  8
Title Block
  6
ByLayer
 62
  256
370
   -1
100
AcDbLine
 10
291.125
 20
9.375
 11
297.375
 21
9.375
  0
LINE
  5
1FE
100
AcDbEntity
  8
Title Block
  6
ByLayer
 62
  256
370
   -1
100
AcDbLine
 10
297.375
 20
19.375
 11
291.125
 21
19.375
  0
LINE
  5
1FF
100
AcDbEntity
  8
Title Block
  6
ByLayer
 62
  256
370
   -1
100
AcDbLine
 10
297.375
 20
9.375
 11
303.625
 21
9.375
  0
LINE
  5
200
100
AcDbEntity
  8
Title Block
  6
ByLayer
 62
  256
370
   -1
100
AcDbLine
 10
303.625
 20
19.375
 11
297.375
 21
19.375
  0
LINE
  5
201
100
AcDbEntity
  8
Title Block
  6
ByLayer
 62
  256
370
   -1
100
AcDbLine
 10
303.625
 20
9.375
 11
309.875
 21
9.375
  0
LINE
  5
202
100
AcDbEntity
  8
Title Block
  6
ByLayer
 62
  256
370
   -1
100
AcDbLine
 10
309.875
 20
19.375
 11
303.625
 21
19.375
  0
LINE
  5
203
100
AcDbEntity
  8
Title Block
  6
ByLayer
 62
  256
370
   -1
100
AcDbLine
 10
309.875
 20
9.375
 11
316.125
 21
9.375
  0
LINE
  5
204
100
AcDbEntity
  8
Title Block
  6
ByLayer
 62
  256
370
   -1
100
AcDbLine
 10
316.125
 20
19.375
 11
309.875
 21
19.375
  0
LINE
  5
205
100
AcDbEntity
  8
Title Block
  6
ByLayer
 62
  256
370
   -1
100
AcDbLine
 10
316.125
 20
9.375
 11
322.375
 21
9.375
  0
LINE
  5
206
100
AcDbEntity
  8
Title Block
  6
ByLayer
 62
  256
370
   -1
100
AcDbLine
 10
322.375
 20
19.375
 11
316.125
 21
19.375
  0
LINE
  5
207
100
AcDbEntity
  8
Title Block
  6
ByLayer
 62
  256
370
   -1
100
AcDbLine
 10
322.375
 20
9.375
 11
328.625
 21
9.375
  0
LINE
  5
208
100
AcDbEntity
  8
Title Block
  6
ByLayer
 62
  256
370
   -1
100
AcDbLine
 10
328.625
 20
9.375
 11
328.625
 21
19.375
  0
LINE
  5
209
100
AcDbEntity
  8
Title Block
  6
ByLayer
 62
  256
370
   -1
100
AcDbLine
 10
328.625
 20
19.375
 11
322.375
 21
19.375
  0
LINE
  5
20A
100
AcDbEntity
  8
Title Block
  6
ByLayer
 62
  256
370
   -1
100
AcDbLine
 10
328.625
 20
9.375
 11
334.875
 21
9.375
  0
LINE
  5
20B
100
AcDbEntity
  8
Title Block
  6
ByLayer
 62
  256
370
   -1
100
AcDbLine
 10
334.875
 20
19.375
 11
328.625
 21
19.375
  0
LINE
  5
20C
100
AcDbEntity
  8
Title Block
  6
ByLayer
 62
  256
370
   -1
100
AcDbLine
 10
334.875
 20
9.375
 11
341.125
 21
9.375
  0
LINE
  5
20D
100
AcDbEntity
  8
Title Block
  6
ByLayer
 62
  256
370
   -1
100
AcDbLine
 10
341.125
 20
19.375
 11
334.875
 21
19.375
  0
LINE
  5
20E
100
AcDbEntity
  8
Title Block
  6
ByLayer
 62
  256
370
   -1
100
AcDbLine
 10
341.125
 20
9.375
 11
347.375
 21
9.375
  0
LINE
  5
20F
100
AcDbEntity
  8
Title Block
  6
ByLayer
 62
  256
370
   -1
100
AcDbLine
 10
347.375
 20
9.375
 11
347.375
 21
19.375
  0
LINE
  5
210
100
AcDbEntity
  8
Title Block
  6
ByLayer
 62
  256
370
   -1
100
AcDbLine
 10
347.375
 20
19.375
 11
341.125
 21
19.375
  0
LINE
  5
211
100
AcDbEntity
  8
Title Block
  6
ByLayer
 62
  256
370
   -1
100
AcDbLine
 10
347.375
 20
9.375
 11
353.625
 21
9.375
  0
LINE
  5
212
100
AcDbEntity
  8
Title Block
  6
ByLayer
 62
  256
370
   -1
100
AcDbLine
 10
353.625
 20
19.375
 11
347.375
 21
19.375
  0
LINE
  5
213
100
AcDbEntity
  8
Title Block
  6
ByLayer
 62
  256
370
   -1
100
AcDbLine
 10
353.625
 20
9.375
 11
359.875
 21
9.375
  0
LINE
  5
214
100
AcDbEntity
  8
Title Block
  6
ByLayer
 62
  256
370
   -1
100
AcDbLine
 10
359.875
 20
19.375
 11
353.625
 21
19.375
  0
LINE
  5
215
100
AcDbEntity
  8
Title Block
  6
ByLayer
 62
  256
370
   -1
100
AcDbLine
 10
359.875
 20
9.375
 11
366.125
 21
9.375
  0
LINE
  5
216
100
AcDbEntity
  8
Title Block
  6
ByLayer
 62
  256
370
   -1
100
AcDbLine
 10
366.125
 20
19.375
 11
359.875
 21
19.375
  0
LINE
  5
217
100
AcDbEntity
  8
Title Block
  6
ByLayer
 62
  256
370
   -1
100
AcDbLine
 10
366.125
 20
9.375
 11
372.375
 21
9.375
  0
LINE
  5
218
100
AcDbEntity
  8
Title Block
  6
ByLayer
 62
  256
370
   -1
100
AcDbLine
 10
372.375
 20
19.375
 11
366.125
 21
19.375
  0
LINE
  5
219
100
AcDbEntity
  8
Title Block
  6
ByLayer
 62
  256
370
   -1
100
AcDbLine
 10
372.375
 20
9.375
 11
378.625
 21
9.375
  0
LINE
  5
21A
100
AcDbEntity
  8
Title Block
  6
ByLayer
 62
  256
370
   -1
100
AcDbLine
 10
378.625
 20
9.375
 11
378.625
 21
19.375
  0
LINE
  5
21B
100
AcDbEntity
  8
Title Block
  6
ByLayer
 62
  256
370
   -1
100
AcDbLine
 10
378.625
 20
19.375
 11
372.375
 21
19.375
  0
LINE
  5
21C
100
AcDbEntity
  8
Title Block
  6
ByLayer
 62
  256
370
   -1
100
AcDbLine
 10
378.625
 20
9.375
 11
384.875
 21
9.375
  0
LINE
  5
21D
100
AcDbEntity
  8
Title Block
  6
ByLayer
 62
  256
370
   -1
100
AcDbLine
 10
384.875
 20
19.375
 11
378.625
 21
19.375
  0
LINE
  5
21E
100
AcDbEntity
  8
Title Block
  6
ByLayer
 62
  256
370
   -1
100
AcDbLine
 10
384.875
 20
9.375
 11
391.125
 21
9.375
  0
LINE
  5
21F
100
AcDbEntity
  8
Title Block
  6
ByLayer
 62
  256
370
   -1
100
AcDbLine
 10
391.125
 20
19.375
 11
384.875
 21
19.375
  0
LINE
  5
220
100
AcDbEntity
  8
Title Block
  6
ByLayer
 62
  256
370
   -1
100
AcDbLine
 10
391.125
 20
9.375
 11
397.375
 21
9.375
  0
LINE
  5
221
100
AcDbEntity
  8
Title Block
  6
ByLayer
 62
  256
370
   -1
100
AcDbLine
 10
397.375
 20
19.375
 11
391.125
 21
19.375
  0
LINE
  5
222
100
AcDbEntity
  8
Title Block
  6
ByLayer
 62
  256
370
   -1
100
AcDbLine
 10
397.375
 20
9.375
 11
403.625
 21
9.375
  0
LINE
  5
223
100
AcDbEntity
  8
Title Block
  6
ByLayer
 62
  256
370
   -1
100
AcDbLine
 10
403.625
 20
19.375
 11
397.375
 21
19.375
  0
LINE
  5
224
100
AcDbEntity
  8
Title Block
  6
ByLayer
 62
  256
370
   -1
100
AcDbLine
 10
403.625
 20
9.375
 11
409.875
 21
9.375
  0
LINE
  5
225
100
AcDbEntity
  8
Title Block
  6
ByLayer
 62
  256
370
   -1
100
AcDbLine
 10
409.875
 20
19.375
 11
403.625
 21
19.375
  0
LINE
  5
226
100
AcDbEntity
  8
Title Block
  6
ByLayer
 62
  256
370
   -1
100
AcDbLine
 10
409.875
 20
19.375
 11
410.6250388567214
 21
19.37413924230033
  0
LINE
  5
227
100
AcDbEntity
  8
Title Block
  6
ByLayer
 62
  256
370
   -1
100
AcDbLine
 10
409.875
 20
9.375
 11
410.625
 21
9.375
  0
MTEXT
  5
228
100
AcDbEntity
  8
Title Block
  6
ByLayer
 62
  256
370
   -1
100
AcDbMText
 10
330
 20
11
 30
0
 40
3
 41
7.333333333333333
 71
    7
 72
    1
  1
Rev:
  7
STANDARD
210
0
220
0
230
1
 50
0
 73
    2
 44
1
  0
MTEXT
  5
229
100
AcDbEntity
  8
Title Block
  6
ByLayer
 62
  256
370
   -1
100
AcDbMText
 10
18
 20
11
 30
0
 40
3
 41
19.2500000000006
 71
    7
 72
    1
  1
Drawn by:
  7
STANDARD
210
0
220
0
230
1
 50
0
 73
    2
 44
1
  0
MTEXT
  5
22A
100
AcDbEntity
  8
Title Block
  6
ByLayer
 62
  256
370
   -1
100
AcDbMText
 10
87
 20
11
 30
0
 40
3
 41
9.333333333333659
 71
    7
 72
    1
  1
Date:
  7
STANDARD
210
0
220
0
230
1
 50
0
 73
    2
 44
1
  0
MTEXT
  5
22B
100
AcDbEntity
  8
Title Block
  6
ByLayer
 62
  256
370
   -1
100
AcDbMText
 10
155.9786343994443
 20
11.02018452135422
 30
0
 40
3
 41
27.2500000000006
 71
    7
 72
    1
  1
Drawing Title:
  7
STANDARD
210
0
220
0
230
1
 50
0
 73
    2
 44
1
  0
MTEXT
  5
22C
100
AcDbEntity
  8
Title Block
  6
ByLayer
 62
  256
370
   -1
100
AcDbMText
 10
349
 20
11
 30
0
 40
3
 41
11.66666603066036
 71
    7
 72
    1
  1
Sheet:
  7
STANDARD
210
0
220
0
230
1
 50
0
 73
    2
 44
1
  0
MTEXT
  5
22D
100
AcDbEntity
  8
Title Block
  6
ByLayer
 62
  256
370
   -1
100
AcDbMText
 10
381
 20
11
 30
0
 40
3
 41
10.66666603066036
 71
    7
 72
    1
  1
Scale:
  7
STANDARD
210
0
220
0
230
1
 50
0
 73
    2
 44
1
  0
ENDBLK
  5
7B
330
79
100
AcDbEntity
  8
0
100
AcDbBlockEnd
  0
BLOCK
  5
7D
330
7C
100
AcDbEntity
  8
0
100
AcDbBlockBegin
  2
#Drawing Template A3 Landscape
 70
    0
 10
0
 20
0
  3
#Drawing Template A3 Landscape
  1

  0
LINE
  5
22E
100
AcDbEntity
  8
Paper Format
  6
ByLayer
 62
  256
370
   -1
100
AcDbLine
 10
0
 20
0
 11
10
 21
0
  0
LINE
  5
22F
100
AcDbEntity
  8
Paper Format
  6
ByLayer
 62
  256
370
   -1
100
AcDbLine
 10
0
 20
0
 11
420
 21
0
  0
LINE
  5
230
100
AcDbEntity
  8
Paper Format
  6
ByLayer
 62
  256
370
   -1
100
AcDbLine
 10
420
 20
0
 11
420
 21
297
  0
LINE
  5
231
100
AcDbEntity
  8
Paper Format
  6
ByLayer
 62
  256
370
   -1
100
AcDbLine
 10
420
 20
297
 11
0
 21
297
  0
LINE
  5
232
100
AcDbEntity
  8
Paper Format
  6
ByLayer
 62
  256
370
   -1
100
AcDbLine
 10
0
 20
297
 11
0
 21
0
  0
LINE
  5
233
100
AcDbEntity
  8
Drawing Border
  6
ByLayer
 62
  256
370
   -1
100
AcDbLine
 10
16.125
 20
9.375
 11
410.625
 21
9.375
  0
LINE
  5
234
100
AcDbEntity
  8
Drawing Border
  6
ByLayer
 62
  256
370
   -1
100
AcDbLine
 10
410.625
 20
9.375
 11
410.625
 21
287.625
  0
LINE
  5
235
100
AcDbEntity
  8
Drawing Border
  6
ByLayer
 62
  256
370
   70
100
AcDbLine
 10
13
 20
290.75
 11
13
 21
6.25
  0
LINE
  5
236
100
AcDbEntity
  8
Drawing Border
  6
ByLayer
 62
  256
370
   70
100
AcDbLine
 10
13
 20
6.25
 11
413.75
 21
6.25
  0
LINE
  5
237
100
AcDbEntity
  8
Drawing Border
  6
ByLayer
 62
  256
370
   70
100
AcDbLine
 10
413.75
 20
290.75
 11
13
 21
290.75
  0
LINE
  5
238
100
AcDbEntity
  8
Drawing Border
  6
ByLayer
 62
  256
370
   70
100
AcDbLine
 10
413.75
 20
6.25
 11
413.75
 21
290.75
  0
LINE
  5
239
100
AcDbEntity
  8
Drawing Border
  6
ByLayer
 62
  256
370
   -1
100
AcDbLine
 10
16.125
 20
287.625
 11
16.125
 21
9.375
  0
LINE
  5
23A
100
AcDbEntity
  8
Drawing Border
  6
ByLayer
 62
  256
370
   -1
100
AcDbLine
 10
410.625
 20
287.625
 11
16.125
 21
287.625
  0
LINE
  5
23B
100
AcDbEntity
  8
Drawing Border
  6
ByLayer
 62
  256
370
   -1
100
AcDbLine
 10
114.75
 20
287.625
 11
114.75
 21
290.625
  0
LINE
  5
23C
100
AcDbEntity
  8
Drawing Border
  6
ByLayer
 62
  256
370
   -1
100
AcDbLine
 10
213.375
 20
287.625
 11
213.375
 21
290.625
  0
LINE
  5
23D
100
AcDbEntity
  8
Drawing Border
  6
ByLayer
 62
  256
370
   -1
100
AcDbLine
 10
312
 20
287.625
 11
312
 21
290.625
  0
LINE
  5
23E
100
AcDbEntity
  8
Drawing Border
  6
ByLayer
 62
  256
370
   -1
100
AcDbLine
 10
16.125
 20
194.875
 11
13.125
 21
194.875
  0
LINE
  5
23F
100
AcDbEntity
  8
Drawing Border
  6
ByLayer
 62
  256
370
   -1
100
AcDbLine
 10
16.125
 20
102.125
 11
13.125
 21
102.125
  0
MTEXT
  5
240
100
AcDbEntity
  8
Drawing Border
  6
ByLayer
 62
  256
370
   -1
100
AcDbMText
 10
63.875
 20
289.1875
 30
0
 40
2
 41
1.333333333333333
 71
    5
 72
    1
  1
A
  7
STANDARD
210
0
220
0
230
1
 50
0
 73
    2
 44
1
  0
MTEXT
  5
241
100
AcDbEntity
  8
Drawing Border
  6
ByLayer
 62
  256
370
   -1
100
AcDbMText
 10
164.0625
 20
289.125
 30
0
 40
1.5
 41
0.8333333333333333
 71
    5
 72
    1
  1
B
  7
STANDARD
210
0
220
0
230
1
 50
0
 73
    2
 44
1
  0
MTEXT
  5
242
100
AcDbEntity
  8
Drawing Border
  6
ByLayer
 62
  256
370
   -1
100
AcDbMText
 10
262.6875
 20
289.125
 30
0
 40
1.5
 41
0.6666666666667597
 71
    5
 72
    1
  1
C
  7
STANDARD
210
0
220
0
230
1
 50
0
 73
    2
 44
1
  0
MTEXT
  5
243
100
AcDbEntity
  8
Drawing Border
  6
ByLayer
 62
  256
370
   -1
100
AcDbMText
 10
361.3125
 20
289.125
 30
0
 40
1.5
 41
0.8333333333334263
 71
    5
 72
    1
  1
D
  7
STANDARD
210
0
220
0
230
1
 50
0
 73
    2
 44
1
  0
MTEXT
  5
244
100
AcDbEntity
  8
Drawing Border
  6
ByLayer
 62
  256
370
   -1
100
AcDbMText
 10
14.5625
 20
242.8125
 30
0
 40
1.5
 41
0.3333333333333333
 71
    5
 72
    1
  1
1
  7
STANDARD
210
0
220
0
230
1
 50
0
 73
    2
 44
1
  0
MTEXT
  5
245
100
AcDbEntity
  8
Drawing Border
  6
ByLayer
 62
  256
370
   -1
100
AcDbMText
 10
14.5625
 20
147.9791666666667
 30
0
 40
1.5
 41
0.6666666666666666
 71
    5
 72
    1
  1
2
  7
STANDARD
210
0
220
0
230
1
 50
0
 73
    2
 44
1
  0
MTEXT
  5
246
100
AcDbEntity
  8
Drawing Border
  6
ByLayer
 62
  256
370
   -1
100
AcDbMText
 10
14.5625
 20
55.22916666666667
 30
0
 40
1.5
 41
0.6666666666667597
 71
    5
 72
    1
  1
3
  7
STANDARD
210
0
220
0
230
1
 50
0
 73
    2
 44
1
  0
LWPOLYLINE
  5
247
100
AcDbEntity
  8
Drawing Border
  6
ByLayer
 62
  256
370
   -1
100
AcDbPolyline
 90
    4
 70
    1
 43
0
 10
412.25
 20
73.49999999999999
 10
413.75
 20
73.49999999999999
 10
413.75
 20
223.5
 10
412.25
 20
223.5
  0
LINE
  5
248
100
AcDbEntity
  8
Title Block
  6
ByLayer
 62
  256
370
   -1
100
AcDbLine
 10
16.125
 20
9.375
 11
22.375
 21
9.375
  0
LINE
  5
249
100
AcDbEntity
  8
Title Block
  6
ByLayer
 62
  256
370
   -1
100
AcDbLine
 10
22.375
 20
19.375
 11
16.125
 21
19.375
  0
LINE
  5
24A
100
AcDbEntity
  8
Title Block
  6
ByLayer
 62
  256
370
   -1
100
AcDbLine
 10
16.125
 20
19.375
 11
16.125
 21
9.375
  0
LINE
  5
24B
100
AcDbEntity
  8
Title Block
  6
ByLayer
 62
  256
370
   -1
100
AcDbLine
 10
22.375
 20
9.375
 11
28.625
 21
9.375
  0
LINE
  5
24C
100
AcDbEntity
  8
Title Block
  6
ByLayer
 62
  256
370
   -1
100
AcDbLine
 10
28.625
 20
19.375
 11
22.375
 21
19.375
  0
LINE
  5
24D
100
AcDbEntity
  8
Title Block
  6
ByLayer
 62
  256
370
   -1
100
AcDbLine
 10
28.625
 20
9.375
 11
34.875
 21
9.375
  0
LINE
  5
24E
100
AcDbEntity
  8
Title Block
  6
ByLayer
 62
  256
370
   -1
100
AcDbLine
 10
34.875
 20
19.375
 11
28.625
 21
19.375
  0
LINE
  5
24F
100
AcDbEntity
  8
Title Block
  6
ByLayer
 62
  256
370
   -1
100
AcDbLine
 10
34.875
 20
9.375
 11
41.125
 21
9.375
  0
LINE
  5
250
100
AcDbEntity
  8
Title Block
  6
ByLayer
 62
  256
370
   -1
100
AcDbLine
 10
41.125
 20
19.375
 11
34.875
 21
19.375
  0
LINE
  5
251
100
AcDbEntity
  8
Title Block
  6
ByLayer
 62
  256
370
   -1
100
AcDbLine
 10
41.125
 20
9.375
 11
47.375
 21
9.375
  0
LINE
  5
252
100
AcDbEntity
  8
Title Block
  6
ByLayer
 62
  256
370
   -1
100
AcDbLine
 10
47.375
 20
19.375
 11
41.125
 21
19.375
  0
LINE
  5
253
100
AcDbEntity
  8
Title Block
  6
ByLayer
 62
  256
370
   -1
100
AcDbLine
 10
47.375
 20
9.375
 11
53.625
 21
9.375
  0
LINE
  5
254
100
AcDbEntity
  8
Title Block
  6
ByLayer
 62
  256
370
   -1
100
AcDbLine
 10
53.625
 20
19.375
 11
47.375
 21
19.375
  0
LINE
  5
255
100
AcDbEntity
  8
Title Block
  6
ByLayer
 62
  256
370
   -1
100
AcDbLine
 10
53.625
 20
9.375
 11
59.875
 21
9.375
  0
LINE
  5
256
100
AcDbEntity
  8
Title Block
  6
ByLayer
 62
  256
370
   -1
100
AcDbLine
 10
59.875
 20
19.375
 11
53.625
 21
19.375
  0
LINE
  5
257
100
AcDbEntity
  8
Title Block
  6
ByLayer
 62
  256
370
   -1
100
AcDbLine
 10
59.875
 20
9.375
 11
66.125
 21
9.375
  0
LINE
  5
258
100
AcDbEntity
  8
Title Block
  6
ByLayer
 62
  256
370
   -1
100
AcDbLine
 10
66.125
 20
19.375
 11
59.875
 21
19.375
  0
LINE
  5
259
100
AcDbEntity
  8
Title Block
  6
ByLayer
 62
  256
370
   -1
100
AcDbLine
 10
66.125
 20
9.375
 11
72.375
 21
9.375
  0
LINE
  5
25A
100
AcDbEntity
  8
Title Block
  6
ByLayer
 62
  256
370
   -1
100
AcDbLine
 10
72.375
 20
19.375
 11
66.125
 21
19.375
  0
LINE
  5
25B
100
AcDbEntity
  8
Title Block
  6
ByLayer
 62
  256
370
   -1
100
AcDbLine
 10
72.375
 20
9.375
 11
78.625
 21
9.375
  0
LINE
  5
25C
100
AcDbEntity
  8
Title Block
  6
ByLayer
 62
  256
370
   -1
100
AcDbLine
 10
78.625
 20
19.375
 11
72.375
 21
19.375
  0
LINE
  5
25D
100
AcDbEntity
  8
Title Block
  6
ByLayer
 62
  256
370
   -1
100
AcDbLine
 10
78.625
 20
9.375
 11
84.875
 21
9.375
  0
LINE
  5
25E
100
AcDbEntity
  8
Title Block
  6
ByLayer
 62
  256
370
   -1
100
AcDbLine
 10
84.875
 20
9.375
 11
84.875
 21
19.375
  0
LINE
  5
25F
100
AcDbEntity
  8
Title Block
  6
ByLayer
 62
  256
370
   -1
100
AcDbLine
 10
84.875
 20
19.375
 11
78.625
 21
19.375
  0
LINE
  5
260
100
AcDbEntity
  8
Title Block
  6
ByLayer
 62
  256
370
   -1
100
AcDbLine
 10
84.875
 20
9.375
 11
91.125
 21
9.375
  0
LINE
  5
261
100
AcDbEntity
  8
Title Block
  6
ByLayer
 62
  256
370
   -1
100
AcDbLine
 10
91.125
 20
19.375
 11
84.875
 21
19.375
  0
LINE
  5
262
100
AcDbEntity
  8
Title Block
  6
ByLayer
 62
  256
370
   -1
100
AcDbLine
 10
91.125
 20
9.375
 11
97.375
 21
9.375
  0
LINE
  5
263
100
AcDbEntity
  8
Title Block
  6
ByLayer
 62
  256
370
   -1
100
AcDbLine
 10
97.375
 20
19.375
 11
91.125
 21
19.375
  0
LINE
  5
264
100
AcDbEntity
  8
Title Block
  6
ByLayer
 62
  256
370
   -1
100
AcDbLine
 10
97.375
 20
9.375
 11
103.625
 21
9.375
  0
LINE
  5
265
100
AcDbEntity
  8
Title Block
  6
ByLayer
 62
  256
370
   -1
100
AcDbLine
 10
103.625
 20
19.375
 11
97.375
 21
19.375
  0
LINE
  5
266
100
AcDbEntity
  8
Title Block
  6
ByLayer
 62
  256
370
   -1
100
AcDbLine
 10
103.625
 20
9.375
 11
109.875
 21
9.375
  0
LINE
  5
267
100
AcDbEntity
  8
Title Block
  6
ByLayer
 62
  256
370
   -1
100
AcDbLine
 10
109.875
 20
19.375
 11
103.625
 21
19.375
  0
LINE
  5
268
100
AcDbEntity
  8
Title Block
  6
ByLayer
 62
  256
370
   -1
100
AcDbLine
 10
109.875
 20
9.375
 11
116.125
 21
9.375
  0
LINE
  5
269
100
AcDbEntity
  8
Title Block
  6
ByLayer
 62
  256
370
   -1
100
AcDbLine
 10
116.125
 20
19.375
 11
109.875
 21
19.375
  0
LINE
  5
26A
100
AcDbEntity
  8
Title Block
  6
ByLayer
 62
  256
370
   -1
100
AcDbLine
 10
116.125
 20
9.375
 11
122.375
 21
9.375
  0
LINE
  5
26B
100
AcDbEntity
  8
Title Block
  6
ByLayer
 62
  256
370
   -1
100
AcDbLine
 10
122.375
 20
19.375
 11
116.125
 21
19.375
  0
LINE
  5
26C
100
AcDbEntity
  8
Title Block
  6
ByLayer
 62
  256
370
   -1
100
AcDbLine
 10
122.375
 20
9.375
 11
128.625
 21
9.375
  0
LINE
  5
26D
100
AcDbEntity
  8
Title Block
  6
ByLayer
 62
  256
370
   -1
100
AcDbLine
 10
128.625
 20
19.375
 11
122.375
 21
19.375
  0
LINE
  5
26E
100
AcDbEntity
  8
Title Block
  6
ByLayer
 62
  256
370
   -1
100
AcDbLine
 10
128.625
 20
9.375
 11
134.875
 21
9.375
  0
LINE
  5
26F
100
AcDbEntity
  8
Title Block
  6
ByLayer
 62
  256
370
   -1
100
AcDbLine
 10
134.875
 20
19.375
 11
128.625
 21
19.375
  0
LINE
  5
270
100
AcDbEntity
  8
Title Block
  6
ByLayer
 62
  256
370
   -1
100
AcDbLine
 10
134.875
 20
9.375
 11
141.125
 21
9.375
  0
LINE
  5
271
100
AcDbEntity
  8
Title Block
  6
ByLayer
 62
  256
370
   -1
100
AcDbLine
 10
141.125
 20
19.375
 11
134.875
 21
19.375
  0
LINE
  5
272
100
AcDbEntity
  8
Title Block
  6
ByLayer
 62
  256
370
   -1
100
AcDbLine
 10
141.125
 20
9.375
 11
147.375
 21
9.375
  0
LINE
  5
273
100
AcDbEntity
  8
Title Block
  6
ByLayer
 62
  256
370
   -1
100
AcDbLine
 10
147.375
 20
19.375
 11
141.125
 21
19.375
  0
LINE
  5
274
100
AcDbEntity
  8
Title Block
  6
ByLayer
 62
  256
370
   -1
100
AcDbLine
 10
147.375
 20
9.375
 11
153.625
 21
9.375
  0
LINE
  5
275
100
AcDbEntity
  8
Title Block
  6
ByLayer
 62
  256
370
   -1
100
AcDbLine
 10
153.625
 20
9.375
 11
153.625
 21
19.375
  0
LINE
  5
276
100
AcDbEntity
  8
Title Block
  6
ByLayer
 62
  256
370
   -1
100
AcDbLine
 10
153.625
 20
19.375
 11
147.375
 21
19.375
  0
LINE
  5
277
100
AcDbEntity
  8
Title Block
  6
ByLayer
 62
  256
370
   -1
100
AcDbLine
 10
153.625
 20
9.375
 11
159.875
 21
9.375
  0
LINE
  5
278
100
AcDbEntity
  8
Title Block
  6
ByLayer
 62
  256
370
   -1
100
AcDbLine
 10
159.875
 20
19.375
 11
153.625
 21
19.375
  0
LINE
  5
279
100
AcDbEntity
  8
Title Block
  6
ByLayer
 62
  256
370
   -1
100
AcDbLine
 10
159.875
 20
9.375
 11
166.125
 21
9.375
  0
LINE
  5
27A
100
AcDbEntity
  8
Title Block
  6
ByLayer
 62
  256
370
   -1
100
AcDbLine
 10
166.125
 20
19.375
 11
159.875
 21
19.375
  0
LINE
  5
27B
100
AcDbEntity
  8
Title Block
  6
ByLayer
 62
  256
370
   -1
100
AcDbLine
 10
166.125
 20
9.375
 11
172.375
 21
9.375
  0
LINE
  5
27C
100
AcDbEntity
  8
Title Block
  6
ByLayer
 62
  256
370
   -1
100
AcDbLine
 10
172.375
 20
19.375
 11
166.125
 21
19.375
  0
LINE
  5
27D
100
AcDbEntity
  8
Title Block
  6
ByLayer
 62
  256
370
   -1
100
AcDbLine
 10
172.375
 20
9.375
 11
178.625
 21
9.375
  0
LINE
  5
27E
100
AcDbEntity
  8
Title Block
  6
ByLayer
 62
  256
370
   -1
100
AcDbLine
 10
178.625
 20
19.375
 11
172.375
 21
19.375
  0
LINE
  5
27F
100
AcDbEntity
  8
Title Block
  6
ByLayer
 62
  256
370
   -1
100
AcDbLine
 10
178.625
 20
9.375
 11
184.875
 21
9.375
  0
LINE
  5
280
100
AcDbEntity
  8
Title Block
  6
ByLayer
 62
  256
370
   -1
100
AcDbLine
 10
184.875
 20
19.375
 11
178.625
 21
19.375
  0
LINE
  5
281
100
AcDbEntity
  8
Title Block
  6
ByLayer
 62
  256
370
   -1
100
AcDbLine
 10
184.875
 20
9.375
 11
191.125
 21
9.375
  0
LINE
  5
282
100
AcDbEntity
  8
Title Block
  6
ByLayer
 62
  256
370
   -1
100
AcDbLine
 10
191.125
 20
19.375
 11
184.875
 21
19.375
  0
LINE
  5
283
100
AcDbEntity
  8
Title Block
  6
ByLayer
 62
  256
370
   -1
100
AcDbLine
 10
191.125
 20
9.375
 11
197.375
 21
9.375
  0
LINE
  5
284
100
AcDbEntity
  8
Title Block
  6
ByLayer
 62
  256
370
   -1
100
AcDbLine
 10
197.375
 20
19.375
 11
191.125
 21
19.375
  0
LINE
  5
285
100
AcDbEntity
  8
Title Block
  6
ByLayer
 62
  256
370
   -1
100
AcDbLine
 10
197.375
 20
9.375
 11
203.625
 21
9.375
  0
LINE
  5
286
100
AcDbEntity
  8
Title Block
  6
ByLayer
 62
  256
370
   -1
100
AcDbLine
 10
203.625
 20
19.375
 11
197.375
 21
19.375
  0
LINE
  5
287
100
AcDbEntity
  8
Title Block
  6
ByLayer
 62
  256
370
   -1
100
AcDbLine
 10
203.625
 20
9.375
 11
209.875
 21
9.375
  0
LINE
  5
288
100
AcDbEntity
  8
Title Block
  6
ByLayer
 62
  256
370
   -1
100
AcDbLine
 10
209.875
 20
19.375
 11
203.625
 21
19.375
  0
LINE
  5
289
100
AcDbEntity
  8
Title Block
  6
ByLayer
 62
  256
370
   -1
100
AcDbLine
 10
209.875
 20
9.375
 11
216.125
 21
9.375
  0
LINE
  5
28A
100
AcDbEntity
  8
Title Block
  6
ByLayer
 62
  256
370
   -1
100
AcDbLine
 10
216.125
 20
19.375
 11
209.875
 21
19.375
  0
LINE
  5
28B
100
AcDbEntity
  8
Title Block
  6
ByLayer
 62
  256
370
   -1
100
AcDbLine
 10
216.125
 20
9.375
 11
222.375
 21
9.375
  0
LINE
  5
28C
100
AcDbEntity
  8
Title Block
  6
ByLayer
 62
  256
370
   -1
100
AcDbLine
 10
222.375
 20
19.375
 11
216.125
 21
19.375
  0
LINE
  5
28D
100
AcDbEntity
  8
Title Block
  6
ByLayer
 62
  256
370
   -1
100
AcDbLine
 10
222.375
 20
9.375
 11
228.625
 21
9.375
  0
LINE
  5
28E
100
AcDbEntity
  8
Title Block
  6
ByLayer
 62
  256
370
   -1
100
AcDbLine
 10
228.625
 20
19.375
 11
222.375
 21
19.375
  0
LINE
  5
28F
100
AcDbEntity
  8
Title Block
  6
ByLayer
 62
  256
370
   -1
100
AcDbLine
 10
228.625
 20
9.375
 11
234.875
 21
9.375
  0
LINE
  5
290
100
AcDbEntity
  8
Title Block
  6
ByLayer
 62
  256
370
   -1
100
AcDbLine
 10
234.875
 20
19.375
 11
228.625
 21
19.375
  0
LINE
  5
291
100
AcDbEntity
  8
Title Block
  6
ByLayer
 62
  256
370
   -1
100
AcDbLine
 10
234.875
 20
9.375
 11
241.125
 21
9.375
  0
LINE
  5
292
100
AcDbEntity
  8
Title Block
  6
ByLayer
 62
  256
370
   -1
100
AcDbLine
 10
241.125
 20
19.375
 11
234.875
 21
19.375
  0
LINE
  5
293
100
AcDbEntity
  8
Title Block
  6
ByLayer
 62
  256
370
   -1
100
AcDbLine
 10
241.125
 20
9.375
 11
247.375
 21
9.375
  0
LINE
  5
294
100
AcDbEntity
  8
Title Block
  6
ByLayer
 62
  256
370
   -1
100
AcDbLine
 10
247.375
 20
19.375
 11
241.125
 21
19.375
  0
LINE
  5
295
100
AcDbEntity
  8
Title Block
  6
ByLayer
 62
  256
370
   -1
100
AcDbLine
 10
247.375
 20
9.375
 11
253.625
 21
9.375
  0
LINE
  5
296
100
AcDbEntity
  8
Title Block
  6
ByLayer
 62
  256
370
   -1
100
AcDbLine
 10
253.625
 20
19.375
 11
247.375
 21
19.375
  0
LINE
  5
297
100
AcDbEntity
  8
Title Block
  6
ByLayer
 62
  256
370
   -1
100
AcDbLine
 10
253.625
 20
9.375
 11
259.875
 21
9.375
  0
LINE
  5
298
100
AcDbEntity
  8
Title Block
  6
ByLayer
 62
  256
370
   -1
100
AcDbLine
 10
259.875
 20
19.375
 11
253.625
 21
19.375
  0
LINE
  5
299
100
AcDbEntity
  8
Title Block
  6
ByLayer
 62
  256
370
   -1
100
AcDbLine
 10
259.875
 20
9.375
 11
266.125
 21
9.375
  0
LINE
  5
29A
100
AcDbEntity
  8
Title Block
  6
ByLayer
 62
  256
370
   -1
100
AcDbLine
 10
266.125
 20
19.375
 11
259.875
 21
19.375
  0
LINE
  5
29B
100
AcDbEntity
  8
Title Block
  6
ByLayer
 62
  256
370
   -1
100
AcDbLine
 10
266.125
 20
9.375
 11
272.375
 21
9.375
  0
LINE
  5
29C
100
AcDbEntity
  8
Title Block
  6
ByLayer
 62
  256
370
   -1
100
AcDbLine
 10
272.375
 20
19.375
 11
266.125
 21
19.375
  0
LINE
  5
29D
100
AcDbEntity
  8
Title Block
  6
ByLayer
 62
  256
370
   -1
100
AcDbLine
 10
272.375
 20
9.375
 11
278.625
 21
9.375
  0
LINE
  5
29E
100
AcDbEntity
  8
Title Block
  6
ByLayer
 62
  256
370
   -1
100
AcDbLine
 10
278.625
 20
19.375
 11
272.375
 21
19.375
  0
LINE
  5
29F
100
AcDbEntity
  8
Title Block
  6
ByLayer
 62
  256
370
   -1
100
AcDbLine
 10
278.625
 20
9.375
 11
284.875
 21
9.375
  0
LINE
  5
2A0
100
AcDbEntity
  8
Title Block
  6
ByLayer
 62
  256
370
   -1
100
AcDbLine
 10
284.875
 20
19.375
 11
278.625
 21
19.375
  0
LINE
  5
2A1
100
AcDbEntity
  8
Title Block
  6
ByLayer
 62
  256
370
   -1
100
AcDbLine
 10
284.875
 20
9.375
 11
291.125
 21
9.375
  0
LINE
  5
2A2
100
AcDbEntity
  8
Title Block
  6
ByLayer
 62
  256
370
   -1
100
AcDbLine
 10
291.125
 20
19.375
 11
284.875
 21
19.375
  0
LINE
  5
2A3
100
AcDbEntity
  8
Title Block
  6
ByLayer
 62
  256
370
   -1
100
AcDbLine
 10
291.125
 20
9.375
 11
297.375
 21
9.375
  0
LINE
  5
2A4
100
AcDbEntity
  8
Title Block
  6
ByLayer
 62
  256
370
   -1
100
AcDbLine
 10
297.375
 20
19.375
 11
291.125
 21
19.375
  0
LINE
  5
2A5
100
AcDbEntity
  8
Title Block
  6
ByLayer
 62
  256
370
   -1
100
AcDbLine
 10
297.375
 20
9.375
 11
303.625
 21
9.375
  0
LINE
  5
2A6
100
AcDbEntity
  8
Title Block
  6
ByLayer
 62
  256
370
   -1
100
AcDbLine
 10
303.625
 20
19.375
 11
297.375
 21
19.375
  0
LINE
  5
2A7
100
AcDbEntity
  8
Title Block
  6
ByLayer
 62
  256
370
   -1
100
AcDbLine
 10
303.625
 20
9.375
 11
309.875
 21
9.375
  0
LINE
  5
2A8
100
AcDbEntity
  8
Title Block
  6
ByLayer
 62
  256
370
   -1
100
AcDbLine
 10
309.875
 20
19.375
 11
303.625
 21
19.375
  0
LINE
  5
2A9
100
AcDbEntity
  8
Title Block
  6
ByLayer
 62
  256
370
   -1
100
AcDbLine
 10
309.875
 20
9.375
 11
316.125
 21
9.375
  0
LINE
  5
2AA
100
AcDbEntity
  8
Title Block
  6
ByLayer
 62
  256
370
   -1
100
AcDbLine
 10
316.125
 20
19.375
 11
309.875
 21
19.375
  0
LINE
  5
2AB
100
AcDbEntity
  8
Title Block
  6
ByLayer
 62
  256
370
   -1
100
AcDbLine
 10
316.125
 20
9.375
 11
322.375
 21
9.375
  0
LINE
  5
2AC
100
AcDbEntity
  8
Title Block
  6
ByLayer
 62
  256
370
   -1
100
AcDbLine
 10
322.375
 20
19.375
 11
316.125
 21
19.375
  0
LINE
  5
2AD
100
AcDbEntity
  8
Title Block
  6
ByLayer
 62
  256
370
   -1
100
AcDbLine
 10
322.375
 20
9.375
 11
328.625
 21
9.375
  0
LINE
  5
2AE
100
AcDbEntity
  8
Title Block
  6
ByLayer
 62
  256
370
   -1
100
AcDbLine
 10
328.625
 20
9.375
 11
328.625
 21
19.375
  0
LINE
  5
2AF
100
AcDbEntity
  8
Title Block
  6
ByLayer
 62
  256
370
   -1
100
AcDbLine
 10
328.625
 20
19.375
 11
322.375
 21
19.375
  0
LINE
  5
2B0
100
AcDbEntity
  8
Title Block
  6
ByLayer
 62
  256
370
   -1
100
AcDbLine
 10
328.625
 20
9.375
 11
334.875
 21
9.375
  0
LINE
  5
2B1
100
AcDbEntity
  8
Title Block
  6
ByLayer
 62
  256
370
   -1
100
AcDbLine
 10
334.875
 20
19.375
 11
328.625
 21
19.375
  0
LINE
  5
2B2
100
AcDbEntity
  8
Title Block
  6
ByLayer
 62
  256
370
   -1
100
AcDbLine
 10
334.875
 20
9.375
 11
341.125
 21
9.375
  0
LINE
  5
2B3
100
AcDbEntity
  8
Title Block
  6
ByLayer
 62
  256
370
   -1
100
AcDbLine
 10
341.125
 20
19.375
 11
334.875
 21
19.375
  0
LINE
  5
2B4
100
AcDbEntity
  8
Title Block
  6
ByLayer
 62
  256
370
   -1
100
AcDbLine
 10
341.125
 20
9.375
 11
347.375
 21
9.375
  0
LINE
  5
2B5
100
AcDbEntity
  8
Title Block
  6
ByLayer
 62
  256
370
   -1
100
AcDbLine
 10
347.375
 20
9.375
 11
347.375
 21
19.375
  0
LINE
  5
2B6
100
AcDbEntity
  8
Title Block
  6
ByLayer
 62
  256
370
   -1
100
AcDbLine
 10
347.375
 20
19.375
 11
341.125
 21
19.375
  0
LINE
  5
2B7
100
AcDbEntity
  8
Title Block
  6
ByLayer
 62
  256
370
   -1
100
AcDbLine
 10
347.375
 20
9.375
 11
353.625
 21
9.375
  0
LINE
  5
2B8
100
AcDbEntity
  8
Title Block
  6
ByLayer
 62
  256
370
   -1
100
AcDbLine
 10
353.625
 20
19.375
 11
347.375
 21
19.375
  0
LINE
  5
2B9
100
AcDbEntity
  8
Title Block
  6
ByLayer
 62
  256
370
   -1
100
AcDbLine
 10
353.625
 20
9.375
 11
359.875
 21
9.375
  0
LINE
  5
2BA
100
AcDbEntity
  8
Title Block
  6
ByLayer
 62
  256
370
   -1
100
AcDbLine
 10
359.875
 20
19.375
 11
353.625
 21
19.375
  0
LINE
  5
2BB
100
AcDbEntity
  8
Title Block
  6
ByLayer
 62
  256
370
   -1
100
AcDbLine
 10
359.875
 20
9.375
 11
366.125
 21
9.375
  0
LINE
  5
2BC
100
AcDbEntity
  8
Title Block
  6
ByLayer
 62
  256
370
   -1
100
AcDbLine
 10
366.125
 20
19.375
 11
359.875
 21
19.375
  0
LINE
  5
2BD
100
AcDbEntity
  8
Title Block
  6
ByLayer
 62
  256
370
   -1
100
AcDbLine
 10
366.125
 20
9.375
 11
372.375
 21
9.375
  0
LINE
  5
2BE
100
AcDbEntity
  8
Title Block
  6
ByLayer
 62
  256
370
   -1
100
AcDbLine
 10
372.375
 20
19.375
 11
366.125
 21
19.375
  0
LINE
  5
2BF
100
AcDbEntity
  8
Title Block
  6
ByLayer
 62
  256
370
   -1
100
AcDbLine
 10
372.375
 20
9.375
 11
378.625
 21
9.375
  0
LINE
  5
2C0
100
AcDbEntity
  8
Title Block
  6
ByLayer
 62
  256
370
   -1
100
AcDbLine
 10
378.625
 20
9.375
 11
378.625
 21
19.375
  0
LINE
  5
2C1
100
AcDbEntity
  8
Title Block
  6
ByLayer
 62
  256
370
   -1
100
AcDbLine
 10
378.625
 20
19.375
 11
372.375
 21
19.375
  0
LINE
  5
2C2
100
AcDbEntity
  8
Title Block
  6
ByLayer
 62
  256
370
   -1
100
AcDbLine
 10
378.625
 20
9.375
 11
384.875
 21
9.375
  0
LINE
  5
2C3
100
AcDbEntity
  8
Title Block
  6
ByLayer
 62
  256
370
   -1
100
AcDbLine
 10
384.875
 20
19.375
 11
378.625
 21
19.375
  0
LINE
  5
2C4
100
AcDbEntity
  8
Title Block
  6
ByLayer
 62
  256
370
   -1
100
AcDbLine
 10
384.875
 20
9.375
 11
391.125
 21
9.375
  0
LINE
  5
2C5
100
AcDbEntity
  8
Title Block
  6
ByLayer
 62
  256
370
   -1
100
AcDbLine
 10
391.125
 20
19.375
 11
384.875
 21
19.375
  0
LINE
  5
2C6
100
AcDbEntity
  8
Title Block
  6
ByLayer
 62
  256
370
   -1
100
AcDbLine
 10
391.125
 20
9.375
 11
397.375
 21
9.375
  0
LINE
  5
2C7
100
AcDbEntity
  8
Title Block
  6
ByLayer
 62
  256
370
   -1
100
AcDbLine
 10
397.375
 20
19.375
 11
391.125
 21
19.375
  0
LINE
  5
2C8
100
AcDbEntity
  8
Title Block
  6
ByLayer
 62
  256
370
   -1
100
AcDbLine
 10
397.375
 20
9.375
 11
403.625
 21
9.375
  0
LINE
  5
2C9
100
AcDbEntity
  8
Title Block
  6
ByLayer
 62
  256
370
   -1
100
AcDbLine
 10
403.625
 20
19.375
 11
397.375
 21
19.375
  0
LINE
  5
2CA
100
AcDbEntity
  8
Title Block
  6
ByLayer
 62
  256
370
   -1
100
AcDbLine
 10
403.625
 20
9.375
 11
409.875
 21
9.375
  0
LINE
  5
2CB
100
AcDbEntity
  8
Title Block
  6
ByLayer
 62
  256
370
   -1
100
AcDbLine
 10
409.875
 20
19.375
 11
403.625
 21
19.375
  0
LINE
  5
2CC
100
AcDbEntity
  8
Title Block
  6
ByLayer
 62
  256
370
   -1
100
AcDbLine
 10
409.875
 20
19.375
 11
410.6250388567214
 21
19.37413924230033
  0
LINE
  5
2CD
100
AcDbEntity
  8
Title Block
  6
ByLayer
 62
  256
370
   -1
100
AcDbLine
 10
409.875
 20
9.375
 11
410.625
 21
9.375
  0
MTEXT
  5
2CE
100
AcDbEntity
  8
Title Block
  6
ByLayer
 62
  256
370
   -1
100
AcDbMText
 10
330
 20
11
 30
0
 40
3
 41
7.333333333333333
 71
    7
 72
    1
  1
Rev:
  7
STANDARD
210
0
220
0
230
1
 50
0
 73
    2
 44
1
  0
MTEXT
  5
2CF
100
AcDbEntity
  8
Title Block
  6
ByLayer
 62
  256
370
   -1
100
AcDbMText
 10
18
 20
11
 30
0
 40
3
 41
19.2500000000006
 71
    7
 72
    1
  1
Drawn by:
  7
STANDARD
210
0
220
0
230
1
 50
0
 73
    2
 44
1
  0
MTEXT
  5
2D0
100
AcDbEntity
  8
Title Block
  6
ByLayer
 62
  256
370
   -1
100
AcDbMText
 10
87
 20
11
 30
0
 40
3
 41
9.333333333333659
 71
    7
 72
    1
  1
Date:
  7
STANDARD
210
0
220
0
230
1
 50
0
 73
    2
 44
1
  0
MTEXT
  5
2D1
100
AcDbEntity
  8
Title Block
  6
ByLayer
 62
  256
370
   -1
100
AcDbMText
 10
155.9786343994443
 20
11.02018452135422
 30
0
 40
3
 41
27.2500000000006
 71
    7
 72
    1
  1
Drawing Title:
  7
STANDARD
210
0
220
0
230
1
 50
0
 73
    2
 44
1
  0
MTEXT
  5
2D2
100
AcDbEntity
  8
Title Block
  6
ByLayer
 62
  256
370
   -1
100
AcDbMText
 10
349
 20
11
 30
0
 40
3
 41
11.66666603066036
 71
    7
 72
    1
  1
Sheet:
  7
STANDARD
210
0
220
0
230
1
 50
0
 73
    2
 44
1
  0
MTEXT
  5
2D3
100
AcDbEntity
  8
Title Block
  6
ByLayer
 62
  256
370
   -1
100
AcDbMText
 10
381
 20
11
 30
0
 40
3
 41
10.66666603066036
 71
    7
 72
    1
  1
Scale:
  7
STANDARD
210
0
220
0
230
1
 50
0
 73
    2
 44
1
  0
ENDBLK
  5
7E
330
7C
100
AcDbEntity
  8
0
100
AcDbBlockEnd
  0
BLOCK
  5
80
330
7F
100
AcDbEntity
  8
0
100
AcDbBlockBegin
  2
#Drawing Template A3 Landscape-0
 70
    0
 10
0
 20
0
  3
#Drawing Template A3 Landscape-0
  1

  0
LINE
  5
2D4
100
AcDbEntity
  8
Paper Format
  6
ByLayer
 62
  256
370
   -1
100
AcDbLine
 10
0
 20
0
 11
10
 21
0
  0
LINE
  5
2D5
100
AcDbEntity
  8
Paper Format
  6
ByLayer
 62
  256
370
   -1
100
AcDbLine
 10
0
 20
0
 11
420
 21
0
  0
LINE
  5
2D6
100
AcDbEntity
  8
Paper Format
  6
ByLayer
 62
  256
370
   -1
100
AcDbLine
 10
420
 20
0
 11
420
 21
297
  0
LINE
  5
2D7
100
AcDbEntity
  8
Paper Format
  6
ByLayer
 62
  256
370
   -1
100
AcDbLine
 10
420
 20
297
 11
0
 21
297
  0
LINE
  5
2D8
100
AcDbEntity
  8
Paper Format
  6
ByLayer
 62
  256
370
   -1
100
AcDbLine
 10
0
 20
297
 11
0
 21
0
  0
LINE
  5
2D9
100
AcDbEntity
  8
Drawing Border
  6
ByLayer
 62
  256
370
   -1
100
AcDbLine
 10
16.125
 20
9.375
 11
410.625
 21
9.375
  0
LINE
  5
2DA
100
AcDbEntity
  8
Drawing Border
  6
ByLayer
 62
  256
370
   -1
100
AcDbLine
 10
410.625
 20
9.375
 11
410.625
 21
287.625
  0
LINE
  5
2DB
100
AcDbEntity
  8
Drawing Border
  6
ByLayer
 62
  256
370
   70
100
AcDbLine
 10
13
 20
290.75
 11
13
 21
6.25
  0
LINE
  5
2DC
100
AcDbEntity
  8
Drawing Border
  6
ByLayer
 62
  256
370
   70
100
AcDbLine
 10
13
 20
6.25
 11
413.75
 21
6.25
  0
LINE
  5
2DD
100
AcDbEntity
  8
Drawing Border
  6
ByLayer
 62
  256
370
   70
100
AcDbLine
 10
413.75
 20
290.75
 11
13
 21
290.75
  0
LINE
  5
2DE
100
AcDbEntity
  8
Drawing Border
  6
ByLayer
 62
  256
370
   70
100
AcDbLine
 10
413.75
 20
6.25
 11
413.75
 21
290.75
  0
LINE
  5
2DF
100
AcDbEntity
  8
Drawing Border
  6
ByLayer
 62
  256
370
   -1
100
AcDbLine
 10
16.125
 20
287.625
 11
16.125
 21
9.375
  0
LINE
  5
2E0
100
AcDbEntity
  8
Drawing Border
  6
ByLayer
 62
  256
370
   -1
100
AcDbLine
 10
410.625
 20
287.625
 11
16.125
 21
287.625
  0
LINE
  5
2E1
100
AcDbEntity
  8
Drawing Border
  6
ByLayer
 62
  256
370
   -1
100
AcDbLine
 10
114.75
 20
287.625
 11
114.75
 21
290.625
  0
LINE
  5
2E2
100
AcDbEntity
  8
Drawing Border
  6
ByLayer
 62
  256
370
   -1
100
AcDbLine
 10
213.375
 20
287.625
 11
213.375
 21
290.625
  0
LINE
  5
2E3
100
AcDbEntity
  8
Drawing Border
  6
ByLayer
 62
  256
370
   -1
100
AcDbLine
 10
312
 20
287.625
 11
312
 21
290.625
  0
LINE
  5
2E4
100
AcDbEntity
  8
Drawing Border
  6
ByLayer
 62
  256
370
   -1
100
AcDbLine
 10
16.125
 20
194.875
 11
13.125
 21
194.875
  0
LINE
  5
2E5
100
AcDbEntity
  8
Drawing Border
  6
ByLayer
 62
  256
370
   -1
100
AcDbLine
 10
16.125
 20
102.125
 11
13.125
 21
102.125
  0
MTEXT
  5
2E6
100
AcDbEntity
  8
Drawing Border
  6
ByLayer
 62
  256
370
   -1
100
AcDbMText
 10
63.875
 20
289.1875
 30
0
 40
2
 41
1.333333333333333
 71
    5
 72
    1
  1
A
  7
STANDARD
210
0
220
0
230
1
 50
0
 73
    2
 44
1
  0
MTEXT
  5
2E7
100
AcDbEntity
  8
Drawing Border
  6
ByLayer
 62
  256
370
   -1
100
AcDbMText
 10
164.0625
 20
289.125
 30
0
 40
1.5
 41
0.8333333333333333
 71
    5
 72
    1
  1
B
  7
STANDARD
210
0
220
0
230
1
 50
0
 73
    2
 44
1
  0
MTEXT
  5
2E8
100
AcDbEntity
  8
Drawing Border
  6
ByLayer
 62
  256
370
   -1
100
AcDbMText
 10
262.6875
 20
289.125
 30
0
 40
1.5
 41
0.6666666666667597
 71
    5
 72
    1
  1
C
  7
STANDARD
210
0
220
0
230
1
 50
0
 73
    2
 44
1
  0
MTEXT
  5
2E9
100
AcDbEntity
  8
Drawing Border
  6
ByLayer
 62
  256
370
   -1
100
AcDbMText
 10
361.3125
 20
289.125
 30
0
 40
1.5
 41
0.8333333333334263
 71
    5
 72
    1
  1
D
  7
STANDARD
210
0
220
0
230
1
 50
0
 73
    2
 44
1
  0
MTEXT
  5
2EA
100
AcDbEntity
  8
Drawing Border
  6
ByLayer
 62
  256
370
   -1
100
AcDbMText
 10
14.5625
 20
242.8125
 30
0
 40
1.5
 41
0.3333333333333333
 71
    5
 72
    1
  1
1
  7
STANDARD
210
0
220
0
230
1
 50
0
 73
    2
 44
1
  0
MTEXT
  5
2EB
100
AcDbEntity
  8
Drawing Border
  6
ByLayer
 62
  256
370
   -1
100
AcDbMText
 10
14.5625
 20
147.9791666666667
 30
0
 40
1.5
 41
0.6666666666666666
 71
    5
 72
    1
  1
2
  7
STANDARD
210
0
220
0
230
1
 50
0
 73
    2
 44
1
  0
MTEXT
  5
2EC
100
AcDbEntity
  8
Drawing Border
  6
ByLayer
 62
  256
370
   -1
100
AcDbMText
 10
14.5625
 20
55.22916666666667
 30
0
 40
1.5
 41
0.6666666666667597
 71
    5
 72
    1
  1
3
  7
STANDARD
210
0
220
0
230
1
 50
0
 73
    2
 44
1
  0
LWPOLYLINE
  5
2ED
100
AcDbEntity
  8
Drawing Border
  6
ByLayer
 62
  256
370
   -1
100
AcDbPolyline
 90
    4
 70
    1
 43
0
 10
412.25
 20
73.49999999999999
 10
413.75
 20
73.49999999999999
 10
413.75
 20
223.5
 10
412.25
 20
223.5
  0
LINE
  5
2EE
100
AcDbEntity
  8
Title Block
  6
ByLayer
 62
  256
370
   -1
100
AcDbLine
 10
16.125
 20
9.375
 11
22.375
 21
9.375
  0
LINE
  5
2EF
100
AcDbEntity
  8
Title Block
  6
ByLayer
 62
  256
370
   -1
100
AcDbLine
 10
22.375
 20
19.375
 11
16.125
 21
19.375
  0
LINE
  5
2F0
100
AcDbEntity
  8
Title Block
  6
ByLayer
 62
  256
370
   -1
100
AcDbLine
 10
16.125
 20
19.375
 11
16.125
 21
9.375
  0
LINE
  5
2F1
100
AcDbEntity
  8
Title Block
  6
ByLayer
 62
  256
370
   -1
100
AcDbLine
 10
22.375
 20
9.375
 11
28.625
 21
9.375
  0
LINE
  5
2F2
100
AcDbEntity
  8
Title Block
  6
ByLayer
 62
  256
370
   -1
100
AcDbLine
 10
28.625
 20
19.375
 11
22.375
 21
19.375
  0
LINE
  5
2F3
100
AcDbEntity
  8
Title Block
  6
ByLayer
 62
  256
370
   -1
100
AcDbLine
 10
28.625
 20
9.375
 11
34.875
 21
9.375
  0
LINE
  5
2F4
100
AcDbEntity
  8
Title Block
  6
ByLayer
 62
  256
370
   -1
100
AcDbLine
 10
34.875
 20
19.375
 11
28.625
 21
19.375
  0
LINE
  5
2F5
100
AcDbEntity
  8
Title Block
  6
ByLayer
 62
  256
370
   -1
100
AcDbLine
 10
34.875
 20
9.375
 11
41.125
 21
9.375
  0
LINE
  5
2F6
100
AcDbEntity
  8
Title Block
  6
ByLayer
 62
  256
370
   -1
100
AcDbLine
 10
41.125
 20
19.375
 11
34.875
 21
19.375
  0
LINE
  5
2F7
100
AcDbEntity
  8
Title Block
  6
ByLayer
 62
  256
370
   -1
100
AcDbLine
 10
41.125
 20
9.375
 11
47.375
 21
9.375
  0
LINE
  5
2F8
100
AcDbEntity
  8
Title Block
  6
ByLayer
 62
  256
370
   -1
100
AcDbLine
 10
47.375
 20
19.375
 11
41.125
 21
19.375
  0
LINE
  5
2F9
100
AcDbEntity
  8
Title Block
  6
ByLayer
 62
  256
370
   -1
100
AcDbLine
 10
47.375
 20
9.375
 11
53.625
 21
9.375
  0
LINE
  5
2FA
100
AcDbEntity
  8
Title Block
  6
ByLayer
 62
  256
370
   -1
100
AcDbLine
 10
53.625
 20
19.375
 11
47.375
 21
19.375
  0
LINE
  5
2FB
100
AcDbEntity
  8
Title Block
  6
ByLayer
 62
  256
370
   -1
100
AcDbLine
 10
53.625
 20
9.375
 11
59.875
 21
9.375
  0
LINE
  5
2FC
100
AcDbEntity
  8
Title Block
  6
ByLayer
 62
  256
370
   -1
100
AcDbLine
 10
59.875
 20
19.375
 11
53.625
 21
19.375
  0
LINE
  5
2FD
100
AcDbEntity
  8
Title Block
  6
ByLayer
 62
  256
370
   -1
100
AcDbLine
 10
59.875
 20
9.375
 11
66.125
 21
9.375
  0
LINE
  5
2FE
100
AcDbEntity
  8
Title Block
  6
ByLayer
 62
  256
370
   -1
100
AcDbLine
 10
66.125
 20
19.375
 11
59.875
 21
19.375
  0
LINE
  5
2FF
100
AcDbEntity
  8
Title Block
  6
ByLayer
 62
  256
370
   -1
100
AcDbLine
 10
66.125
 20
9.375
 11
72.375
 21
9.375
  0
LINE
  5
300
100
AcDbEntity
  8
Title Block
  6
ByLayer
 62
  256
370
   -1
100
AcDbLine
 10
72.375
 20
19.375
 11
66.125
 21
19.375
  0
LINE
  5
301
100
AcDbEntity
  8
Title Block
  6
ByLayer
 62
  256
370
   -1
100
AcDbLine
 10
72.375
 20
9.375
 11
78.625
 21
9.375
  0
LINE
  5
302
100
AcDbEntity
  8
Title Block
  6
ByLayer
 62
  256
370
   -1
100
AcDbLine
 10
78.625
 20
19.375
 11
72.375
 21
19.375
  0
LINE
  5
303
100
AcDbEntity
  8
Title Block
  6
ByLayer
 62
  256
370
   -1
100
AcDbLine
 10
78.625
 20
9.375
 11
84.875
 21
9.375
  0
LINE
  5
304
100
AcDbEntity
  8
Title Block
  6
ByLayer
 62
  256
370
   -1
100
AcDbLine
 10
84.875
 20
9.375
 11
84.875
 21
19.375
  0
LINE
  5
305
100
AcDbEntity
  8
Title Block
  6
ByLayer
 62
  256
370
   -1
100
AcDbLine
 10
84.875
 20
19.375
 11
78.625
 21
19.375
  0
LINE
  5
306
100
AcDbEntity
  8
Title Block
  6
ByLayer
 62
  256
370
   -1
100
AcDbLine
 10
84.875
 20
9.375
 11
91.125
 21
9.375
  0
LINE
  5
307
100
AcDbEntity
  8
Title Block
  6
ByLayer
 62
  256
370
   -1
100
AcDbLine
 10
91.125
 20
19.375
 11
84.875
 21
19.375
  0
LINE
  5
308
100
AcDbEntity
  8
Title Block
  6
ByLayer
 62
  256
370
   -1
100
AcDbLine
 10
91.125
 20
9.375
 11
97.375
 21
9.375
  0
LINE
  5
309
100
AcDbEntity
  8
Title Block
  6
ByLayer
 62
  256
370
   -1
100
AcDbLine
 10
97.375
 20
19.375
 11
91.125
 21
19.375
  0
LINE
  5
30A
100
AcDbEntity
  8
Title Block
  6
ByLayer
 62
  256
370
   -1
100
AcDbLine
 10
97.375
 20
9.375
 11
103.625
 21
9.375
  0
LINE
  5
30B
100
AcDbEntity
  8
Title Block
  6
ByLayer
 62
  256
370
   -1
100
AcDbLine
 10
103.625
 20
19.375
 11
97.375
 21
19.375
  0
LINE
  5
30C
100
AcDbEntity
  8
Title Block
  6
ByLayer
 62
  256
370
   -1
100
AcDbLine
 10
103.625
 20
9.375
 11
109.875
 21
9.375
  0
LINE
  5
30D
100
AcDbEntity
  8
Title Block
  6
ByLayer
 62
  256
370
   -1
100
AcDbLine
 10
109.875
 20
19.375
 11
103.625
 21
19.375
  0
LINE
  5
30E
100
AcDbEntity
  8
Title Block
  6
ByLayer
 62
  256
370
   -1
100
AcDbLine
 10
109.875
 20
9.375
 11
116.125
 21
9.375
  0
LINE
  5
30F
100
AcDbEntity
  8
Title Block
  6
ByLayer
 62
  256
370
   -1
100
AcDbLine
 10
116.125
 20
19.375
 11
109.875
 21
19.375
  0
LINE
  5
310
100
AcDbEntity
  8
Title Block
  6
ByLayer
 62
  256
370
   -1
100
AcDbLine
 10
116.125
 20
9.375
 11
122.375
 21
9.375
  0
LINE
  5
311
100
AcDbEntity
  8
Title Block
  6
ByLayer
 62
  256
370
   -1
100
AcDbLine
 10
122.375
 20
19.375
 11
116.125
 21
19.375
  0
LINE
  5
312
100
AcDbEntity
  8
Title Block
  6
ByLayer
 62
  256
370
   -1
100
AcDbLine
 10
122.375
 20
9.375
 11
128.625
 21
9.375
  0
LINE
  5
313
100
AcDbEntity
  8
Title Block
  6
ByLayer
 62
  256
370
   -1
100
AcDbLine
 10
128.625
 20
19.375
 11
122.375
 21
19.375
  0
LINE
  5
314
100
AcDbEntity
  8
Title Block
  6
ByLayer
 62
  256
370
   -1
100
AcDbLine
 10
128.625
 20
9.375
 11
134.875
 21
9.375
  0
LINE
  5
315
100
AcDbEntity
  8
Title Block
  6
ByLayer
 62
  256
370
   -1
100
AcDbLine
 10
134.875
 20
19.375
 11
128.625
 21
19.375
  0
LINE
  5
316
100
AcDbEntity
  8
Title Block
  6
ByLayer
 62
  256
370
   -1
100
AcDbLine
 10
134.875
 20
9.375
 11
141.125
 21
9.375
  0
LINE
  5
317
100
AcDbEntity
  8
Title Block
  6
ByLayer
 62
  256
370
   -1
100
AcDbLine
 10
141.125
 20
19.375
 11
134.875
 21
19.375
  0
LINE
  5
318
100
AcDbEntity
  8
Title Block
  6
ByLayer
 62
  256
370
   -1
100
AcDbLine
 10
141.125
 20
9.375
 11
147.375
 21
9.375
  0
LINE
  5
319
100
AcDbEntity
  8
Title Block
  6
ByLayer
 62
  256
370
   -1
100
AcDbLine
 10
147.375
 20
19.375
 11
141.125
 21
19.375
  0
LINE
  5
31A
100
AcDbEntity
  8
Title Block
  6
ByLayer
 62
  256
370
   -1
100
AcDbLine
 10
147.375
 20
9.375
 11
153.625
 21
9.375
  0
LINE
  5
31B
100
AcDbEntity
  8
Title Block
  6
ByLayer
 62
  256
370
   -1
100
AcDbLine
 10
153.625
 20
9.375
 11
153.625
 21
19.375
  0
LINE
  5
31C
100
AcDbEntity
  8
Title Block
  6
ByLayer
 62
  256
370
   -1
100
AcDbLine
 10
153.625
 20
19.375
 11
147.375
 21
19.375
  0
LINE
  5
31D
100
AcDbEntity
  8
Title Block
  6
ByLayer
 62
  256
370
   -1
100
AcDbLine
 10
153.625
 20
9.375
 11
159.875
 21
9.375
  0
LINE
  5
31E
100
AcDbEntity
  8
Title Block
  6
ByLayer
 62
  256
370
   -1
100
AcDbLine
 10
159.875
 20
19.375
 11
153.625
 21
19.375
  0
LINE
  5
31F
100
AcDbEntity
  8
Title Block
  6
ByLayer
 62
  256
370
   -1
100
AcDbLine
 10
159.875
 20
9.375
 11
166.125
 21
9.375
  0
LINE
  5
320
100
AcDbEntity
  8
Title Block
  6
ByLayer
 62
  256
370
   -1
100
AcDbLine
 10
166.125
 20
19.375
 11
159.875
 21
19.375
  0
LINE
  5
321
100
AcDbEntity
  8
Title Block
  6
ByLayer
 62
  256
370
   -1
100
AcDbLine
 10
166.125
 20
9.375
 11
172.375
 21
9.375
  0
LINE
  5
322
100
AcDbEntity
  8
Title Block
  6
ByLayer
 62
  256
370
   -1
100
AcDbLine
 10
172.375
 20
19.375
 11
166.125
 21
19.375
  0
LINE
  5
323
100
AcDbEntity
  8
Title Block
  6
ByLayer
 62
  256
370
   -1
100
AcDbLine
 10
172.375
 20
9.375
 11
178.625
 21
9.375
  0
LINE
  5
324
100
AcDbEntity
  8
Title Block
  6
ByLayer
 62
  256
370
   -1
100
AcDbLine
 10
178.625
 20
19.375
 11
172.375
 21
19.375
  0
LINE
  5
325
100
AcDbEntity
  8
Title Block
  6
ByLayer
 62
  256
370
   -1
100
AcDbLine
 10
178.625
 20
9.375
 11
184.875
 21
9.375
  0
LINE
  5
326
100
AcDbEntity
  8
Title Block
  6
ByLayer
 62
  256
370
   -1
100
AcDbLine
 10
184.875
 20
19.375
 11
178.625
 21
19.375
  0
LINE
  5
327
100
AcDbEntity
  8
Title Block
  6
ByLayer
 62
  256
370
   -1
100
AcDbLine
 10
184.875
 20
9.375
 11
191.125
 21
9.375
  0
LINE
  5
328
100
AcDbEntity
  8
Title Block
  6
ByLayer
 62
  256
370
   -1
100
AcDbLine
 10
191.125
 20
19.375
 11
184.875
 21
19.375
  0
LINE
  5
329
100
AcDbEntity
  8
Title Block
  6
ByLayer
 62
  256
370
   -1
100
AcDbLine
 10
191.125
 20
9.375
 11
197.375
 21
9.375
  0
LINE
  5
32A
100
AcDbEntity
  8
Title Block
  6
ByLayer
 62
  256
370
   -1
100
AcDbLine
 10
197.375
 20
19.375
 11
191.125
 21
19.375
  0
LINE
  5
32B
100
AcDbEntity
  8
Title Block
  6
ByLayer
 62
  256
370
   -1
100
AcDbLine
 10
197.375
 20
9.375
 11
203.625
 21
9.375
  0
LINE
  5
32C
100
AcDbEntity
  8
Title Block
  6
ByLayer
 62
  256
370
   -1
100
AcDbLine
 10
203.625
 20
19.375
 11
197.375
 21
19.375
  0
LINE
  5
32D
100
AcDbEntity
  8
Title Block
  6
ByLayer
 62
  256
370
   -1
100
AcDbLine
 10
203.625
 20
9.375
 11
209.875
 21
9.375
  0
LINE
  5
32E
100
AcDbEntity
  8
Title Block
  6
ByLayer
 62
  256
370
   -1
100
AcDbLine
 10
209.875
 20
19.375
 11
203.625
 21
19.375
  0
LINE
  5
32F
100
AcDbEntity
  8
Title Block
  6
ByLayer
 62
  256
370
   -1
100
AcDbLine
 10
209.875
 20
9.375
 11
216.125
 21
9.375
  0
LINE
  5
330
100
AcDbEntity
  8
Title Block
  6
ByLayer
 62
  256
370
   -1
100
AcDbLine
 10
216.125
 20
19.375
 11
209.875
 21
19.375
  0
LINE
  5
331
100
AcDbEntity
  8
Title Block
  6
ByLayer
 62
  256
370
   -1
100
AcDbLine
 10
216.125
 20
9.375
 11
222.375
 21
9.375
  0
LINE
  5
332
100
AcDbEntity
  8
Title Block
  6
ByLayer
 62
  256
370
   -1
100
AcDbLine
 10
222.375
 20
19.375
 11
216.125
 21
19.375
  0
LINE
  5
333
100
AcDbEntity
  8
Title Block
  6
ByLayer
 62
  256
370
   -1
100
AcDbLine
 10
222.375
 20
9.375
 11
228.625
 21
9.375
  0
LINE
  5
334
100
AcDbEntity
  8
Title Block
  6
ByLayer
 62
  256
370
   -1
100
AcDbLine
 10
228.625
 20
19.375
 11
222.375
 21
19.375
  0
LINE
  5
335
100
AcDbEntity
  8
Title Block
  6
ByLayer
 62
  256
370
   -1
100
AcDbLine
 10
228.625
 20
9.375
 11
234.875
 21
9.375
  0
LINE
  5
336
100
AcDbEntity
  8
Title Block
  6
ByLayer
 62
  256
370
   -1
100
AcDbLine
 10
234.875
 20
19.375
 11
228.625
 21
19.375
  0
LINE
  5
337
100
AcDbEntity
  8
Title Block
  6
ByLayer
 62
  256
370
   -1
100
AcDbLine
 10
234.875
 20
9.375
 11
241.125
 21
9.375
  0
LINE
  5
338
100
AcDbEntity
  8
Title Block
  6
ByLayer
 62
  256
370
   -1
100
AcDbLine
 10
241.125
 20
19.375
 11
234.875
 21
19.375
  0
LINE
  5
339
100
AcDbEntity
  8
Title Block
  6
ByLayer
 62
  256
370
   -1
100
AcDbLine
 10
241.125
 20
9.375
 11
247.375
 21
9.375
  0
LINE
  5
33A
100
AcDbEntity
  8
Title Block
  6
ByLayer
 62
  256
370
   -1
100
AcDbLine
 10
247.375
 20
19.375
 11
241.125
 21
19.375
  0
LINE
  5
33B
100
AcDbEntity
  8
Title Block
  6
ByLayer
 62
  256
370
   -1
100
AcDbLine
 10
247.375
 20
9.375
 11
253.625
 21
9.375
  0
LINE
  5
33C
100
AcDbEntity
  8
Title Block
  6
ByLayer
 62
  256
370
   -1
100
AcDbLine
 10
253.625
 20
19.375
 11
247.375
 21
19.375
  0
LINE
  5
33D
100
AcDbEntity
  8
Title Block
  6
ByLayer
 62
  256
370
   -1
100
AcDbLine
 10
253.625
 20
9.375
 11
259.875
 21
9.375
  0
LINE
  5
33E
100
AcDbEntity
  8
Title Block
  6
ByLayer
 62
  256
370
   -1
100
AcDbLine
 10
259.875
 20
19.375
 11
253.625
 21
19.375
  0
LINE
  5
33F
100
AcDbEntity
  8
Title Block
  6
ByLayer
 62
  256
370
   -1
100
AcDbLine
 10
259.875
 20
9.375
 11
266.125
 21
9.375
  0
LINE
  5
340
100
AcDbEntity
  8
Title Block
  6
ByLayer
 62
  256
370
   -1
100
AcDbLine
 10
266.125
 20
19.375
 11
259.875
 21
19.375
  0
LINE
  5
341
100
AcDbEntity
  8
Title Block
  6
ByLayer
 62
  256
370
   -1
100
AcDbLine
 10
266.125
 20
9.375
 11
272.375
 21
9.375
  0
LINE
  5
342
100
AcDbEntity
  8
Title Block
  6
ByLayer
 62
  256
370
   -1
100
AcDbLine
 10
272.375
 20
19.375
 11
266.125
 21
19.375
  0
LINE
  5
343
100
AcDbEntity
  8
Title Block
  6
ByLayer
 62
  256
370
   -1
100
AcDbLine
 10
272.375
 20
9.375
 11
278.625
 21
9.375
  0
LINE
  5
344
100
AcDbEntity
  8
Title Block
  6
ByLayer
 62
  256
370
   -1
100
AcDbLine
 10
278.625
 20
19.375
 11
272.375
 21
19.375
  0
LINE
  5
345
100
AcDbEntity
  8
Title Block
  6
ByLayer
 62
  256
370
   -1
100
AcDbLine
 10
278.625
 20
9.375
 11
284.875
 21
9.375
  0
LINE
  5
346
100
AcDbEntity
  8
Title Block
  6
ByLayer
 62
  256
370
   -1
100
AcDbLine
 10
284.875
 20
19.375
 11
278.625
 21
19.375
  0
LINE
  5
347
100
AcDbEntity
  8
Title Block
  6
ByLayer
 62
  256
370
   -1
100
AcDbLine
 10
284.875
 20
9.375
 11
291.125
 21
9.375
  0
LINE
  5
348
100
AcDbEntity
  8
Title Block
  6
ByLayer
 62
  256
370
   -1
100
AcDbLine
 10
291.125
 20
19.375
 11
284.875
 21
19.375
  0
LINE
  5
349
100
AcDbEntity
  8
Title Block
  6
ByLayer
 62
  256
370
   -1
100
AcDbLine
 10
291.125
 20
9.375
 11
297.375
 21
9.375
  0
LINE
  5
34A
100
AcDbEntity
  8
Title Block
  6
ByLayer
 62
  256
370
   -1
100
AcDbLine
 10
297.375
 20
19.375
 11
291.125
 21
19.375
  0
LINE
  5
34B
100
AcDbEntity
  8
Title Block
  6
ByLayer
 62
  256
370
   -1
100
AcDbLine
 10
297.375
 20
9.375
 11
303.625
 21
9.375
  0
LINE
  5
34C
100
AcDbEntity
  8
Title Block
  6
ByLayer
 62
  256
370
   -1
100
AcDbLine
 10
303.625
 20
19.375
 11
297.375
 21
19.375
  0
LINE
  5
34D
100
AcDbEntity
  8
Title Block
  6
ByLayer
 62
  256
370
   -1
100
AcDbLine
 10
303.625
 20
9.375
 11
309.875
 21
9.375
  0
LINE
  5
34E
100
AcDbEntity
  8
Title Block
  6
ByLayer
 62
  256
370
   -1
100
AcDbLine
 10
309.875
 20
19.375
 11
303.625
 21
19.375
  0
LINE
  5
34F
100
AcDbEntity
  8
Title Block
  6
ByLayer
 62
  256
370
   -1
100
AcDbLine
 10
309.875
 20
9.375
 11
316.125
 21
9.375
  0
LINE
  5
350
100
AcDbEntity
  8
Title Block
  6
ByLayer
 62
  256
370
   -1
100
AcDbLine
 10
316.125
 20
19.375
 11
309.875
 21
19.375
  0
LINE
  5
351
100
AcDbEntity
  8
Title Block
  6
ByLayer
 62
  256
370
   -1
100
AcDbLine
 10
316.125
 20
9.375
 11
322.375
 21
9.375
  0
LINE
  5
352
100
AcDbEntity
  8
Title Block
  6
ByLayer
 62
  256
370
   -1
100
AcDbLine
 10
322.375
 20
19.375
 11
316.125
 21
19.375
  0
LINE
  5
353
100
AcDbEntity
  8
Title Block
  6
ByLayer
 62
  256
370
   -1
100
AcDbLine
 10
322.375
 20
9.375
 11
328.625
 21
9.375
  0
LINE
  5
354
100
AcDbEntity
  8
Title Block
  6
ByLayer
 62
  256
370
   -1
100
AcDbLine
 10
328.625
 20
9.375
 11
328.625
 21
19.375
  0
LINE
  5
355
100
AcDbEntity
  8
Title Block
  6
ByLayer
 62
  256
370
   -1
100
AcDbLine
 10
328.625
 20
19.375
 11
322.375
 21
19.375
  0
LINE
  5
356
100
AcDbEntity
  8
Title Block
  6
ByLayer
 62
  256
370
   -1
100
AcDbLine
 10
328.625
 20
9.375
 11
334.875
 21
9.375
  0
LINE
  5
357
100
AcDbEntity
  8
Title Block
  6
ByLayer
 62
  256
370
   -1
100
AcDbLine
 10
334.875
 20
19.375
 11
328.625
 21
19.375
  0
LINE
  5
358
100
AcDbEntity
  8
Title Block
  6
ByLayer
 62
  256
370
   -1
100
AcDbLine
 10
334.875
 20
9.375
 11
341.125
 21
9.375
  0
LINE
  5
359
100
AcDbEntity
  8
Title Block
  6
ByLayer
 62
  256
370
   -1
100
AcDbLine
 10
341.125
 20
19.375
 11
334.875
 21
19.375
  0
LINE
  5
35A
100
AcDbEntity
  8
Title Block
  6
ByLayer
 62
  256
370
   -1
100
AcDbLine
 10
341.125
 20
9.375
 11
347.375
 21
9.375
  0
LINE
  5
35B
100
AcDbEntity
  8
Title Block
  6
ByLayer
 62
  256
370
   -1
100
AcDbLine
 10
347.375
 20
9.375
 11
347.375
 21
19.375
  0
LINE
  5
35C
100
AcDbEntity
  8
Title Block
  6
ByLayer
 62
  256
370
   -1
100
AcDbLine
 10
347.375
 20
19.375
 11
341.125
 21
19.375
  0
LINE
  5
35D
100
AcDbEntity
  8
Title Block
  6
ByLayer
 62
  256
370
   -1
100
AcDbLine
 10
347.375
 20
9.375
 11
353.625
 21
9.375
  0
LINE
  5
35E
100
AcDbEntity
  8
Title Block
  6
ByLayer
 62
  256
370
   -1
100
AcDbLine
 10
353.625
 20
19.375
 11
347.375
 21
19.375
  0
LINE
  5
35F
100
AcDbEntity
  8
Title Block
  6
ByLayer
 62
  256
370
   -1
100
AcDbLine
 10
353.625
 20
9.375
 11
359.875
 21
9.375
  0
LINE
  5
360
100
AcDbEntity
  8
Title Block
  6
ByLayer
 62
  256
370
   -1
100
AcDbLine
 10
359.875
 20
19.375
 11
353.625
 21
19.375
  0
LINE
  5
361
100
AcDbEntity
  8
Title Block
  6
ByLayer
 62
  256
370
   -1
100
AcDbLine
 10
359.875
 20
9.375
 11
366.125
 21
9.375
  0
LINE
  5
362
100
AcDbEntity
  8
Title Block
  6
ByLayer
 62
  256
370
   -1
100
AcDbLine
 10
366.125
 20
19.375
 11
359.875
 21
19.375
  0
LINE
  5
363
100
AcDbEntity
  8
Title Block
  6
ByLayer
 62
  256
370
   -1
100
AcDbLine
 10
366.125
 20
9.375
 11
372.375
 21
9.375
  0
LINE
  5
364
100
AcDbEntity
  8
Title Block
  6
ByLayer
 62
  256
370
   -1
100
AcDbLine
 10
372.375
 20
19.375
 11
366.125
 21
19.375
  0
LINE
  5
365
100
AcDbEntity
  8
Title Block
  6
ByLayer
 62
  256
370
   -1
100
AcDbLine
 10
372.375
 20
9.375
 11
378.625
 21
9.375
  0
LINE
  5
366
100
AcDbEntity
  8
Title Block
  6
ByLayer
 62
  256
370
   -1
100
AcDbLine
 10
378.625
 20
9.375
 11
378.625
 21
19.375
  0
LINE
  5
367
100
AcDbEntity
  8
Title Block
  6
ByLayer
 62
  256
370
   -1
100
AcDbLine
 10
378.625
 20
19.375
 11
372.375
 21
19.375
  0
LINE
  5
368
100
AcDbEntity
  8
Title Block
  6
ByLayer
 62
  256
370
   -1
100
AcDbLine
 10
378.625
 20
9.375
 11
384.875
 21
9.375
  0
LINE
  5
369
100
AcDbEntity
  8
Title Block
  6
ByLayer
 62
  256
370
   -1
100
AcDbLine
 10
384.875
 20
19.375
 11
378.625
 21
19.375
  0
LINE
  5
36A
100
AcDbEntity
  8
Title Block
  6
ByLayer
 62
  256
370
   -1
100
AcDbLine
 10
384.875
 20
9.375
 11
391.125
 21
9.375
  0
LINE
  5
36B
100
AcDbEntity
  8
Title Block
  6
ByLayer
 62
  256
370
   -1
100
AcDbLine
 10
391.125
 20
19.375
 11
384.875
 21
19.375
  0
LINE
  5
36C
100
AcDbEntity
  8
Title Block
  6
ByLayer
 62
  256
370
   -1
100
AcDbLine
 10
391.125
 20
9.375
 11
397.375
 21
9.375
  0
LINE
  5
36D
100
AcDbEntity
  8
Title Block
  6
ByLayer
 62
  256
370
   -1
100
AcDbLine
 10
397.375
 20
19.375
 11
391.125
 21
19.375
  0
LINE
  5
36E
100
AcDbEntity
  8
Title Block
  6
ByLayer
 62
  256
370
   -1
100
AcDbLine
 10
397.375
 20
9.375
 11
403.625
 21
9.375
  0
LINE
  5
36F
100
AcDbEntity
  8
Title Block
  6
ByLayer
 62
  256
370
   -1
100
AcDbLine
 10
403.625
 20
19.375
 11
397.375
 21
19.375
  0
LINE
  5
370
100
AcDbEntity
  8
Title Block
  6
ByLayer
 62
  256
370
   -1
100
AcDbLine
 10
403.625
 20
9.375
 11
409.875
 21
9.375
  0
LINE
  5
371
100
AcDbEntity
  8
Title Block
  6
ByLayer
 62
  256
370
   -1
100
AcDbLine
 10
409.875
 20
19.375
 11
403.625
 21
19.375
  0
LINE
  5
372
100
AcDbEntity
  8
Title Block
  6
ByLayer
 62
  256
370
   -1
100
AcDbLine
 10
409.875
 20
19.375
 11
410.6250388567214
 21
19.37413924230033
  0
LINE
  5
373
100
AcDbEntity
  8
Title Block
  6
ByLayer
 62
  256
370
   -1
100
AcDbLine
 10
409.875
 20
9.375
 11
410.625
 21
9.375
  0
MTEXT
  5
374
100
AcDbEntity
  8
Title Block
  6
ByLayer
 62
  256
370
   -1
100
AcDbMText
 10
330
 20
11
 30
0
 40
3
 41
7.333333333333333
 71
    7
 72
    1
  1
Rev:
  7
STANDARD
210
0
220
0
230
1
 50
0
 73
    2
 44
1
  0
MTEXT
  5
375
100
AcDbEntity
  8
Title Block
  6
ByLayer
 62
  256
370
   -1
100
AcDbMText
 10
18
 20
11
 30
0
 40
3
 41
19.2500000000006
 71
    7
 72
    1
  1
Drawn by:
  7
STANDARD
210
0
220
0
230
1
 50
0
 73
    2
 44
1
  0
MTEXT
  5
376
100
AcDbEntity
  8
Title Block
  6
ByLayer
 62
  256
370
   -1
100
AcDbMText
 10
87
 20
11
 30
0
 40
3
 41
9.333333333333659
 71
    7
 72
    1
  1
Date:
  7
STANDARD
210
0
220
0
230
1
 50
0
 73
    2
 44
1
  0
MTEXT
  5
377
100
AcDbEntity
  8
Title Block
  6
ByLayer
 62
  256
370
   -1
100
AcDbMText
 10
155.9786343994443
 20
11.02018452135422
 30
0
 40
3
 41
27.2500000000006
 71
    7
 72
    1
  1
Drawing Title:
  7
STANDARD
210
0
220
0
230
1
 50
0
 73
    2
 44
1
  0
MTEXT
  5
378
100
AcDbEntity
  8
Title Block
  6
ByLayer
 62
  256
370
   -1
100
AcDbMText
 10
349
 20
11
 30
0
 40
3
 41
11.66666603066036
 71
    7
 72
    1
  1
Sheet:
  7
STANDARD
210
0
220
0
230
1
 50
0
 73
    2
 44
1
  0
MTEXT
  5
379
100
AcDbEntity
  8
Title Block
  6
ByLayer
 62
  256
370
   -1
100
AcDbMText
 10
381
 20
11
 30
0
 40
3
 41
10.66666603066036
 71
    7
 72
    1
  1
Scale:
  7
STANDARD
210
0
220
0
230
1
 50
0
 73
    2
 44
1
  0
ENDBLK
  5
81
330
7F
100
AcDbEntity
  8
0
100
AcDbBlockEnd
  0
BLOCK
  5
83
330
82
100
AcDbEntity
  8
0
100
AcDbBlockBegin
  2
#Drawing Template A3 Landscape-1
 70
    0
 10
0
 20
0
  3
#Drawing Template A3 Landscape-1
  1

  0
LINE
  5
37A
100
AcDbEntity
  8
Paper Format
  6
ByLayer
 62
  256
370
   -1
100
AcDbLine
 10
0
 20
0
 11
10
 21
0
  0
LINE
  5
37B
100
AcDbEntity
  8
Paper Format
  6
ByLayer
 62
  256
370
   -1
100
AcDbLine
 10
0
 20
0
 11
420
 21
0
  0
LINE
  5
37C
100
AcDbEntity
  8
Paper Format
  6
ByLayer
 62
  256
370
   -1
100
AcDbLine
 10
420
 20
0
 11
420
 21
297
  0
LINE
  5
37D
100
AcDbEntity
  8
Paper Format
  6
ByLayer
 62
  256
370
   -1
100
AcDbLine
 10
420
 20
297
 11
0
 21
297
  0
LINE
  5
37E
100
AcDbEntity
  8
Paper Format
  6
ByLayer
 62
  256
370
   -1
100
AcDbLine
 10
0
 20
297
 11
0
 21
0
  0
LINE
  5
37F
100
AcDbEntity
  8
Drawing Border
  6
ByLayer
 62
  256
370
   -1
100
AcDbLine
 10
16.125
 20
9.375
 11
410.625
 21
9.375
  0
LINE
  5
380
100
AcDbEntity
  8
Drawing Border
  6
ByLayer
 62
  256
370
   -1
100
AcDbLine
 10
410.625
 20
9.375
 11
410.625
 21
287.625
  0
LINE
  5
381
100
AcDbEntity
  8
Drawing Border
  6
ByLayer
 62
  256
370
   70
100
AcDbLine
 10
13
 20
290.75
 11
13
 21
6.25
  0
LINE
  5
382
100
AcDbEntity
  8
Drawing Border
  6
ByLayer
 62
  256
370
   70
100
AcDbLine
 10
13
 20
6.25
 11
413.75
 21
6.25
  0
LINE
  5
383
100
AcDbEntity
  8
Drawing Border
  6
ByLayer
 62
  256
370
   70
100
AcDbLine
 10
413.75
 20
290.75
 11
13
 21
290.75
  0
LINE
  5
384
100
AcDbEntity
  8
Drawing Border
  6
ByLayer
 62
  256
370
   70
100
AcDbLine
 10
413.75
 20
6.25
 11
413.75
 21
290.75
  0
LINE
  5
385
100
AcDbEntity
  8
Drawing Border
  6
ByLayer
 62
  256
370
   -1
100
AcDbLine
 10
16.125
 20
287.625
 11
16.125
 21
9.375
  0
LINE
  5
386
100
AcDbEntity
  8
Drawing Border
  6
ByLayer
 62
  256
370
   -1
100
AcDbLine
 10
410.625
 20
287.625
 11
16.125
 21
287.625
  0
LINE
  5
387
100
AcDbEntity
  8
Drawing Border
  6
ByLayer
 62
  256
370
   -1
100
AcDbLine
 10
114.75
 20
287.625
 11
114.75
 21
290.625
  0
LINE
  5
388
100
AcDbEntity
  8
Drawing Border
  6
ByLayer
 62
  256
370
   -1
100
AcDbLine
 10
213.375
 20
287.625
 11
213.375
 21
290.625
  0
LINE
  5
389
100
AcDbEntity
  8
Drawing Border
  6
ByLayer
 62
  256
370
   -1
100
AcDbLine
 10
312
 20
287.625
 11
312
 21
290.625
  0
LINE
  5
38A
100
AcDbEntity
  8
Drawing Border
  6
ByLayer
 62
  256
370
   -1
100
AcDbLine
 10
16.125
 20
194.875
 11
13.125
 21
194.875
  0
LINE
  5
38B
100
AcDbEntity
  8
Drawing Border
  6
ByLayer
 62
  256
370
   -1
100
AcDbLine
 10
16.125
 20
102.125
 11
13.125
 21
102.125
  0
MTEXT
  5
38C
100
AcDbEntity
  8
Drawing Border
  6
ByLayer
 62
  256
370
   -1
100
AcDbMText
 10
63.875
 20
289.1875
 30
0
 40
2
 41
1.333333333333333
 71
    5
 72
    1
  1
A
  7
STANDARD
210
0
220
0
230
1
 50
0
 73
    2
 44
1
  0
MTEXT
  5
38D
100
AcDbEntity
  8
Drawing Border
  6
ByLayer
 62
  256
370
   -1
100
AcDbMText
 10
164.0625
 20
289.125
 30
0
 40
1.5
 41
0.8333333333333333
 71
    5
 72
    1
  1
B
  7
STANDARD
210
0
220
0
230
1
 50
0
 73
    2
 44
1
  0
MTEXT
  5
38E
100
AcDbEntity
  8
Drawing Border
  6
ByLayer
 62
  256
370
   -1
100
AcDbMText
 10
262.6875
 20
289.125
 30
0
 40
1.5
 41
0.6666666666667597
 71
    5
 72
    1
  1
C
  7
STANDARD
210
0
220
0
230
1
 50
0
 73
    2
 44
1
  0
MTEXT
  5
38F
100
AcDbEntity
  8
Drawing Border
  6
ByLayer
 62
  256
370
   -1
100
AcDbMText
 10
361.3125
 20
289.125
 30
0
 40
1.5
 41
0.8333333333334263
 71
    5
 72
    1
  1
D
  7
STANDARD
210
0
220
0
230
1
 50
0
 73
    2
 44
1
  0
MTEXT
  5
390
100
AcDbEntity
  8
Drawing Border
  6
ByLayer
 62
  256
370
   -1
100
AcDbMText
 10
14.5625
 20
242.8125
 30
0
 40
1.5
 41
0.3333333333333333
 71
    5
 72
    1
  1
1
  7
STANDARD
210
0
220
0
230
1
 50
0
 73
    2
 44
1
  0
MTEXT
  5
391
100
AcDbEntity
  8
Drawing Border
  6
ByLayer
 62
  256
370
   -1
100
AcDbMText
 10
14.5625
 20
147.9791666666667
 30
0
 40
1.5
 41
0.6666666666666666
 71
    5
 72
    1
  1
2
  7
STANDARD
210
0
220
0
230
1
 50
0
 73
    2
 44
1
  0
MTEXT
  5
392
100
AcDbEntity
  8
Drawing Border
  6
ByLayer
 62
  256
370
   -1
100
AcDbMText
 10
14.5625
 20
55.22916666666667
 30
0
 40
1.5
 41
0.6666666666667597
 71
    5
 72
    1
  1
3
  7
STANDARD
210
0
220
0
230
1
 50
0
 73
    2
 44
1
  0
LWPOLYLINE
  5
393
100
AcDbEntity
  8
Drawing Border
  6
ByLayer
 62
  256
370
   -1
100
AcDbPolyline
 90
    4
 70
    1
 43
0
 10
412.25
 20
73.49999999999999
 10
413.75
 20
73.49999999999999
 10
413.75
 20
223.5
 10
412.25
 20
223.5
  0
LINE
  5
394
100
AcDbEntity
  8
Title Block
  6
ByLayer
 62
  256
370
   -1
100
AcDbLine
 10
16.125
 20
9.375
 11
22.375
 21
9.375
  0
LINE
  5
395
100
AcDbEntity
  8
Title Block
  6
ByLayer
 62
  256
370
   -1
100
AcDbLine
 10
22.375
 20
19.375
 11
16.125
 21
19.375
  0
LINE
  5
396
100
AcDbEntity
  8
Title Block
  6
ByLayer
 62
  256
370
   -1
100
AcDbLine
 10
16.125
 20
19.375
 11
16.125
 21
9.375
  0
LINE
  5
397
100
AcDbEntity
  8
Title Block
  6
ByLayer
 62
  256
370
   -1
100
AcDbLine
 10
22.375
 20
9.375
 11
28.625
 21
9.375
  0
LINE
  5
398
100
AcDbEntity
  8
Title Block
  6
ByLayer
 62
  256
370
   -1
100
AcDbLine
 10
28.625
 20
19.375
 11
22.375
 21
19.375
  0
LINE
  5
399
100
AcDbEntity
  8
Title Block
  6
ByLayer
 62
  256
370
   -1
100
AcDbLine
 10
28.625
 20
9.375
 11
34.875
 21
9.375
  0
LINE
  5
39A
100
AcDbEntity
  8
Title Block
  6
ByLayer
 62
  256
370
   -1
100
AcDbLine
 10
34.875
 20
19.375
 11
28.625
 21
19.375
  0
LINE
  5
39B
100
AcDbEntity
  8
Title Block
  6
ByLayer
 62
  256
370
   -1
100
AcDbLine
 10
34.875
 20
9.375
 11
41.125
 21
9.375
  0
LINE
  5
39C
100
AcDbEntity
  8
Title Block
  6
ByLayer
 62
  256
370
   -1
100
AcDbLine
 10
41.125
 20
19.375
 11
34.875
 21
19.375
  0
LINE
  5
39D
100
AcDbEntity
  8
Title Block
  6
ByLayer
 62
  256
370
   -1
100
AcDbLine
 10
41.125
 20
9.375
 11
47.375
 21
9.375
  0
LINE
  5
39E
100
AcDbEntity
  8
Title Block
  6
ByLayer
 62
  256
370
   -1
100
AcDbLine
 10
47.375
 20
19.375
 11
41.125
 21
19.375
  0
LINE
  5
39F
100
AcDbEntity
  8
Title Block
  6
ByLayer
 62
  256
370
   -1
100
AcDbLine
 10
47.375
 20
9.375
 11
53.625
 21
9.375
  0
LINE
  5
3A0
100
AcDbEntity
  8
Title Block
  6
ByLayer
 62
  256
370
   -1
100
AcDbLine
 10
53.625
 20
19.375
 11
47.375
 21
19.375
  0
LINE
  5
3A1
100
AcDbEntity
  8
Title Block
  6
ByLayer
 62
  256
370
   -1
100
AcDbLine
 10
53.625
 20
9.375
 11
59.875
 21
9.375
  0
LINE
  5
3A2
100
AcDbEntity
  8
Title Block
  6
ByLayer
 62
  256
370
   -1
100
AcDbLine
 10
59.875
 20
19.375
 11
53.625
 21
19.375
  0
LINE
  5
3A3
100
AcDbEntity
  8
Title Block
  6
ByLayer
 62
  256
370
   -1
100
AcDbLine
 10
59.875
 20
9.375
 11
66.125
 21
9.375
  0
LINE
  5
3A4
100
AcDbEntity
  8
Title Block
  6
ByLayer
 62
  256
370
   -1
100
AcDbLine
 10
66.125
 20
19.375
 11
59.875
 21
19.375
  0
LINE
  5
3A5
100
AcDbEntity
  8
Title Block
  6
ByLayer
 62
  256
370
   -1
100
AcDbLine
 10
66.125
 20
9.375
 11
72.375
 21
9.375
  0
LINE
  5
3A6
100
AcDbEntity
  8
Title Block
  6
ByLayer
 62
  256
370
   -1
100
AcDbLine
 10
72.375
 20
19.375
 11
66.125
 21
19.375
  0
LINE
  5
3A7
100
AcDbEntity
  8
Title Block
  6
ByLayer
 62
  256
370
   -1
100
AcDbLine
 10
72.375
 20
9.375
 11
78.625
 21
9.375
  0
LINE
  5
3A8
100
AcDbEntity
  8
Title Block
  6
ByLayer
 62
  256
370
   -1
100
AcDbLine
 10
78.625
 20
19.375
 11
72.375
 21
19.375
  0
LINE
  5
3A9
100
AcDbEntity
  8
Title Block
  6
ByLayer
 62
  256
370
   -1
100
AcDbLine
 10
78.625
 20
9.375
 11
84.875
 21
9.375
  0
LINE
  5
3AA
100
AcDbEntity
  8
Title Block
  6
ByLayer
 62
  256
370
   -1
100
AcDbLine
 10
84.875
 20
9.375
 11
84.875
 21
19.375
  0
LINE
  5
3AB
100
AcDbEntity
  8
Title Block
  6
ByLayer
 62
  256
370
   -1
100
AcDbLine
 10
84.875
 20
19.375
 11
78.625
 21
19.375
  0
LINE
  5
3AC
100
AcDbEntity
  8
Title Block
  6
ByLayer
 62
  256
370
   -1
100
AcDbLine
 10
84.875
 20
9.375
 11
91.125
 21
9.375
  0
LINE
  5
3AD
100
AcDbEntity
  8
Title Block
  6
ByLayer
 62
  256
370
   -1
100
AcDbLine
 10
91.125
 20
19.375
 11
84.875
 21
19.375
  0
LINE
  5
3AE
100
AcDbEntity
  8
Title Block
  6
ByLayer
 62
  256
370
   -1
100
AcDbLine
 10
91.125
 20
9.375
 11
97.375
 21
9.375
  0
LINE
  5
3AF
100
AcDbEntity
  8
Title Block
  6
ByLayer
 62
  256
370
   -1
100
AcDbLine
 10
97.375
 20
19.375
 11
91.125
 21
19.375
  0
LINE
  5
3B0
100
AcDbEntity
  8
Title Block
  6
ByLayer
 62
  256
370
   -1
100
AcDbLine
 10
97.375
 20
9.375
 11
103.625
 21
9.375
  0
LINE
  5
3B1
100
AcDbEntity
  8
Title Block
  6
ByLayer
 62
  256
370
   -1
100
AcDbLine
 10
103.625
 20
19.375
 11
97.375
 21
19.375
  0
LINE
  5
3B2
100
AcDbEntity
  8
Title Block
  6
ByLayer
 62
  256
370
   -1
100
AcDbLine
 10
103.625
 20
9.375
 11
109.875
 21
9.375
  0
LINE
  5
3B3
100
AcDbEntity
  8
Title Block
  6
ByLayer
 62
  256
370
   -1
100
AcDbLine
 10
109.875
 20
19.375
 11
103.625
 21
19.375
  0
LINE
  5
3B4
100
AcDbEntity
  8
Title Block
  6
ByLayer
 62
  256
370
   -1
100
AcDbLine
 10
109.875
 20
9.375
 11
116.125
 21
9.375
  0
LINE
  5
3B5
100
AcDbEntity
  8
Title Block
  6
ByLayer
 62
  256
370
   -1
100
AcDbLine
 10
116.125
 20
19.375
 11
109.875
 21
19.375
  0
LINE
  5
3B6
100
AcDbEntity
  8
Title Block
  6
ByLayer
 62
  256
370
   -1
100
AcDbLine
 10
116.125
 20
9.375
 11
122.375
 21
9.375
  0
LINE
  5
3B7
100
AcDbEntity
  8
Title Block
  6
ByLayer
 62
  256
370
   -1
100
AcDbLine
 10
122.375
 20
19.375
 11
116.125
 21
19.375
  0
LINE
  5
3B8
100
AcDbEntity
  8
Title Block
  6
ByLayer
 62
  256
370
   -1
100
AcDbLine
 10
122.375
 20
9.375
 11
128.625
 21
9.375
  0
LINE
  5
3B9
100
AcDbEntity
  8
Title Block
  6
ByLayer
 62
  256
370
   -1
100
AcDbLine
 10
128.625
 20
19.375
 11
122.375
 21
19.375
  0
LINE
  5
3BA
100
AcDbEntity
  8
Title Block
  6
ByLayer
 62
  256
370
   -1
100
AcDbLine
 10
128.625
 20
9.375
 11
134.875
 21
9.375
  0
LINE
  5
3BB
100
AcDbEntity
  8
Title Block
  6
ByLayer
 62
  256
370
   -1
100
AcDbLine
 10
134.875
 20
19.375
 11
128.625
 21
19.375
  0
LINE
  5
3BC
100
AcDbEntity
  8
Title Block
  6
ByLayer
 62
  256
370
   -1
100
AcDbLine
 10
134.875
 20
9.375
 11
141.125
 21
9.375
  0
LINE
  5
3BD
100
AcDbEntity
  8
Title Block
  6
ByLayer
 62
  256
370
   -1
100
AcDbLine
 10
141.125
 20
19.375
 11
134.875
 21
19.375
  0
LINE
  5
3BE
100
AcDbEntity
  8
Title Block
  6
ByLayer
 62
  256
370
   -1
100
AcDbLine
 10
141.125
 20
9.375
 11
147.375
 21
9.375
  0
LINE
  5
3BF
100
AcDbEntity
  8
Title Block
  6
ByLayer
 62
  256
370
   -1
100
AcDbLine
 10
147.375
 20
19.375
 11
141.125
 21
19.375
  0
LINE
  5
3C0
100
AcDbEntity
  8
Title Block
  6
ByLayer
 62
  256
370
   -1
100
AcDbLine
 10
147.375
 20
9.375
 11
153.625
 21
9.375
  0
LINE
  5
3C1
100
AcDbEntity
  8
Title Block
  6
ByLayer
 62
  256
370
   -1
100
AcDbLine
 10
153.625
 20
9.375
 11
153.625
 21
19.375
  0
LINE
  5
3C2
100
AcDbEntity
  8
Title Block
  6
ByLayer
 62
  256
370
   -1
100
AcDbLine
 10
153.625
 20
19.375
 11
147.375
 21
19.375
  0
LINE
  5
3C3
100
AcDbEntity
  8
Title Block
  6
ByLayer
 62
  256
370
   -1
100
AcDbLine
 10
153.625
 20
9.375
 11
159.875
 21
9.375
  0
LINE
  5
3C4
100
AcDbEntity
  8
Title Block
  6
ByLayer
 62
  256
370
   -1
100
AcDbLine
 10
159.875
 20
19.375
 11
153.625
 21
19.375
  0
LINE
  5
3C5
100
AcDbEntity
  8
Title Block
  6
ByLayer
 62
  256
370
   -1
100
AcDbLine
 10
159.875
 20
9.375
 11
166.125
 21
9.375
  0
LINE
  5
3C6
100
AcDbEntity
  8
Title Block
  6
ByLayer
 62
  256
370
   -1
100
AcDbLine
 10
166.125
 20
19.375
 11
159.875
 21
19.375
  0
LINE
  5
3C7
100
AcDbEntity
  8
Title Block
  6
ByLayer
 62
  256
370
   -1
100
AcDbLine
 10
166.125
 20
9.375
 11
172.375
 21
9.375
  0
LINE
  5
3C8
100
AcDbEntity
  8
Title Block
  6
ByLayer
 62
  256
370
   -1
100
AcDbLine
 10
172.375
 20
19.375
 11
166.125
 21
19.375
  0
LINE
  5
3C9
100
AcDbEntity
  8
Title Block
  6
ByLayer
 62
  256
370
   -1
100
AcDbLine
 10
172.375
 20
9.375
 11
178.625
 21
9.375
  0
LINE
  5
3CA
100
AcDbEntity
  8
Title Block
  6
ByLayer
 62
  256
370
   -1
100
AcDbLine
 10
178.625
 20
19.375
 11
172.375
 21
19.375
  0
LINE
  5
3CB
100
AcDbEntity
  8
Title Block
  6
ByLayer
 62
  256
370
   -1
100
AcDbLine
 10
178.625
 20
9.375
 11
184.875
 21
9.375
  0
LINE
  5
3CC
100
AcDbEntity
  8
Title Block
  6
ByLayer
 62
  256
370
   -1
100
AcDbLine
 10
184.875
 20
19.375
 11
178.625
 21
19.375
  0
LINE
  5
3CD
100
AcDbEntity
  8
Title Block
  6
ByLayer
 62
  256
370
   -1
100
AcDbLine
 10
184.875
 20
9.375
 11
191.125
 21
9.375
  0
LINE
  5
3CE
100
AcDbEntity
  8
Title Block
  6
ByLayer
 62
  256
370
   -1
100
AcDbLine
 10
191.125
 20
19.375
 11
184.875
 21
19.375
  0
LINE
  5
3CF
100
AcDbEntity
  8
Title Block
  6
ByLayer
 62
  256
370
   -1
100
AcDbLine
 10
191.125
 20
9.375
 11
197.375
 21
9.375
  0
LINE
  5
3D0
100
AcDbEntity
  8
Title Block
  6
ByLayer
 62
  256
370
   -1
100
AcDbLine
 10
197.375
 20
19.375
 11
191.125
 21
19.375
  0
LINE
  5
3D1
100
AcDbEntity
  8
Title Block
  6
ByLayer
 62
  256
370
   -1
100
AcDbLine
 10
197.375
 20
9.375
 11
203.625
 21
9.375
  0
LINE
  5
3D2
100
AcDbEntity
  8
Title Block
  6
ByLayer
 62
  256
370
   -1
100
AcDbLine
 10
203.625
 20
19.375
 11
197.375
 21
19.375
  0
LINE
  5
3D3
100
AcDbEntity
  8
Title Block
  6
ByLayer
 62
  256
370
   -1
100
AcDbLine
 10
203.625
 20
9.375
 11
209.875
 21
9.375
  0
LINE
  5
3D4
100
AcDbEntity
  8
Title Block
  6
ByLayer
 62
  256
370
   -1
100
AcDbLine
 10
209.875
 20
19.375
 11
203.625
 21
19.375
  0
LINE
  5
3D5
100
AcDbEntity
  8
Title Block
  6
ByLayer
 62
  256
370
   -1
100
AcDbLine
 10
209.875
 20
9.375
 11
216.125
 21
9.375
  0
LINE
  5
3D6
100
AcDbEntity
  8
Title Block
  6
ByLayer
 62
  256
370
   -1
100
AcDbLine
 10
216.125
 20
19.375
 11
209.875
 21
19.375
  0
LINE
  5
3D7
100
AcDbEntity
  8
Title Block
  6
ByLayer
 62
  256
370
   -1
100
AcDbLine
 10
216.125
 20
9.375
 11
222.375
 21
9.375
  0
LINE
  5
3D8
100
AcDbEntity
  8
Title Block
  6
ByLayer
 62
  256
370
   -1
100
AcDbLine
 10
222.375
 20
19.375
 11
216.125
 21
19.375
  0
LINE
  5
3D9
100
AcDbEntity
  8
Title Block
  6
ByLayer
 62
  256
370
   -1
100
AcDbLine
 10
222.375
 20
9.375
 11
228.625
 21
9.375
  0
LINE
  5
3DA
100
AcDbEntity
  8
Title Block
  6
ByLayer
 62
  256
370
   -1
100
AcDbLine
 10
228.625
 20
19.375
 11
222.375
 21
19.375
  0
LINE
  5
3DB
100
AcDbEntity
  8
Title Block
  6
ByLayer
 62
  256
370
   -1
100
AcDbLine
 10
228.625
 20
9.375
 11
234.875
 21
9.375
  0
LINE
  5
3DC
100
AcDbEntity
  8
Title Block
  6
ByLayer
 62
  256
370
   -1
100
AcDbLine
 10
234.875
 20
19.375
 11
228.625
 21
19.375
  0
LINE
  5
3DD
100
AcDbEntity
  8
Title Block
  6
ByLayer
 62
  256
370
   -1
100
AcDbLine
 10
234.875
 20
9.375
 11
241.125
 21
9.375
  0
LINE
  5
3DE
100
AcDbEntity
  8
Title Block
  6
ByLayer
 62
  256
370
   -1
100
AcDbLine
 10
241.125
 20
19.375
 11
234.875
 21
19.375
  0
LINE
  5
3DF
100
AcDbEntity
  8
Title Block
  6
ByLayer
 62
  256
370
   -1
100
AcDbLine
 10
241.125
 20
9.375
 11
247.375
 21
9.375
  0
LINE
  5
3E0
100
AcDbEntity
  8
Title Block
  6
ByLayer
 62
  256
370
   -1
100
AcDbLine
 10
247.375
 20
19.375
 11
241.125
 21
19.375
  0
LINE
  5
3E1
100
AcDbEntity
  8
Title Block
  6
ByLayer
 62
  256
370
   -1
100
AcDbLine
 10
247.375
 20
9.375
 11
253.625
 21
9.375
  0
LINE
  5
3E2
100
AcDbEntity
  8
Title Block
  6
ByLayer
 62
  256
370
   -1
100
AcDbLine
 10
253.625
 20
19.375
 11
247.375
 21
19.375
  0
LINE
  5
3E3
100
AcDbEntity
  8
Title Block
  6
ByLayer
 62
  256
370
   -1
100
AcDbLine
 10
253.625
 20
9.375
 11
259.875
 21
9.375
  0
LINE
  5
3E4
100
AcDbEntity
  8
Title Block
  6
ByLayer
 62
  256
370
   -1
100
AcDbLine
 10
259.875
 20
19.375
 11
253.625
 21
19.375
  0
LINE
  5
3E5
100
AcDbEntity
  8
Title Block
  6
ByLayer
 62
  256
370
   -1
100
AcDbLine
 10
259.875
 20
9.375
 11
266.125
 21
9.375
  0
LINE
  5
3E6
100
AcDbEntity
  8
Title Block
  6
ByLayer
 62
  256
370
   -1
100
AcDbLine
 10
266.125
 20
19.375
 11
259.875
 21
19.375
  0
LINE
  5
3E7
100
AcDbEntity
  8
Title Block
  6
ByLayer
 62
  256
370
   -1
100
AcDbLine
 10
266.125
 20
9.375
 11
272.375
 21
9.375
  0
LINE
  5
3E8
100
AcDbEntity
  8
Title Block
  6
ByLayer
 62
  256
370
   -1
100
AcDbLine
 10
272.375
 20
19.375
 11
266.125
 21
19.375
  0
LINE
  5
3E9
100
AcDbEntity
  8
Title Block
  6
ByLayer
 62
  256
370
   -1
100
AcDbLine
 10
272.375
 20
9.375
 11
278.625
 21
9.375
  0
LINE
  5
3EA
100
AcDbEntity
  8
Title Block
  6
ByLayer
 62
  256
370
   -1
100
AcDbLine
 10
278.625
 20
19.375
 11
272.375
 21
19.375
  0
LINE
  5
3EB
100
AcDbEntity
  8
Title Block
  6
ByLayer
 62
  256
370
   -1
100
AcDbLine
 10
278.625
 20
9.375
 11
284.875
 21
9.375
  0
LINE
  5
3EC
100
AcDbEntity
  8
Title Block
  6
ByLayer
 62
  256
370
   -1
100
AcDbLine
 10
284.875
 20
19.375
 11
278.625
 21
19.375
  0
LINE
  5
3ED
100
AcDbEntity
  8
Title Block
  6
ByLayer
 62
  256
370
   -1
100
AcDbLine
 10
284.875
 20
9.375
 11
291.125
 21
9.375
  0
LINE
  5
3EE
100
AcDbEntity
  8
Title Block
  6
ByLayer
 62
  256
370
   -1
100
AcDbLine
 10
291.125
 20
19.375
 11
284.875
 21
19.375
  0
LINE
  5
3EF
100
AcDbEntity
  8
Title Block
  6
ByLayer
 62
  256
370
   -1
100
AcDbLine
 10
291.125
 20
9.375
 11
297.375
 21
9.375
  0
LINE
  5
3F0
100
AcDbEntity
  8
Title Block
  6
ByLayer
 62
  256
370
   -1
100
AcDbLine
 10
297.375
 20
19.375
 11
291.125
 21
19.375
  0
LINE
  5
3F1
100
AcDbEntity
  8
Title Block
  6
ByLayer
 62
  256
370
   -1
100
AcDbLine
 10
297.375
 20
9.375
 11
303.625
 21
9.375
  0
LINE
  5
3F2
100
AcDbEntity
  8
Title Block
  6
ByLayer
 62
  256
370
   -1
100
AcDbLine
 10
303.625
 20
19.375
 11
297.375
 21
19.375
  0
LINE
  5
3F3
100
AcDbEntity
  8
Title Block
  6
ByLayer
 62
  256
370
   -1
100
AcDbLine
 10
303.625
 20
9.375
 11
309.875
 21
9.375
  0
LINE
  5
3F4
100
AcDbEntity
  8
Title Block
  6
ByLayer
 62
  256
370
   -1
100
AcDbLine
 10
309.875
 20
19.375
 11
303.625
 21
19.375
  0
LINE
  5
3F5
100
AcDbEntity
  8
Title Block
  6
ByLayer
 62
  256
370
   -1
100
AcDbLine
 10
309.875
 20
9.375
 11
316.125
 21
9.375
  0
LINE
  5
3F6
100
AcDbEntity
  8
Title Block
  6
ByLayer
 62
  256
370
   -1
100
AcDbLine
 10
316.125
 20
19.375
 11
309.875
 21
19.375
  0
LINE
  5
3F7
100
AcDbEntity
  8
Title Block
  6
ByLayer
 62
  256
370
   -1
100
AcDbLine
 10
316.125
 20
9.375
 11
322.375
 21
9.375
  0
LINE
  5
3F8
100
AcDbEntity
  8
Title Block
  6
ByLayer
 62
  256
370
   -1
100
AcDbLine
 10
322.375
 20
19.375
 11
316.125
 21
19.375
  0
LINE
  5
3F9
100
AcDbEntity
  8
Title Block
  6
ByLayer
 62
  256
370
   -1
100
AcDbLine
 10
322.375
 20
9.375
 11
328.625
 21
9.375
  0
LINE
  5
3FA
100
AcDbEntity
  8
Title Block
  6
ByLayer
 62
  256
370
   -1
100
AcDbLine
 10
328.625
 20
9.375
 11
328.625
 21
19.375
  0
LINE
  5
3FB
100
AcDbEntity
  8
Title Block
  6
ByLayer
 62
  256
370
   -1
100
AcDbLine
 10
328.625
 20
19.375
 11
322.375
 21
19.375
  0
LINE
  5
3FC
100
AcDbEntity
  8
Title Block
  6
ByLayer
 62
  256
370
   -1
100
AcDbLine
 10
328.625
 20
9.375
 11
334.875
 21
9.375
  0
LINE
  5
3FD
100
AcDbEntity
  8
Title Block
  6
ByLayer
 62
  256
370
   -1
100
AcDbLine
 10
334.875
 20
19.375
 11
328.625
 21
19.375
  0
LINE
  5
3FE
100
AcDbEntity
  8
Title Block
  6
ByLayer
 62
  256
370
   -1
100
AcDbLine
 10
334.875
 20
9.375
 11
341.125
 21
9.375
  0
LINE
  5
3FF
100
AcDbEntity
  8
Title Block
  6
ByLayer
 62
  256
370
   -1
100
AcDbLine
 10
341.125
 20
19.375
 11
334.875
 21
19.375
  0
LINE
  5
400
100
AcDbEntity
  8
Title Block
  6
ByLayer
 62
  256
370
   -1
100
AcDbLine
 10
341.125
 20
9.375
 11
347.375
 21
9.375
  0
LINE
  5
401
100
AcDbEntity
  8
Title Block
  6
ByLayer
 62
  256
370
   -1
100
AcDbLine
 10
347.375
 20
9.375
 11
347.375
 21
19.375
  0
LINE
  5
402
100
AcDbEntity
  8
Title Block
  6
ByLayer
 62
  256
370
   -1
100
AcDbLine
 10
347.375
 20
19.375
 11
341.125
 21
19.375
  0
LINE
  5
403
100
AcDbEntity
  8
Title Block
  6
ByLayer
 62
  256
370
   -1
100
AcDbLine
 10
347.375
 20
9.375
 11
353.625
 21
9.375
  0
LINE
  5
404
100
AcDbEntity
  8
Title Block
  6
ByLayer
 62
  256
370
   -1
100
AcDbLine
 10
353.625
 20
19.375
 11
347.375
 21
19.375
  0
LINE
  5
405
100
AcDbEntity
  8
Title Block
  6
ByLayer
 62
  256
370
   -1
100
AcDbLine
 10
353.625
 20
9.375
 11
359.875
 21
9.375
  0
LINE
  5
406
100
AcDbEntity
  8
Title Block
  6
ByLayer
 62
  256
370
   -1
100
AcDbLine
 10
359.875
 20
19.375
 11
353.625
 21
19.375
  0
LINE
  5
407
100
AcDbEntity
  8
Title Block
  6
ByLayer
 62
  256
370
   -1
100
AcDbLine
 10
359.875
 20
9.375
 11
366.125
 21
9.375
  0
LINE
  5
408
100
AcDbEntity
  8
Title Block
  6
ByLayer
 62
  256
370
   -1
100
AcDbLine
 10
366.125
 20
19.375
 11
359.875
 21
19.375
  0
LINE
  5
409
100
AcDbEntity
  8
Title Block
  6
ByLayer
 62
  256
370
   -1
100
AcDbLine
 10
366.125
 20
9.375
 11
372.375
 21
9.375
  0
LINE
  5
40A
100
AcDbEntity
  8
Title Block
  6
ByLayer
 62
  256
370
   -1
100
AcDbLine
 10
372.375
 20
19.375
 11
366.125
 21
19.375
  0
LINE
  5
40B
100
AcDbEntity
  8
Title Block
  6
ByLayer
 62
  256
370
   -1
100
AcDbLine
 10
372.375
 20
9.375
 11
378.625
 21
9.375
  0
LINE
  5
40C
100
AcDbEntity
  8
Title Block
  6
ByLayer
 62
  256
370
   -1
100
AcDbLine
 10
378.625
 20
9.375
 11
378.625
 21
19.375
  0
LINE
  5
40D
100
AcDbEntity
  8
Title Block
  6
ByLayer
 62
  256
370
   -1
100
AcDbLine
 10
378.625
 20
19.375
 11
372.375
 21
19.375
  0
LINE
  5
40E
100
AcDbEntity
  8
Title Block
  6
ByLayer
 62
  256
370
   -1
100
AcDbLine
 10
378.625
 20
9.375
 11
384.875
 21
9.375
  0
LINE
  5
40F
100
AcDbEntity
  8
Title Block
  6
ByLayer
 62
  256
370
   -1
100
AcDbLine
 10
384.875
 20
19.375
 11
378.625
 21
19.375
  0
LINE
  5
410
100
AcDbEntity
  8
Title Block
  6
ByLayer
 62
  256
370
   -1
100
AcDbLine
 10
384.875
 20
9.375
 11
391.125
 21
9.375
  0
LINE
  5
411
100
AcDbEntity
  8
Title Block
  6
ByLayer
 62
  256
370
   -1
100
AcDbLine
 10
391.125
 20
19.375
 11
384.875
 21
19.375
  0
LINE
  5
412
100
AcDbEntity
  8
Title Block
  6
ByLayer
 62
  256
370
   -1
100
AcDbLine
 10
391.125
 20
9.375
 11
397.375
 21
9.375
  0
LINE
  5
413
100
AcDbEntity
  8
Title Block
  6
ByLayer
 62
  256
370
   -1
100
AcDbLine
 10
397.375
 20
19.375
 11
391.125
 21
19.375
  0
LINE
  5
414
100
AcDbEntity
  8
Title Block
  6
ByLayer
 62
  256
370
   -1
100
AcDbLine
 10
397.375
 20
9.375
 11
403.625
 21
9.375
  0
LINE
  5
415
100
AcDbEntity
  8
Title Block
  6
ByLayer
 62
  256
370
   -1
100
AcDbLine
 10
403.625
 20
19.375
 11
397.375
 21
19.375
  0
LINE
  5
416
100
AcDbEntity
  8
Title Block
  6
ByLayer
 62
  256
370
   -1
100
AcDbLine
 10
403.625
 20
9.375
 11
409.875
 21
9.375
  0
LINE
  5
417
100
AcDbEntity
  8
Title Block
  6
ByLayer
 62
  256
370
   -1
100
AcDbLine
 10
409.875
 20
19.375
 11
403.625
 21
19.375
  0
LINE
  5
418
100
AcDbEntity
  8
Title Block
  6
ByLayer
 62
  256
370
   -1
100
AcDbLine
 10
409.875
 20
19.375
 11
410.6250388567214
 21
19.37413924230033
  0
LINE
  5
419
100
AcDbEntity
  8
Title Block
  6
ByLayer
 62
  256
370
   -1
100
AcDbLine
 10
409.875
 20
9.375
 11
410.625
 21
9.375
  0
MTEXT
  5
41A
100
AcDbEntity
  8
Title Block
  6
ByLayer
 62
  256
370
   -1
100
AcDbMText
 10
330
 20
11
 30
0
 40
3
 41
7.333333333333333
 71
    7
 72
    1
  1
Rev:
  7
STANDARD
210
0
220
0
230
1
 50
0
 73
    2
 44
1
  0
MTEXT
  5
41B
100
AcDbEntity
  8
Title Block
  6
ByLayer
 62
  256
370
   -1
100
AcDbMText
 10
18
 20
11
 30
0
 40
3
 41
19.2500000000006
 71
    7
 72
    1
  1
Drawn by:
  7
STANDARD
210
0
220
0
230
1
 50
0
 73
    2
 44
1
  0
MTEXT
  5
41C
100
AcDbEntity
  8
Title Block
  6
ByLayer
 62
  256
370
   -1
100
AcDbMText
 10
87
 20
11
 30
0
 40
3
 41
9.333333333333659
 71
    7
 72
    1
  1
Date:
  7
STANDARD
210
0
220
0
230
1
 50
0
 73
    2
 44
1
  0
MTEXT
  5
41D
100
AcDbEntity
  8
Title Block
  6
ByLayer
 62
  256
370
   -1
100
AcDbMText
 10
155.9786343994443
 20
11.02018452135422
 30
0
 40
3
 41
27.2500000000006
 71
    7
 72
    1
  1
Drawing Title:
  7
STANDARD
210
0
220
0
230
1
 50
0
 73
    2
 44
1
  0
MTEXT
  5
41E
100
AcDbEntity
  8
Title Block
  6
ByLayer
 62
  256
370
   -1
100
AcDbMText
 10
349
 20
11
 30
0
 40
3
 41
11.66666603066036
 71
    7
 72
    1
  1
Sheet:
  7
STANDARD
210
0
220
0
230
1
 50
0
 73
    2
 44
1
  0
MTEXT
  5
41F
100
AcDbEntity
  8
Title Block
  6
ByLayer
 62
  256
370
   -1
100
AcDbMText
 10
381
 20
11
 30
0
 40
3
 41
10.66666603066036
 71
    7
 72
    1
  1
Scale:
  7
STANDARD
210
0
220
0
230
1
 50
0
 73
    2
 44
1
  0
ENDBLK
  5
84
330
82
100
AcDbEntity
  8
0
100
AcDbBlockEnd
  0
BLOCK
  5
86
330
85
100
AcDbEntity
  8
0
100
AcDbBlockBegin
  2
Drawing Template A3 Landscape-1
 70
    0
 10
0
 20
0
  3
Drawing Template A3 Landscape-1
  1

  0
LINE
  5
420
100
AcDbEntity
  8
Paper Format
  6
ByLayer
 62
  256
370
   -1
100
AcDbLine
 10
0
 20
0
 11
10
 21
0
  0
LINE
  5
421
100
AcDbEntity
  8
Paper Format
  6
ByLayer
 62
  256
370
   -1
100
AcDbLine
 10
0
 20
0
 11
420
 21
0
  0
LINE
  5
422
100
AcDbEntity
  8
Paper Format
  6
ByLayer
 62
  256
370
   -1
100
AcDbLine
 10
420
 20
0
 11
420
 21
297
  0
LINE
  5
423
100
AcDbEntity
  8
Paper Format
  6
ByLayer
 62
  256
370
   -1
100
AcDbLine
 10
420
 20
297
 11
0
 21
297
  0
LINE
  5
424
100
AcDbEntity
  8
Paper Format
  6
ByLayer
 62
  256
370
   -1
100
AcDbLine
 10
0
 20
297
 11
0
 21
0
  0
LINE
  5
425
100
AcDbEntity
  8
Drawing Border
  6
ByLayer
 62
  256
370
   -1
100
AcDbLine
 10
16.125
 20
9.375
 11
410.625
 21
9.375
  0
LINE
  5
426
100
AcDbEntity
  8
Drawing Border
  6
ByLayer
 62
  256
370
   -1
100
AcDbLine
 10
410.625
 20
9.375
 11
410.625
 21
287.625
  0
LINE
  5
427
100
AcDbEntity
  8
Drawing Border
  6
ByLayer
 62
  256
370
   70
100
AcDbLine
 10
13
 20
290.75
 11
13
 21
6.25
  0
LINE
  5
428
100
AcDbEntity
  8
Drawing Border
  6
ByLayer
 62
  256
370
   70
100
AcDbLine
 10
13
 20
6.25
 11
413.75
 21
6.25
  0
LINE
  5
429
100
AcDbEntity
  8
Drawing Border
  6
ByLayer
 62
  256
370
   70
100
AcDbLine
 10
413.75
 20
290.75
 11
13
 21
290.75
  0
LINE
  5
42A
100
AcDbEntity
  8
Drawing Border
  6
ByLayer
 62
  256
370
   70
100
AcDbLine
 10
413.75
 20
6.25
 11
413.75
 21
290.75
  0
LINE
  5
42B
100
AcDbEntity
  8
Drawing Border
  6
ByLayer
 62
  256
370
   -1
100
AcDbLine
 10
16.125
 20
287.625
 11
16.125
 21
9.375
  0
LINE
  5
42C
100
AcDbEntity
  8
Drawing Border
  6
ByLayer
 62
  256
370
   -1
100
AcDbLine
 10
410.625
 20
287.625
 11
16.125
 21
287.625
  0
LINE
  5
42D
100
AcDbEntity
  8
Drawing Border
  6
ByLayer
 62
  256
370
   -1
100
AcDbLine
 10
114.75
 20
287.625
 11
114.75
 21
290.625
  0
LINE
  5
42E
100
AcDbEntity
  8
Drawing Border
  6
ByLayer
 62
  256
370
   -1
100
AcDbLine
 10
213.375
 20
287.625
 11
213.375
 21
290.625
  0
LINE
  5
42F
100
AcDbEntity
  8
Drawing Border
  6
ByLayer
 62
  256
370
   -1
100
AcDbLine
 10
312
 20
287.625
 11
312
 21
290.625
  0
LINE
  5
430
100
AcDbEntity
  8
Drawing Border
  6
ByLayer
 62
  256
370
   -1
100
AcDbLine
 10
16.125
 20
194.875
 11
13.125
 21
194.875
  0
LINE
  5
431
100
AcDbEntity
  8
Drawing Border
  6
ByLayer
 62
  256
370
   -1
100
AcDbLine
 10
16.125
 20
102.125
 11
13.125
 21
102.125
  0
MTEXT
  5
432
100
AcDbEntity
  8
Drawing Border
  6
ByLayer
 62
  256
370
   -1
100
AcDbMText
 10
63.875
 20
289.1875
 30
0
 40
2
 41
1.333333333333333
 71
    5
 72
    1
  1
A
  7
STANDARD
210
0
220
0
230
1
 50
0
 73
    2
 44
1
  0
MTEXT
  5
433
100
AcDbEntity
  8
Drawing Border
  6
ByLayer
 62
  256
370
   -1
100
AcDbMText
 10
164.0625
 20
289.125
 30
0
 40
1.5
 41
0.8333333333333333
 71
    5
 72
    1
  1
B
  7
STANDARD
210
0
220
0
230
1
 50
0
 73
    2
 44
1
  0
MTEXT
  5
434
100
AcDbEntity
  8
Drawing Border
  6
ByLayer
 62
  256
370
   -1
100
AcDbMText
 10
262.6875
 20
289.125
 30
0
 40
1.5
 41
0.6666666666667597
 71
    5
 72
    1
  1
C
  7
STANDARD
210
0
220
0
230
1
 50
0
 73
    2
 44
1
  0
MTEXT
  5
435
100
AcDbEntity
  8
Drawing Border
  6
ByLayer
 62
  256
370
   -1
100
AcDbMText
 10
361.3125
 20
289.125
 30
0
 40
1.5
 41
0.8333333333334263
 71
    5
 72
    1
  1
D
  7
STANDARD
210
0
220
0
230
1
 50
0
 73
    2
 44
1
  0
MTEXT
  5
436
100
AcDbEntity
  8
Drawing Border
  6
ByLayer
 62
  256
370
   -1
100
AcDbMText
 10
14.5625
 20
242.8125
 30
0
 40
1.5
 41
0.3333333333333333
 71
    5
 72
    1
  1
1
  7
STANDARD
210
0
220
0
230
1
 50
0
 73
    2
 44
1
  0
MTEXT
  5
437
100
AcDbEntity
  8
Drawing Border
  6
ByLayer
 62
  256
370
   -1
100
AcDbMText
 10
14.5625
 20
147.9791666666667
 30
0
 40
1.5
 41
0.6666666666666666
 71
    5
 72
    1
  1
2
  7
STANDARD
210
0
220
0
230
1
 50
0
 73
    2
 44
1
  0
MTEXT
  5
438
100
AcDbEntity
  8
Drawing Border
  6
ByLayer
 62
  256
370
   -1
100
AcDbMText
 10
14.5625
 20
55.22916666666667
 30
0
 40
1.5
 41
0.6666666666667597
 71
    5
 72
    1
  1
3
  7
STANDARD
210
0
220
0
230
1
 50
0
 73
    2
 44
1
  0
LWPOLYLINE
  5
439
100
AcDbEntity
  8
Drawing Border
  6
ByLayer
 62
  256
370
   -1
100
AcDbPolyline
 90
    4
 70
    1
 43
0
 10
412.25
 20
73.49999999999999
 10
413.75
 20
73.49999999999999
 10
413.75
 20
223.5
 10
412.25
 20
223.5
  0
LINE
  5
43A
100
AcDbEntity
  8
Title Block
  6
ByLayer
 62
  256
370
   -1
100
AcDbLine
 10
16.125
 20
9.375
 11
22.375
 21
9.375
  0
LINE
  5
43B
100
AcDbEntity
  8
Title Block
  6
ByLayer
 62
  256
370
   -1
100
AcDbLine
 10
22.375
 20
19.375
 11
16.125
 21
19.375
  0
LINE
  5
43C
100
AcDbEntity
  8
Title Block
  6
ByLayer
 62
  256
370
   -1
100
AcDbLine
 10
16.125
 20
19.375
 11
16.125
 21
9.375
  0
LINE
  5
43D
100
AcDbEntity
  8
Title Block
  6
ByLayer
 62
  256
370
   -1
100
AcDbLine
 10
22.375
 20
9.375
 11
28.625
 21
9.375
  0
LINE
  5
43E
100
AcDbEntity
  8
Title Block
  6
ByLayer
 62
  256
370
   -1
100
AcDbLine
 10
28.625
 20
19.375
 11
22.375
 21
19.375
  0
LINE
  5
43F
100
AcDbEntity
  8
Title Block
  6
ByLayer
 62
  256
370
   -1
100
AcDbLine
 10
28.625
 20
9.375
 11
34.875
 21
9.375
  0
LINE
  5
440
100
AcDbEntity
  8
Title Block
  6
ByLayer
 62
  256
370
   -1
100
AcDbLine
 10
34.875
 20
19.375
 11
28.625
 21
19.375
  0
LINE
  5
441
100
AcDbEntity
  8
Title Block
  6
ByLayer
 62
  256
370
   -1
100
AcDbLine
 10
34.875
 20
9.375
 11
41.125
 21
9.375
  0
LINE
  5
442
100
AcDbEntity
  8
Title Block
  6
ByLayer
 62
  256
370
   -1
100
AcDbLine
 10
41.125
 20
19.375
 11
34.875
 21
19.375
  0
LINE
  5
443
100
AcDbEntity
  8
Title Block
  6
ByLayer
 62
  256
370
   -1
100
AcDbLine
 10
41.125
 20
9.375
 11
47.375
 21
9.375
  0
LINE
  5
444
100
AcDbEntity
  8
Title Block
  6
ByLayer
 62
  256
370
   -1
100
AcDbLine
 10
47.375
 20
19.375
 11
41.125
 21
19.375
  0
LINE
  5
445
100
AcDbEntity
  8
Title Block
  6
ByLayer
 62
  256
370
   -1
100
AcDbLine
 10
47.375
 20
9.375
 11
53.625
 21
9.375
  0
LINE
  5
446
100
AcDbEntity
  8
Title Block
  6
ByLayer
 62
  256
370
   -1
100
AcDbLine
 10
53.625
 20
19.375
 11
47.375
 21
19.375
  0
LINE
  5
447
100
AcDbEntity
  8
Title Block
  6
ByLayer
 62
  256
370
   -1
100
AcDbLine
 10
53.625
 20
9.375
 11
59.875
 21
9.375
  0
LINE
  5
448
100
AcDbEntity
  8
Title Block
  6
ByLayer
 62
  256
370
   -1
100
AcDbLine
 10
59.875
 20
19.375
 11
53.625
 21
19.375
  0
LINE
  5
449
100
AcDbEntity
  8
Title Block
  6
ByLayer
 62
  256
370
   -1
100
AcDbLine
 10
59.875
 20
9.375
 11
66.125
 21
9.375
  0
LINE
  5
44A
100
AcDbEntity
  8
Title Block
  6
ByLayer
 62
  256
370
   -1
100
AcDbLine
 10
66.125
 20
19.375
 11
59.875
 21
19.375
  0
LINE
  5
44B
100
AcDbEntity
  8
Title Block
  6
ByLayer
 62
  256
370
   -1
100
AcDbLine
 10
66.125
 20
9.375
 11
72.375
 21
9.375
  0
LINE
  5
44C
100
AcDbEntity
  8
Title Block
  6
ByLayer
 62
  256
370
   -1
100
AcDbLine
 10
72.375
 20
19.375
 11
66.125
 21
19.375
  0
LINE
  5
44D
100
AcDbEntity
  8
Title Block
  6
ByLayer
 62
  256
370
   -1
100
AcDbLine
 10
72.375
 20
9.375
 11
78.625
 21
9.375
  0
LINE
  5
44E
100
AcDbEntity
  8
Title Block
  6
ByLayer
 62
  256
370
   -1
100
AcDbLine
 10
78.625
 20
19.375
 11
72.375
 21
19.375
  0
LINE
  5
44F
100
AcDbEntity
  8
Title Block
  6
ByLayer
 62
  256
370
   -1
100
AcDbLine
 10
78.625
 20
9.375
 11
84.875
 21
9.375
  0
LINE
  5
450
100
AcDbEntity
  8
Title Block
  6
ByLayer
 62
  256
370
   -1
100
AcDbLine
 10
84.875
 20
9.375
 11
84.875
 21
19.375
  0
LINE
  5
451
100
AcDbEntity
  8
Title Block
  6
ByLayer
 62
  256
370
   -1
100
AcDbLine
 10
84.875
 20
19.375
 11
78.625
 21
19.375
  0
LINE
  5
452
100
AcDbEntity
  8
Title Block
  6
ByLayer
 62
  256
370
   -1
100
AcDbLine
 10
84.875
 20
9.375
 11
91.125
 21
9.375
  0
LINE
  5
453
100
AcDbEntity
  8
Title Block
  6
ByLayer
 62
  256
370
   -1
100
AcDbLine
 10
91.125
 20
19.375
 11
84.875
 21
19.375
  0
LINE
  5
454
100
AcDbEntity
  8
Title Block
  6
ByLayer
 62
  256
370
   -1
100
AcDbLine
 10
91.125
 20
9.375
 11
97.375
 21
9.375
  0
LINE
  5
455
100
AcDbEntity
  8
Title Block
  6
ByLayer
 62
  256
370
   -1
100
AcDbLine
 10
97.375
 20
19.375
 11
91.125
 21
19.375
  0
LINE
  5
456
100
AcDbEntity
  8
Title Block
  6
ByLayer
 62
  256
370
   -1
100
AcDbLine
 10
97.375
 20
9.375
 11
103.625
 21
9.375
  0
LINE
  5
457
100
AcDbEntity
  8
Title Block
  6
ByLayer
 62
  256
370
   -1
100
AcDbLine
 10
103.625
 20
19.375
 11
97.375
 21
19.375
  0
LINE
  5
458
100
AcDbEntity
  8
Title Block
  6
ByLayer
 62
  256
370
   -1
100
AcDbLine
 10
103.625
 20
9.375
 11
109.875
 21
9.375
  0
LINE
  5
459
100
AcDbEntity
  8
Title Block
  6
ByLayer
 62
  256
370
   -1
100
AcDbLine
 10
109.875
 20
19.375
 11
103.625
 21
19.375
  0
LINE
  5
45A
100
AcDbEntity
  8
Title Block
  6
ByLayer
 62
  256
370
   -1
100
AcDbLine
 10
109.875
 20
9.375
 11
116.125
 21
9.375
  0
LINE
  5
45B
100
AcDbEntity
  8
Title Block
  6
ByLayer
 62
  256
370
   -1
100
AcDbLine
 10
116.125
 20
19.375
 11
109.875
 21
19.375
  0
LINE
  5
45C
100
AcDbEntity
  8
Title Block
  6
ByLayer
 62
  256
370
   -1
100
AcDbLine
 10
116.125
 20
9.375
 11
122.375
 21
9.375
  0
LINE
  5
45D
100
AcDbEntity
  8
Title Block
  6
ByLayer
 62
  256
370
   -1
100
AcDbLine
 10
122.375
 20
19.375
 11
116.125
 21
19.375
  0
LINE
  5
45E
100
AcDbEntity
  8
Title Block
  6
ByLayer
 62
  256
370
   -1
100
AcDbLine
 10
122.375
 20
9.375
 11
128.625
 21
9.375
  0
LINE
  5
45F
100
AcDbEntity
  8
Title Block
  6
ByLayer
 62
  256
370
   -1
100
AcDbLine
 10
128.625
 20
19.375
 11
122.375
 21
19.375
  0
LINE
  5
460
100
AcDbEntity
  8
Title Block
  6
ByLayer
 62
  256
370
   -1
100
AcDbLine
 10
128.625
 20
9.375
 11
134.875
 21
9.375
  0
LINE
  5
461
100
AcDbEntity
  8
Title Block
  6
ByLayer
 62
  256
370
   -1
100
AcDbLine
 10
134.875
 20
19.375
 11
128.625
 21
19.375
  0
LINE
  5
462
100
AcDbEntity
  8
Title Block
  6
ByLayer
 62
  256
370
   -1
100
AcDbLine
 10
134.875
 20
9.375
 11
141.125
 21
9.375
  0
LINE
  5
463
100
AcDbEntity
  8
Title Block
  6
ByLayer
 62
  256
370
   -1
100
AcDbLine
 10
141.125
 20
19.375
 11
134.875
 21
19.375
  0
LINE
  5
464
100
AcDbEntity
  8
Title Block
  6
ByLayer
 62
  256
370
   -1
100
AcDbLine
 10
141.125
 20
9.375
 11
147.375
 21
9.375
  0
LINE
  5
465
100
AcDbEntity
  8
Title Block
  6
ByLayer
 62
  256
370
   -1
100
AcDbLine
 10
147.375
 20
19.375
 11
141.125
 21
19.375
  0
LINE
  5
466
100
AcDbEntity
  8
Title Block
  6
ByLayer
 62
  256
370
   -1
100
AcDbLine
 10
147.375
 20
9.375
 11
153.625
 21
9.375
  0
LINE
  5
467
100
AcDbEntity
  8
Title Block
  6
ByLayer
 62
  256
370
   -1
100
AcDbLine
 10
153.625
 20
9.375
 11
153.625
 21
19.375
  0
LINE
  5
468
100
AcDbEntity
  8
Title Block
  6
ByLayer
 62
  256
370
   -1
100
AcDbLine
 10
153.625
 20
19.375
 11
147.375
 21
19.375
  0
LINE
  5
469
100
AcDbEntity
  8
Title Block
  6
ByLayer
 62
  256
370
   -1
100
AcDbLine
 10
153.625
 20
9.375
 11
159.875
 21
9.375
  0
LINE
  5
46A
100
AcDbEntity
  8
Title Block
  6
ByLayer
 62
  256
370
   -1
100
AcDbLine
 10
159.875
 20
19.375
 11
153.625
 21
19.375
  0
LINE
  5
46B
100
AcDbEntity
  8
Title Block
  6
ByLayer
 62
  256
370
   -1
100
AcDbLine
 10
159.875
 20
9.375
 11
166.125
 21
9.375
  0
LINE
  5
46C
100
AcDbEntity
  8
Title Block
  6
ByLayer
 62
  256
370
   -1
100
AcDbLine
 10
166.125
 20
19.375
 11
159.875
 21
19.375
  0
LINE
  5
46D
100
AcDbEntity
  8
Title Block
  6
ByLayer
 62
  256
370
   -1
100
AcDbLine
 10
166.125
 20
9.375
 11
172.375
 21
9.375
  0
LINE
  5
46E
100
AcDbEntity
  8
Title Block
  6
ByLayer
 62
  256
370
   -1
100
AcDbLine
 10
172.375
 20
19.375
 11
166.125
 21
19.375
  0
LINE
  5
46F
100
AcDbEntity
  8
Title Block
  6
ByLayer
 62
  256
370
   -1
100
AcDbLine
 10
172.375
 20
9.375
 11
178.625
 21
9.375
  0
LINE
  5
470
100
AcDbEntity
  8
Title Block
  6
ByLayer
 62
  256
370
   -1
100
AcDbLine
 10
178.625
 20
19.375
 11
172.375
 21
19.375
  0
LINE
  5
471
100
AcDbEntity
  8
Title Block
  6
ByLayer
 62
  256
370
   -1
100
AcDbLine
 10
178.625
 20
9.375
 11
184.875
 21
9.375
  0
LINE
  5
472
100
AcDbEntity
  8
Title Block
  6
ByLayer
 62
  256
370
   -1
100
AcDbLine
 10
184.875
 20
19.375
 11
178.625
 21
19.375
  0
LINE
  5
473
100
AcDbEntity
  8
Title Block
  6
ByLayer
 62
  256
370
   -1
100
AcDbLine
 10
184.875
 20
9.375
 11
191.125
 21
9.375
  0
LINE
  5
474
100
AcDbEntity
  8
Title Block
  6
ByLayer
 62
  256
370
   -1
100
AcDbLine
 10
191.125
 20
19.375
 11
184.875
 21
19.375
  0
LINE
  5
475
100
AcDbEntity
  8
Title Block
  6
ByLayer
 62
  256
370
   -1
100
AcDbLine
 10
191.125
 20
9.375
 11
197.375
 21
9.375
  0
LINE
  5
476
100
AcDbEntity
  8
Title Block
  6
ByLayer
 62
  256
370
   -1
100
AcDbLine
 10
197.375
 20
19.375
 11
191.125
 21
19.375
  0
LINE
  5
477
100
AcDbEntity
  8
Title Block
  6
ByLayer
 62
  256
370
   -1
100
AcDbLine
 10
197.375
 20
9.375
 11
203.625
 21
9.375
  0
LINE
  5
478
100
AcDbEntity
  8
Title Block
  6
ByLayer
 62
  256
370
   -1
100
AcDbLine
 10
203.625
 20
19.375
 11
197.375
 21
19.375
  0
LINE
  5
479
100
AcDbEntity
  8
Title Block
  6
ByLayer
 62
  256
370
   -1
100
AcDbLine
 10
203.625
 20
9.375
 11
209.875
 21
9.375
  0
LINE
  5
47A
100
AcDbEntity
  8
Title Block
  6
ByLayer
 62
  256
370
   -1
100
AcDbLine
 10
209.875
 20
19.375
 11
203.625
 21
19.375
  0
LINE
  5
47B
100
AcDbEntity
  8
Title Block
  6
ByLayer
 62
  256
370
   -1
100
AcDbLine
 10
209.875
 20
9.375
 11
216.125
 21
9.375
  0
LINE
  5
47C
100
AcDbEntity
  8
Title Block
  6
ByLayer
 62
  256
370
   -1
100
AcDbLine
 10
216.125
 20
19.375
 11
209.875
 21
19.375
  0
LINE
  5
47D
100
AcDbEntity
  8
Title Block
  6
ByLayer
 62
  256
370
   -1
100
AcDbLine
 10
216.125
 20
9.375
 11
222.375
 21
9.375
  0
LINE
  5
47E
100
AcDbEntity
  8
Title Block
  6
ByLayer
 62
  256
370
   -1
100
AcDbLine
 10
222.375
 20
19.375
 11
216.125
 21
19.375
  0
LINE
  5
47F
100
AcDbEntity
  8
Title Block
  6
ByLayer
 62
  256
370
   -1
100
AcDbLine
 10
222.375
 20
9.375
 11
228.625
 21
9.375
  0
LINE
  5
480
100
AcDbEntity
  8
Title Block
  6
ByLayer
 62
  256
370
   -1
100
AcDbLine
 10
228.625
 20
19.375
 11
222.375
 21
19.375
  0
LINE
  5
481
100
AcDbEntity
  8
Title Block
  6
ByLayer
 62
  256
370
   -1
100
AcDbLine
 10
228.625
 20
9.375
 11
234.875
 21
9.375
  0
LINE
  5
482
100
AcDbEntity
  8
Title Block
  6
ByLayer
 62
  256
370
   -1
100
AcDbLine
 10
234.875
 20
19.375
 11
228.625
 21
19.375
  0
LINE
  5
483
100
AcDbEntity
  8
Title Block
  6
ByLayer
 62
  256
370
   -1
100
AcDbLine
 10
234.875
 20
9.375
 11
241.125
 21
9.375
  0
LINE
  5
484
100
AcDbEntity
  8
Title Block
  6
ByLayer
 62
  256
370
   -1
100
AcDbLine
 10
241.125
 20
19.375
 11
234.875
 21
19.375
  0
LINE
  5
485
100
AcDbEntity
  8
Title Block
  6
ByLayer
 62
  256
370
   -1
100
AcDbLine
 10
241.125
 20
9.375
 11
247.375
 21
9.375
  0
LINE
  5
486
100
AcDbEntity
  8
Title Block
  6
ByLayer
 62
  256
370
   -1
100
AcDbLine
 10
247.375
 20
19.375
 11
241.125
 21
19.375
  0
LINE
  5
487
100
AcDbEntity
  8
Title Block
  6
ByLayer
 62
  256
370
   -1
100
AcDbLine
 10
247.375
 20
9.375
 11
253.625
 21
9.375
  0
LINE
  5
488
100
AcDbEntity
  8
Title Block
  6
ByLayer
 62
  256
370
   -1
100
AcDbLine
 10
253.625
 20
19.375
 11
247.375
 21
19.375
  0
LINE
  5
489
100
AcDbEntity
  8
Title Block
  6
ByLayer
 62
  256
370
   -1
100
AcDbLine
 10
253.625
 20
9.375
 11
259.875
 21
9.375
  0
LINE
  5
48A
100
AcDbEntity
  8
Title Block
  6
ByLayer
 62
  256
370
   -1
100
AcDbLine
 10
259.875
 20
19.375
 11
253.625
 21
19.375
  0
LINE
  5
48B
100
AcDbEntity
  8
Title Block
  6
ByLayer
 62
  256
370
   -1
100
AcDbLine
 10
259.875
 20
9.375
 11
266.125
 21
9.375
  0
LINE
  5
48C
100
AcDbEntity
  8
Title Block
  6
ByLayer
 62
  256
370
   -1
100
AcDbLine
 10
266.125
 20
19.375
 11
259.875
 21
19.375
  0
LINE
  5
48D
100
AcDbEntity
  8
Title Block
  6
ByLayer
 62
  256
370
   -1
100
AcDbLine
 10
266.125
 20
9.375
 11
272.375
 21
9.375
  0
LINE
  5
48E
100
AcDbEntity
  8
Title Block
  6
ByLayer
 62
  256
370
   -1
100
AcDbLine
 10
272.375
 20
19.375
 11
266.125
 21
19.375
  0
LINE
  5
48F
100
AcDbEntity
  8
Title Block
  6
ByLayer
 62
  256
370
   -1
100
AcDbLine
 10
272.375
 20
9.375
 11
278.625
 21
9.375
  0
LINE
  5
490
100
AcDbEntity
  8
Title Block
  6
ByLayer
 62
  256
370
   -1
100
AcDbLine
 10
278.625
 20
19.375
 11
272.375
 21
19.375
  0
LINE
  5
491
100
AcDbEntity
  8
Title Block
  6
ByLayer
 62
  256
370
   -1
100
AcDbLine
 10
278.625
 20
9.375
 11
284.875
 21
9.375
  0
LINE
  5
492
100
AcDbEntity
  8
Title Block
  6
ByLayer
 62
  256
370
   -1
100
AcDbLine
 10
284.875
 20
19.375
 11
278.625
 21
19.375
  0
LINE
  5
493
100
AcDbEntity
  8
Title Block
  6
ByLayer
 62
  256
370
   -1
100
AcDbLine
 10
284.875
 20
9.375
 11
291.125
 21
9.375
  0
LINE
  5
494
100
AcDbEntity
  8
Title Block
  6
ByLayer
 62
  256
370
   -1
100
AcDbLine
 10
291.125
 20
19.375
 11
284.875
 21
19.375
  0
LINE
  5
495
100
AcDbEntity
  8
Title Block
  6
ByLayer
 62
  256
370
   -1
100
AcDbLine
 10
291.125
 20
9.375
 11
297.375
 21
9.375
  0
LINE
  5
496
100
AcDbEntity
  8
Title Block
  6
ByLayer
 62
  256
370
   -1
100
AcDbLine
 10
297.375
 20
19.375
 11
291.125
 21
19.375
  0
LINE
  5
497
100
AcDbEntity
  8
Title Block
  6
ByLayer
 62
  256
370
   -1
100
AcDbLine
 10
297.375
 20
9.375
 11
303.625
 21
9.375
  0
LINE
  5
498
100
AcDbEntity
  8
Title Block
  6
ByLayer
 62
  256
370
   -1
100
AcDbLine
 10
303.625
 20
19.375
 11
297.375
 21
19.375
  0
LINE
  5
499
100
AcDbEntity
  8
Title Block
  6
ByLayer
 62
  256
370
   -1
100
AcDbLine
 10
303.625
 20
9.375
 11
309.875
 21
9.375
  0
LINE
  5
49A
100
AcDbEntity
  8
Title Block
  6
ByLayer
 62
  256
370
   -1
100
AcDbLine
 10
309.875
 20
19.375
 11
303.625
 21
19.375
  0
LINE
  5
49B
100
AcDbEntity
  8
Title Block
  6
ByLayer
 62
  256
370
   -1
100
AcDbLine
 10
309.875
 20
9.375
 11
316.125
 21
9.375
  0
LINE
  5
49C
100
AcDbEntity
  8
Title Block
  6
ByLayer
 62
  256
370
   -1
100
AcDbLine
 10
316.125
 20
19.375
 11
309.875
 21
19.375
  0
LINE
  5
49D
100
AcDbEntity
  8
Title Block
  6
ByLayer
 62
  256
370
   -1
100
AcDbLine
 10
316.125
 20
9.375
 11
322.375
 21
9.375
  0
LINE
  5
49E
100
AcDbEntity
  8
Title Block
  6
ByLayer
 62
  256
370
   -1
100
AcDbLine
 10
322.375
 20
19.375
 11
316.125
 21
19.375
  0
LINE
  5
49F
100
AcDbEntity
  8
Title Block
  6
ByLayer
 62
  256
370
   -1
100
AcDbLine
 10
322.375
 20
9.375
 11
328.625
 21
9.375
  0
LINE
  5
4A0
100
AcDbEntity
  8
Title Block
  6
ByLayer
 62
  256
370
   -1
100
AcDbLine
 10
328.625
 20
9.375
 11
328.625
 21
19.375
  0
LINE
  5
4A1
100
AcDbEntity
  8
Title Block
  6
ByLayer
 62
  256
370
   -1
100
AcDbLine
 10
328.625
 20
19.375
 11
322.375
 21
19.375
  0
LINE
  5
4A2
100
AcDbEntity
  8
Title Block
  6
ByLayer
 62
  256
370
   -1
100
AcDbLine
 10
328.625
 20
9.375
 11
334.875
 21
9.375
  0
LINE
  5
4A3
100
AcDbEntity
  8
Title Block
  6
ByLayer
 62
  256
370
   -1
100
AcDbLine
 10
334.875
 20
19.375
 11
328.625
 21
19.375
  0
LINE
  5
4A4
100
AcDbEntity
  8
Title Block
  6
ByLayer
 62
  256
370
   -1
100
AcDbLine
 10
334.875
 20
9.375
 11
341.125
 21
9.375
  0
LINE
  5
4A5
100
AcDbEntity
  8
Title Block
  6
ByLayer
 62
  256
370
   -1
100
AcDbLine
 10
341.125
 20
19.375
 11
334.875
 21
19.375
  0
LINE
  5
4A6
100
AcDbEntity
  8
Title Block
  6
ByLayer
 62
  256
370
   -1
100
AcDbLine
 10
341.125
 20
9.375
 11
347.375
 21
9.375
  0
LINE
  5
4A7
100
AcDbEntity
  8
Title Block
  6
ByLayer
 62
  256
370
   -1
100
AcDbLine
 10
347.375
 20
9.375
 11
347.375
 21
19.375
  0
LINE
  5
4A8
100
AcDbEntity
  8
Title Block
  6
ByLayer
 62
  256
370
   -1
100
AcDbLine
 10
347.375
 20
19.375
 11
341.125
 21
19.375
  0
LINE
  5
4A9
100
AcDbEntity
  8
Title Block
  6
ByLayer
 62
  256
370
   -1
100
AcDbLine
 10
347.375
 20
9.375
 11
353.625
 21
9.375
  0
LINE
  5
4AA
100
AcDbEntity
  8
Title Block
  6
ByLayer
 62
  256
370
   -1
100
AcDbLine
 10
353.625
 20
19.375
 11
347.375
 21
19.375
  0
LINE
  5
4AB
100
AcDbEntity
  8
Title Block
  6
ByLayer
 62
  256
370
   -1
100
AcDbLine
 10
353.625
 20
9.375
 11
359.875
 21
9.375
  0
LINE
  5
4AC
100
AcDbEntity
  8
Title Block
  6
ByLayer
 62
  256
370
   -1
100
AcDbLine
 10
359.875
 20
19.375
 11
353.625
 21
19.375
  0
LINE
  5
4AD
100
AcDbEntity
  8
Title Block
  6
ByLayer
 62
  256
370
   -1
100
AcDbLine
 10
359.875
 20
9.375
 11
366.125
 21
9.375
  0
LINE
  5
4AE
100
AcDbEntity
  8
Title Block
  6
ByLayer
 62
  256
370
   -1
100
AcDbLine
 10
366.125
 20
19.375
 11
359.875
 21
19.375
  0
LINE
  5
4AF
100
AcDbEntity
  8
Title Block
  6
ByLayer
 62
  256
370
   -1
100
AcDbLine
 10
366.125
 20
9.375
 11
372.375
 21
9.375
  0
LINE
  5
4B0
100
AcDbEntity
  8
Title Block
  6
ByLayer
 62
  256
370
   -1
100
AcDbLine
 10
372.375
 20
19.375
 11
366.125
 21
19.375
  0
LINE
  5
4B1
100
AcDbEntity
  8
Title Block
  6
ByLayer
 62
  256
370
   -1
100
AcDbLine
 10
372.375
 20
9.375
 11
378.625
 21
9.375
  0
LINE
  5
4B2
100
AcDbEntity
  8
Title Block
  6
ByLayer
 62
  256
370
   -1
100
AcDbLine
 10
378.625
 20
9.375
 11
378.625
 21
19.375
  0
LINE
  5
4B3
100
AcDbEntity
  8
Title Block
  6
ByLayer
 62
  256
370
   -1
100
AcDbLine
 10
378.625
 20
19.375
 11
372.375
 21
19.375
  0
LINE
  5
4B4
100
AcDbEntity
  8
Title Block
  6
ByLayer
 62
  256
370
   -1
100
AcDbLine
 10
378.625
 20
9.375
 11
384.875
 21
9.375
  0
LINE
  5
4B5
100
AcDbEntity
  8
Title Block
  6
ByLayer
 62
  256
370
   -1
100
AcDbLine
 10
384.875
 20
19.375
 11
378.625
 21
19.375
  0
LINE
  5
4B6
100
AcDbEntity
  8
Title Block
  6
ByLayer
 62
  256
370
   -1
100
AcDbLine
 10
384.875
 20
9.375
 11
391.125
 21
9.375
  0
LINE
  5
4B7
100
AcDbEntity
  8
Title Block
  6
ByLayer
 62
  256
370
   -1
100
AcDbLine
 10
391.125
 20
19.375
 11
384.875
 21
19.375
  0
LINE
  5
4B8
100
AcDbEntity
  8
Title Block
  6
ByLayer
 62
  256
370
   -1
100
AcDbLine
 10
391.125
 20
9.375
 11
397.375
 21
9.375
  0
LINE
  5
4B9
100
AcDbEntity
  8
Title Block
  6
ByLayer
 62
  256
370
   -1
100
AcDbLine
 10
397.375
 20
19.375
 11
391.125
 21
19.375
  0
LINE
  5
4BA
100
AcDbEntity
  8
Title Block
  6
ByLayer
 62
  256
370
   -1
100
AcDbLine
 10
397.375
 20
9.375
 11
403.625
 21
9.375
  0
LINE
  5
4BB
100
AcDbEntity
  8
Title Block
  6
ByLayer
 62
  256
370
   -1
100
AcDbLine
 10
403.625
 20
19.375
 11
397.375
 21
19.375
  0
LINE
  5
4BC
100
AcDbEntity
  8
Title Block
  6
ByLayer
 62
  256
370
   -1
100
AcDbLine
 10
403.625
 20
9.375
 11
409.875
 21
9.375
  0
LINE
  5
4BD
100
AcDbEntity
  8
Title Block
  6
ByLayer
 62
  256
370
   -1
100
AcDbLine
 10
409.875
 20
19.375
 11
403.625
 21
19.375
  0
LINE
  5
4BE
100
AcDbEntity
  8
Title Block
  6
ByLayer
 62
  256
370
   -1
100
AcDbLine
 10
409.875
 20
19.375
 11
410.6250388567214
 21
19.37413924230033
  0
LINE
  5
4BF
100
AcDbEntity
  8
Title Block
  6
ByLayer
 62
  256
370
   -1
100
AcDbLine
 10
409.875
 20
9.375
 11
410.625
 21
9.375
  0
MTEXT
  5
4C0
100
AcDbEntity
  8
Title Block
  6
ByLayer
 62
  256
370
   -1
100
AcDbMText
 10
330
 20
11
 30
0
 40
3
 41
7.333333333333333
 71
    7
 72
    1
  1
Rev:
  7
STANDARD
210
0
220
0
230
1
 50
0
 73
    2
 44
1
  0
MTEXT
  5
4C1
100
AcDbEntity
  8
Title Block
  6
ByLayer
 62
  256
370
   -1
100
AcDbMText
 10
349
 20
11
 30
0
 40
3
 41
11.66666603066036
 71
    7
 72
    1
  1
Sheet:
  7
STANDARD
210
0
220
0
230
1
 50
0
 73
    2
 44
1
  0
MTEXT
  5
4C2
100
AcDbEntity
  8
Title Block
  6
ByLayer
 62
  256
370
   -1
100
AcDbMText
 10
381
 20
11
 30
0
 40
3
 41
10.66666603066036
 71
    7
 72
    1
  1
Scale:
  7
STANDARD
210
0
220
0
230
1
 50
0
 73
    2
 44
1
  0
MTEXT
  5
4C3
100
AcDbEntity
  8
Title Block
  6
ByLayer
 62
  256
370
   -1
100
AcDbMText
 10
156
 20
10.5
 30
0
 40
3
 41
27.2500000000006
 71
    7
 72
    1
  1
Drawing Title:
  7
STANDARD
210
0
220
0
230
1
 50
0
 73
    2
 44
1
  0
MTEXT
  5
4C4
100
AcDbEntity
  8
Title Block
  6
ByLayer
 62
  256
370
   -1
100
AcDbMText
 10
18
 20
10.4
 30
0
 40
3
 41
19.2500000000006
 71
    7
 72
    1
  1
Drawn by:
  7
STANDARD
210
0
220
0
230
1
 50
0
 73
    2
 44
1
  0
MTEXT
  5
4C5
100
AcDbEntity
  8
Title Block
  6
ByLayer
 62
  256
370
   -1
100
AcDbMText
 10
87.00000000000001
 20
11.3
 30
0
 40
3
 41
9.333333333333659
 71
    7
 72
    1
  1
Date:
  7
STANDARD
210
0
220
0
230
1
 50
0
 73
    2
 44
1
  0
ENDBLK
  5
87
330
85
100
AcDbEntity
  8
0
100
AcDbBlockEnd
  0
BLOCK
  5
89
330
88
100
AcDbEntity
  8
0
100
AcDbBlockBegin
  2
North_Arrow
 70
    0
 10
0
 20
0
  3
North_Arrow
  1

  0
INSERT
  5
4C6
100
AcDbEntity
  8
0
  6
ByLayer
 62
  256
370
   -1
100
AcDbBlockReference
  2
North_Arrow-0
 10
0
 20
0
 30
0
 41
1
 42
1
 43
0
 50
0
 70
    1
 71
    1
 44
0
 45
0
  0
ENDBLK
  5
8A
330
88
100
AcDbEntity
  8
0
100
AcDbBlockEnd
  0
BLOCK
  5
8C
330
8B
100
AcDbEntity
  8
0
100
AcDbBlockBegin
  2
North_Arrow-0
 70
    0
 10
0
 20
0
  3
North_Arrow-0
  1

  0
INSERT
  5
4C7
100
AcDbEntity
  8
0
  6
ByLayer
 62
  256
370
   -1
100
AcDbBlockReference
  2
North 01
 10
0
 20
0
 30
0
 41
1
 42
1
 43
0
 50
0
 70
    1
 71
    1
 44
0
 45
0
  0
ENDBLK
  5
8D
330
8B
100
AcDbEntity
  8
0
100
AcDbBlockEnd
  0
BLOCK
  5
8F
330
8E
100
AcDbEntity
  8
0
100
AcDbBlockBegin
  2
North 01
 70
    0
 10
0
 20
0
  3
North 01
  1

  0
LINE
  5
4C8
100
AcDbEntity
  8
0
  6
ByLayer
 62
  256
370
   -1
100
AcDbLine
 10
0
 20
0
 11
1404.733999999999
 21
0
  0
LINE
  5
4C9
100
AcDbEntity
  8
0
  6
ByLayer
 62
  256
370
   -1
100
AcDbLine
 10
1147.081999999999
 20
-88.65199999999996
 11
1147.081999999999
 21
-288.6519999999999
  0
LINE
  5
4CA
100
AcDbEntity
  8
0
  6
ByLayer
 62
  256
370
   -1
100
AcDbLine
 10
1029.373
 20
-288.6519999999999
 11
1029.373
 21
-139.856
  0
LINE
  5
4CB
100
AcDbEntity
  8
0
  6
ByLayer
 62
  256
370
   -1
100
AcDbLine
 10
967.7910000000001
 20
-288.6519999999999
 11
967.7910000000001
 21
-139.856
  0
ARC
  5
4CC
100
AcDbEntity
  8
0
  6
ByLayer
 62
  256
370
   -1
100
AcDbCircle
 10
816.0599999999985
 20
-173.4979999999999
 40
37.317
100
AcDbArc
 50
270.47774
 51
350.479265
  0
LINE
  5
4CD
100
AcDbEntity
  8
0
  6
ByLayer
 62
  256
370
   -1
100
AcDbLine
 10
1404.658
 20
-88.65199999999996
 11
1404.658
 21
-288.6519999999999
  0
LINE
  5
4CE
100
AcDbEntity
  8
0
  6
ByLayer
 62
  256
370
   -1
100
AcDbLine
 10
787.1120000000005
 20
-288.6519999999999
 11
848.5160000000001
 21
-288.6519999999999
  0
ARC
  5
4CF
100
AcDbEntity
  8
0
  6
ByLayer
 62
  256
370
   -1
100
AcDbCircle
 10
813.9289999999999
 20
-245.314
 40
34.587
100
AcDbArc
 50
359.696321
 51
85.950767
  0
LINE
  5
4D0
100
AcDbEntity
  8
0
  6
ByLayer
 62
  256
370
   -1
100
AcDbLine
 10
771.044999999999
 20
-236.9479999999999
 11
663.5819999999999
 21
-236.9479999999999
  0
LINE
  5
4D1
100
AcDbEntity
  8
0
  6
ByLayer
 62
  256
370
   -1
100
AcDbLine
 10
787.1120000000005
 20
-249.374
 11
787.1120000000005
 21
-288.6519999999999
  0
ARC
  5
4D2
100
AcDbEntity
  8
0
  6
ByLayer
 62
  256
370
   -1
100
AcDbCircle
 10
771.5319999999988
 20
-254.6059999999999
 40
17.664
100
AcDbArc
 50
51.66849399999999
 51
91.57997
  0
ARC
  5
4D3
100
AcDbEntity
  8
0
  6
ByLayer
 62
  256
370
   -1
100
AcDbCircle
 10
776.7539999999987
 20
-249.376
 40
10.358
100
AcDbArc
 50
0.01065899999999509
 51
56.39090600000001
  0
LINE
  5
4D4
100
AcDbEntity
  8
0
  6
ByLayer
 62
  256
370
   -1
100
AcDbLine
 10
848.5160000000001
 20
-245.4970000000001
 11
848.5160000000001
 21
-288.6519999999999
  0
LINE
  5
4D5
100
AcDbEntity
  8
0
  6
ByLayer
 62
  256
370
   -1
100
AcDbLine
 10
967.7910000000001
 20
-288.6519999999999
 11
1029.373
 21
-288.6519999999999
  0
LINE
  5
4D6
100
AcDbEntity
  8
0
  6
ByLayer
 62
  256
370
   -1
100
AcDbLine
 10
1208.086999999999
 20
-213.4050000000001
 11
1343.653
 21
-213.4050000000001
  0
LINE
  5
4D7
100
AcDbEntity
  8
0
  6
ByLayer
 62
  256
370
   -1
100
AcDbLine
 10
1147.081999999999
 20
-288.6519999999999
 11
1208.086999999999
 21
-288.6519999999999
  0
LINE
  5
4D8
100
AcDbEntity
  8
0
  6
ByLayer
 62
  256
370
   -1
100
AcDbLine
 10
1208.086999999999
 20
-288.6519999999999
 11
1208.086999999999
 21
-213.4050000000001
  0
LINE
  5
4D9
100
AcDbEntity
  8
0
  6
ByLayer
 62
  256
370
   -1
100
AcDbLine
 10
1404.658
 20
-288.6519999999999
 11
1343.653
 21
-288.6519999999999
  0
LINE
  5
4DA
100
AcDbEntity
  8
0
  6
ByLayer
 62
  256
370
   -1
100
AcDbLine
 10
1343.653
 20
-288.6519999999999
 11
1343.653
 21
-213.4050000000001
  0
LINE
  5
4DB
100
AcDbEntity
  8
0
  6
ByLayer
 62
  256
370
   -1
100
AcDbLine
 10
1404.733999999999
 20
0
 11
702.3670000000006
 21
335.4059999999999
  0
LINE
  5
4DC
100
AcDbEntity
  8
0
  6
ByLayer
 62
  256
370
   -1
100
AcDbLine
 10
879.1560000000001
 20
-88.65199999999996
 11
1118.008999999999
 21
-88.65199999999996
  0
LINE
  5
4DD
100
AcDbEntity
  8
0
  6
ByLayer
 62
  256
370
   -1
100
AcDbLine
 10
1029.373
 20
-139.856
 11
1118.008999999999
 21
-139.856
  0
ARC
  5
4DE
100
AcDbEntity
  8
0
  6
ByLayer
 62
  256
370
   -1
100
AcDbCircle
 10
809.4559999999991
 20
-122.314
 40
33.672
100
AcDbArc
 50
57.21299300000005
 51
91.42350899999998
  0
LINE
  5
4DF
100
AcDbEntity
  8
0
  6
ByLayer
 62
  256
370
   -1
100
AcDbLine
 10
601.0819999999999
 20
-88.65199999999996
 11
808.6190000000001
 21
-88.65199999999996
  0
LINE
  5
4E0
100
AcDbEntity
  8
0
  6
ByLayer
 62
  256
370
   -1
100
AcDbLine
 10
774.2059999999994
 20
-188.18
 11
663.5819999999999
 21
-188.18
  0
LINE
  5
4E1
100
AcDbEntity
  8
0
  6
ByLayer
 62
  256
370
   -1
100
AcDbLine
 10
774.3559999999992
 20
-140.0170000000001
 11
663.5819999999999
 21
-140.0170000000001
  0
ARC
  5
4E2
100
AcDbEntity
  8
0
  6
ByLayer
 62
  256
370
   -1
100
AcDbCircle
 10
745.8419999999996
 20
-163.9269999999999
 40
45.416
100
AcDbArc
 50
341.240416
 51
15.43262200000004
  0
ARC
  5
4E3
100
AcDbEntity
  8
0
  6
ByLayer
 62
  256
370
   -1
100
AcDbCircle
 10
774.5979999999993
 20
-155.4690000000001
 40
15.454
100
AcDbArc
 50
13.57559200000002
 51
90.89726199999998
  0
ARC
  5
4E4
100
AcDbEntity
  8
0
  6
ByLayer
 62
  256
370
   -1
100
AcDbCircle
 10
774.9660000000009
 20
-173.402
 40
14.797
100
AcDbArc
 50
267.055742
 51
339.715199
  0
LINE
  5
4E5
100
AcDbEntity
  8
0
  6
ByLayer
 62
  256
370
   -1
100
AcDbLine
 10
967.7910000000001
 20
-139.856
 11
879.1560000000001
 21
-139.856
  0
LINE
  5
4E6
100
AcDbEntity
  8
0
  6
ByLayer
 62
  256
370
   -1
100
AcDbLine
 10
879.1560000000001
 20
-139.856
 11
879.1560000000001
 21
-88.65199999999996
  0
ARC
  5
4E7
100
AcDbEntity
  8
0
  6
ByLayer
 62
  256
370
   -1
100
AcDbCircle
 10
697.4029999999996
 20
-156.466
 40
157.182
100
AcDbArc
 50
351.51057
 51
8.100753000000021
  0
ARC
  5
4E8
100
AcDbEntity
  8
0
  6
ByLayer
 62
  256
370
   -1
100
AcDbCircle
 10
797.3649999999992
 20
-141.1710000000002
 40
56.07300000000001
100
AcDbArc
 50
7.021894999999985
 51
57.26084199999993
  0
LINE
  5
4E9
100
AcDbEntity
  8
0
  6
ByLayer
 62
  256
370
   -1
100
AcDbLine
 10
1208.086999999999
 20
-160.8290000000001
 11
1343.653
 21
-160.8290000000001
  0
LINE
  5
4EA
100
AcDbEntity
  8
0
  6
ByLayer
 62
  256
370
   -1
100
AcDbLine
 10
1208.086999999999
 20
-88.65199999999996
 11
1147.081999999999
 21
-88.65199999999996
  0
LINE
  5
4EB
100
AcDbEntity
  8
0
  6
ByLayer
 62
  256
370
   -1
100
AcDbLine
 10
1118.008999999999
 20
-139.856
 11
1118.008999999999
 21
-88.65199999999996
  0
LINE
  5
4EC
100
AcDbEntity
  8
0
  6
ByLayer
 62
  256
370
   -1
100
AcDbLine
 10
1208.086999999999
 20
-88.65199999999996
 11
1208.086999999999
 21
-160.8290000000001
  0
LINE
  5
4ED
100
AcDbEntity
  8
0
  6
ByLayer
 62
  256
370
   -1
100
AcDbLine
 10
1343.653
 20
-88.65199999999996
 11
1404.658
 21
-88.65199999999996
  0
LINE
  5
4EE
100
AcDbEntity
  8
0
  6
ByLayer
 62
  256
370
   -1
100
AcDbLine
 10
1343.653
 20
-88.65199999999996
 11
1343.653
 21
-160.8290000000001
  0
LINE
  5
4EF
100
AcDbEntity
  8
0
  6
ByLayer
 62
  256
370
   -1
100
AcDbLine
 10
702.3670000000006
 20
335.4059999999999
 11
0
 21
0
  0
LINE
  5
4F0
100
AcDbEntity
  8
0
  6
ByLayer
 62
  256
370
   -1
100
AcDbLine
 10
208.5460000000001
 20
-234.933
 11
91.79599999999866
 21
-88.65199999999996
  0
LINE
  5
4F1
100
AcDbEntity
  8
0
  6
ByLayer
 62
  256
370
   -1
100
AcDbLine
 10
55.44100000000007
 20
-142.352
 11
172.936
 21
-288.6519999999999
  0
LINE
  5
4F2
100
AcDbEntity
  8
0
  6
ByLayer
 62
  256
370
   -1
100
AcDbLine
 10
-4.917999999999978
 20
-288.6519999999999
 11
-4.917999999999978
 21
-88.65199999999996
  0
LINE
  5
4F3
100
AcDbEntity
  8
0
  6
ByLayer
 62
  256
370
   -1
100
AcDbLine
 10
55.44100000000007
 20
-142.352
 11
55.44100000000007
 21
-288.6519999999999
  0
LINE
  5
4F4
100
AcDbEntity
  8
0
  6
ByLayer
 62
  256
370
   -1
100
AcDbLine
 10
55.44100000000007
 20
-288.6519999999999
 11
-4.917999999999978
 21
-288.6519999999999
  0
LINE
  5
4F5
100
AcDbEntity
  8
0
  6
ByLayer
 62
  256
370
   -1
100
AcDbLine
 10
-4.917999999999978
 20
-88.65199999999996
 11
91.79599999999866
 21
-88.65199999999996
  0
ARC
  5
4F6
100
AcDbEntity
  8
0
  6
ByLayer
 62
  256
370
   -1
100
AcDbCircle
 10
248.2089999999992
 20
-190.5939999999999
 40
323.628
100
AcDbArc
 50
352.644971
 51
0.3437239999999608
  0
ARC
  5
4F7
100
AcDbEntity
  8
0
  6
ByLayer
 62
  256
370
   -1
100
AcDbCircle
 10
327.4749999999997
 20
-186.6970000000001
 40
180
100
AcDbArc
 50
350.085642
 51
359.377562
  0
ARC
  5
4F8
100
AcDbEntity
  8
0
  6
ByLayer
 62
  256
370
   -1
100
AcDbCircle
 10
541.6910000000001
 20
-186.6970000000001
 40
180
100
AcDbArc
 50
180.622438
 51
189.914358
  0
ARC
  5
4F9
100
AcDbEntity
  8
0
  6
ByLayer
 62
  256
370
   -1
100
AcDbCircle
 10
620.9569999999989
 20
-190.5939999999999
 40
323.628
100
AcDbArc
 50
179.656276
 51
187.355029
  0
LINE
  5
4FA
100
AcDbEntity
  8
0
  6
ByLayer
 62
  256
370
   -1
100
AcDbLine
 10
267.9139999999993
 20
-288.6519999999999
 11
267.9139999999993
 21
-88.65199999999996
  0
LINE
  5
4FB
100
AcDbEntity
  8
0
  6
ByLayer
 62
  256
370
   -1
100
AcDbLine
 10
208.5460000000001
 20
-88.65199999999996
 11
208.5460000000001
 21
-234.933
  0
LINE
  5
4FC
100
AcDbEntity
  8
0
  6
ByLayer
 62
  256
370
   -1
100
AcDbLine
 10
601.0819999999999
 20
-288.6519999999999
 11
601.0819999999999
 21
-88.65199999999996
  0
ARC
  5
4FD
100
AcDbEntity
  8
0
  6
ByLayer
 62
  256
370
   -1
100
AcDbCircle
 10
356.3799999999997
 20
-229.6989999999999
 40
56.295
100
AcDbArc
 50
201.983649
 51
262.954123
  0
LINE
  5
4FE
100
AcDbEntity
  8
0
  6
ByLayer
 62
  256
370
   -1
100
AcDbLine
 10
172.936
 20
-288.6519999999999
 11
267.9139999999993
 21
-288.6519999999999
  0
ARC
  5
4FF
100
AcDbEntity
  8
0
  6
ByLayer
 62
  256
370
   -1
100
AcDbCircle
 10
373.6879999999996
 20
-225.409
 40
73.99299999999999
100
AcDbArc
 50
185.128894
 51
200.046371
  0
ARC
  5
500
100
AcDbEntity
  8
0
  6
ByLayer
 62
  256
370
   -1
100
AcDbCircle
 10
442.3319999999986
 20
425.9870000000001
 40
715.7479999999999
100
AcDbArc
 50
269.379692
 51
276.204756
  0
ARC
  5
501
100
AcDbEntity
  8
0
  6
ByLayer
 62
  256
370
   -1
100
AcDbCircle
 10
435.2429999999998
 20
343.5409999999999
 40
584.027
100
AcDbArc
 50
269.935212
 51
274.596685
  0
ARC
  5
502
100
AcDbEntity
  8
0
  6
ByLayer
 62
  256
370
   -1
100
AcDbCircle
 10
388.4779999999992
 20
-214.3120000000001
 40
24.334
100
AcDbArc
 50
187.976383
 51
266.797101
  0
ARC
  5
503
100
AcDbEntity
  8
0
  6
ByLayer
 62
  256
370
   -1
100
AcDbCircle
 10
433.9230000000001
 20
343.5409999999999
 40
584.027
100
AcDbArc
 50
265.403315
 51
270.064788
  0
ARC
  5
504
100
AcDbEntity
  8
0
  6
ByLayer
 62
  256
370
   -1
100
AcDbCircle
 10
426.8339999999995
 20
425.9870000000001
 40
715.7479999999999
100
AcDbArc
 50
263.795244
 51
270.620308
  0
ARC
  5
505
100
AcDbEntity
  8
0
  6
ByLayer
 62
  256
370
   -1
100
AcDbCircle
 10
495.4780000000003
 20
-225.409
 40
73.99299999999999
100
AcDbArc
 50
339.953629
 51
354.871106
  0
ARC
  5
506
100
AcDbEntity
  8
0
  6
ByLayer
 62
  256
370
   -1
100
AcDbCircle
 10
480.6879999999989
 20
-214.3120000000001
 40
24.334
100
AcDbArc
 50
273.202899
 51
352.023617
  0
ARC
  5
507
100
AcDbEntity
  8
0
  6
ByLayer
 62
  256
370
   -1
100
AcDbCircle
 10
512.7860000000002
 20
-229.6989999999999
 40
56.295
100
AcDbArc
 50
277.045877
 51
338.016351
  0
LINE
  5
508
100
AcDbEntity
  8
0
  6
ByLayer
 62
  256
370
   -1
100
AcDbLine
 10
663.5819999999999
 20
-288.6519999999999
 11
601.0819999999999
 21
-288.6519999999999
  0
LINE
  5
509
100
AcDbEntity
  8
0
  6
ByLayer
 62
  256
370
   -1
100
AcDbLine
 10
663.5819999999999
 20
-236.9479999999999
 11
663.5819999999999
 21
-288.6519999999999
  0
ARC
  5
50A
100
AcDbEntity
  8
0
  6
ByLayer
 62
  256
370
   -1
100
AcDbCircle
 10
356.3799999999997
 20
-147.6059999999999
 40
56.295
100
AcDbArc
 50
97.04587700000002
 51
158.016351
  0
LINE
  5
50B
100
AcDbEntity
  8
0
  6
ByLayer
 62
  256
370
   -1
100
AcDbLine
 10
267.9139999999993
 20
-88.65199999999996
 11
208.5460000000001
 21
-88.65199999999996
  0
ARC
  5
50C
100
AcDbEntity
  8
0
  6
ByLayer
 62
  256
370
   -1
100
AcDbCircle
 10
373.6879999999996
 20
-151.896
 40
73.99299999999999
100
AcDbArc
 50
159.953629
 51
174.871106
  0
ARC
  5
50D
100
AcDbEntity
  8
0
  6
ByLayer
 62
  256
370
   -1
100
AcDbCircle
 10
620.9569999999989
 20
-186.7110000000001
 40
323.628
100
AcDbArc
 50
172.644971
 51
180.343724
  0
ARC
  5
50E
100
AcDbEntity
  8
0
  6
ByLayer
 62
  256
370
   -1
100
AcDbCircle
 10
435.2429999999998
 20
-720.846
 40
584.027
100
AcDbArc
 50
85.40331500000002
 51
90.06478799999999
  0
ARC
  5
50F
100
AcDbEntity
  8
0
  6
ByLayer
 62
  256
370
   -1
100
AcDbCircle
 10
442.3319999999986
 20
-803.292
 40
715.7479999999999
100
AcDbArc
 50
83.79524399999993
 51
90.62030799999997
  0
ARC
  5
510
100
AcDbEntity
  8
0
  6
ByLayer
 62
  256
370
   -1
100
AcDbCircle
 10
426.8339999999995
 20
-803.292
 40
715.7479999999999
100
AcDbArc
 50
89.37969200000003
 51
96.204756
  0
ARC
  5
511
100
AcDbEntity
  8
0
  6
ByLayer
 62
  256
370
   -1
100
AcDbCircle
 10
433.9230000000001
 20
-720.846
 40
584.027
100
AcDbArc
 50
89.93521200000009
 51
94.59668499999999
  0
ARC
  5
512
100
AcDbEntity
  8
0
  6
ByLayer
 62
  256
370
   -1
100
AcDbCircle
 10
541.6910000000001
 20
-190.6079999999999
 40
180
100
AcDbArc
 50
170.085642
 51
179.377562
  0
ARC
  5
513
100
AcDbEntity
  8
0
  6
ByLayer
 62
  256
370
   -1
100
AcDbCircle
 10
388.4779999999992
 20
-162.9929999999999
 40
24.334
100
AcDbArc
 50
93.20289899999999
 51
172.023617
  0
ARC
  5
514
100
AcDbEntity
  8
0
  6
ByLayer
 62
  256
370
   -1
100
AcDbCircle
 10
512.7860000000002
 20
-147.6059999999999
 40
56.295
100
AcDbArc
 50
21.98364900000003
 51
82.95412299999998
  0
ARC
  5
515
100
AcDbEntity
  8
0
  6
ByLayer
 62
  256
370
   -1
100
AcDbCircle
 10
480.6879999999989
 20
-162.9929999999999
 40
24.334
100
AcDbArc
 50
7.976383000000009
 51
86.79710100000001
  0
ARC
  5
516
100
AcDbEntity
  8
0
  6
ByLayer
 62
  256
370
   -1
100
AcDbCircle
 10
327.4749999999997
 20
-190.6079999999999
 40
180
100
AcDbArc
 50
0.6224379999999474
 51
9.914358000000004
  0
ARC
  5
517
100
AcDbEntity
  8
0
  6
ByLayer
 62
  256
370
   -1
100
AcDbCircle
 10
495.4780000000003
 20
-151.896
 40
73.99299999999999
100
AcDbArc
 50
5.128893999999971
 51
20.04637099999999
  0
ARC
  5
518
100
AcDbEntity
  8
0
  6
ByLayer
 62
  256
370
   -1
100
AcDbCircle
 10
248.2089999999992
 20
-186.7110000000001
 40
323.628
100
AcDbArc
 50
359.656276
 51
7.355028999999987
  0
LINE
  5
519
100
AcDbEntity
  8
0
  6
ByLayer
 62
  256
370
   -1
100
AcDbLine
 10
663.5819999999999
 20
-140.0170000000001
 11
663.5819999999999
 21
-188.18
  0
ENDBLK
  5
90
330
8E
100
AcDbEntity
  8
0
100
AcDbBlockEnd
  0
BLOCK
  5
92
330
91
100
AcDbEntity
  8
0
100
AcDbBlockBegin
  2
North_Arrow-1
 70
    0
 10
0
 20
0
  3
North_Arrow-1
  1

  0
INSERT
  5
51A
100
AcDbEntity
  8
0
  6
ByLayer
 62
  256
370
   -1
100
AcDbBlockReference
  2
North_Arrow-2
 10
0
 20
0
 30
0
 41
1
 42
1
 43
0
 50
0
 70
    1
 71
    1
 44
0
 45
0
  0
ENDBLK
  5
93
330
91
100
AcDbEntity
  8
0
100
AcDbBlockEnd
  0
BLOCK
  5
95
330
94
100
AcDbEntity
  8
0
100
AcDbBlockBegin
  2
North_Arrow-2
 70
    0
 10
0
 20
0
  3
North_Arrow-2
  1

  0
INSERT
  5
51B
100
AcDbEntity
  8
0
  6
ByLayer
 62
  256
370
   -1
100
AcDbBlockReference
  2
North 01-0
 10
0
 20
0
 30
0
 41
1
 42
1
 43
0
 50
0
 70
    1
 71
    1
 44
0
 45
0
  0
ENDBLK
  5
96
330
94
100
AcDbEntity
  8
0
100
AcDbBlockEnd
  0
BLOCK
  5
98
330
97
100
AcDbEntity
  8
0
100
AcDbBlockBegin
  2
North 01-0
 70
    0
 10
0
 20
0
  3
North 01-0
  1

  0
LINE
  5
51C
100
AcDbEntity
  8
0
  6
ByLayer
 62
  256
370
   -1
100
AcDbLine
 10
0
 20
0
 11
1404.733999999999
 21
0
  0
LINE
  5
51D
100
AcDbEntity
  8
0
  6
ByLayer
 62
  256
370
   -1
100
AcDbLine
 10
1147.081999999999
 20
-88.65199999999996
 11
1147.081999999999
 21
-288.6519999999999
  0
LINE
  5
51E
100
AcDbEntity
  8
0
  6
ByLayer
 62
  256
370
   -1
100
AcDbLine
 10
1029.373
 20
-288.6519999999999
 11
1029.373
 21
-139.856
  0
LINE
  5
51F
100
AcDbEntity
  8
0
  6
ByLayer
 62
  256
370
   -1
100
AcDbLine
 10
967.7910000000001
 20
-288.6519999999999
 11
967.7910000000001
 21
-139.856
  0
ARC
  5
520
100
AcDbEntity
  8
0
  6
ByLayer
 62
  256
370
   -1
100
AcDbCircle
 10
816.0599999999985
 20
-173.4979999999999
 40
37.317
100
AcDbArc
 50
270.47774
 51
350.479265
  0
LINE
  5
521
100
AcDbEntity
  8
0
  6
ByLayer
 62
  256
370
   -1
100
AcDbLine
 10
1404.658
 20
-88.65199999999996
 11
1404.658
 21
-288.6519999999999
  0
LINE
  5
522
100
AcDbEntity
  8
0
  6
ByLayer
 62
  256
370
   -1
100
AcDbLine
 10
787.1120000000005
 20
-288.6519999999999
 11
848.5160000000001
 21
-288.6519999999999
  0
ARC
  5
523
100
AcDbEntity
  8
0
  6
ByLayer
 62
  256
370
   -1
100
AcDbCircle
 10
813.9289999999999
 20
-245.314
 40
34.587
100
AcDbArc
 50
359.696321
 51
85.950767
  0
LINE
  5
524
100
AcDbEntity
  8
0
  6
ByLayer
 62
  256
370
   -1
100
AcDbLine
 10
771.044999999999
 20
-236.9479999999999
 11
663.5819999999999
 21
-236.9479999999999
  0
LINE
  5
525
100
AcDbEntity
  8
0
  6
ByLayer
 62
  256
370
   -1
100
AcDbLine
 10
787.1120000000005
 20
-249.374
 11
787.1120000000005
 21
-288.6519999999999
  0
ARC
  5
526
100
AcDbEntity
  8
0
  6
ByLayer
 62
  256
370
   -1
100
AcDbCircle
 10
771.5319999999988
 20
-254.6059999999999
 40
17.664
100
AcDbArc
 50
51.66849399999999
 51
91.57997
  0
ARC
  5
527
100
AcDbEntity
  8
0
  6
ByLayer
 62
  256
370
   -1
100
AcDbCircle
 10
776.7539999999987
 20
-249.376
 40
10.358
100
AcDbArc
 50
0.01065899999999509
 51
56.39090600000001
  0
LINE
  5
528
100
AcDbEntity
  8
0
  6
ByLayer
 62
  256
370
   -1
100
AcDbLine
 10
848.5160000000001
 20
-245.4970000000001
 11
848.5160000000001
 21
-288.6519999999999
  0
LINE
  5
529
100
AcDbEntity
  8
0
  6
ByLayer
 62
  256
370
   -1
100
AcDbLine
 10
967.7910000000001
 20
-288.6519999999999
 11
1029.373
 21
-288.6519999999999
  0
LINE
  5
52A
100
AcDbEntity
  8
0
  6
ByLayer
 62
  256
370
   -1
100
AcDbLine
 10
1208.086999999999
 20
-213.4050000000001
 11
1343.653
 21
-213.4050000000001
  0
LINE
  5
52B
100
AcDbEntity
  8
0
  6
ByLayer
 62
  256
370
   -1
100
AcDbLine
 10
1147.081999999999
 20
-288.6519999999999
 11
1208.086999999999
 21
-288.6519999999999
  0
LINE
  5
52C
100
AcDbEntity
  8
0
  6
ByLayer
 62
  256
370
   -1
100
AcDbLine
 10
1208.086999999999
 20
-288.6519999999999
 11
1208.086999999999
 21
-213.4050000000001
  0
LINE
  5
52D
100
AcDbEntity
  8
0
  6
ByLayer
 62
  256
370
   -1
100
AcDbLine
 10
1404.658
 20
-288.6519999999999
 11
1343.653
 21
-288.6519999999999
  0
LINE
  5
52E
100
AcDbEntity
  8
0
  6
ByLayer
 62
  256
370
   -1
100
AcDbLine
 10
1343.653
 20
-288.6519999999999
 11
1343.653
 21
-213.4050000000001
  0
LINE
  5
52F
100
AcDbEntity
  8
0
  6
ByLayer
 62
  256
370
   -1
100
AcDbLine
 10
1404.733999999999
 20
0
 11
702.3670000000006
 21
335.4059999999999
  0
LINE
  5
530
100
AcDbEntity
  8
0
  6
ByLayer
 62
  256
370
   -1
100
AcDbLine
 10
879.1560000000001
 20
-88.65199999999996
 11
1118.008999999999
 21
-88.65199999999996
  0
LINE
  5
531
100
AcDbEntity
  8
0
  6
ByLayer
 62
  256
370
   -1
100
AcDbLine
 10
1029.373
 20
-139.856
 11
1118.008999999999
 21
-139.856
  0
ARC
  5
532
100
AcDbEntity
  8
0
  6
ByLayer
 62
  256
370
   -1
100
AcDbCircle
 10
809.4559999999991
 20
-122.314
 40
33.672
100
AcDbArc
 50
57.21299300000005
 51
91.42350899999998
  0
LINE
  5
533
100
AcDbEntity
  8
0
  6
ByLayer
 62
  256
370
   -1
100
AcDbLine
 10
601.0819999999999
 20
-88.65199999999996
 11
808.6190000000001
 21
-88.65199999999996
  0
LINE
  5
534
100
AcDbEntity
  8
0
  6
ByLayer
 62
  256
370
   -1
100
AcDbLine
 10
774.2059999999994
 20
-188.18
 11
663.5819999999999
 21
-188.18
  0
LINE
  5
535
100
AcDbEntity
  8
0
  6
ByLayer
 62
  256
370
   -1
100
AcDbLine
 10
774.3559999999992
 20
-140.0170000000001
 11
663.5819999999999
 21
-140.0170000000001
  0
ARC
  5
536
100
AcDbEntity
  8
0
  6
ByLayer
 62
  256
370
   -1
100
AcDbCircle
 10
745.8419999999996
 20
-163.9269999999999
 40
45.416
100
AcDbArc
 50
341.240416
 51
15.43262200000004
  0
ARC
  5
537
100
AcDbEntity
  8
0
  6
ByLayer
 62
  256
370
   -1
100
AcDbCircle
 10
774.5979999999993
 20
-155.4690000000001
 40
15.454
100
AcDbArc
 50
13.57559200000002
 51
90.89726199999998
  0
ARC
  5
538
100
AcDbEntity
  8
0
  6
ByLayer
 62
  256
370
   -1
100
AcDbCircle
 10
774.9660000000009
 20
-173.402
 40
14.797
100
AcDbArc
 50
267.055742
 51
339.715199
  0
LINE
  5
539
100
AcDbEntity
  8
0
  6
ByLayer
 62
  256
370
   -1
100
AcDbLine
 10
967.7910000000001
 20
-139.856
 11
879.1560000000001
 21
-139.856
  0
LINE
  5
53A
100
AcDbEntity
  8
0
  6
ByLayer
 62
  256
370
   -1
100
AcDbLine
 10
879.1560000000001
 20
-139.856
 11
879.1560000000001
 21
-88.65199999999996
  0
ARC
  5
53B
100
AcDbEntity
  8
0
  6
ByLayer
 62
  256
370
   -1
100
AcDbCircle
 10
697.4029999999996
 20
-156.466
 40
157.182
100
AcDbArc
 50
351.51057
 51
8.100753000000021
  0
ARC
  5
53C
100
AcDbEntity
  8
0
  6
ByLayer
 62
  256
370
   -1
100
AcDbCircle
 10
797.3649999999992
 20
-141.1710000000002
 40
56.07300000000001
100
AcDbArc
 50
7.021894999999985
 51
57.26084199999993
  0
LINE
  5
53D
100
AcDbEntity
  8
0
  6
ByLayer
 62
  256
370
   -1
100
AcDbLine
 10
1208.086999999999
 20
-160.8290000000001
 11
1343.653
 21
-160.8290000000001
  0
LINE
  5
53E
100
AcDbEntity
  8
0
  6
ByLayer
 62
  256
370
   -1
100
AcDbLine
 10
1208.086999999999
 20
-88.65199999999996
 11
1147.081999999999
 21
-88.65199999999996
  0
LINE
  5
53F
100
AcDbEntity
  8
0
  6
ByLayer
 62
  256
370
   -1
100
AcDbLine
 10
1118.008999999999
 20
-139.856
 11
1118.008999999999
 21
-88.65199999999996
  0
LINE
  5
540
100
AcDbEntity
  8
0
  6
ByLayer
 62
  256
370
   -1
100
AcDbLine
 10
1208.086999999999
 20
-88.65199999999996
 11
1208.086999999999
 21
-160.8290000000001
  0
LINE
  5
541
100
AcDbEntity
  8
0
  6
ByLayer
 62
  256
370
   -1
100
AcDbLine
 10
1343.653
 20
-88.65199999999996
 11
1404.658
 21
-88.65199999999996
  0
LINE
  5
542
100
AcDbEntity
  8
0
  6
ByLayer
 62
  256
370
   -1
100
AcDbLine
 10
1343.653
 20
-88.65199999999996
 11
1343.653
 21
-160.8290000000001
  0
LINE
  5
543
100
AcDbEntity
  8
0
  6
ByLayer
 62
  256
370
   -1
100
AcDbLine
 10
702.3670000000006
 20
335.4059999999999
 11
0
 21
0
  0
LINE
  5
544
100
AcDbEntity
  8
0
  6
ByLayer
 62
  256
370
   -1
100
AcDbLine
 10
208.5460000000001
 20
-234.933
 11
91.79599999999866
 21
-88.65199999999996
  0
LINE
  5
545
100
AcDbEntity
  8
0
  6
ByLayer
 62
  256
370
   -1
100
AcDbLine
 10
55.44100000000007
 20
-142.352
 11
172.936
 21
-288.6519999999999
  0
LINE
  5
546
100
AcDbEntity
  8
0
  6
ByLayer
 62
  256
370
   -1
100
AcDbLine
 10
-4.917999999999978
 20
-288.6519999999999
 11
-4.917999999999978
 21
-88.65199999999996
  0
LINE
  5
547
100
AcDbEntity
  8
0
  6
ByLayer
 62
  256
370
   -1
100
AcDbLine
 10
55.44100000000007
 20
-142.352
 11
55.44100000000007
 21
-288.6519999999999
  0
LINE
  5
548
100
AcDbEntity
  8
0
  6
ByLayer
 62
  256
370
   -1
100
AcDbLine
 10
55.44100000000007
 20
-288.6519999999999
 11
-4.917999999999978
 21
-288.6519999999999
  0
LINE
  5
549
100
AcDbEntity
  8
0
  6
ByLayer
 62
  256
370
   -1
100
AcDbLine
 10
-4.917999999999978
 20
-88.65199999999996
 11
91.79599999999866
 21
-88.65199999999996
  0
ARC
  5
54A
100
AcDbEntity
  8
0
  6
ByLayer
 62
  256
370
   -1
100
AcDbCircle
 10
248.2089999999992
 20
-190.5939999999999
 40
323.628
100
AcDbArc
 50
352.644971
 51
0.3437239999999608
  0
ARC
  5
54B
100
AcDbEntity
  8
0
  6
ByLayer
 62
  256
370
   -1
100
AcDbCircle
 10
327.4749999999997
 20
-186.6970000000001
 40
180
100
AcDbArc
 50
350.085642
 51
359.377562
  0
ARC
  5
54C
100
AcDbEntity
  8
0
  6
ByLayer
 62
  256
370
   -1
100
AcDbCircle
 10
541.6910000000001
 20
-186.6970000000001
 40
180
100
AcDbArc
 50
180.622438
 51
189.914358
  0
ARC
  5
54D
100
AcDbEntity
  8
0
  6
ByLayer
 62
  256
370
   -1
100
AcDbCircle
 10
620.9569999999989
 20
-190.5939999999999
 40
323.628
100
AcDbArc
 50
179.656276
 51
187.355029
  0
LINE
  5
54E
100
AcDbEntity
  8
0
  6
ByLayer
 62
  256
370
   -1
100
AcDbLine
 10
267.9139999999993
 20
-288.6519999999999
 11
267.9139999999993
 21
-88.65199999999996
  0
LINE
  5
54F
100
AcDbEntity
  8
0
  6
ByLayer
 62
  256
370
   -1
100
AcDbLine
 10
208.5460000000001
 20
-88.65199999999996
 11
208.5460000000001
 21
-234.933
  0
LINE
  5
550
100
AcDbEntity
  8
0
  6
ByLayer
 62
  256
370
   -1
100
AcDbLine
 10
601.0819999999999
 20
-288.6519999999999
 11
601.0819999999999
 21
-88.65199999999996
  0
ARC
  5
551
100
AcDbEntity
  8
0
  6
ByLayer
 62
  256
370
   -1
100
AcDbCircle
 10
356.3799999999997
 20
-229.6989999999999
 40
56.295
100
AcDbArc
 50
201.983649
 51
262.954123
  0
LINE
  5
552
100
AcDbEntity
  8
0
  6
ByLayer
 62
  256
370
   -1
100
AcDbLine
 10
172.936
 20
-288.6519999999999
 11
267.9139999999993
 21
-288.6519999999999
  0
ARC
  5
553
100
AcDbEntity
  8
0
  6
ByLayer
 62
  256
370
   -1
100
AcDbCircle
 10
373.6879999999996
 20
-225.409
 40
73.99299999999999
100
AcDbArc
 50
185.128894
 51
200.046371
  0
ARC
  5
554
100
AcDbEntity
  8
0
  6
ByLayer
 62
  256
370
   -1
100
AcDbCircle
 10
442.3319999999986
 20
425.9870000000001
 40
715.7479999999999
100
AcDbArc
 50
269.379692
 51
276.204756
  0
ARC
  5
555
100
AcDbEntity
  8
0
  6
ByLayer
 62
  256
370
   -1
100
AcDbCircle
 10
435.2429999999998
 20
343.5409999999999
 40
584.027
100
AcDbArc
 50
269.935212
 51
274.596685
  0
ARC
  5
556
100
AcDbEntity
  8
0
  6
ByLayer
 62
  256
370
   -1
100
AcDbCircle
 10
388.4779999999992
 20
-214.3120000000001
 40
24.334
100
AcDbArc
 50
187.976383
 51
266.797101
  0
ARC
  5
557
100
AcDbEntity
  8
0
  6
ByLayer
 62
  256
370
   -1
100
AcDbCircle
 10
433.9230000000001
 20
343.5409999999999
 40
584.027
100
AcDbArc
 50
265.403315
 51
270.064788
  0
ARC
  5
558
100
AcDbEntity
  8
0
  6
ByLayer
 62
  256
370
   -1
100
AcDbCircle
 10
426.8339999999995
 20
425.9870000000001
 40
715.7479999999999
100
AcDbArc
 50
263.795244
 51
270.620308
  0
ARC
  5
559
100
AcDbEntity
  8
0
  6
ByLayer
 62
  256
370
   -1
100
AcDbCircle
 10
495.4780000000003
 20
-225.409
 40
73.99299999999999
100
AcDbArc
 50
339.953629
 51
354.871106
  0
ARC
  5
55A
100
AcDbEntity
  8
0
  6
ByLayer
 62
  256
370
   -1
100
AcDbCircle
 10
480.6879999999989
 20
-214.3120000000001
 40
24.334
100
AcDbArc
 50
273.202899
 51
352.023617
  0
ARC
  5
55B
100
AcDbEntity
  8
0
  6
ByLayer
 62
  256
370
   -1
100
AcDbCircle
 10
512.7860000000002
 20
-229.6989999999999
 40
56.295
100
AcDbArc
 50
277.045877
 51
338.016351
  0
LINE
  5
55C
100
AcDbEntity
  8
0
  6
ByLayer
 62
  256
370
   -1
100
AcDbLine
 10
663.5819999999999
 20
-288.6519999999999
 11
601.0819999999999
 21
-288.6519999999999
  0
LINE
  5
55D
100
AcDbEntity
  8
0
  6
ByLayer
 62
  256
370
   -1
100
AcDbLine
 10
663.5819999999999
 20
-236.9479999999999
 11
663.5819999999999
 21
-288.6519999999999
  0
ARC
  5
55E
100
AcDbEntity
  8
0
  6
ByLayer
 62
  256
370
   -1
100
AcDbCircle
 10
356.3799999999997
 20
-147.6059999999999
 40
56.295
100
AcDbArc
 50
97.04587700000002
 51
158.016351
  0
LINE
  5
55F
100
AcDbEntity
  8
0
  6
ByLayer
 62
  256
370
   -1
100
AcDbLine
 10
267.9139999999993
 20
-88.65199999999996
 11
208.5460000000001
 21
-88.65199999999996
  0
ARC
  5
560
100
AcDbEntity
  8
0
  6
ByLayer
 62
  256
370
   -1
100
AcDbCircle
 10
373.6879999999996
 20
-151.896
 40
73.99299999999999
100
AcDbArc
 50
159.953629
 51
174.871106
  0
ARC
  5
561
100
AcDbEntity
  8
0
  6
ByLayer
 62
  256
370
   -1
100
AcDbCircle
 10
620.9569999999989
 20
-186.7110000000001
 40
323.628
100
AcDbArc
 50
172.644971
 51
180.343724
  0
ARC
  5
562
100
AcDbEntity
  8
0
  6
ByLayer
 62
  256
370
   -1
100
AcDbCircle
 10
435.2429999999998
 20
-720.846
 40
584.027
100
AcDbArc
 50
85.40331500000002
 51
90.06478799999999
  0
ARC
  5
563
100
AcDbEntity
  8
0
  6
ByLayer
 62
  256
370
   -1
100
AcDbCircle
 10
442.3319999999986
 20
-803.292
 40
715.7479999999999
100
AcDbArc
 50
83.79524399999993
 51
90.62030799999997
  0
ARC
  5
564
100
AcDbEntity
  8
0
  6
ByLayer
 62
  256
370
   -1
100
AcDbCircle
 10
426.8339999999995
 20
-803.292
 40
715.7479999999999
100
AcDbArc
 50
89.37969200000003
 51
96.204756
  0
ARC
  5
565
100
AcDbEntity
  8
0
  6
ByLayer
 62
  256
370
   -1
100
AcDbCircle
 10
433.9230000000001
 20
-720.846
 40
584.027
100
AcDbArc
 50
89.93521200000009
 51
94.59668499999999
  0
ARC
  5
566
100
AcDbEntity
  8
0
  6
ByLayer
 62
  256
370
   -1
100
AcDbCircle
 10
541.6910000000001
 20
-190.6079999999999
 40
180
100
AcDbArc
 50
170.085642
 51
179.377562
  0
ARC
  5
567
100
AcDbEntity
  8
0
  6
ByLayer
 62
  256
370
   -1
100
AcDbCircle
 10
388.4779999999992
 20
-162.9929999999999
 40
24.334
100
AcDbArc
 50
93.20289899999999
 51
172.023617
  0
ARC
  5
568
100
AcDbEntity
  8
0
  6
ByLayer
 62
  256
370
   -1
100
AcDbCircle
 10
512.7860000000002
 20
-147.6059999999999
 40
56.295
100
AcDbArc
 50
21.98364900000003
 51
82.95412299999998
  0
ARC
  5
569
100
AcDbEntity
  8
0
  6
ByLayer
 62
  256
370
   -1
100
AcDbCircle
 10
480.6879999999989
 20
-162.9929999999999
 40
24.334
100
AcDbArc
 50
7.976383000000009
 51
86.79710100000001
  0
ARC
  5
56A
100
AcDbEntity
  8
0
  6
ByLayer
 62
  256
370
   -1
100
AcDbCircle
 10
327.4749999999997
 20
-190.6079999999999
 40
180
100
AcDbArc
 50
0.6224379999999474
 51
9.914358000000004
  0
ARC
  5
56B
100
AcDbEntity
  8
0
  6
ByLayer
 62
  256
370
   -1
100
AcDbCircle
 10
495.4780000000003
 20
-151.896
 40
73.99299999999999
100
AcDbArc
 50
5.128893999999971
 51
20.04637099999999
  0
ARC
  5
56C
100
AcDbEntity
  8
0
  6
ByLayer
 62
  256
370
   -1
100
AcDbCircle
 10
248.2089999999992
 20
-186.7110000000001
 40
323.628
100
AcDbArc
 50
359.656276
 51
7.355028999999987
  0
LINE
  5
56D
100
AcDbEntity
  8
0
  6
ByLayer
 62
  256
370
   -1
100
AcDbLine
 10
663.5819999999999
 20
-140.0170000000001
 11
663.5819999999999
 21
-188.18
  0
ENDBLK
  5
99
330
97
100
AcDbEntity
  8
0
100
AcDbBlockEnd
  0
ENDSEC
  0
SECTION
  2
ENTITIES
  0
HATCH
  5
56E
100
AcDbEntity
  8
0
  6
ByLayer
 62
  256
370
   -1
100
AcDbHatch
 10
0
 20
0
 30
0
210
0
220
0
230
1
  2
SOLID
 70
    1
 71
    0
 91
    1
 92
    0
 93
    4
 72
    1
 10
13000
 20
-2570
 11
13250
 21
-2570
 72
    1
 10
13250
 20
-2570
 11
13250
 21
-2600
 72
    1
 10
13250
 20
-2600
 11
13000
 21
-2600
 72
    1
 10
13000
 20
-2600
 11
13000
 21
-2570
 97
    0
 75
    0
 76
    1
 98
    0
  0
HATCH
  5
56F
100
AcDbEntity
  8
0
  6
ByLayer
 62
  256
370
   -1
100
AcDbHatch
 10
0
 20
0
 30
0
210
0
220
0
230
1
  2
SOLID
 70
    1
 71
    0
 91
    1
 92
    0
 93
   14
 72
    1
 10
13500
 20
-2570
 11
13750
 21
-2570
 72
    1
 10
13750
 20
-2570
 11
13750
 21
-2570
 72
    1
 10
13750
 20
-2570
 11
13500
 21
-2570
 72
    1
 10
13500
 20
-2570
 11
13500
 21
-2570
 72
    1
 10
13500
 20
-2570
 11
13500
 21
-2600
 72
    1
 10
13500
 20
-2600
 11
13750
 21
-2600
 72
    1
 10
13750
 20
-2600
 11
13500
 21
-2600
 72
    1
 10
13500
 20
-2600
 11
13500
 21
-2600
 72
    1
 10
13500
 20
-2600
 11
13500
 21
-2600
 72
    1
 10
13500
 20
-2600
 11
13500
 21
-2570
 72
    1
 10
13750
 20
-2600
 11
13750
 21
-2600
 72
    1
 10
13750
 20
-2600
 11
13750
 21
-2570
 72
    1
 10
13750
 20
-2570
 11
13750
 21
-2570
 72
    1
 10
13750
 20
-2570
 11
13750
 21
-2600
 97
    0
 75
    0
 76
    1
 98
    0
  0
HATCH
  5
570
100
AcDbEntity
  8
0
  6
ByLayer
 62
  256
370
   -1
100
AcDbHatch
 10
0
 20
0
 30
0
210
0
220
0
230
1
  2
SOLID
 70
    1
 71
    0
 91
    1
 92
    0
 93
   14
 72
    1
 10
13500
 20
-2570
 11
13750
 21
-2570
 72
    1
 10
13750
 20
-2570
 11
13750
 21
-2570
 72
    1
 10
13750
 20
-2570
 11
13500
 21
-2570
 72
    1
 10
13500
 20
-2570
 11
13500
 21
-2570
 72
    1
 10
13500
 20
-2570
 11
13500
 21
-2600
 72
    1
 10
13500
 20
-2600
 11
13750
 21
-2600
 72
    1
 10
13750
 20
-2600
 11
13500
 21
-2600
 72
    1
 10
13500
 20
-2600
 11
13500
 21
-2600
 72
    1
 10
13500
 20
-2600
 11
13500
 21
-2600
 72
    1
 10
13500
 20
-2600
 11
13500
 21
-2570
 72
    1
 10
13750
 20
-2600
 11
13750
 21
-2600
 72
    1
 10
13750
 20
-2600
 11
13750
 21
-2570
 72
    1
 10
13750
 20
-2570
 11
13750
 21
-2570
 72
    1
 10
13750
 20
-2570
 11
13750
 21
-2600
 97
    0
 75
    0
 76
    1
 98
    0
  0
HATCH
  5
571
100
AcDbEntity
  8
0
  6
ByLayer
 62
  256
370
   -1
100
AcDbHatch
 10
0
 20
0
 30
0
210
0
220
0
230
1
  2
SOLID
 70
    1
 71
    0
 91
    1
 92
    0
 93
    4
 72
    1
 10
13500
 20
-2570
 11
13750
 21
-2570
 72
    1
 10
13750
 20
-2570
 11
13750
 21
-2600
 72
    1
 10
13750
 20
-2600
 11
13500
 21
-2600
 72
    1
 10
13500
 20
-2600
 11
13500
 21
-2570
 97
    0
 75
    0
 76
    1
 98
    0
  0
HATCH
  5
572
100
AcDbEntity
  8
Sloping Section
  6
ByLayer
 62
  256
370
   -1
100
AcDbHatch
 10
0
 20
0
 30
0
210
0
220
0
230
1
  2
misc02
 70
    0
 71
    0
 91
    1
 92
    0
 93
    4
 72
    1
 10
3805
 20
0
 11
7805
 21
0
 72
    1
 10
7805
 20
0
 11
7805
 21
350
 72
    1
 10
7805
 20
350
 11
3805
 21
350
 72
    1
 10
3805
 20
350
 11
3805
 21
0
 97
    0
 75
    0
 76
    1
 52
0
 41
1
 77
    0
 78
    0
 98
    0
  0
LINE
  5
573
100
AcDbEntity
  8
0
  6
ByLayer
 62
  256
370
   -1
100
AcDbLine
 10
3805
 20
350
 11
3805
 21
0
  0
LINE
  5
574
100
AcDbEntity
  8
0
  6
ByLayer
 62
  256
370
   -1
100
AcDbLine
 10
350
 20
2605
 11
345
 21
2605
  0
LINE
  5
575
100
AcDbEntity
  8
0
  6
ByLayer
 62
  256
370
   -1
100
AcDbLine
 10
-235
 20
2605
 11
0
 21
2605
  0
DIMENSION
  5
576
100
AcDbEntity
  8
Dimensions
  6
ByLayer
 62
  256
370
   -1
100
AcDbDimension
  2
*D1
 10
350
 20
2480
 30
0
 11
175
 21
2530
 31
0
 70
   32
 71
    5
 72
    0
  3
Standard
 53
0
210
0
220
0
230
1
100
AcDbAlignedDimension
 13
0
 23
2500
 33
0
 14
350
 24
2500
 34
0
100
AcDbRotatedDimension
  0
DIMENSION
  5
577
100
AcDbEntity
  8
Dimensions
  6
ByLayer
 62
  256
370
   -1
100
AcDbDimension
  2
*D2
 10
-500
 20
2600
 30
0
 11
-550
 21
1302.5
 31
0
 70
   32
 71
    5
 72
    0
  3
Standard
 53
0
210
0
220
0
230
1
100
AcDbAlignedDimension
 13
-300
 23
0
 33
0
 14
-300
 24
2605
 34
0
 50
90
100
AcDbRotatedDimension
  0
DIMENSION
  5
578
100
AcDbEntity
  8
Dimensions
  6
ByLayer
 62
  256
370
   -1
100
AcDbDimension
  2
*D3
 10
3805
 20
600
 30
0
 11
2077.5
 21
650
 31
0
 70
   32
 71
    5
 72
    0
  3
Standard
 53
0
210
0
220
0
230
1
100
AcDbAlignedDimension
 13
350
 23
350
 33
0
 14
3805
 24
350
 34
0
100
AcDbRotatedDimension
  0
DIMENSION
  5
579
100
AcDbEntity
  8
Dimensions
  6
ByLayer
 62
  256
370
   -1
100
AcDbDimension
  2
*D4
 10
3680
 20
350
 30
0
 11
3630
 21
175
 31
0
 70
   32
 71
    5
 72
    0
  3
Standard
 53
0
210
0
220
0
230
1
100
AcDbAlignedDimension
 13
3700
 23
0
 33
0
 14
3700
 24
350
 34
0
 50
90
100
AcDbRotatedDimension
  0
LINE
  5
57A
100
AcDbEntity
  8
Sloping Section
  6
ByLayer
 62
  256
370
   -1
100
AcDbLine
 10
3805
 20
0
 11
7805
 21
0
  0
LINE
  5
57B
100
AcDbEntity
  8
Sloping Section
  6
ByLayer
 62
  256
370
   -1
100
AcDbLine
 10
3805
 20
350
 11
7805
 21
350
  0
LINE
  5
57C
100
AcDbEntity
  8
0
  6
ByLayer
 62
  256
370
   -1
100
AcDbLine
 10
7805
 20
0
 11
7805
 21
350
  0
DIMENSION
  5
57D
100
AcDbEntity
  8
Dimensions
  6
ByLayer
 62
  256
370
   -1
100
AcDbDimension
  2
*D5
 10
14565
 20
5970
 30
0
 11
14390
 21
6020
 31
0
 70
   32
 71
    5
 72
    0
  3
Standard
 53
0
210
0
220
0
230
1
100
AcDbAlignedDimension
 13
14215
 23
5905
 33
0
 14
14565
 24
5905
 34
0
100
AcDbRotatedDimension
  0
DIMENSION
  5
57E
100
AcDbEntity
  8
Dimensions
  6
ByLayer
 62
  256
370
   -1
100
AcDbDimension
  2
*D6
 10
14215
 20
600
 30
0
 11
11010
 21
650
 31
0
 70
   32
 71
    5
 72
    0
  3
Standard
 53
0
210
0
220
0
230
1
100
AcDbAlignedDimension
 13
7805
 23
350
 33
0
 14
14215
 24
350
 34
0
100
AcDbRotatedDimension
  0
DIMENSION
  5
57F
100
AcDbEntity
  8
Dimensions
  6
ByLayer
 62
  256
370
   -1
100
AcDbDimension
  2
*D7
 10
14000
 20
350
 30
0
 11
13950
 21
3127.5
 31
0
 70
   32
 71
    5
 72
    0
  3
Standard
 53
0
210
0
220
0
230
1
100
AcDbAlignedDimension
 13
14215
 23
5905
 33
0
 14
14215
 24
350
 34
0
 50
90
100
AcDbRotatedDimension
  0
LINE
  5
580
100
AcDbEntity
  8
Sloping Section
  6
ByLayer
 62
  256
370
   -1
100
AcDbLine
 10
3805
 20
350
 11
3805
 21
0
  0
LINE
  5
581
100
AcDbEntity
  8
Sloping Section
  6
ByLayer
 62
  256
370
   -1
100
AcDbLine
 10
7805
 20
350
 11
7805
 21
0
  0
LINE
  5
582
100
AcDbEntity
  8
0
  6
ByLayer
 62
  256
370
   25
100
AcDbLine
 10
14565
 20
0
 11
14565
 21
5905
  0
LINE
  5
583
100
AcDbEntity
  8
0
  6
ByLayer
 62
  256
370
   25
100
AcDbLine
 10
7800
 20
0
 11
14565
 21
0
  0
LINE
  5
584
100
AcDbEntity
  8
0
  6
ByLayer
 62
  256
370
   25
100
AcDbLine
 10
14215
 20
350
 11
7805
 21
350
  0
LINE
  5
585
100
AcDbEntity
  8
0
  6
ByLayer
 62
  256
370
   25
100
AcDbLine
 10
14215
 20
5905
 11
14215
 21
350
  0
LINE
  5
586
100
AcDbEntity
  8
0
  6
ByLayer
 62
  256
370
   25
100
AcDbLine
 10
14565
 20
5905
 11
14215
 21
5905
  0
INSERT
  5
587
100
AcDbEntity
  8
Title Block
  6
ByLayer
 62
  256
370
   35
100
AcDbBlockReference
  2
Drawing Template A3 Landscape-1
 10
-1340
 20
-4000
 30
0
 41
40
 42
40
 43
0
 50
0
 70
    1
 71
    1
 44
0
 45
0
  0
LINE
  5
588
100
AcDbEntity
  8
0
  6
ByLayer
 62
  256
370
   35
100
AcDbLine
 10
-235
 20
3330
 11
-235
 21
2605
  0
LINE
  5
589
100
AcDbEntity
  8
0
  6
ByLayer
 62
  256
370
   35
100
AcDbLine
 10
345
 20
2605
 11
345
 21
3330
  0
LINE
  5
58A
100
AcDbEntity
  8
0
  6
ByLayer
 62
  256
370
   35
100
AcDbLine
 10
0
 20
2605
 11
350
 21
2605
  0
LINE
  5
58B
100
AcDbEntity
  8
0
  6
ByLayer
 62
  256
370
   35
100
AcDbLine
 10
345
 20
3330
 11
-235
 21
3330
  0
LINE
  5
58C
100
AcDbEntity
  8
0
  6
ByLayer
 62
  256
370
   35
100
AcDbLine
 10
0
 20
0
 11
0
 21
2605
  0
LINE
  5
58D
100
AcDbEntity
  8
0
  6
ByLayer
 62
  256
370
   35
100
AcDbLine
 10
350
 20
2605
 11
350
 21
350
  0
LINE
  5
58E
100
AcDbEntity
  8
0
  6
ByLayer
 62
  256
370
   35
100
AcDbLine
 10
350
 20
350
 11
3805
 21
350
  0
LINE
  5
58F
100
AcDbEntity
  8
0
  6
ByLayer
 62
  256
370
   35
100
AcDbLine
 10
3805
 20
0
 11
0
 21
0
  0
DIMENSION
  5
590
100
AcDbEntity
  8
Dimensions
  6
ByLayer
 62
  256
370
   -1
100
AcDbDimension
  2
*D8
 10
8080
 20
-9.796850830579018e-15
 30
0
 11
8030
 21
175
 31
0
 70
   32
 71
    5
 72
    0
  3
Standard
 53
0
210
0
220
0
230
1
100
AcDbAlignedDimension
 13
8000
 23
350
 33
0
 14
8000
 24
0
 34
0
 50
90
100
AcDbRotatedDimension
  0
INSERT
  5
591
100
AcDbEntity
  8
0
  6
ByLayer
 62
  256
370
   -1
100
AcDbBlockReference
  2
North_Arrow-1
 10
0
 20
-2700
 30
0
 41
1
 42
1
 43
0
 50
0
 70
    1
 71
    1
 44
0
 45
0
  0
LINE
  5
592
100
AcDbEntity
  8
Sloping Section
  6
ByLayer
 62
  256
370
   -1
100
AcDbLine
 10
5805
 20
350
 11
5805
 21
0
  0
LINE
  5
593
100
AcDbEntity
  8
Sloping Section
  6
DASHED2
 62
  256
370
   -1
100
AcDbLine
 10
5805
 20
0
 11
5805
 21
-134
  0
LINE
  5
594
100
AcDbEntity
  8
Sloping Section
  6
DASHED2
 62
  256
370
   -1
100
AcDbLine
 10
5805
 20
350
 11
5805
 21
470
  0
MTEXT
  5
595
100
AcDbEntity
  8
Sloping Section
  6
ByLayer
 62
  256
370
   -1
100
AcDbMText
 10
6840
 20
480
 30
0
 40
100
 41
1316.666718095405
 71
    5
 72
    1
  1
East raked parapet
  7
STANDARD
210
0
220
0
230
1
 50
0
 73
    2
 44
1
  0
MTEXT
  5
596
100
AcDbEntity
  8
Sloping Section
  6
ByLayer
 62
  256
370
   -1
100
AcDbMText
 10
4860
 20
480
 30
0
 40
100
 41
1361.111162539845
 71
    5
 72
    1
  1
West raked parapet
  7
STANDARD
210
0
220
0
230
1
 50
0
 73
    2
 44
1
  0
MTEXT
  5
597
100
AcDbEntity
  8
Sloping Section
  6
ByLayer
 62
  256
370
   -1
100
AcDbMText
 10
3920
 20
-710
 30
0
 40
100
 41
3758.333590476992
 71
    1
 72
    1
  1
Sloping section (blue hatched area) NOT TO SCALE.\PUse drawings 2/5 and 3/5 for measurement purposes.
  7
STANDARD
210
0
220
0
230
1
 50
0
 73
    2
 44
1
  0
MTEXT
  5
598
100
AcDbEntity
  8
0
  6
ByLayer
 62
  256
370
   -1
100
AcDbMText
 10
13500
 20
-2470
 30
0
 40
100
 41
455.5555555555649
 71
    5
 72
    1
  1
1000mm
  7
STANDARD
210
0
220
0
230
1
 50
0
 73
    2
 44
1
  0
LWPOLYLINE
  5
599
100
AcDbEntity
  8
0
  6
ByLayer
 62
  256
370
   -1
100
AcDbPolyline
 90
    3
 70
    1
 43
0
 10
13000
 20
-2570
 10
14000
 20
-2570
 10
14000
 20
-2570
  0
LINE
  5
59A
100
AcDbEntity
  8
0
  6
ByLayer
 62
  256
370
   -1
100
AcDbLine
 10
13500
 20
-2570
 11
13500
 21
-2600
  0
LINE
  5
59B
100
AcDbEntity
  8
0
  6
ByLayer
 62
  256
370
   -1
100
AcDbLine
 10
13250
 20
-2570
 11
13250
 21
-2600
  0
LINE
  5
59C
100
AcDbEntity
  8
0
  6
ByLayer
 62
  256
370
   -1
100
AcDbLine
 10
13750
 20
-2570
 11
13750
 21
-2600
  0
LINE
  5
59D
100
AcDbEntity
  8
0
  6
ByLayer
 62
  256
370
   -1
100
AcDbLine
 10
14000
 20
-2600
 11
13000
 21
-2600
  0
LINE
  5
59E
100
AcDbEntity
  8
0
  6
ByLayer
 62
  256
370
   -1
100
AcDbLine
 10
13000
 20
-2600
 11
13000
 21
-2570
  0
LINE
  5
59F
100
AcDbEntity
  8
0
  6
ByLayer
 62
  256
370
   -1
100
AcDbLine
 10
13000
 20
-2570
 11
14000
 21
-2570
  0
LINE
  5
5A0
100
AcDbEntity
  8
0
  6
ByLayer
 62
  256
370
   -1
100
AcDbLine
 10
14000
 20
-2570
 11
14000
 21
-2600
  0
LWPOLYLINE
  5
5A1
100
AcDbEntity
  8
0
  6
ByLayer
 62
  256
370
   -1
100
AcDbPolyline
 90
    4
 70
    1
 43
0
 10
13000
 20
-2570
 10
13250
 20
-2570
 10
13250
 20
-2600
 10
13000
 20
-2600
  0
LWPOLYLINE
  5
5A2
100
AcDbEntity
  8
0
  6
ByLayer
 62
  256
370
   -1
100
AcDbPolyline
 90
    4
 70
    1
 43
0
 10
13250
 20
-2570
 10
13500
 20
-2570
 10
13500
 20
-2600
 10
13250
 20
-2600
  0
LWPOLYLINE
  5
5A3
100
AcDbEntity
  8
0
  6
ByLayer
 62
  256
370
   -1
100
AcDbPolyline
 90
    3
 70
    1
 43
0
 10
13000
 20
-2570
 10
13250
 20
-2570
 10
13250
 20
-2570
  0
LWPOLYLINE
  5
5A4
100
AcDbEntity
  8
0
  6
ByLayer
 62
  256
370
   -1
100
AcDbPolyline
 90
    3
 70
    1
 43
0
 10
13250
 20
-2600
 10
13000
 20
-2600
 10
13000
 20
-2600
  0
LWPOLYLINE
  5
5A5
100
AcDbEntity
  8
0
  6
ByLayer
 62
  256
370
   -1
100
AcDbPolyline
 90
    3
 70
    1
 43
0
 10
13500
 20
-2570
 10
13750
 20
-2570
 10
13750
 20
-2570
  0
LWPOLYLINE
  5
5A6
100
AcDbEntity
  8
0
  6
ByLayer
 62
  256
370
   -1
100
AcDbPolyline
 90
    3
 70
    1
 43
0
 10
13750
 20
-2600
 10
13500
 20
-2600
 10
13500
 20
-2600
  0
LWPOLYLINE
  5
5A7
100
AcDbEntity
  8
0
  6
ByLayer
 62
  256
370
   -1
100
AcDbPolyline
 90
    4
 70
    1
 43
0
 10
13500
 20
-2570
 10
13500
 20
-2570
 10
13500
 20
-2600
 10
13500
 20
-2600
  0
LWPOLYLINE
  5
5A8
100
AcDbEntity
  8
0
  6
ByLayer
 62
  256
370
   -1
100
AcDbPolyline
 90
    4
 70
    1
 43
0
 10
13750
 20
-2600
 10
13750
 20
-2600
 10
13750
 20
-2570
 10
13750
 20
-2570
  0
DIMENSION
  5
5A9
100
AcDbEntity
  8
Dimensions
  6
ByLayer
 62
  256
370
   -1
100
AcDbDimension
  2
*D9
 10
3800
 20
-300
 30
0
 11
1900
 21
-350
 31
0
 70
   32
 71
    5
 72
    0
  3
Standard
 53
0
210
0
220
0
230
1
100
AcDbAlignedDimension
 13
0
 23
0
 33
0
 14
3805
 24
0
 34
0
100
AcDbRotatedDimension
  0
DIMENSION
  5
5AA
100
AcDbEntity
  8
Dimensions
  6
ByLayer
 62
  256
370
   -1
100
AcDbDimension
  2
*D10
 10
7805
 20
-300
 30
0
 11
11180
 21
-350
 31
0
 70
   32
 71
    5
 72
    0
  3
Standard
 53
0
210
0
220
0
230
1
100
AcDbAlignedDimension
 13
14565
 23
0
 33
0
 14
7805
 24
0
 34
0
100
AcDbRotatedDimension
  0
DIMENSION
  5
5AB
100
AcDbEntity
  8
Dimensions
  6
ByLayer
 62
  256
370
   -1
100
AcDbDimension
  2
*D11
 10
600
 20
350
 30
0
 11
650
 21
1480
 31
0
 70
   32
 71
    5
 72
    0
  3
Standard
 53
0
210
0
220
0
230
1
100
AcDbAlignedDimension
 13
350
 23
2605
 33
0
 14
350
 24
350
 34
0
 50
90
100
AcDbRotatedDimension
  0
DIMENSION
  5
5AC
100
AcDbEntity
  8
Dimensions
  6
ByLayer
 62
  256
370
   -1
100
AcDbDimension
  2
*D12
 10
14760
 20
5905
 30
0
 11
14810
 21
2950
 31
0
 70
   32
 71
    5
  3
Standard
 53
0
210
0
220
0
230
1
100
AcDbAlignedDimension
 13
14565
 23
0
 33
0
 14
14565
 24
5905
 34
0
 50
90
100
AcDbRotatedDimension
  0
ENDSEC
  0
SECTION
  2
OBJECTS
  0
DICTIONARY
  5
C
330
0
100
AcDbDictionary
281
    1
  3
ACAD_GROUP
350
D
  0
DICTIONARY
  5
D
330
C
100
AcDbDictionary
281
    1
  0
PLOTSETTINGS
  5
5AD
100
AcDbPlotSettings
  6
1x1
 40
10
 41
10
 42
10
 43
10
  0
ENDSEC
  0
EOF
