999
dxfrw 0.6.3
  0
SECTION
  2
HEADER
  9
$ACADVER
  1
AC1021
  9
$DWGCODEPAGE
  3
ANSI_1252
  9
$INSBASE
 10
0
 20
0
 30
0
  9
$EXTMIN
 10
-70.00000000000003
 20
-3960.044738793268
 30
0
  9
$EXTMAX
 10
888.5125188742318
 20
405.5055666103943
 30
0
  9
$LIMMIN
 10
0
 20
0
  9
$LIMMAX
 10
420
 20
297
  9
$ORTHOMODE
 70
    0
  9
$REGENMODE
 70
    1
  9
$FILLMODE
 70
    1
  9
$QTEXTMODE
 70
    0
  9
$MIRRTEXT
 70
    0
  9
$LTSCALE
 40
1
  9
$ATTMODE
 70
    0
  9
$TEXTSIZE
 40
2.5
  9
$TRACEWID
 40
15.68
  9
$TEXTSTYLE
  7
STANDARD
  9
$CLAYER
  8
Bemaßung
  9
$CELTYPE
  6
BYLAYER
  9
$CECOLOR
 62
  256
  9
$CELTSCALE
 40
1
  9
$DISPSILH
 70
    0
  9
$DIMSCALE
 40
2.5
  9
$DIMASZ
 40
5
  9
$DIMEXO
 40
0.625
  9
$DIMDLI
 40
3.75
  9
$DIMRND
 40
0
  9
$DIMDLE
 40
0
  9
$DIMEXE
 40
1
  9
$DIMTP
 40
0
  9
$DIMTM
 40
0
  9
$DIMTXT
 40
2.5
  9
$DIMCEN
 40
2.5
  9
$DIMTSZ
 40
1
  9
$DIMTOL
 70
    0
  9
$DIMLIM
 70
    0
  9
$DIMTIH
 70
    0
  9
$DIMTOH
 70
    0
  9
$DIMSE1
 70
    0
  9
$DIMSE2
 70
    0
  9
$DIMTAD
 70
    1
  9
$DIMZIN
 70
    8
  9
$DIMBLK
  1

  9
$DIMASO
 70
    1
  9
$DIMSHO
 70
    1
  9
$DIMPOST
  1

  9
$DIMAPOST
  1

  9
$DIMALT
 70
    0
  9
$DIMALTD
 70
    3
  9
$DIMALTF
 40
0.03937
  9
$DIMLFAC
 40
1
  9
$DIMTOFL
 70
    1
  9
$DIMTVP
 40
0
  9
$DIMTIX
 70
    0
  9
$DIMSOXD
 70
    0
  9
$DIMSAH
 70
    0
  9
$DIMBLK1
  1

  9
$DIMBLK2
  1

  9
$DIMSTYLE
  2
STANDARD
  9
$DIMCLRD
 70
    0
  9
$DIMCLRE
 70
    0
  9
$DIMCLRT
 70
    0
  9
$DIMTFAC
 40
1
  9
$DIMGAP
 40
2
  9
$DIMJUST
 70
    0
  9
$DIMSD1
 70
    0
  9
$DIMSD2
 70
    0
  9
$DIMTOLJ
 70
    0
  9
$DIMTZIN
 70
    8
  9
$DIMALTZ
 70
    0
  9
$DIMALTTZ
 70
    0
  9
$DIMUPT
 70
    0
  9
$DIMDEC
 70
    0
  9
$DIMTDEC
 70
    2
  9
$DIMALTU
 70
    2
  9
$DIMALTTD
 70
    3
  9
$DIMTXSTY
  7
standard
  9
$DIMAUNIT
 70
    0
  9
$DIMADEC
 70
    2
  9
$DIMALTRND
 40
0
  9
$DIMAZIN
 70
    0
  9
$DIMDSEP
 70
   44
  9
$DIMATFIT
 70
    3
  9
$DIMFRAC
 70
    0
  9
$DIMLDRBLK
  1
STANDARD
  9
$DIMLUNIT
 70
    2
  9
$DIMLWD
 70
   -2
  9
$DIMLWE
 70
   -2
  9
$DIMTMOVE
 70
    0
  9
$DIMFXL
 40
1
  9
$DIMFXLON
 70
    0
  9
$DIMJOGANG
 40
0.7854
  9
$DIMTFILL
 70
    0
  9
$DIMTFILLCLR
 70
    0
  9
$DIMARCSYM
 70
    0
  9
$DIMLTYPE
  6

  9
$DIMLTEX1
  6

  9
$DIMLTEX2
  6

  9
$LUNITS
 70
    2
  9
$LUPREC
 70
    4
  9
$SKETCHINC
 40
1
  9
$FILLETRAD
 40
0
  9
$AUNITS
 70
    0
  9
$AUPREC
 70
    2
  9
$MENU
  1
.
  9
$ELEVATION
 40
0
  9
$PELEVATION
 40
0
  9
$THICKNESS
 40
0
  9
$LIMCHECK
 70
    0
  9
$CHAMFERA
 40
0
  9
$CHAMFERB
 40
0
  9
$CHAMFERC
 40
0
  9
$CHAMFERD
 40
0
  9
$SKPOLY
 70
    0
  9
$USRTIMER
 70
    1
  9
$ANGBASE
 50
0
  9
$ANGDIR
 70
    0
  9
$PDMODE
 70
   34
  9
$PDSIZE
 40
0
  9
$PLINEWID
 40
0
  9
$SPLFRAME
 70
    0
  9
$SPLINETYPE
 70
    2
  9
$SPLINESEGS
 70
    8
  9
$HANDSEED
  5
20000
  9
$SURFTAB1
 70
    6
  9
$SURFTAB2
 70
    6
  9
$SURFTYPE
 70
    6
  9
$SURFU
 70
    6
  9
$SURFV
 70
    6
  9
$UCSBASE
  2

  9
$UCSNAME
  2

  9
$UCSORG
 10
0
 20
0
 30
0
  9
$UCSXDIR
 10
1
 20
0
 30
0
  9
$UCSYDIR
 10
0
 20
1
 30
0
  9
$UCSORTHOREF
  2

  9
$UCSORTHOVIEW
 70
    0
  9
$UCSORGTOP
 10
0
 20
0
 30
0
  9
$UCSORGBOTTOM
 10
0
 20
0
 30
0
  9
$UCSORGLEFT
 10
0
 20
0
 30
0
  9
$UCSORGRIGHT
 10
0
 20
0
 30
0
  9
$UCSORGFRONT
 10
0
 20
0
 30
0
  9
$UCSORGBACK
 10
0
 20
0
 30
0
  9
$PUCSBASE
  2

  9
$PUCSNAME
  2

  9
$PUCSORG
 10
0
 20
0
 30
0
  9
$PUCSXDIR
 10
1
 20
0
 30
0
  9
$PUCSYDIR
 10
0
 20
1
 30
0
  9
$PUCSORTHOREF
  2

  9
$PUCSORTHOVIEW
 70
    0
  9
$PUCSORGTOP
 10
0
 20
0
 30
0
  9
$PUCSORGBOTTOM
 10
0
 20
0
 30
0
  9
$PUCSORGLEFT
 10
0
 20
0
 30
0
  9
$PUCSORGRIGHT
 10
0
 20
0
 30
0
  9
$PUCSORGFRONT
 10
0
 20
0
 30
0
  9
$PUCSORGBACK
 10
0
 20
0
 30
0
  9
$USERI1
 70
    0
  9
$USERI2
 70
    0
  9
$USERI3
 70
    0
  9
$USERI4
 70
    0
  9
$USERI5
 70
    0
  9
$USERR1
 40
0
  9
$USERR2
 40
0
  9
$USERR3
 40
0
  9
$USERR4
 40
0
  9
$USERR5
 40
0
  9
$WORLDVIEW
 70
    1
  9
$SHADEDGE
 70
    3
  9
$SHADEDIF
 70
   70
  9
$TILEMODE
 70
    1
  9
$MAXACTVP
 70
   64
  9
$PINSBASE
 10
24.82969587977936
 20
115.4292225265857
 30
0
  9
$PLIMCHECK
 70
    0
  9
$PEXTMIN
 10
0
 20
0
 30
0
  9
$PEXTMAX
 10
0
 20
0
 30
0
  9
$GRIDMODE
 70
    1
  9
$SNAPSTYLE
 70
    0
  9
$GRIDUNIT
 10
0
 20
0
  9
$PLIMMIN
 10
0
 20
0
  9
$PLIMMAX
 10
297
 20
210
  9
$UNITMODE
 70
    0
  9
$VISRETAIN
 70
    1
  9
$PLINEGEN
 70
    0
  9
$PSLTSCALE
 70
    1
  9
$TREEDEPTH
 70
 3020
  9
$CMLSTYLE
  2
Standard
  9
$CMLJUST
 70
    0
  9
$CMLSCALE
 40
20
  9
$PROXYGRAPHICS
 70
    1
  9
$MEASUREMENT
 70
    1
  9
$CELWEIGHT
370
   -1
  9
$ENDCAPS
280
    0
  9
$JOINSTYLE
280
    0
  9
$LWDISPLAY
290
    0
  9
$INSUNITS
 70
    0
  9
$HYPERLINKBASE
  1

  9
$STYLESHEET
  1

  9
$XEDIT
290
    1
  9
$CEPSNTYPE
380
    0
  9
$PSTYLEMODE
290
    1
  9
$EXTNAMES
290
    1
  9
$PSVPSCALE
 40
0.2869769844458475
  9
$OLESTARTUP
290
    0
  9
$SORTENTS
280
  127
  9
$INDEXCTL
280
    0
  9
$HIDETEXT
280
    1
  9
$XCLIPFRAME
290
    0
  9
$HALOGAP
280
    0
  9
$OBSCOLOR
 70
  257
  9
$OBSLTYPE
280
    0
  9
$INTERSECTIONDISPLAY
280
    0
  9
$INTERSECTIONCOLOR
 70
  257
  9
$DIMASSOC
280
    1
  9
$PROJECTNAME
  1

  9
$CAMERADISPLAY
290
    0
  9
$LENSLENGTH
 40
50
  9
$CAMERAHEIGHT
 40
0
  9
$STEPSPERSEC
 40
2
  9
$STEPSIZE
 40
50
  9
$3DDWFPREC
 40
2
  9
$PSOLWIDTH
 40
5
  9
$PSOLHEIGHT
 40
80
  9
$LOFTANG1
 40
1.570796326794897
  9
$LOFTANG2
 40
1.570796326794897
  9
$LOFTMAG1
 40
0
  9
$LOFTMAG2
 40
0
  9
$LOFTPARAM
 70
    7
  9
$LOFTNORMALS
280
    1
  9
$LATITUDE
 40
1
  9
$LONGITUDE
 40
1
  9
$NORTHDIRECTION
 40
0
  9
$TIMEZONE
 70
-8000
  9
$LIGHTGLYPHDISPLAY
280
    1
  9
$TILEMODELIGHTSYNCH
280
    1
  9
$SOLIDHIST
280
    1
  9
$SHOWHIST
280
    1
  9
$DWFFRAME
280
    2
  9
$DGNFRAME
280
    0
  9
$REALWORLDSCALE
290
    1
  9
$INTERFERECOLOR
 62
    1
  9
$CSHADOW
280
    0
  9
$SHADOWPLANELOCATION
 40
0
  0
ENDSEC
  0
SECTION
  2
CLASSES
  0
ENDSEC
  0
SECTION
  2
TABLES
  0
TABLE
  2
VPORT
  5
8
330
0
100
AcDbSymbolTable
 70
    1
  0
VPORT
  5
31
330
2
100
AcDbSymbolTableRecord
100
AcDbViewportTableRecord
  2
*ACTIVE
 70
    0
 10
0
 20
0
 11
1
 21
1
 12
615.5850284739181
 22
235.1476459478569
 13
0
 23
0
 14
10
 24
10
 15
10
 25
10
 16
0
 26
0
 36
1
 17
0
 27
0
 37
0
 40
955.7613996590312
 41
1.892551892551892
 42
50
 43
0
 44
0
 50
0
 51
0
 71
    0
 72
  100
 73
    1
 74
    3
 75
    0
 76
    1
 77
    0
 78
    0
281
    0
 65
    1
110
0
120
0
130
0
111
1
121
0
131
0
112
0
122
1
132
0
 79
    0
146
0
348
10020
 60
    7
 61
    5
292
1
282
    1
141
0
142
0
 63
  250
421
3358443
  0
ENDTAB
  0
TABLE
  2
LTYPE
  5
5
330
0
100
AcDbSymbolTable
 70
    4
  0
LTYPE
  5
14
330
5
100
AcDbSymbolTableRecord
100
AcDbLinetypeTableRecord
  2
ByBlock
 70
    0
  3

 72
   65
 73
    0
 40
0
  0
LTYPE
  5
15
330
5
100
AcDbSymbolTableRecord
100
AcDbLinetypeTableRecord
  2
ByLayer
 70
    0
  3

 72
   65
 73
    0
 40
0
  0
LTYPE
  5
16
330
5
100
AcDbSymbolTableRecord
100
AcDbLinetypeTableRecord
  2
Continuous
 70
    0
  3
Solid line
 72
   65
 73
    0
 40
0
  0
LTYPE
  5
32
330
5
100
AcDbSymbolTableRecord
100
AcDbLinetypeTableRecord
  2
DOT
 70
    0
  3
Dot . . . . . . . . . . . . . . . . . . . . . .
 72
   65
 73
    2
 40
6.35
 49
0
 74
    0
 49
-6.35
 74
    0
  0
LTYPE
  5
33
330
5
100
AcDbSymbolTableRecord
100
AcDbLinetypeTableRecord
  2
DOTTINY
 70
    0
  3
Dot (.15x) .....................................
 72
   65
 73
    2
 40
0.9525
 49
0
 74
    0
 49
-0.9525
 74
    0
  0
LTYPE
  5
34
330
5
100
AcDbSymbolTableRecord
100
AcDbLinetypeTableRecord
  2
DOT2
 70
    0
  3
Dot (.5x) .....................................
 72
   65
 73
    2
 40
3.175
 49
0
 74
    0
 49
-3.175
 74
    0
  0
LTYPE
  5
35
330
5
100
AcDbSymbolTableRecord
100
AcDbLinetypeTableRecord
  2
DOTX2
 70
    0
  3
Dot (2x) .  .  .  .  .  .  .  .  .  .  .  .  .
 72
   65
 73
    2
 40
12.7
 49
0
 74
    0
 49
-12.7
 74
    0
  0
LTYPE
  5
36
330
5
100
AcDbSymbolTableRecord
100
AcDbLinetypeTableRecord
  2
DASHED
 70
    0
  3
Dashed _ _ _ _ _ _ _ _ _ _ _ _ _ _ _ _ _
 72
   65
 73
    2
 40
19.05
 49
12.7
 74
    0
 49
-6.35
 74
    0
  0
LTYPE
  5
37
330
5
100
AcDbSymbolTableRecord
100
AcDbLinetypeTableRecord
  2
DASHEDTINY
 70
    0
  3
Dashed (.15x) _ _ _ _ _ _ _ _ _ _ _ _ _ _ _ _ _
 72
   65
 73
    2
 40
2.8575
 49
1.905
 74
    0
 49
-0.9525
 74
    0
  0
LTYPE
  5
38
330
5
100
AcDbSymbolTableRecord
100
AcDbLinetypeTableRecord
  2
DASHED2
 70
    0
  3
Dashed (.5x) _ _ _ _ _ _ _ _ _ _ _ _ _ _ _ _ _
 72
   65
 73
    2
 40
9.524999999999999
 49
6.35
 74
    0
 49
-3.175
 74
    0
  0
LTYPE
  5
39
330
5
100
AcDbSymbolTableRecord
100
AcDbLinetypeTableRecord
  2
DASHEDX2
 70
    0
  3
Dashed (2x) ____  ____  ____  ____  ____  ___
 72
   65
 73
    2
 40
38.09999999999999
 49
25.4
 74
    0
 49
-12.7
 74
    0
  0
LTYPE
  5
3A
330
5
100
AcDbSymbolTableRecord
100
AcDbLinetypeTableRecord
  2
DASHDOT
 70
    0
  3
Dash dot __ . __ . __ . __ . __ . __ . __ . __
 72
   65
 73
    4
 40
25.4
 49
12.7
 74
    0
 49
-6.35
 74
    0
 49
0
 74
    0
 49
-6.35
 74
    0
  0
LTYPE
  5
3B
330
5
100
AcDbSymbolTableRecord
100
AcDbLinetypeTableRecord
  2
DASHDOTTINY
 70
    0
  3
Dash dot (.15x) _._._._._._._._._._._._._._._.
 72
   65
 73
    4
 40
3.81
 49
1.905
 74
    0
 49
-0.9525
 74
    0
 49
0
 74
    0
 49
-0.9525
 74
    0
  0
LTYPE
  5
3C
330
5
100
AcDbSymbolTableRecord
100
AcDbLinetypeTableRecord
  2
DASHDOT2
 70
    0
  3
Dash dot (.5x) _._._._._._._._._._._._._._._.
 72
   65
 73
    4
 40
12.7
 49
6.35
 74
    0
 49
-3.175
 74
    0
 49
0
 74
    0
 49
-3.175
 74
    0
  0
LTYPE
  5
3D
330
5
100
AcDbSymbolTableRecord
100
AcDbLinetypeTableRecord
  2
DASHDOTX2
 70
    0
  3
Dash dot (2x) ____  .  ____  .  ____  .  ___
 72
   65
 73
    4
 40
50.8
 49
25.4
 74
    0
 49
-12.7
 74
    0
 49
0
 74
    0
 49
-12.7
 74
    0
  0
LTYPE
  5
3E
330
5
100
AcDbSymbolTableRecord
100
AcDbLinetypeTableRecord
  2
DIVIDE
 70
    0
  3
Divide ____ . . ____ . . ____ . . ____ . . ____
 72
   65
 73
    6
 40
31.75
 49
12.7
 74
    0
 49
-6.35
 74
    0
 49
0
 74
    0
 49
-6.35
 74
    0
 49
0
 74
    0
 49
-6.35
 74
    0
  0
LTYPE
  5
3F
330
5
100
AcDbSymbolTableRecord
100
AcDbLinetypeTableRecord
  2
DIVIDETINY
 70
    0
  3
Divide (.15x) __..__..__..__..__..__..__..__.._
 72
   65
 73
    6
 40
4.7625
 49
1.905
 74
    0
 49
-0.9525
 74
    0
 49
0
 74
    0
 49
-0.9525
 74
    0
 49
0
 74
    0
 49
-0.9525
 74
    0
  0
LTYPE
  5
40
330
5
100
AcDbSymbolTableRecord
100
AcDbLinetypeTableRecord
  2
DIVIDE2
 70
    0
  3
Divide (.5x) __..__..__..__..__..__..__..__.._
 72
   65
 73
    6
 40
15.875
 49
6.35
 74
    0
 49
-3.175
 74
    0
 49
0
 74
    0
 49
-3.175
 74
    0
 49
0
 74
    0
 49
-3.175
 74
    0
  0
LTYPE
  5
41
330
5
100
AcDbSymbolTableRecord
100
AcDbLinetypeTableRecord
  2
DIVIDEX2
 70
    0
  3
Divide (2x) ________  .  .  ________  .  .  _
 72
   65
 73
    6
 40
63.5
 49
25.4
 74
    0
 49
-12.7
 74
    0
 49
0
 74
    0
 49
-12.7
 74
    0
 49
0
 74
    0
 49
-12.7
 74
    0
  0
LTYPE
  5
42
330
5
100
AcDbSymbolTableRecord
100
AcDbLinetypeTableRecord
  2
BORDER
 70
    0
  3
Border __ __ . __ __ . __ __ . __ __ . __ __ .
 72
   65
 73
    6
 40
44.45
 49
12.7
 74
    0
 49
-6.35
 74
    0
 49
12.7
 74
    0
 49
-6.35
 74
    0
 49
0
 74
    0
 49
-6.35
 74
    0
  0
LTYPE
  5
43
330
5
100
AcDbSymbolTableRecord
100
AcDbLinetypeTableRecord
  2
BORDERTINY
 70
    0
  3
Border (.15x) __.__.__.__.__.__.__.__.__.__.__.
 72
   65
 73
    6
 40
6.6675
 49
1.905
 74
    0
 49
-0.9525
 74
    0
 49
1.905
 74
    0
 49
-0.9525
 74
    0
 49
0
 74
    0
 49
-0.9525
 74
    0
  0
LTYPE
  5
44
330
5
100
AcDbSymbolTableRecord
100
AcDbLinetypeTableRecord
  2
BORDER2
 70
    0
  3
Border (.5x) __.__.__.__.__.__.__.__.__.__.__.
 72
   65
 73
    6
 40
22.225
 49
6.35
 74
    0
 49
-3.175
 74
    0
 49
6.35
 74
    0
 49
-3.175
 74
    0
 49
0
 74
    0
 49
-3.175
 74
    0
  0
LTYPE
  5
45
330
5
100
AcDbSymbolTableRecord
100
AcDbLinetypeTableRecord
  2
BORDERX2
 70
    0
  3
Border (2x) ____  ____  .  ____  ____  .  ___
 72
   65
 73
    6
 40
88.89999999999999
 49
25.4
 74
    0
 49
-12.7
 74
    0
 49
25.4
 74
    0
 49
-12.7
 74
    0
 49
0
 74
    0
 49
-12.7
 74
    0
  0
LTYPE
  5
46
330
5
100
AcDbSymbolTableRecord
100
AcDbLinetypeTableRecord
  2
CENTER
 70
    0
  3
Center ____ _ ____ _ ____ _ ____ _ ____ _ ____
 72
   65
 73
    4
 40
50.8
 49
31.75
 74
    0
 49
-6.35
 74
    0
 49
6.35
 74
    0
 49
-6.35
 74
    0
  0
LTYPE
  5
47
330
5
100
AcDbSymbolTableRecord
100
AcDbLinetypeTableRecord
  2
CENTERTINY
 70
    0
  3
Center (.15x) ___ _ ___ _ ___ _ ___ _ ___ _ ___
 72
   65
 73
    4
 40
7.62
 49
4.7625
 74
    0
 49
-0.9525
 74
    0
 49
0.9525
 74
    0
 49
-0.9525
 74
    0
  0
LTYPE
  5
48
330
5
100
AcDbSymbolTableRecord
100
AcDbLinetypeTableRecord
  2
CENTER2
 70
    0
  3
Center (.5x) ___ _ ___ _ ___ _ ___ _ ___ _ ___
 72
   65
 73
    4
 40
28.575
 49
19.05
 74
    0
 49
-3.175
 74
    0
 49
3.175
 74
    0
 49
-3.175
 74
    0
  0
LTYPE
  5
49
330
5
100
AcDbSymbolTableRecord
100
AcDbLinetypeTableRecord
  2
CENTERX2
 70
    0
  3
Center (2x) ________  __  ________  __  _____
 72
   65
 73
    4
 40
101.6
 49
63.5
 74
    0
 49
-12.7
 74
    0
 49
12.7
 74
    0
 49
-12.7
 74
    0
  0
ENDTAB
  0
TABLE
  2
LAYER
  5
2
330
0
100
AcDbSymbolTable
 70
    1
  0
LAYER
  5
10
330
2
100
AcDbSymbolTableRecord
100
AcDbLayerTableRecord
  2
0
 70
    0
 62
    7
  6
CONTINUOUS
370
   18
390
F
  0
LAYER
  5
4A
330
2
100
AcDbSymbolTableRecord
100
AcDbLayerTableRecord
  2
Bemaßung
 70
    0
 62
    7
  6
CONTINUOUS
370
   18
390
F
  0
LAYER
  5
4B
330
2
100
AcDbSymbolTableRecord
100
AcDbLayerTableRecord
  2
Einbauten
 70
    0
 62
    7
  6
CONTINUOUS
370
   18
390
F
  0
LAYER
  5
4C
330
2
100
AcDbSymbolTableRecord
100
AcDbLayerTableRecord
  2
Hilfslinie
 70
    1
 62
    4
  6
CONTINUOUS
290
0
370
   13
390
F
  0
ENDTAB
  0
TABLE
  2
STYLE
  5
3
330
0
100
AcDbSymbolTable
 70
    3
  0
STYLE
  5
4D
330
2
100
AcDbSymbolTableRecord
100
AcDbTextStyleTableRecord
  2
standard
 70
    0
 40
0
 41
1
 50
0
 71
    0
 42
1
  3
standard
  4

  0
ENDTAB
  0
TABLE
  2
VIEW
  5
6
330
0
100
AcDbSymbolTable
 70
    0
  0
ENDTAB
  0
TABLE
  2
UCS
  5
7
330
0
100
AcDbSymbolTable
 70
    0
  0
ENDTAB
  0
TABLE
  2
APPID
  5
9
330
0
100
AcDbSymbolTable
 70
    1
  0
APPID
  5
12
330
9
100
AcDbSymbolTableRecord
100
AcDbRegAppTableRecord
  2
ACAD
 70
    0
  0
APPID
  5
4E
330
9
100
AcDbSymbolTableRecord
100
AcDbRegAppTableRecord
  2
LibreCad
 70
    0
  0
ENDTAB
  0
TABLE
  2
DIMSTYLE
  5
A
330
0
100
AcDbSymbolTable
 70
    1
100
AcDbDimStyleTable
 71
    1
  0
DIMSTYLE
105
4F
330
A
100
AcDbSymbolTableRecord
100
AcDbDimStyleTableRecord
  2
Standard
 70
    0
 40
2.5
 41
5
 42
0.625
 43
0.38
 44
1
 45
0
 46
0
 47
0
 48
0
 49
1
140
2.5
141
0.09
142
1
143
25.4
144
1
145
0
146
1
147
2
148
0
 71
    0
 72
    0
 73
    0
 74
    1
 75
    0
 76
    0
 77
    0
 78
    8
 79
    0
170
    0
171
    2
172
    0
173
    0
174
    0
175
    0
176
    0
177
    0
178
    0
179
    2
271
    0
272
    4
273
    2
274
    2
275
    0
276
    0
277
    2
278
   44
279
    0
280
    0
281
    0
282
    0
283
    1
284
    0
285
    0
286
    0
288
    0
289
    3
340
standard
341

371
   -2
372
   -2
  0
ENDTAB
  0
TABLE
  2
BLOCK_RECORD
  5
1
330
0
100
AcDbSymbolTable
 70
    2
  0
BLOCK_RECORD
  5
1F
330
1
100
AcDbSymbolTableRecord
100
AcDbBlockTableRecord
  2
*Model_Space
 70
    0
280
    1
281
    0
  0
BLOCK_RECORD
  5
1E
330
1
100
AcDbSymbolTableRecord
100
AcDbBlockTableRecord
  2
*Paper_Space
 70
    0
280
    1
281
    0
  0
BLOCK_RECORD
  5
50
330
1
100
AcDbSymbolTableRecord
100
AcDbBlockTableRecord
  2
*D1
 70
    0
280
    1
281
    0
  0
BLOCK_RECORD
  5
53
330
1
100
AcDbSymbolTableRecord
100
AcDbBlockTableRecord
  2
*D2
 70
    0
280
    1
281
    0
  0
ENDTAB
  0
ENDSEC
  0
SECTION
  2
BLOCKS
  0
BLOCK
  5
20
330
1F
100
AcDbEntity
  8
0
100
AcDbBlockBegin
  2
*Model_Space
 70
    0
 10
0
 20
0
 30
0
  3
*Model_Space
  1

  0
ENDBLK
  5
21
330
1F
100
AcDbEntity
  8
0
100
AcDbBlockEnd
  0
BLOCK
  5
1C
330
1B
100
AcDbEntity
  8
0
100
AcDbBlockBegin
  2
*Paper_Space
 70
    0
 10
0
 20
0
 30
0
  3
*Paper_Space
  1

  0
ENDBLK
  5
1D
330
1F
100
AcDbEntity
  8
0
100
AcDbBlockEnd
  0
BLOCK
  5
51
330
50
100
AcDbEntity
  8
0
100
AcDbBlockBegin
  2
*D1
 70
    1
 10
0
 20
0
  3
*D1
  1

  0
LINE
  5
56
100
AcDbEntity
  8
Bemaßung
  6
ByBlock
 62
    0
370
   -2
100
AcDbLine
 10
72
 20
238
 11
76.71888335420664
 21
239.6529185973276
  0
MTEXT
  5
57
100
AcDbEntity
  8
Bemaßung
  6
CONTINUOUS
 62
    0
370
   -2
100
AcDbMText
 10
71.67344895644595
 20
246.4946447492496
 30
0
 40
6.25
 41
2.777777777778165
 71
    5
 72
    1
  1
5
  7
standard
210
0
220
0
230
1
 50
19.30420870672034
 73
    2
 44
1
  0
ENDBLK
  5
52
330
50
100
AcDbEntity
  8
0
100
AcDbBlockEnd
  0
BLOCK
  5
54
330
53
100
AcDbEntity
  8
0
100
AcDbBlockBegin
  2
*D2
 70
    1
 10
0
 20
0
  3
*D2
  1

  0
LINE
  5
58
100
AcDbEntity
  8
Bemaßung
  6
ByBlock
 62
    0
370
   -2
100
AcDbLine
 10
514.4689832085999
 20
258
 11
514.4689832085999
 21
213
  0
MTEXT
  5
59
100
AcDbEntity
  8
Bemaßung
  6
CONTINUOUS
 62
    0
370
   -2
100
AcDbMText
 10
506.3439832085999
 20
235.5
 30
0
 40
6.25
 41
8.333333333333719
 71
    5
 72
    1
  1
45
  7
standard
210
0
220
0
230
1
 50
90
 73
    2
 44
1
  0
LINE
  5
5A
100
AcDbEntity
  8
Bemaßung
  6
ByBlock
 62
    0
370
   -2
100
AcDbLine
 10
516.2367501615662
 20
256.2322330470336
 11
512.7012162556335
 21
259.7677669529664
  0
LINE
  5
5B
100
AcDbEntity
  8
Bemaßung
  6
ByBlock
 62
    0
370
   -2
100
AcDbLine
 10
516.2367501615662
 20
211.2322330470336
 11
512.7012162556335
 21
214.7677669529664
  0
LINE
  5
5C
100
AcDbEntity
  8
Bemaßung
  6
ByBlock
 62
    0
370
   -2
100
AcDbLine
 10
530.3730227619783
 20
258
 11
511.9689832085999
 21
258
  0
LINE
  5
5D
100
AcDbEntity
  8
Bemaßung
  6
ByBlock
 62
    0
370
   -2
100
AcDbLine
 10
488.5625
 20
213
 11
516.9689832085999
 21
213
  0
ENDBLK
  5
55
330
53
100
AcDbEntity
  8
0
100
AcDbBlockEnd
  0
ENDSEC
  0
SECTION
  2
ENTITIES
  0
LWPOLYLINE
  5
5E
100
AcDbEntity
  8
0
  6
ByLayer
 62
  256
370
   -1
100
AcDbPolyline
 90
    4
 70
    1
 43
0
 10
0
 20
0
 10
249
 20
0
 10
249
 20
258
 10
0
 20
258
  0
LWPOLYLINE
  5
5F
100
AcDbEntity
  8
Einbauten
  6
ByLayer
 62
  256
370
   -1
100
AcDbPolyline
 90
    4
 70
    1
 43
0
 10
27
 20
0
 10
117
 20
0
 10
117
 20
219
 10
27
 20
219
  0
LWPOLYLINE
  5
60
100
AcDbEntity
  8
Einbauten
  6
ByLayer
 62
  256
370
   -1
100
AcDbPolyline
 90
    4
 70
    1
 43
0
 10
37
 20
0
 10
107
 20
0
 10
107
 20
209
 10
37
 20
209
  0
LINE
  5
61
100
AcDbEntity
  8
Einbauten
  6
ByLayer
 62
  256
370
   -1
100
AcDbLine
 10
102
 20
105
 11
92
 21
105
  0
CIRCLE
  5
62
100
AcDbEntity
  8
Einbauten
  6
ByLayer
 62
  256
370
   -1
100
AcDbCircle
 10
72
 20
238
 40
5
  0
CIRCLE
  5
63
100
AcDbEntity
  8
Einbauten
  6
ByLayer
 62
  256
370
   -1
100
AcDbCircle
 10
102
 20
105
 40
1
  0
LINE
  5
64
100
AcDbEntity
  8
Bemaßung
  6
ByBlock
 62
    0
370
   -2
100
AcDbLine
 10
0
 20
289.5126779308134
 11
249
 21
289.5126779308134
  0
LINE
  5
65
100
AcDbEntity
  8
Bemaßung
  6
ByBlock
 62
    0
370
   -2
100
AcDbLine
 10
2.121320343559643
 20
291.633998274373
 11
-2.121320343559643
 21
287.3913575872537
  0
LINE
  5
66
100
AcDbEntity
  8
Bemaßung
  6
ByBlock
 62
    0
370
   -2
100
AcDbLine
 10
251.1213203435596
 20
291.633998274373
 11
246.8786796564404
 21
287.3913575872537
  0
LINE
  5
67
100
AcDbEntity
  8
Bemaßung
  6
ByBlock
 62
    0
370
   -2
100
AcDbLine
 10
249
 20
270
 11
249
 21
290.7626779308134
  0
LINE
  5
68
100
AcDbEntity
  8
Hilfslinie
  6
ByLayer
 62
  256
370
   -1
100
AcDbLine
 10
-7.983744202416705
 20
278.816912915168
 11
-7.983744202416705
 21
-41.76112352033353
  0
LINE
  5
69
100
AcDbEntity
  8
Bemaßung
  6
ByBlock
 62
    0
370
   -2
100
AcDbLine
 10
-46.99179660444174
 20
0
 11
-46.99179660444172
 21
258
  0
LINE
  5
6A
100
AcDbEntity
  8
Bemaßung
  6
ByBlock
 62
    0
370
   -2
100
AcDbLine
 10
-49.11311694800138
 20
2.121320343559643
 11
-44.8704762608821
 21
-2.121320343559643
  0
LINE
  5
6B
100
AcDbEntity
  8
Bemaßung
  6
ByBlock
 62
    0
370
   -2
100
AcDbLine
 10
-49.11311694800136
 20
260.1213203435597
 11
-44.87047626088207
 21
255.8786796564404
  0
LINE
  5
6C
100
AcDbEntity
  8
Bemaßung
  6
ByBlock
 62
    0
370
   -2
100
AcDbLine
 10
-30.24759321665216
 20
0
 11
-30.24759321665214
 21
219
  0
LINE
  5
6D
100
AcDbEntity
  8
Bemaßung
  6
ByBlock
 62
    0
370
   -2
100
AcDbLine
 10
-32.36891356021179
 20
2.121320343559643
 11
-28.12627287309251
 21
-2.121320343559643
  0
LINE
  5
6E
100
AcDbEntity
  8
Bemaßung
  6
ByBlock
 62
    0
370
   -2
100
AcDbLine
 10
-32.36891356021178
 20
221.1213203435596
 11
-28.1262728730925
 21
216.8786796564404
  0
LINE
  5
6F
100
AcDbEntity
  8
Bemaßung
  6
ByBlock
 62
    0
370
   -2
100
AcDbLine
 10
-15.12379660832609
 20
0
 11
-15.12379660832607
 21
209
  0
LINE
  5
70
100
AcDbEntity
  8
Bemaßung
  6
ByBlock
 62
    0
370
   -2
100
AcDbLine
 10
-17.24511695188573
 20
2.121320343559643
 11
-13.00247626476644
 21
-2.121320343559643
  0
LINE
  5
71
100
AcDbEntity
  8
Bemaßung
  6
ByBlock
 62
    0
370
   -2
100
AcDbLine
 10
-17.24511695188572
 20
211.1213203435596
 11
-13.00247626476643
 21
206.8786796564404
  0
LINE
  5
72
100
AcDbEntity
  8
Bemaßung
  6
ByBlock
 62
    0
370
   -2
100
AcDbLine
 10
-7.983744202416704
 20
258
 11
-48.24179660444172
 21
258
  0
LINE
  5
73
100
AcDbEntity
  8
Bemaßung
  6
ByBlock
 62
    0
370
   -2
100
AcDbLine
 10
-7.983744202416704
 20
219
 11
-31.49759321665214
 21
219
  0
LINE
  5
74
100
AcDbEntity
  8
Bemaßung
  6
ByBlock
 62
    0
370
   -2
100
AcDbLine
 10
-7.983744202416704
 20
209
 11
-16.37379660832607
 21
209
  0
LINE
  5
75
100
AcDbEntity
  8
Bemaßung
  6
ByBlock
 62
    0
370
   -2
100
AcDbLine
 10
-7.983744202416704
 20
1.680754324142333e-16
 11
-16.37379660832609
 21
1.530757942277972e-16
  0
LINE
  5
76
100
AcDbEntity
  8
Hilfslinie
  6
ByLayer
 62
  256
370
   -1
100
AcDbLine
 10
-57.25437287437729
 20
227.9372203112002
 11
18.9047457604076
 21
227.3970847180456
  0
LINE
  5
77
100
AcDbEntity
  8
Bemaßung
  6
CONTINUOUS
 62
    0
370
   -2
100
AcDbLine
 10
119.2222222222222
 20
298.6793445974801
 11
119.3710833333333
 21
298.9571223752578
  0
ARC
  5
78
100
AcDbEntity
  8
Bemaßung
  6
CONTINUOUS
 62
    0
370
   -2
100
AcDbCircle
 10
120.3333333333333
 20
298.4015668197023
 40
1.111110722569377
100
AcDbArc
 50
329.9999884324239
 51
149.9999884324239
  0
LINE
  5
79
100
AcDbEntity
  8
Bemaßung
  6
CONTINUOUS
 62
    0
370
   -2
100
AcDbLine
 10
121.2955833333333
 20
297.8460112641467
 11
119.2222222222222
 21
294.5126779308134
  0
LINE
  5
7A
100
AcDbEntity
  8
Bemaßung
  6
CONTINUOUS
 62
    0
370
   -2
100
AcDbLine
 10
119.2222222222222
 20
294.5126779308134
 11
121.4444444444445
 21
294.5126779308134
  0
LINE
  5
7B
100
AcDbEntity
  8
Bemaßung
  6
CONTINUOUS
 62
    0
370
   -2
100
AcDbLine
 10
124.2222222222222
 20
299.5126779308134
 11
123.1111111111111
 21
295.6237890419245
  0
LINE
  5
7C
100
AcDbEntity
  8
Bemaßung
  6
CONTINUOUS
 62
    0
370
   -2
100
AcDbLine
 10
123.1111111111111
 20
295.6237890419245
 11
125.8888888888889
 21
295.6237890419245
  0
LINE
  5
7D
100
AcDbEntity
  8
Bemaßung
  6
CONTINUOUS
 62
    0
370
   -2
100
AcDbLine
 10
125.0555555555556
 20
296.7349001530356
 11
125.0555555555556
 21
294.5126779308134
  0
LINE
  5
7E
100
AcDbEntity
  8
Bemaßung
  6
CONTINUOUS
 62
    0
370
   -2
100
AcDbLine
 10
129.7777777777778
 20
296.7349001530356
 11
128.6666666666667
 21
296.7349001530356
  0
ARC
  5
7F
100
AcDbEntity
  8
Bemaßung
  6
CONTINUOUS
 62
    0
370
   -2
100
AcDbCircle
 10
128.6666658365831
 20
297.8460104340631
 40
1.111110281027884
100
AcDbArc
 50
179.999957195713
 51
270.000042804287
  0
LINE
  5
80
100
AcDbEntity
  8
Bemaßung
  6
CONTINUOUS
 62
    0
370
   -2
100
AcDbLine
 10
127.5555555555556
 20
297.8460112641467
 11
127.5555555555556
 21
298.4015668197023
  0
ARC
  5
81
100
AcDbEntity
  8
Bemaßung
  6
CONTINUOUS
 62
    0
370
   -2
100
AcDbCircle
 10
128.6666666666667
 20
298.4015668197023
 40
1.111111111111111
100
AcDbArc
 50
0
 51
180
  0
LINE
  5
82
100
AcDbEntity
  8
Bemaßung
  6
CONTINUOUS
 62
    0
370
   -2
100
AcDbLine
 10
129.7777777777778
 20
298.4015668197023
 11
129.7777777777778
 21
296.7349001530356
  0
ARC
  5
83
100
AcDbEntity
  8
Bemaßung
  6
CONTINUOUS
 62
    0
370
   -2
100
AcDbCircle
 10
127.4629611111095
 20
296.7349015419258
 40
2.31481666666875
100
AcDbArc
 50
286.2602390857832
 51
359.9999656225289
  0
LINE
  5
84
100
AcDbEntity
  8
Bemaßung
  6
CONTINUOUS
 62
    0
370
   -2
100
AcDbLine
 10
-56.1584632711084
 20
123.9999999999998
 11
-56.43624104888617
 21
124.148861111111
  0
ARC
  5
85
100
AcDbEntity
  8
Bemaßung
  6
CONTINUOUS
 62
    0
370
   -2
100
AcDbCircle
 10
-55.88068549333062
 20
125.111111111111
 40
1.111110722569377
100
AcDbArc
 50
59.99998843242389
 51
239.9999884324239
  0
LINE
  5
86
100
AcDbEntity
  8
Bemaßung
  6
CONTINUOUS
 62
    0
370
   -2
100
AcDbLine
 10
-55.32512993777506
 20
126.073361111111
 11
-51.99179660444173
 21
123.9999999999998
  0
LINE
  5
87
100
AcDbEntity
  8
Bemaßung
  6
CONTINUOUS
 62
    0
370
   -2
100
AcDbLine
 10
-51.99179660444173
 20
123.9999999999998
 11
-51.99179660444173
 21
126.2222222222221
  0
LINE
  5
88
100
AcDbEntity
  8
Bemaßung
  6
CONTINUOUS
 62
    0
370
   -2
100
AcDbLine
 10
-56.99179660444175
 20
130.1111111111109
 11
-56.99179660444175
 21
127.8888888888887
  0
LINE
  5
89
100
AcDbEntity
  8
Bemaßung
  6
CONTINUOUS
 62
    0
370
   -2
100
AcDbLine
 10
-56.99179660444175
 20
127.8888888888887
 11
-54.76957438221952
 21
127.8888888888887
  0
LINE
  5
8A
100
AcDbEntity
  8
Bemaßung
  6
CONTINUOUS
 62
    0
370
   -2
100
AcDbLine
 10
-54.76957438221952
 20
127.8888888888887
 11
-54.76957438221952
 21
128.9999999999999
  0
ARC
  5
8B
100
AcDbEntity
  8
Bemaßung
  6
CONTINUOUS
 62
    0
370
   -2
100
AcDbCircle
 10
-53.65846410119194
 20
129.0000008300834
 40
1.111110281027884
100
AcDbArc
 50
89.99995719571302
 51
180.000042804287
  0
LINE
  5
8C
100
AcDbEntity
  8
Bemaßung
  6
CONTINUOUS
 62
    0
370
   -2
100
AcDbLine
 10
-53.6584632711084
 20
130.1111111111109
 11
-53.10290771555286
 21
130.1111111111109
  0
ARC
  5
8D
100
AcDbEntity
  8
Bemaßung
  6
CONTINUOUS
 62
    0
370
   -2
100
AcDbCircle
 10
-53.1029068854693
 20
129.0000008300834
 40
1.111110281027884
100
AcDbArc
 50
359.999957195713
 51
90.00004280428698
  0
LINE
  5
8E
100
AcDbEntity
  8
Bemaßung
  6
CONTINUOUS
 62
    0
370
   -2
100
AcDbLine
 10
-51.99179660444173
 20
128.9999999999998
 11
-51.99179660444173
 21
127.8888888888887
  0
LINE
  5
8F
100
AcDbEntity
  8
Bemaßung
  6
CONTINUOUS
 62
    0
370
   -2
100
AcDbLine
 10
-53.10290771555285
 20
134.0000000000002
 11
-53.65846327110839
 21
134.0000000000002
  0
ARC
  5
90
100
AcDbEntity
  8
Bemaßung
  6
CONTINUOUS
 62
    0
370
   -2
100
AcDbCircle
 10
-53.65846327110839
 20
132.8888888888891
 40
1.111111111111111
100
AcDbArc
 50
90
 51
270
  0
LINE
  5
91
100
AcDbEntity
  8
Bemaßung
  6
CONTINUOUS
 62
    0
370
   -2
100
AcDbLine
 10
-53.65846327110839
 20
131.7777777777779
 11
-53.10290771555285
 21
131.7777777777779
  0
ARC
  5
92
100
AcDbEntity
  8
Bemaßung
  6
CONTINUOUS
 62
    0
370
   -2
100
AcDbCircle
 10
-53.10290771555285
 20
132.8888888888891
 40
1.111111111111111
100
AcDbArc
 50
270
 51
90
  0
ARC
  5
93
100
AcDbEntity
  8
Bemaßung
  6
CONTINUOUS
 62
    0
370
   -2
100
AcDbCircle
 10
-55.88068549333062
 20
132.8888888888891
 40
1.111111111111111
100
AcDbArc
 50
0
 51
180
  0
ARC
  5
94
100
AcDbEntity
  8
Bemaßung
  6
CONTINUOUS
 62
    0
370
   -2
100
AcDbCircle
 10
-55.88068549333062
 20
132.8888888888891
 40
1.111111111111111
100
AcDbArc
 50
180
 51
0
  0
LINE
  5
95
100
AcDbEntity
  8
Bemaßung
  6
CONTINUOUS
 62
    0
370
   -2
100
AcDbLine
 10
-39.41425988331882
 20
105.0555555555556
 11
-39.69203766109659
 21
105.2044166666667
  0
ARC
  5
96
100
AcDbEntity
  8
Bemaßung
  6
CONTINUOUS
 62
    0
370
   -2
100
AcDbCircle
 10
-39.13648210554103
 20
106.1666666666667
 40
1.111110722569377
100
AcDbArc
 50
59.99998843242389
 51
239.9999884324239
  0
LINE
  5
97
100
AcDbEntity
  8
Bemaßung
  6
CONTINUOUS
 62
    0
370
   -2
100
AcDbLine
 10
-38.58092654998548
 20
107.1289166666667
 11
-35.24759321665215
 21
105.0555555555556
  0
LINE
  5
98
100
AcDbEntity
  8
Bemaßung
  6
CONTINUOUS
 62
    0
370
   -2
100
AcDbLine
 10
-35.24759321665215
 20
105.0555555555556
 11
-35.24759321665215
 21
107.2777777777778
  0
LINE
  5
99
100
AcDbEntity
  8
Bemaßung
  6
CONTINUOUS
 62
    0
370
   -2
100
AcDbLine
 10
-39.13648210554103
 20
108.9444444444444
 11
-40.24759321665215
 21
110.0555555555556
  0
LINE
  5
9A
100
AcDbEntity
  8
Bemaßung
  6
CONTINUOUS
 62
    0
370
   -2
100
AcDbLine
 10
-40.24759321665215
 20
110.0555555555556
 11
-35.24759321665215
 21
110.0555555555556
  0
LINE
  5
9B
100
AcDbEntity
  8
Bemaßung
  6
CONTINUOUS
 62
    0
370
   -2
100
AcDbLine
 10
-37.46981543887438
 20
113.9444444444445
 11
-37.46981543887438
 21
112.8333333333333
  0
ARC
  5
9C
100
AcDbEntity
  8
Bemaßung
  6
CONTINUOUS
 62
    0
370
   -2
100
AcDbCircle
 10
-38.58092571990194
 20
112.8333325032498
 40
1.111110281027884
100
AcDbArc
 50
269.999957195713
 51
4.280428697680878e-05
  0
LINE
  5
9D
100
AcDbEntity
  8
Bemaßung
  6
CONTINUOUS
 62
    0
370
   -2
100
AcDbLine
 10
-38.58092654998548
 20
111.7222222222222
 11
-39.13648210554103
 21
111.7222222222222
  0
ARC
  5
9E
100
AcDbEntity
  8
Bemaßung
  6
CONTINUOUS
 62
    0
370
   -2
100
AcDbCircle
 10
-39.13648210554103
 20
112.8333333333333
 40
1.111111111111111
100
AcDbArc
 50
90
 51
270
  0
LINE
  5
9F
100
AcDbEntity
  8
Bemaßung
  6
CONTINUOUS
 62
    0
370
   -2
100
AcDbLine
 10
-39.13648210554103
 20
113.9444444444445
 11
-37.46981543887438
 21
113.9444444444445
  0
ARC
  5
A0
100
AcDbEntity
  8
Bemaßung
  6
CONTINUOUS
 62
    0
370
   -2
100
AcDbCircle
 10
-37.46981682776452
 20
111.6296277777761
 40
2.31481666666875
100
AcDbArc
 50
16.26023908578313
 51
89.99996562252883
  0
LINE
  5
A1
100
AcDbEntity
  8
Bemaßung
  6
CONTINUOUS
 62
    0
370
   -2
100
AcDbLine
 10
-24.29046327499275
 20
99.5
 11
-24.56824105277052
 21
99.64886111111112
  0
ARC
  5
A2
100
AcDbEntity
  8
Bemaßung
  6
CONTINUOUS
 62
    0
370
   -2
100
AcDbCircle
 10
-24.01268549721497
 20
100.6111111111111
 40
1.111110722569377
100
AcDbArc
 50
59.99998843242389
 51
239.9999884324239
  0
LINE
  5
A3
100
AcDbEntity
  8
Bemaßung
  6
CONTINUOUS
 62
    0
370
   -2
100
AcDbLine
 10
-23.45712994165941
 20
101.5733611111111
 11
-20.12379660832608
 21
99.5
  0
LINE
  5
A4
100
AcDbEntity
  8
Bemaßung
  6
CONTINUOUS
 62
    0
370
   -2
100
AcDbLine
 10
-20.12379660832608
 20
99.5
 11
-20.12379660832608
 21
101.7222222222222
  0
ARC
  5
A5
100
AcDbEntity
  8
Bemaßung
  6
CONTINUOUS
 62
    0
370
   -2
100
AcDbCircle
 10
-24.42935216388164
 20
104.5
 40
0.6944444444444444
100
AcDbArc
 50
126.869897645844
 51
233.130102354156
  0
ARC
  5
A6
100
AcDbEntity
  8
Bemaßung
  6
CONTINUOUS
 62
    0
370
   -2
100
AcDbCircle
 10
-22.62379660832608
 20
108.1111111111111
 40
4.722222222222222
100
AcDbArc
 50
241.927513064147
 51
298.072486935853
  0
ARC
  5
A7
100
AcDbEntity
  8
Bemaßung
  6
CONTINUOUS
 62
    0
370
   -2
100
AcDbCircle
 10
-20.81824105277052
 20
104.5
 40
0.6944444444444444
100
AcDbArc
 50
306.869897645844
 51
53.13010235415599
  0
ARC
  5
A8
100
AcDbEntity
  8
Bemaßung
  6
CONTINUOUS
 62
    0
370
   -2
100
AcDbCircle
 10
-22.62379660832608
 20
100.8888888888889
 40
4.722222222222222
100
AcDbArc
 50
61.92751306414704
 51
118.072486935853
  0
LINE
  5
A9
100
AcDbEntity
  8
Bemaßung
  6
CONTINUOUS
 62
    0
370
   -2
100
AcDbLine
 10
-22.34601883054831
 20
109.5
 11
-22.34601883054831
 21
108.3888888888889
  0
ARC
  5
AA
100
AcDbEntity
  8
Bemaßung
  6
CONTINUOUS
 62
    0
370
   -2
100
AcDbCircle
 10
-23.45712911157587
 20
108.3888880588053
 40
1.111110281027884
100
AcDbArc
 50
269.999957195713
 51
4.280428697680878e-05
  0
LINE
  5
AB
100
AcDbEntity
  8
Bemaßung
  6
CONTINUOUS
 62
    0
370
   -2
100
AcDbLine
 10
-23.45712994165941
 20
107.2777777777778
 11
-24.01268549721497
 21
107.2777777777778
  0
ARC
  5
AC
100
AcDbEntity
  8
Bemaßung
  6
CONTINUOUS
 62
    0
370
   -2
100
AcDbCircle
 10
-24.01268549721497
 20
108.3888888888889
 40
1.111111111111111
100
AcDbArc
 50
90
 51
270
  0
LINE
  5
AD
100
AcDbEntity
  8
Bemaßung
  6
CONTINUOUS
 62
    0
370
   -2
100
AcDbLine
 10
-24.01268549721497
 20
109.5
 11
-22.34601883054831
 21
109.5
  0
ARC
  5
AE
100
AcDbEntity
  8
Bemaßung
  6
CONTINUOUS
 62
    0
370
   -2
100
AcDbCircle
 10
-22.34602021943845
 20
107.1851833333317
 40
2.31481666666875
100
AcDbArc
 50
16.26023908578313
 51
89.99996562252883
  0
LINE
  5
AF
100
AcDbEntity
  8
Bemaßung
  6
ByBlock
 62
    0
370
   -2
100
AcDbLine
 10
3.552713678800501e-15
 20
-27.00677965772514
 11
27
 21
-27.00677965772514
  0
LINE
  5
B0
100
AcDbEntity
  8
Bemaßung
  6
ByBlock
 62
    0
370
   -2
100
AcDbLine
 10
2.121320343559646
 20
-24.8854593141655
 11
-2.121320343559639
 21
-29.12810000128478
  0
LINE
  5
B1
100
AcDbEntity
  8
Bemaßung
  6
ByBlock
 62
    0
370
   -2
100
AcDbLine
 10
29.12132034355964
 20
-24.8854593141655
 11
24.87867965644036
 21
-29.12810000128478
  0
LINE
  5
B2
100
AcDbEntity
  8
Bemaßung
  6
ByBlock
 62
    0
370
   -2
100
AcDbLine
 10
7
 20
-27.00677965772514
 11
57
 21
-27.00677965772514
  0
LINE
  5
B3
100
AcDbEntity
  8
Bemaßung
  6
ByBlock
 62
    0
370
   -2
100
AcDbLine
 10
24.87867965644036
 20
-29.12810000128478
 11
29.12132034355964
 21
-24.8854593141655
  0
LINE
  5
B4
100
AcDbEntity
  8
Bemaßung
  6
ByBlock
 62
    0
370
   -2
100
AcDbLine
 10
34.87867965644035
 20
-29.12810000128478
 11
39.12132034355965
 21
-24.8854593141655
  0
LINE
  5
B5
100
AcDbEntity
  8
Bemaßung
  6
ByBlock
 62
    0
370
   -2
100
AcDbLine
 10
37
 20
-27.00677965772514
 11
107
 21
-27.00677965772514
  0
LINE
  5
B6
100
AcDbEntity
  8
Bemaßung
  6
ByBlock
 62
    0
370
   -2
100
AcDbLine
 10
39.12132034355965
 20
-24.8854593141655
 11
34.87867965644035
 21
-29.12810000128478
  0
LINE
  5
B7
100
AcDbEntity
  8
Bemaßung
  6
ByBlock
 62
    0
370
   -2
100
AcDbLine
 10
109.1213203435596
 20
-24.8854593141655
 11
104.8786796564404
 21
-29.12810000128478
  0
LINE
  5
B8
100
AcDbEntity
  8
Bemaßung
  6
ByBlock
 62
    0
370
   -2
100
AcDbLine
 10
87
 20
-27.00677965772514
 11
137
 21
-27.00677965772514
  0
LINE
  5
B9
100
AcDbEntity
  8
Bemaßung
  6
ByBlock
 62
    0
370
   -2
100
AcDbLine
 10
104.8786796564404
 20
-29.12810000128478
 11
109.1213203435596
 21
-24.8854593141655
  0
LINE
  5
BA
100
AcDbEntity
  8
Bemaßung
  6
ByBlock
 62
    0
370
   -2
100
AcDbLine
 10
114.8786796564404
 20
-29.12810000128478
 11
119.1213203435596
 21
-24.8854593141655
  0
LINE
  5
BB
100
AcDbEntity
  8
Bemaßung
  6
ByBlock
 62
    0
370
   -2
100
AcDbLine
 10
117
 20
-27.00677965772514
 11
249
 21
-27.00677965772514
  0
LINE
  5
BC
100
AcDbEntity
  8
Bemaßung
  6
ByBlock
 62
    0
370
   -2
100
AcDbLine
 10
119.1213203435596
 20
-24.8854593141655
 11
114.8786796564404
 21
-29.12810000128478
  0
LINE
  5
BD
100
AcDbEntity
  8
Bemaßung
  6
ByBlock
 62
    0
370
   -2
100
AcDbLine
 10
251.1213203435596
 20
-24.8854593141655
 11
246.8786796564404
 21
-29.12810000128478
  0
LINE
  5
BE
100
AcDbEntity
  8
Bemaßung
  6
ByBlock
 62
    0
370
   -2
100
AcDbLine
 10
0
 20
274.9290169156419
 11
72
 21
274.9290169156419
  0
MTEXT
  5
BF
100
AcDbEntity
  8
Bemaßung
  6
CONTINUOUS
 62
    0
370
   -2
100
AcDbMText
 10
36
 20
280.4290169156419
 30
0
 40
5
 41
6.111111111111111
 71
    5
 72
    1
  1
72
  7
standard
210
0
220
0
230
1
 50
0
 73
    2
 44
1
  0
LINE
  5
C0
100
AcDbEntity
  8
Bemaßung
  6
ByBlock
 62
    0
370
   -2
100
AcDbLine
 10
2.121320343559643
 20
277.0503372592015
 11
-2.121320343559643
 21
272.8076965720822
  0
LINE
  5
C1
100
AcDbEntity
  8
Bemaßung
  6
ByBlock
 62
    0
370
   -2
100
AcDbLine
 10
74.12132034355965
 20
277.0503372592015
 11
69.87867965644035
 21
272.8076965720822
  0
MTEXT
  5
C2
100
AcDbEntity
  8
Bemaßung
  6
CONTINUOUS
 62
    0
370
   -2
100
AcDbMText
 10
-20.62379660832609
 20
248
 30
0
 40
5
 41
6.111111111111112
 71
    5
 72
    1
  1
20
  7
standard
210
0
220
0
230
1
 50
90
 73
    2
 44
1
  0
LINE
  5
C3
100
AcDbEntity
  8
Bemaßung
  6
ByBlock
 62
    0
370
   -2
100
AcDbLine
 10
-17.24511695188573
 20
260.1213203435597
 11
-13.00247626476644
 21
255.8786796564404
  0
LINE
  5
C4
100
AcDbEntity
  8
Bemaßung
  6
ByBlock
 62
    0
370
   -2
100
AcDbLine
 10
-17.24511695188573
 20
240.1213203435596
 11
-13.00247626476645
 21
235.8786796564404
  0
LINE
  5
C5
100
AcDbEntity
  8
Bemaßung
  6
ByBlock
 62
    0
370
   -2
100
AcDbLine
 10
1.075325662552191e-16
 20
270
 11
7.653789711389858e-17
 21
290.7626779308134
  0
LINE
  5
C6
100
AcDbEntity
  8
Bemaßung
  6
ByBlock
 62
    0
370
   -2
100
AcDbLine
 10
72
 20
270
 11
72
 21
275.4290169156419
  0
LINE
  5
C7
100
AcDbEntity
  8
Bemaßung
  6
ByBlock
 62
    0
370
   -2
100
AcDbLine
 10
6.293287866329487e-17
 20
270
 11
3.061515884555943e-17
 21
275.4290169156419
  0
LINE
  5
C8
100
AcDbEntity
  8
Bemaßung
  6
ByBlock
 62
    0
370
   -2
100
AcDbLine
 10
-7.983744202416704
 20
258
 11
-15.62379660832609
 21
258
  0
LINE
  5
C9
100
AcDbEntity
  8
Bemaßung
  6
ByBlock
 62
    0
370
   -2
100
AcDbLine
 10
-7.983744202416704
 20
238
 11
-15.62379660832609
 21
238
  0
LINE
  5
CA
100
AcDbEntity
  8
Bemaßung
  6
ByBlock
 62
    0
370
   -2
100
AcDbLine
 10
-15.12379660832609
 20
270
 11
-15.12379660832609
 21
227.6384218979657
  0
LINE
  5
CB
100
AcDbEntity
  8
Bemaßung
  6
ByBlock
 62
    0
370
   -2
100
AcDbLine
 10
107
 20
-9.413261210454008
 11
107
 21
-27.50677965772514
  0
LINE
  5
CC
100
AcDbEntity
  8
Bemaßung
  6
ByBlock
 62
    0
370
   -2
100
AcDbLine
 10
7.196432912629674e-16
 20
-9.242607302957996
 11
3.460868202263823e-15
 21
-27.50677965772514
  0
LINE
  5
CD
100
AcDbEntity
  8
Bemaßung
  6
CONTINUOUS
 62
    0
370
   -2
100
AcDbLine
 10
10.44444444444445
 20
-19.84011299105847
 11
10.59330555555556
 21
-19.5623352132807
  0
ARC
  5
CE
100
AcDbEntity
  8
Bemaßung
  6
CONTINUOUS
 62
    0
370
   -2
100
AcDbCircle
 10
11.55555555555556
 20
-20.11789076883625
 40
1.111110722569377
100
AcDbArc
 50
329.9999884324239
 51
149.9999884324239
  0
LINE
  5
CF
100
AcDbEntity
  8
Bemaßung
  6
CONTINUOUS
 62
    0
370
   -2
100
AcDbLine
 10
12.51780555555556
 20
-20.67344632439181
 11
10.44444444444445
 21
-24.00677965772514
  0
LINE
  5
D0
100
AcDbEntity
  8
Bemaßung
  6
CONTINUOUS
 62
    0
370
   -2
100
AcDbLine
 10
10.44444444444445
 20
-24.00677965772514
 11
12.66666666666667
 21
-24.00677965772514
  0
LINE
  5
D1
100
AcDbEntity
  8
Bemaßung
  6
CONTINUOUS
 62
    0
370
   -2
100
AcDbLine
 10
14.33333333333334
 20
-19.5623352132807
 11
14.33333333333334
 21
-19.00677965772514
  0
LINE
  5
D2
100
AcDbEntity
  8
Bemaßung
  6
CONTINUOUS
 62
    0
370
   -2
100
AcDbLine
 10
14.33333333333334
 20
-19.00677965772514
 11
16.55555555555556
 21
-19.00677965772514
  0
LINE
  5
D3
100
AcDbEntity
  8
Bemaßung
  6
CONTINUOUS
 62
    0
370
   -2
100
AcDbLine
 10
16.55555555555556
 20
-19.00677965772514
 11
15.44444444444445
 21
-24.00677965772514
  0
LINE
  5
D4
100
AcDbEntity
  8
Bemaßung
  6
CONTINUOUS
 62
    0
370
   -2
100
AcDbLine
 10
30.61111111111111
 20
-19.00677965772514
 11
30.61111111111111
 21
-24.00677965772514
  0
ARC
  5
D5
100
AcDbEntity
  8
Bemaßung
  6
CONTINUOUS
 62
    0
370
   -2
100
AcDbCircle
 10
33.38888888888889
 20
-19.70122410216958
 40
0.6944444444444444
100
AcDbArc
 50
36.86989764584401
 51
143.130102354156
  0
ARC
  5
D6
100
AcDbEntity
  8
Bemaßung
  6
CONTINUOUS
 62
    0
370
   -2
100
AcDbCircle
 10
37
 20
-21.50677965772514
 40
4.722222222222222
100
AcDbArc
 50
151.927513064147
 51
208.0724869358529
  0
ARC
  5
D7
100
AcDbEntity
  8
Bemaßung
  6
CONTINUOUS
 62
    0
370
   -2
100
AcDbCircle
 10
33.38888888888889
 20
-23.3123352132807
 40
0.6944444444444444
100
AcDbArc
 50
216.869897645844
 51
323.130102354156
  0
ARC
  5
D8
100
AcDbEntity
  8
Bemaßung
  6
CONTINUOUS
 62
    0
370
   -2
100
AcDbCircle
 10
29.77777777777778
 20
-21.50677965772514
 40
4.722222222222222
100
AcDbArc
 50
331.927513064147
 51
28.07248693585295
  0
LINE
  5
D9
100
AcDbEntity
  8
Bemaßung
  6
CONTINUOUS
 62
    0
370
   -2
100
AcDbLine
 10
68.94444444444444
 20
-19.5623352132807
 11
68.94444444444444
 21
-19.00677965772514
  0
LINE
  5
DA
100
AcDbEntity
  8
Bemaßung
  6
CONTINUOUS
 62
    0
370
   -2
100
AcDbLine
 10
68.94444444444444
 20
-19.00677965772514
 11
71.16666666666667
 21
-19.00677965772514
  0
LINE
  5
DB
100
AcDbEntity
  8
Bemaßung
  6
CONTINUOUS
 62
    0
370
   -2
100
AcDbLine
 10
71.16666666666667
 20
-19.00677965772514
 11
70.05555555555556
 21
-24.00677965772514
  0
ARC
  5
DC
100
AcDbEntity
  8
Bemaßung
  6
CONTINUOUS
 62
    0
370
   -2
100
AcDbCircle
 10
73.94444444444444
 20
-19.70122410216958
 40
0.6944444444444444
100
AcDbArc
 50
36.86989764584401
 51
143.130102354156
  0
ARC
  5
DD
100
AcDbEntity
  8
Bemaßung
  6
CONTINUOUS
 62
    0
370
   -2
100
AcDbCircle
 10
77.55555555555556
 20
-21.50677965772514
 40
4.722222222222222
100
AcDbArc
 50
151.927513064147
 51
208.0724869358529
  0
ARC
  5
DE
100
AcDbEntity
  8
Bemaßung
  6
CONTINUOUS
 62
    0
370
   -2
100
AcDbCircle
 10
73.94444444444444
 20
-23.3123352132807
 40
0.6944444444444444
100
AcDbArc
 50
216.869897645844
 51
323.130102354156
  0
ARC
  5
DF
100
AcDbEntity
  8
Bemaßung
  6
CONTINUOUS
 62
    0
370
   -2
100
AcDbCircle
 10
70.33333333333333
 20
-21.50677965772514
 40
4.722222222222222
100
AcDbArc
 50
331.927513064147
 51
28.07248693585295
  0
LINE
  5
E0
100
AcDbEntity
  8
Bemaßung
  6
CONTINUOUS
 62
    0
370
   -2
100
AcDbLine
 10
109.5
 20
-20.11789076883625
 11
110.6111111111111
 21
-19.00677965772514
  0
LINE
  5
E1
100
AcDbEntity
  8
Bemaßung
  6
CONTINUOUS
 62
    0
370
   -2
100
AcDbLine
 10
110.6111111111111
 20
-19.00677965772514
 11
110.6111111111111
 21
-24.00677965772514
  0
ARC
  5
E2
100
AcDbEntity
  8
Bemaßung
  6
CONTINUOUS
 62
    0
370
   -2
100
AcDbCircle
 10
113.3888888888889
 20
-19.70122410216958
 40
0.6944444444444444
100
AcDbArc
 50
36.86989764584401
 51
143.130102354156
  0
ARC
  5
E3
100
AcDbEntity
  8
Bemaßung
  6
CONTINUOUS
 62
    0
370
   -2
100
AcDbCircle
 10
117
 20
-21.50677965772514
 40
4.722222222222222
100
AcDbArc
 50
151.927513064147
 51
208.0724869358529
  0
ARC
  5
E4
100
AcDbEntity
  8
Bemaßung
  6
CONTINUOUS
 62
    0
370
   -2
100
AcDbCircle
 10
113.3888888888889
 20
-23.3123352132807
 40
0.6944444444444444
100
AcDbArc
 50
216.869897645844
 51
323.130102354156
  0
ARC
  5
E5
100
AcDbEntity
  8
Bemaßung
  6
CONTINUOUS
 62
    0
370
   -2
100
AcDbCircle
 10
109.7777777777778
 20
-21.50677965772514
 40
4.722222222222222
100
AcDbArc
 50
331.927513064147
 51
28.07248693585295
  0
LINE
  5
E6
100
AcDbEntity
  8
Bemaßung
  6
CONTINUOUS
 62
    0
370
   -2
100
AcDbLine
 10
178.5555555555554
 20
-20.11789076883625
 11
179.6666666666665
 21
-19.00677965772514
  0
LINE
  5
E7
100
AcDbEntity
  8
Bemaßung
  6
CONTINUOUS
 62
    0
370
   -2
100
AcDbLine
 10
179.6666666666665
 20
-19.00677965772514
 11
179.6666666666665
 21
-24.00677965772514
  0
LINE
  5
E8
100
AcDbEntity
  8
Bemaßung
  6
CONTINUOUS
 62
    0
370
   -2
100
AcDbLine
 10
181.3333333333332
 20
-19.00677965772514
 11
182.4444444444443
 21
-19.00677965772514
  0
ARC
  5
E9
100
AcDbEntity
  8
Bemaßung
  6
CONTINUOUS
 62
    0
370
   -2
100
AcDbCircle
 10
182.4444444444443
 20
-20.11789076883625
 40
1.111111111111111
100
AcDbArc
 50
270
 51
90
  0
LINE
  5
EA
100
AcDbEntity
  8
Bemaßung
  6
CONTINUOUS
 62
    0
370
   -2
100
AcDbLine
 10
181.8888888888887
 20
-21.22900187994736
 11
182.4444444444443
 21
-21.22900187994736
  0
ARC
  5
EB
100
AcDbEntity
  8
Bemaßung
  6
CONTINUOUS
 62
    0
370
   -2
100
AcDbCircle
 10
182.4444452745278
 20
-22.34011216097494
 40
1.111110281027884
100
AcDbArc
 50
359.999957195713
 51
90.00004280428698
  0
LINE
  5
EC
100
AcDbEntity
  8
Bemaßung
  6
CONTINUOUS
 62
    0
370
   -2
100
AcDbLine
 10
183.5555555555554
 20
-22.34011299105847
 11
183.5555555555554
 21
-22.89566854661403
  0
ARC
  5
ED
100
AcDbEntity
  8
Bemaßung
  6
CONTINUOUS
 62
    0
370
   -2
100
AcDbCircle
 10
182.4444452745278
 20
-22.89566937669757
 40
1.111110281027884
100
AcDbArc
 50
269.999957195713
 51
4.280428697116827e-05
  0
LINE
  5
EE
100
AcDbEntity
  8
Bemaßung
  6
CONTINUOUS
 62
    0
370
   -2
100
AcDbLine
 10
182.4444444444443
 20
-24.00677965772514
 11
181.3333333333332
 21
-24.00677965772514
  0
LINE
  5
EF
100
AcDbEntity
  8
Bemaßung
  6
CONTINUOUS
 62
    0
370
   -2
100
AcDbLine
 10
185.2222222222224
 20
-19.84011299105847
 11
185.3710833333335
 21
-19.5623352132807
  0
ARC
  5
F0
100
AcDbEntity
  8
Bemaßung
  6
CONTINUOUS
 62
    0
370
   -2
100
AcDbCircle
 10
186.3333333333335
 20
-20.11789076883625
 40
1.111110722569377
100
AcDbArc
 50
329.9999884324239
 51
149.9999884324239
  0
LINE
  5
F1
100
AcDbEntity
  8
Bemaßung
  6
CONTINUOUS
 62
    0
370
   -2
100
AcDbLine
 10
187.2955833333335
 20
-20.67344632439181
 11
185.2222222222224
 21
-24.00677965772514
  0
LINE
  5
F2
100
AcDbEntity
  8
Bemaßung
  6
CONTINUOUS
 62
    0
370
   -2
100
AcDbLine
 10
185.2222222222224
 20
-24.00677965772514
 11
187.4444444444446
 21
-24.00677965772514
  0
LINE
  5
F3
100
AcDbEntity
  8
Hilfslinie
  6
ByLayer
 62
  256
370
   -1
100
AcDbLine
 10
-40
 20
-10
 11
270
 21
-10
  0
LINE
  5
F4
100
AcDbEntity
  8
Bemaßung
  6
ByBlock
 62
    0
370
   -2
100
AcDbLine
 10
107
 20
-10
 11
107
 21
-27.50677965772514
  0
LINE
  5
F5
100
AcDbEntity
  8
Bemaßung
  6
ByBlock
 62
    0
370
   -2
100
AcDbLine
 10
249
 20
-10
 11
249
 21
-27.50677965772514
  0
LINE
  5
F6
100
AcDbEntity
  8
Bemaßung
  6
ByBlock
 62
    0
370
   -2
100
AcDbLine
 10
27
 20
-10
 11
27
 21
-27.50677965772514
  0
LINE
  5
F7
100
AcDbEntity
  8
Bemaßung
  6
ByBlock
 62
    0
370
   -2
100
AcDbLine
 10
37
 20
-10
 11
37
 21
-27.50677965772514
  0
LINE
  5
F8
100
AcDbEntity
  8
Bemaßung
  6
ByBlock
 62
    0
370
   -2
100
AcDbLine
 10
117
 20
-10
 11
117
 21
-27.50677965772514
  0
LWPOLYLINE
  5
F9
100
AcDbEntity
  8
0
  6
ByLayer
 62
  256
370
   -1
100
AcDbPolyline
 90
    4
 70
    1
 43
0
 10
300
 20
0
 10
647
 20
0
 10
647
 20
258
 10
300
 20
258
  0
CIRCLE
  5
FA
100
AcDbEntity
  8
Einbauten
  6
ByLayer
 62
  256
370
   -1
100
AcDbCircle
 10
487
 20
213
 40
5
  0
CIRCLE
  5
FB
100
AcDbEntity
  8
Einbauten
  6
ByLayer
 62
  256
370
   -1
100
AcDbCircle
 10
487
 20
117
 40
3
  0
CIRCLE
  5
FC
100
AcDbEntity
  8
Einbauten
  6
ByLayer
 62
  256
370
   -1
100
AcDbCircle
 10
495
 20
117
 40
3
  0
CIRCLE
  5
FD
100
AcDbEntity
  8
Einbauten
  6
ByLayer
 62
  256
370
   -1
100
AcDbCircle
 10
554
 20
70
 40
4
  0
CIRCLE
  5
FE
100
AcDbEntity
  8
Einbauten
  6
ByLayer
 62
  256
370
   -1
100
AcDbCircle
 10
564
 20
78
 40
2
  0
CIRCLE
  5
FF
100
AcDbEntity
  8
Einbauten
  6
ByLayer
 62
  256
370
   -1
100
AcDbCircle
 10
544
 20
78
 40
2
  0
LINE
  5
100
100
AcDbEntity
  8
Bemaßung
  6
ByLayer
 62
  256
370
   -1
100
AcDbLine
 10
487
 20
117
 11
495
 21
117
  0
LINE
  5
101
100
AcDbEntity
  8
Hilfslinie
  6
ByLayer
 62
  256
370
   -1
100
AcDbLine
 10
-60
 20
270
 11
720
 21
270
  0
LINE
  5
102
100
AcDbEntity
  8
Hilfslinie
  6
ByLayer
 62
  256
370
   -1
100
AcDbLine
 10
450.9542939235779
 20
126.2354449539593
 11
710.5705863760603
 21
125.4415113378967
  0
LINE
  5
103
100
AcDbEntity
  8
Hilfslinie
  6
ByLayer
 62
  256
370
   -1
100
AcDbLine
 10
660
 20
110
 11
660
 21
-50
  0
LINE
  5
104
100
AcDbEntity
  8
Hilfslinie
  6
ByLayer
 62
  256
370
   -1
100
AcDbLine
 10
530
 20
-10
 11
690
 21
-10
  0
LINE
  5
105
100
AcDbEntity
  8
Bemaßung
  6
ByBlock
 62
    0
370
   -2
100
AcDbLine
 10
491.0496617330107
 20
135.5000000000033
 11
647
 21
135.5000000000033
  0
MTEXT
  5
106
100
AcDbEntity
  8
Bemaßung
  6
CONTINUOUS
 62
    0
370
   -2
100
AcDbMText
 10
569.0248308665053
 20
143.0000000000033
 30
0
 40
5
 41
8.888888888889511
 71
    5
 72
    1
  1
156
  7
standard
210
0
220
0
230
1
 50
0
 73
    2
 44
1
  0
LINE
  5
107
100
AcDbEntity
  8
Bemaßung
  6
ByBlock
 62
    0
370
   -2
100
AcDbLine
 10
492.8174286859771
 20
137.2677669529697
 11
489.2818947800443
 21
133.7322330470369
  0
LINE
  5
108
100
AcDbEntity
  8
Bemaßung
  6
ByBlock
 62
    0
370
   -2
100
AcDbLine
 10
648.7677669529663
 20
137.2677669529697
 11
645.2322330470337
 21
133.7322330470369
  0
LINE
  5
109
100
AcDbEntity
  8
Bemaßung
  6
ByBlock
 62
    0
370
   -2
100
AcDbLine
 10
463.6520131211999
 20
117
 11
463.6520131211999
 21
3.944304526105059e-31
  0
MTEXT
  5
10A
100
AcDbEntity
  8
Bemaßung
  6
CONTINUOUS
 62
    0
370
   -2
100
AcDbMText
 10
456.1520131211999
 20
58.5
 30
0
 40
5
 41
7.777777777777779
 71
    5
 72
    1
  1
117
  7
standard
210
0
220
0
230
1
 50
90
 73
    2
 44
1
  0
LINE
  5
10B
100
AcDbEntity
  8
Bemaßung
  6
ByBlock
 62
    0
370
   -2
100
AcDbLine
 10
465.4197800741663
 20
115.2322330470336
 11
461.8842461682335
 21
118.7677669529664
  0
LINE
  5
10C
100
AcDbEntity
  8
Bemaßung
  6
ByBlock
 62
    0
370
   -2
100
AcDbLine
 10
465.4197800741663
 20
-1.767766952966369
 11
461.8842461682335
 21
1.767766952966369
  0
LINE
  5
10D
100
AcDbEntity
  8
Bemaßung
  6
ByBlock
 62
    0
370
   -2
100
AcDbLine
 10
554
 20
-28.58161017825479
 11
647
 21
-28.58161017825479
  0
MTEXT
  5
10E
100
AcDbEntity
  8
Bemaßung
  6
CONTINUOUS
 62
    0
370
   -2
100
AcDbMText
 10
600.5
 20
-21.08161017825479
 30
0
 40
5
 41
6.111111111111732
 71
    5
 72
    1
  1
93
  7
standard
210
0
220
0
230
1
 50
0
 73
    2
 44
1
  0
LINE
  5
10F
100
AcDbEntity
  8
Bemaßung
  6
ByBlock
 62
    0
370
   -2
100
AcDbLine
 10
555.7677669529663
 20
-26.81384322528842
 11
552.2322330470337
 21
-30.34937713122116
  0
LINE
  5
110
100
AcDbEntity
  8
Bemaßung
  6
ByBlock
 62
    0
370
   -2
100
AcDbLine
 10
674.0496400371755
 20
70.00000000000001
 11
674.0496400371755
 21
0
  0
MTEXT
  5
111
100
AcDbEntity
  8
Bemaßung
  6
CONTINUOUS
 62
    0
370
   -2
100
AcDbMText
 10
666.5496400371755
 20
35.00000000000001
 30
0
 40
5
 41
6.111111111111112
 71
    5
 72
    1
  1
70
  7
standard
210
0
220
0
230
1
 50
90
 73
    2
 44
1
  0
LINE
  5
112
100
AcDbEntity
  8
Bemaßung
  6
ByBlock
 62
    0
370
   -2
100
AcDbLine
 10
675.8174069901419
 20
68.23223304703365
 11
672.2818730842092
 21
71.76776695296638
  0
LINE
  5
113
100
AcDbEntity
  8
Bemaßung
  6
ByBlock
 62
    0
370
   -2
100
AcDbLine
 10
675.8174069901419
 20
-1.767766952966369
 11
672.2818730842092
 21
1.767766952966369
  0
MTEXT
  5
114
100
AcDbEntity
  8
Bemaßung
  6
CONTINUOUS
 62
    0
370
   -2
100
AcDbMText
 10
529.5365571960956
 20
74
 30
0
 40
5
 41
2.222222222222222
 71
    5
 72
    1
  1
8
  7
standard
210
0
220
0
230
1
 50
90
 73
    2
 44
1
  0
LINE
  5
115
100
AcDbEntity
  8
Bemaßung
  6
ByBlock
 62
    0
370
   -2
100
AcDbLine
 10
538.8043241490619
 20
68.23223304703363
 11
535.2687902431293
 21
71.76776695296637
  0
LINE
  5
116
100
AcDbEntity
  8
Bemaßung
  6
ByBlock
 62
    0
370
   -2
100
AcDbLine
 10
538.8043241490619
 20
76.23223304703363
 11
535.2687902431293
 21
79.76776695296637
  0
LINE
  5
117
100
AcDbEntity
  8
Bemaßung
  6
ByBlock
 62
    0
370
   -2
100
AcDbLine
 10
552.4375
 20
70
 11
533.9115571960956
 21
70
  0
LINE
  5
118
100
AcDbEntity
  8
Bemaßung
  6
ByBlock
 62
    0
370
   -2
100
AcDbLine
 10
542.4375
 20
78
 11
533.9115571960956
 21
78
  0
MTEXT
  5
119
100
AcDbEntity
  8
Bemaßung
  6
CONTINUOUS
 62
    0
370
   -2
100
AcDbMText
 10
554
 20
94.51274519663858
 30
0
 40
5
 41
6.111111111111112
 71
    5
 72
    1
  1
20
  7
standard
210
0
220
0
230
1
 50
0
 73
    2
 44
1
  0
LINE
  5
11A
100
AcDbEntity
  8
Bemaßung
  6
ByBlock
 62
    0
370
   -2
100
AcDbLine
 10
542.2322330470337
 20
85.24497824367221
 11
545.7677669529663
 21
88.78051214960495
  0
LINE
  5
11B
100
AcDbEntity
  8
Bemaßung
  6
ByBlock
 62
    0
370
   -2
100
AcDbLine
 10
562.2322330470337
 20
85.24497824367221
 11
565.7677669529663
 21
88.78051214960495
  0
LINE
  5
11C
100
AcDbEntity
  8
Bemaßung
  6
ByBlock
 62
    0
370
   -2
100
AcDbLine
 10
544
 20
79.5625
 11
544
 21
90.13774519663858
  0
LINE
  5
11D
100
AcDbEntity
  8
Bemaßung
  6
ByBlock
 62
    0
370
   -2
100
AcDbLine
 10
564
 20
79.5625
 11
564
 21
90.13774519663858
  0
LINE
  5
11E
100
AcDbEntity
  8
Bemaßung
  6
ByBlock
 62
    0
370
   -2
100
AcDbLine
 10
491.0496617330107
 20
126.1128291502608
 11
491.0496617330107
 21
138.6250000000033
  0
LINE
  5
11F
100
AcDbEntity
  8
Bemaßung
  6
ByBlock
 62
    0
370
   -2
100
AcDbLine
 10
647
 20
125.6359168008204
 11
647
 21
138.6250000000033
  0
LINE
  5
120
100
AcDbEntity
  8
Hilfslinie
  6
ByLayer
 62
  256
370
   -1
100
AcDbLine
 10
476.3601696375823
 20
126.1577511444364
 11
476.3601696375823
 21
-34.1391454906934
  0
LINE
  5
121
100
AcDbEntity
  8
Bemaßung
  6
ByBlock
 62
    0
370
   -2
100
AcDbLine
 10
476.3601696375823
 20
117
 11
460.5270131211999
 21
117
  0
LINE
  5
122
100
AcDbEntity
  8
Bemaßung
  6
ByBlock
 62
    0
370
   -2
100
AcDbLine
 10
476.3601696375823
 20
2.558753097118681e-16
 11
460.5270131211999
 21
3.826894855694933e-16
  0
LINE
  5
123
100
AcDbEntity
  8
Bemaßung
  6
ByBlock
 62
    0
370
   -2
100
AcDbLine
 10
554
 20
-10
 11
554
 21
-31.70661017825479
  0
LINE
  5
124
100
AcDbEntity
  8
Bemaßung
  6
ByBlock
 62
    0
370
   -2
100
AcDbLine
 10
647
 20
-10
 11
647
 21
-31.70661017825479
  0
LINE
  5
125
100
AcDbEntity
  8
Bemaßung
  6
ByBlock
 62
    0
370
   -2
100
AcDbLine
 10
660
 20
70.00000000000001
 11
677.1746400371755
 21
70.00000000000001
  0
LINE
  5
126
100
AcDbEntity
  8
Bemaßung
  6
ByBlock
 62
    0
370
   -2
100
AcDbLine
 10
660
 20
0
 11
677.1746400371755
 21
0
  0
LINE
  5
127
100
AcDbEntity
  8
Hilfslinie
  6
ByLayer
 62
  256
370
   -1
100
AcDbLine
 10
540
 20
100
 11
540
 21
80
  0
LINE
  5
128
100
AcDbEntity
  8
Hilfslinie
  6
ByLayer
 62
  256
370
   -1
100
AcDbLine
 10
570
 20
100
 11
570
 21
60
  0
LINE
  5
129
100
AcDbEntity
  8
Bemaßung
  6
ByBlock
 62
    0
370
   -2
100
AcDbLine
 10
540
 20
87.01274519663858
 11
570
 21
87.01274519663858
  0
LINE
  5
12A
100
AcDbEntity
  8
Hilfslinie
  6
ByLayer
 62
  256
370
   -1
100
AcDbLine
 10
526.951389550517
 20
65.04211712025209
 11
555.9814870222679
 21
65.4095867085021
  0
LINE
  5
12B
100
AcDbEntity
  8
Hilfslinie
  6
ByLayer
 62
  256
370
   -1
100
AcDbLine
 10
529.156207080017
 20
81.94571817975263
 11
554.1441390810178
 21
82.31318776800265
  0
LINE
  5
12C
100
AcDbEntity
  8
Bemaßung
  6
ByBlock
 62
    0
370
   -2
100
AcDbLine
 10
537.0365571960956
 20
65.16977747019612
 11
537.0365571960956
 21
82.06160568145967
  0
DIMENSION
  5
12D
100
AcDbEntity
  8
Bemaßung
  6
ByLayer
 62
  256
370
   -1
100
AcDbDimension
  2
*D1
 10
72
 20
238
 30
0
 11
71.67344895644595
 21
246.4946447492496
 31
0
 70
   36
 71
    5
 72
    0
  3
Standard
 53
0
210
0
220
0
230
1
100
AcDbRadialDimension
 15
76.71888335420664
 25
239.6529185973276
 35
0
 40
0
  0
CIRCLE
  5
12E
100
AcDbEntity
  8
Einbauten
  6
ByLayer
 62
  256
370
   -1
100
AcDbCircle
 10
315
 20
40
 40
4
  0
CIRCLE
  5
12F
100
AcDbEntity
  8
Einbauten
  6
ByLayer
 62
  256
370
   -1
100
AcDbCircle
 10
443
 20
40
 40
2
  0
LINE
  5
130
100
AcDbEntity
  8
Hilfslinie
  6
ByLayer
 62
  256
370
   -1
100
AcDbLine
 10
277.9116791494551
 20
-9.775787708774802
 11
687.79649236737
 21
-9.775787708774802
  0
LINE
  5
131
100
AcDbEntity
  8
Bemaßung
  6
ByBlock
 62
    0
370
   -2
100
AcDbLine
 10
300
 20
-27.23255147444409
 11
443
 21
-27.23255147444409
  0
LINE
  5
132
100
AcDbEntity
  8
Bemaßung
  6
ByBlock
 62
    0
370
   -2
100
AcDbLine
 10
301.7677669529664
 20
-25.46478452147772
 11
298.2322330470336
 21
-29.00031842741046
  0
LINE
  5
133
100
AcDbEntity
  8
Bemaßung
  6
ByBlock
 62
    0
370
   -2
100
AcDbLine
 10
444.7677669529664
 20
-25.46478452147772
 11
441.2322330470336
 21
-29.00031842741046
  0
LINE
  5
134
100
AcDbEntity
  8
Bemaßung
  6
ByBlock
 62
    0
370
   -2
100
AcDbLine
 10
283.4978435544693
 20
-7.105427357601002e-15
 11
283.4978435544693
 21
40
  0
LINE
  5
135
100
AcDbEntity
  8
Bemaßung
  6
ByBlock
 62
    0
370
   -2
100
AcDbLine
 10
281.7300766015029
 20
1.767766952966362
 11
285.2656105074357
 21
-1.767766952966376
  0
LINE
  5
136
100
AcDbEntity
  8
Bemaßung
  6
ByBlock
 62
    0
370
   -2
100
AcDbLine
 10
281.7300766015029
 20
41.76776695296637
 11
285.2656105074357
 21
38.23223304703363
  0
LINE
  5
137
100
AcDbEntity
  8
Bemaßung
  6
ByBlock
 62
    0
370
   -2
100
AcDbLine
 10
300
 20
-9.775787708774802
 11
300
 21
-30.35755147444409
  0
LINE
  5
138
100
AcDbEntity
  8
Bemaßung
  6
ByBlock
 62
    0
370
   -2
100
AcDbLine
 10
443
 20
-9.775787708774802
 11
443
 21
-30.35755147444409
  0
LINE
  5
139
100
AcDbEntity
  8
Bemaßung
  6
ByBlock
 62
    0
370
   -2
100
AcDbLine
 10
315
 20
-9.775787708774802
 11
315
 21
-19.88349321504251
  0
LINE
  5
13A
100
AcDbEntity
  8
Bemaßung
  6
CONTINUOUS
 62
    0
370
   -2
100
AcDbLine
 10
304.9999999999998
 20
-7.869604326153624
 11
306.1111111111109
 21
-6.758493215042513
  0
LINE
  5
13B
100
AcDbEntity
  8
Bemaßung
  6
CONTINUOUS
 62
    0
370
   -2
100
AcDbLine
 10
306.1111111111109
 20
-6.758493215042513
 11
306.1111111111109
 21
-11.75849321504251
  0
LINE
  5
13C
100
AcDbEntity
  8
Bemaßung
  6
CONTINUOUS
 62
    0
370
   -2
100
AcDbLine
 10
309.9999999999998
 20
-6.758493215042513
 11
307.7777777777776
 21
-6.758493215042513
  0
LINE
  5
13D
100
AcDbEntity
  8
Bemaßung
  6
CONTINUOUS
 62
    0
370
   -2
100
AcDbLine
 10
307.7777777777776
 20
-6.758493215042513
 11
307.7777777777776
 21
-8.980715437264735
  0
LINE
  5
13E
100
AcDbEntity
  8
Bemaßung
  6
CONTINUOUS
 62
    0
370
   -2
100
AcDbLine
 10
307.7777777777776
 20
-8.980715437264735
 11
308.8888888888887
 21
-8.980715437264735
  0
ARC
  5
13F
100
AcDbEntity
  8
Bemaßung
  6
CONTINUOUS
 62
    0
370
   -2
100
AcDbCircle
 10
308.8888897189722
 20
-10.09182571829231
 40
1.111110281027884
100
AcDbArc
 50
359.999957195713
 51
90.00004280428698
  0
LINE
  5
140
100
AcDbEntity
  8
Bemaßung
  6
CONTINUOUS
 62
    0
370
   -2
100
AcDbLine
 10
309.9999999999998
 20
-10.09182654837585
 11
309.9999999999998
 21
-10.6473821039314
  0
ARC
  5
141
100
AcDbEntity
  8
Bemaßung
  6
CONTINUOUS
 62
    0
370
   -2
100
AcDbCircle
 10
308.8888897189722
 20
-10.64738293401494
 40
1.111110281027884
100
AcDbArc
 50
269.999957195713
 51
4.280428697116827e-05
  0
LINE
  5
142
100
AcDbEntity
  8
Bemaßung
  6
CONTINUOUS
 62
    0
370
   -2
100
AcDbLine
 10
308.8888888888887
 20
-11.75849321504251
 11
307.7777777777776
 21
-11.75849321504251
  0
LINE
  5
143
100
AcDbEntity
  8
Hilfslinie
  6
ByLayer
 62
  256
370
   -1
100
AcDbLine
 10
292.589008554516
 20
46.41200400071635
 11
292.395625204513
 21
-42.54433700065665
  0
LINE
  5
144
100
AcDbEntity
  8
Hilfslinie
  6
ByLayer
 62
  256
370
   -1
100
AcDbLine
 10
325.0774113550174
 20
-5.027967100077605
 11
283.8793199832245
 21
-3960.044738793268
  0
LINE
  5
145
100
AcDbEntity
  8
Bemaßung
  6
ByBlock
 62
    0
370
   -2
100
AcDbLine
 10
292.4516813866557
 20
-16.75849321504251
 11
324.9552183746532
 21
-16.75849321504251
  0
LINE
  5
146
100
AcDbEntity
  8
Bemaßung
  6
ByBlock
 62
    0
370
   -2
100
AcDbLine
 10
292.4881128936449
 20
-3.008142840949264e-15
 11
280.3728435544693
 21
-8.110516652812955e-15
  0
LINE
  5
147
100
AcDbEntity
  8
Bemaßung
  6
ByBlock
 62
    0
370
   -2
100
AcDbLine
 10
292.575069415384
 20
40
 11
280.3728435544693
 21
40
  0
LINE
  5
148
100
AcDbEntity
  8
Bemaßung
  6
ByBlock
 62
    0
370
   -2
100
AcDbLine
 10
313.2322330470336
 20
-18.52626016800888
 11
317.5354607049011
 21
-14.69713460022685
  0
LINE
  5
149
100
AcDbEntity
  8
Bemaßung
  6
ByBlock
 62
    0
370
   -2
100
AcDbLine
 10
298.2322330470336
 20
-18.52626016800888
 11
302.4515594046683
 21
-14.69713460022685
  0
CIRCLE
  5
14A
100
AcDbEntity
  8
Hilfslinie
  6
ByLayer
 62
  256
370
   -1
100
AcDbCircle
 10
347.0404636615061
 20
384.7470733953518
 40
4
  0
CIRCLE
  5
14B
100
AcDbEntity
  8
Hilfslinie
  6
ByLayer
 62
  256
370
   -1
100
AcDbCircle
 10
623.5556017097081
 20
401.5055666103943
 40
4
  0
CIRCLE
  5
14C
100
AcDbEntity
  8
Einbauten
  6
ByLayer
 62
  256
370
   -1
100
AcDbCircle
 10
313
 20
243
 40
4
  0
LWPOLYLINE
  5
14D
100
AcDbEntity
  8
0
  6
ByLayer
 62
  256
370
   -1
100
AcDbPolyline
 90
    4
 70
    1
 43
0
 10
0
 20
-100
 10
249
 20
-100
 10
249
 20
-358
 10
0
 20
-358
  0
LWPOLYLINE
  5
14E
100
AcDbEntity
  8
Einbauten
  6
ByLayer
 62
  256
370
   -1
100
AcDbPolyline
 90
    4
 70
    1
 43
0
 10
216
 20
-270
 10
96
 20
-270
 10
96
 20
-141
 10
216
 20
-141
  0
LWPOLYLINE
  5
14F
100
AcDbEntity
  8
Einbauten
  6
ByLayer
 62
  256
370
   -1
100
AcDbPolyline
 90
    4
 70
    1
 43
0
 10
201
 20
-345
 10
111
 20
-345
 10
111
 20
-285
 10
201
 20
-285
  0
LWPOLYLINE
  5
150
100
AcDbEntity
  8
Einbauten
  6
ByLayer
 62
  256
370
   -1
100
AcDbPolyline
 90
    4
 70
    1
 43
0
 10
374
 20
-358
 10
601
 20
-358
 10
601
 20
-142
 10
374
 20
-142
  0
LWPOLYLINE
  5
151
100
AcDbEntity
  8
Einbauten
  6
ByLayer
 62
  256
370
   -1
100
AcDbPolyline
 90
    4
 70
    1
 43
0
 10
211
 20
-265
 10
101
 20
-265
 10
101
 20
-146
 10
211
 20
-146
  0
LINE
  5
152
100
AcDbEntity
  8
Einbauten
  6
ByLayer
 62
  256
370
   -1
100
AcDbLine
 10
156
 20
-146
 11
156
 21
-265
  0
LINE
  5
153
100
AcDbEntity
  8
Einbauten
  6
ByLayer
 62
  256
370
   -1
100
AcDbLine
 10
101
 20
-205.5
 11
211
 21
-205.5
  0
CIRCLE
  5
154
100
AcDbEntity
  8
Einbauten
  6
ByLayer
 62
  256
370
   -1
100
AcDbCircle
 10
67
 20
-243
 40
3
  0
CIRCLE
  5
155
100
AcDbEntity
  8
Einbauten
  6
ByLayer
 62
  256
370
   -1
100
AcDbCircle
 10
8
 20
0
 40
3
  0
CIRCLE
  5
156
100
AcDbEntity
  8
Einbauten
  6
ByLayer
 62
  256
370
   -1
100
AcDbCircle
 10
75
 20
-243
 40
3
  0
LINE
  5
157
100
AcDbEntity
  8
Einbauten
  6
ByLayer
 62
  256
370
   -1
100
AcDbLine
 10
67
 20
-243
 11
75
 21
-243
  0
CIRCLE
  5
158
100
AcDbEntity
  8
Einbauten
  6
ByLayer
 62
  256
370
   -1
100
AcDbCircle
 10
333
 20
-240
 40
3
  0
CIRCLE
  5
159
100
AcDbEntity
  8
Einbauten
  6
ByLayer
 62
  256
370
   -1
100
AcDbCircle
 10
341
 20
-240
 40
3
  0
LINE
  5
15A
100
AcDbEntity
  8
Einbauten
  6
ByLayer
 62
  256
370
   -1
100
AcDbLine
 10
333
 20
-240
 11
341
 21
-240
  0
LINE
  5
15B
100
AcDbEntity
  8
Bemaßung
  6
ByLayer
 62
  256
370
   -1
100
AcDbLine
 10
601
 20
-142
 11
561.4095227039294
 21
-167.5849321504267
  0
LINE
  5
15C
100
AcDbEntity
  8
Bemaßung
  6
ByLayer
 62
  256
370
   -1
100
AcDbLine
 10
561.4095227039294
 20
-167.5849321504267
 11
561.4095227039294
 21
-199.0071069286317
  0
LINE
  5
15D
100
AcDbEntity
  8
Bemaßung
  6
ByLayer
 62
  256
370
   -1
100
AcDbLine
 10
561.4095227039294
 20
-167.5849321504267
 11
520.2115602169495
 21
-166.8866615997999
  0
LINE
  5
15E
100
AcDbEntity
  8
Hilfslinie
  6
ByLayer
 62
  256
370
   -1
100
AcDbLine
 10
-41.89623303760667
 20
-90.07690103085434
 11
712.2359616393134
 21
-89.37863048022757
  0
LINE
  5
15F
100
AcDbEntity
  8
Hilfslinie
  6
ByLayer
 62
  256
370
   -1
100
AcDbLine
 10
-9.077517158148112
 20
-424.5484947810809
 11
-9.775787708774891
 21
-69.12878451205101
  0
LINE
  5
160
100
AcDbEntity
  8
Hilfslinie
  6
ByLayer
 62
  256
370
   -1
100
AcDbLine
 10
-34.21525698071211
 20
-367.9885801803119
 11
734.5806192593703
 21
-367.9885801803119
  0
LINE
  5
161
100
AcDbEntity
  8
Hilfslinie
  6
ByLayer
 62
  256
370
   -1
100
AcDbLine
 10
289.7822785101128
 20
-409.8848132179186
 11
289.7822785101128
 21
-61.44780845515645
  0
LINE
  5
162
100
AcDbEntity
  8
Bemaßung
  6
ByBlock
 62
    0
370
   -2
100
AcDbLine
 10
0
 20
-400
 11
96
 21
-400
  0
LINE
  5
163
100
AcDbEntity
  8
Bemaßung
  6
ByBlock
 62
    0
370
   -2
100
AcDbLine
 10
1.767766952966369
 20
-398.2322330470336
 11
-1.767766952966369
 21
-401.7677669529664
  0
LINE
  5
164
100
AcDbEntity
  8
Bemaßung
  6
ByBlock
 62
    0
370
   -2
100
AcDbLine
 10
97.76776695296637
 20
-398.2322330470336
 11
94.23223304703363
 21
-401.7677669529664
  0
LINE
  5
165
100
AcDbEntity
  8
Bemaßung
  6
ByBlock
 62
    0
370
   -2
100
AcDbLine
 10
96
 20
-400
 11
216
 21
-400
  0
LINE
  5
166
100
AcDbEntity
  8
Bemaßung
  6
ByBlock
 62
    0
370
   -2
100
AcDbLine
 10
97.76776695296637
 20
-398.2322330470336
 11
94.23223304703363
 21
-401.7677669529664
  0
LINE
  5
167
100
AcDbEntity
  8
Bemaßung
  6
ByBlock
 62
    0
370
   -2
100
AcDbLine
 10
217.7677669529664
 20
-398.2322330470336
 11
214.2322330470336
 21
-401.7677669529664
  0
LINE
  5
168
100
AcDbEntity
  8
Bemaßung
  6
ByBlock
 62
    0
370
   -2
100
AcDbLine
 10
216
 20
-400
 11
249
 21
-400
  0
LINE
  5
169
100
AcDbEntity
  8
Bemaßung
  6
ByBlock
 62
    0
370
   -2
100
AcDbLine
 10
217.7677669529664
 20
-398.2322330470336
 11
214.2322330470336
 21
-401.7677669529664
  0
LINE
  5
16A
100
AcDbEntity
  8
Bemaßung
  6
ByBlock
 62
    0
370
   -2
100
AcDbLine
 10
250.7677669529664
 20
-398.2322330470336
 11
247.2322330470336
 21
-401.7677669529664
  0
LINE
  5
16B
100
AcDbEntity
  8
Bemaßung
  6
ByBlock
 62
    0
370
   -2
100
AcDbLine
 10
111
 20
-380
 11
201
 21
-380
  0
LINE
  5
16C
100
AcDbEntity
  8
Bemaßung
  6
ByBlock
 62
    0
370
   -2
100
AcDbLine
 10
112.7677669529664
 20
-378.2322330470336
 11
109.2322330470336
 21
-381.7677669529664
  0
LINE
  5
16D
100
AcDbEntity
  8
Bemaßung
  6
ByBlock
 62
    0
370
   -2
100
AcDbLine
 10
202.7677669529664
 20
-378.2322330470336
 11
199.2322330470336
 21
-381.7677669529664
  0
LINE
  5
16E
100
AcDbEntity
  8
Bemaßung
  6
ByBlock
 62
    0
370
   -2
100
AcDbLine
 10
300
 20
-400
 11
374
 21
-400
  0
LINE
  5
16F
100
AcDbEntity
  8
Bemaßung
  6
ByBlock
 62
    0
370
   -2
100
AcDbLine
 10
301.7677669529664
 20
-398.2322330470336
 11
298.2322330470336
 21
-401.7677669529664
  0
LINE
  5
170
100
AcDbEntity
  8
Bemaßung
  6
ByBlock
 62
    0
370
   -2
100
AcDbLine
 10
375.7677669529664
 20
-398.2322330470336
 11
372.2322330470336
 21
-401.7677669529664
  0
LINE
  5
171
100
AcDbEntity
  8
Bemaßung
  6
ByBlock
 62
    0
370
   -2
100
AcDbLine
 10
374
 20
-400
 11
601
 21
-400
  0
LINE
  5
172
100
AcDbEntity
  8
Bemaßung
  6
ByBlock
 62
    0
370
   -2
100
AcDbLine
 10
375.7677669529664
 20
-398.2322330470336
 11
372.2322330470336
 21
-401.7677669529664
  0
LINE
  5
173
100
AcDbEntity
  8
Bemaßung
  6
ByBlock
 62
    0
370
   -2
100
AcDbLine
 10
602.7677669529663
 20
-398.2322330470336
 11
599.2322330470337
 21
-401.7677669529664
  0
LINE
  5
174
100
AcDbEntity
  8
Bemaßung
  6
ByBlock
 62
    0
370
   -2
100
AcDbLine
 10
602.7677669529663
 20
-398.2322330470336
 11
599.2322330470337
 21
-401.7677669529664
  0
LINE
  5
175
100
AcDbEntity
  8
Bemaßung
  6
ByBlock
 62
    0
370
   -2
100
AcDbLine
 10
300
 20
-380
 11
337
 21
-380
  0
LINE
  5
176
100
AcDbEntity
  8
Bemaßung
  6
ByBlock
 62
    0
370
   -2
100
AcDbLine
 10
301.7677669529664
 20
-378.2322330470336
 11
298.2322330470336
 21
-381.7677669529664
  0
LINE
  5
177
100
AcDbEntity
  8
Bemaßung
  6
ByBlock
 62
    0
370
   -2
100
AcDbLine
 10
338.7677669529664
 20
-378.2322330470336
 11
335.2322330470336
 21
-381.7677669529664
  0
LINE
  5
178
100
AcDbEntity
  8
Bemaßung
  6
ByBlock
 62
    0
370
   -2
100
AcDbLine
 10
0
 20
-80
 11
249
 21
-80
  0
LINE
  5
179
100
AcDbEntity
  8
Bemaßung
  6
ByBlock
 62
    0
370
   -2
100
AcDbLine
 10
1.767766952966369
 20
-78.23223304703363
 11
-1.767766952966369
 21
-81.76776695296637
  0
LINE
  5
17A
100
AcDbEntity
  8
Bemaßung
  6
ByBlock
 62
    0
370
   -2
100
AcDbLine
 10
250.7677669529664
 20
-78.23223304703363
 11
247.2322330470336
 21
-81.76776695296637
  0
LINE
  5
17B
100
AcDbEntity
  8
Bemaßung
  6
ByBlock
 62
    0
370
   -2
100
AcDbLine
 10
-20
 20
-358
 11
-20
 21
-285
  0
LINE
  5
17C
100
AcDbEntity
  8
Bemaßung
  6
ByBlock
 62
    0
370
   -2
100
AcDbLine
 10
-21.76776695296637
 20
-356.2322330470336
 11
-18.23223304703363
 21
-359.7677669529664
  0
LINE
  5
17D
100
AcDbEntity
  8
Bemaßung
  6
ByBlock
 62
    0
370
   -2
100
AcDbLine
 10
-21.76776695296637
 20
-283.2322330470336
 11
-18.23223304703363
 21
-286.7677669529664
  0
LINE
  5
17E
100
AcDbEntity
  8
Bemaßung
  6
ByBlock
 62
    0
370
   -2
100
AcDbLine
 10
-40.00000000000001
 20
-358
 11
-40
 21
-243
  0
LINE
  5
17F
100
AcDbEntity
  8
Bemaßung
  6
ByBlock
 62
    0
370
   -2
100
AcDbLine
 10
-41.76776695296638
 20
-356.2322330470336
 11
-38.23223304703364
 21
-359.7677669529664
  0
LINE
  5
180
100
AcDbEntity
  8
Bemaßung
  6
ByBlock
 62
    0
370
   -2
100
AcDbLine
 10
-41.76776695296637
 20
-241.2322330470336
 11
-38.23223304703363
 21
-244.7677669529664
  0
LINE
  5
181
100
AcDbEntity
  8
Bemaßung
  6
ByBlock
 62
    0
370
   -2
100
AcDbLine
 10
-60.00000000000001
 20
-358
 11
-60
 21
-270
  0
LINE
  5
182
100
AcDbEntity
  8
Bemaßung
  6
ByBlock
 62
    0
370
   -2
100
AcDbLine
 10
-61.76776695296638
 20
-356.2322330470336
 11
-58.23223304703364
 21
-359.7677669529664
  0
LINE
  5
183
100
AcDbEntity
  8
Bemaßung
  6
ByBlock
 62
    0
370
   -2
100
AcDbLine
 10
-61.76776695296637
 20
-268.2322330470336
 11
-58.23223304703363
 21
-271.7677669529664
  0
LINE
  5
184
100
AcDbEntity
  8
Bemaßung
  6
ByBlock
 62
    0
370
   -2
100
AcDbLine
 10
-60.00000000000001
 20
-270
 11
-60
 21
-141
  0
LINE
  5
185
100
AcDbEntity
  8
Bemaßung
  6
ByBlock
 62
    0
370
   -2
100
AcDbLine
 10
-61.76776695296638
 20
-268.2322330470336
 11
-58.23223304703364
 21
-271.7677669529664
  0
LINE
  5
186
100
AcDbEntity
  8
Bemaßung
  6
ByBlock
 62
    0
370
   -2
100
AcDbLine
 10
-61.76776695296637
 20
-139.2322330470336
 11
-58.23223304703363
 21
-142.7677669529664
  0
LINE
  5
187
100
AcDbEntity
  8
Bemaßung
  6
ByBlock
 62
    0
370
   -2
100
AcDbLine
 10
280
 20
-358
 11
280
 21
-240
  0
LINE
  5
188
100
AcDbEntity
  8
Bemaßung
  6
ByBlock
 62
    0
370
   -2
100
AcDbLine
 10
278.2322330470336
 20
-356.2322330470336
 11
281.7677669529664
 21
-359.7677669529664
  0
LINE
  5
189
100
AcDbEntity
  8
Bemaßung
  6
ByBlock
 62
    0
370
   -2
100
AcDbLine
 10
278.2322330470336
 20
-238.2322330470336
 11
281.7677669529664
 21
-241.7677669529664
  0
LINE
  5
18A
100
AcDbEntity
  8
Bemaßung
  6
ByBlock
 62
    0
370
   -2
100
AcDbLine
 10
265.2065762388701
 20
-358
 11
265.2065762388701
 21
-142
  0
LINE
  5
18B
100
AcDbEntity
  8
Bemaßung
  6
ByBlock
 62
    0
370
   -2
100
AcDbLine
 10
263.4388092859037
 20
-356.2322330470336
 11
266.9743431918365
 21
-359.7677669529664
  0
LINE
  5
18C
100
AcDbEntity
  8
Bemaßung
  6
ByBlock
 62
    0
370
   -2
100
AcDbLine
 10
263.4388092859037
 20
-140.2322330470336
 11
266.9743431918365
 21
-143.7677669529664
  0
LINE
  5
18D
100
AcDbEntity
  8
Bemaßung
  6
ByBlock
 62
    0
370
   -2
100
AcDbLine
 10
670
 20
-358
 11
670
 21
-247
  0
LINE
  5
18E
100
AcDbEntity
  8
Bemaßung
  6
ByBlock
 62
    0
370
   -2
100
AcDbLine
 10
668.2322330470337
 20
-356.2322330470336
 11
671.7677669529663
 21
-359.7677669529664
  0
LINE
  5
18F
100
AcDbEntity
  8
Bemaßung
  6
ByBlock
 62
    0
370
   -2
100
AcDbLine
 10
668.2322330470337
 20
-245.2322330470336
 11
671.7677669529663
 21
-248.7677669529664
  0
LINE
  5
190
100
AcDbEntity
  8
Bemaßung
  6
ByBlock
 62
    0
370
   -2
100
AcDbLine
 10
-9.634586892492084
 20
-141
 11
-62.5
 21
-141
  0
LINE
  5
191
100
AcDbEntity
  8
Bemaßung
  6
ByBlock
 62
    0
370
   -2
100
AcDbLine
 10
-9.434193965183635
 20
-243
 11
-42.5
 21
-243
  0
LINE
  5
192
100
AcDbEntity
  8
Bemaßung
  6
ByBlock
 62
    0
370
   -2
100
AcDbLine
 10
-9.381148778543164
 20
-270
 11
-62.50000000000001
 21
-270
  0
LINE
  5
193
100
AcDbEntity
  8
Bemaßung
  6
ByBlock
 62
    0
370
   -2
100
AcDbLine
 10
-9.351679230409569
 20
-285
 11
-22.5
 21
-285
  0
LINE
  5
194
100
AcDbEntity
  8
Bemaßung
  6
ByBlock
 62
    0
370
   -2
100
AcDbLine
 10
1.18700614390105e-16
 20
-90.03810822248619
 11
1.530757942277972e-16
 21
-77.5
  0
LINE
  5
195
100
AcDbEntity
  8
Bemaßung
  6
ByBlock
 62
    0
370
   -2
100
AcDbLine
 10
249
 20
-89.80755266693065
 11
249
 21
-77.5
  0
LINE
  5
196
100
AcDbEntity
  8
Bemaßung
  6
ByBlock
 62
    0
370
   -2
100
AcDbLine
 10
651.8519517297919
 20
-247
 11
672.5
 21
-247
  0
LINE
  5
197
100
AcDbEntity
  8
Bemaßung
  6
ByBlock
 62
    0
370
   -2
100
AcDbLine
 10
652.0650035532084
 20
-358
 11
672.5
 21
-358
  0
LINE
  5
198
100
AcDbEntity
  8
Bemaßung
  6
ByBlock
 62
    0
370
   -2
100
AcDbLine
 10
601
 20
-367.9885801803119
 11
601
 21
-402.5
  0
LINE
  5
199
100
AcDbEntity
  8
Bemaßung
  6
ByBlock
 62
    0
370
   -2
100
AcDbLine
 10
374
 20
-367.9885801803119
 11
374
 21
-402.5
  0
LINE
  5
19A
100
AcDbEntity
  8
Bemaßung
  6
ByBlock
 62
    0
370
   -2
100
AcDbLine
 10
337
 20
-367.9885801803119
 11
337
 21
-382.5
  0
LINE
  5
19B
100
AcDbEntity
  8
Bemaßung
  6
ByBlock
 62
    0
370
   -2
100
AcDbLine
 10
300
 20
-367.9885801803119
 11
300
 21
-382.5
  0
LINE
  5
19C
100
AcDbEntity
  8
Bemaßung
  6
ByBlock
 62
    0
370
   -2
100
AcDbLine
 10
289.7822785101128
 20
-358
 11
262.7065762388701
 21
-358
  0
LINE
  5
19D
100
AcDbEntity
  8
Bemaßung
  6
ByBlock
 62
    0
370
   -2
100
AcDbLine
 10
289.7822785101128
 20
-240
 11
277.5
 21
-240
  0
LINE
  5
19E
100
AcDbEntity
  8
Bemaßung
  6
ByBlock
 62
    0
370
   -2
100
AcDbLine
 10
289.7822785101128
 20
-142
 11
262.7065762388701
 21
-142
  0
LINE
  5
19F
100
AcDbEntity
  8
Bemaßung
  6
ByBlock
 62
    0
370
   -2
100
AcDbLine
 10
249
 20
-367.9885801803119
 11
249
 21
-402.5
  0
LINE
  5
1A0
100
AcDbEntity
  8
Bemaßung
  6
ByBlock
 62
    0
370
   -2
100
AcDbLine
 10
216
 20
-367.9885801803119
 11
216
 21
-402.5
  0
LINE
  5
1A1
100
AcDbEntity
  8
Bemaßung
  6
ByBlock
 62
    0
370
   -2
100
AcDbLine
 10
201
 20
-367.9885801803119
 11
201
 21
-382.5
  0
LINE
  5
1A2
100
AcDbEntity
  8
Bemaßung
  6
ByBlock
 62
    0
370
   -2
100
AcDbLine
 10
111
 20
-367.9885801803119
 11
111
 21
-382.5
  0
LINE
  5
1A3
100
AcDbEntity
  8
Bemaßung
  6
ByBlock
 62
    0
370
   -2
100
AcDbLine
 10
96
 20
-367.9885801803119
 11
96
 21
-402.5
  0
LINE
  5
1A4
100
AcDbEntity
  8
Bemaßung
  6
ByBlock
 62
    0
370
   -2
100
AcDbLine
 10
-3.912380523054106e-16
 20
-367.9885801803119
 11
-4.592273826833915e-16
 21
-402.5
  0
LINE
  5
1A5
100
AcDbEntity
  8
Bemaßung
  6
CONTINUOUS
 62
    0
370
   -2
100
AcDbLine
 10
47.16666666666635
 20
-392.7777777777778
 11
46.05555555555524
 21
-392.7777777777778
  0
ARC
  5
1A6
100
AcDbEntity
  8
Bemaßung
  6
CONTINUOUS
 62
    0
370
   -2
100
AcDbCircle
 10
46.0555547254717
 20
-391.6666674967502
 40
1.111110281027884
100
AcDbArc
 50
179.999957195713
 51
270.000042804287
  0
LINE
  5
1A7
100
AcDbEntity
  8
Bemaßung
  6
CONTINUOUS
 62
    0
370
   -2
100
AcDbLine
 10
44.94444444444413
 20
-391.6666666666667
 11
44.94444444444413
 21
-391.1111111111111
  0
ARC
  5
1A8
100
AcDbEntity
  8
Bemaßung
  6
CONTINUOUS
 62
    0
370
   -2
100
AcDbCircle
 10
46.05555555555524
 20
-391.1111111111111
 40
1.111111111111111
100
AcDbArc
 50
0
 51
180
  0
LINE
  5
1A9
100
AcDbEntity
  8
Bemaßung
  6
CONTINUOUS
 62
    0
370
   -2
100
AcDbLine
 10
47.16666666666635
 20
-391.1111111111111
 11
47.16666666666635
 21
-392.7777777777778
  0
ARC
  5
1AA
100
AcDbEntity
  8
Bemaßung
  6
CONTINUOUS
 62
    0
370
   -2
100
AcDbCircle
 10
44.85184999999802
 20
-392.7777763888876
 40
2.31481666666875
100
AcDbArc
 50
286.2602390857832
 51
359.9999656225289
  0
LINE
  5
1AB
100
AcDbEntity
  8
Bemaßung
  6
CONTINUOUS
 62
    0
370
   -2
100
AcDbLine
 10
48.83333333333302
 20
-392.2222222222222
 11
49.94444444444414
 21
-392.2222222222222
  0
ARC
  5
1AC
100
AcDbEntity
  8
Bemaßung
  6
CONTINUOUS
 62
    0
370
   -2
100
AcDbCircle
 10
49.94444527452767
 20
-393.3333325032498
 40
1.111110281027884
100
AcDbArc
 50
359.999957195713
 51
90.00004280428698
  0
LINE
  5
1AD
100
AcDbEntity
  8
Bemaßung
  6
CONTINUOUS
 62
    0
370
   -2
100
AcDbLine
 10
51.05555555555524
 20
-393.3333333333333
 11
51.05555555555524
 21
-393.8888888888889
  0
ARC
  5
1AE
100
AcDbEntity
  8
Bemaßung
  6
CONTINUOUS
 62
    0
370
   -2
100
AcDbCircle
 10
49.94444444444414
 20
-393.8888888888889
 40
1.111111111111111
100
AcDbArc
 50
180
 51
0
  0
LINE
  5
1AF
100
AcDbEntity
  8
Bemaßung
  6
CONTINUOUS
 62
    0
370
   -2
100
AcDbLine
 10
48.83333333333302
 20
-393.8888888888889
 11
48.83333333333302
 21
-392.2222222222222
  0
ARC
  5
1B0
100
AcDbEntity
  8
Bemaßung
  6
CONTINUOUS
 62
    0
370
   -2
100
AcDbCircle
 10
51.14815000000136
 20
-392.2222236111124
 40
2.31481666666875
100
AcDbArc
 50
106.2602390857831
 51
179.9999656225289
  0
LINE
  5
1B1
100
AcDbEntity
  8
Bemaßung
  6
CONTINUOUS
 62
    0
370
   -2
100
AcDbLine
 10
-29.44444444444446
 20
-324.5555555555557
 11
-30
 21
-324.5555555555557
  0
LINE
  5
1B2
100
AcDbEntity
  8
Bemaßung
  6
CONTINUOUS
 62
    0
370
   -2
100
AcDbLine
 10
-30
 20
-324.5555555555557
 11
-30
 21
-322.3333333333335
  0
LINE
  5
1B3
100
AcDbEntity
  8
Bemaßung
  6
CONTINUOUS
 62
    0
370
   -2
100
AcDbLine
 10
-30
 20
-322.3333333333335
 11
-25
 21
-323.4444444444446
  0
LINE
  5
1B4
100
AcDbEntity
  8
Bemaßung
  6
CONTINUOUS
 62
    0
370
   -2
100
AcDbLine
 10
-30
 20
-320.6666666666668
 11
-30
 21
-319.5555555555557
  0
ARC
  5
1B5
100
AcDbEntity
  8
Bemaßung
  6
CONTINUOUS
 62
    0
370
   -2
100
AcDbCircle
 10
-28.88888888888891
 20
-319.5555555555557
 40
1.111111111111111
100
AcDbArc
 50
0
 51
180
  0
LINE
  5
1B6
100
AcDbEntity
  8
Bemaßung
  6
CONTINUOUS
 62
    0
370
   -2
100
AcDbLine
 10
-27.77777777777777
 20
-320.1111111111113
 11
-27.77777777777777
 21
-319.5555555555557
  0
ARC
  5
1B7
100
AcDbEntity
  8
Bemaßung
  6
CONTINUOUS
 62
    0
370
   -2
100
AcDbCircle
 10
-26.66666749675022
 20
-319.5555547254721
 40
1.111110281027884
100
AcDbArc
 50
89.99995719571302
 51
180.000042804287
  0
LINE
  5
1B8
100
AcDbEntity
  8
Bemaßung
  6
CONTINUOUS
 62
    0
370
   -2
100
AcDbLine
 10
-26.66666666666669
 20
-318.4444444444446
 11
-26.11111111111109
 21
-318.4444444444446
  0
ARC
  5
1B9
100
AcDbEntity
  8
Bemaßung
  6
CONTINUOUS
 62
    0
370
   -2
100
AcDbCircle
 10
-26.11111028102761
 20
-319.5555547254721
 40
1.111110281027884
100
AcDbArc
 50
359.999957195713
 51
90.00004280428698
  0
LINE
  5
1BA
100
AcDbEntity
  8
Bemaßung
  6
CONTINUOUS
 62
    0
370
   -2
100
AcDbLine
 10
-25
 20
-319.5555555555557
 11
-25
 21
-320.6666666666668
  0
LINE
  5
1BB
100
AcDbEntity
  8
Bemaßung
  6
CONTINUOUS
 62
    0
370
   -2
100
AcDbLine
 10
-48.88888888888891
 20
-304.388888888889
 11
-50
 21
-303.2777777777779
  0
LINE
  5
1BC
100
AcDbEntity
  8
Bemaßung
  6
CONTINUOUS
 62
    0
370
   -2
100
AcDbLine
 10
-50
 20
-303.2777777777779
 11
-45
 21
-303.2777777777779
  0
LINE
  5
1BD
100
AcDbEntity
  8
Bemaßung
  6
CONTINUOUS
 62
    0
370
   -2
100
AcDbLine
 10
-48.88888888888891
 20
-301.6111111111113
 11
-50
 21
-300.5000000000001
  0
LINE
  5
1BE
100
AcDbEntity
  8
Bemaßung
  6
CONTINUOUS
 62
    0
370
   -2
100
AcDbLine
 10
-50
 20
-300.5000000000001
 11
-45
 21
-300.5000000000001
  0
LINE
  5
1BF
100
AcDbEntity
  8
Bemaßung
  6
CONTINUOUS
 62
    0
370
   -2
100
AcDbLine
 10
-50
 20
-296.6111111111113
 11
-50
 21
-298.8333333333335
  0
LINE
  5
1C0
100
AcDbEntity
  8
Bemaßung
  6
CONTINUOUS
 62
    0
370
   -2
100
AcDbLine
 10
-50
 20
-298.8333333333335
 11
-47.77777777777777
 21
-298.8333333333335
  0
LINE
  5
1C1
100
AcDbEntity
  8
Bemaßung
  6
CONTINUOUS
 62
    0
370
   -2
100
AcDbLine
 10
-47.77777777777777
 20
-298.8333333333335
 11
-47.77777777777777
 21
-297.7222222222223
  0
ARC
  5
1C2
100
AcDbEntity
  8
Bemaßung
  6
CONTINUOUS
 62
    0
370
   -2
100
AcDbCircle
 10
-46.66666749675022
 20
-297.7222213921389
 40
1.111110281027884
100
AcDbArc
 50
89.99995719571302
 51
180.000042804287
  0
LINE
  5
1C3
100
AcDbEntity
  8
Bemaßung
  6
CONTINUOUS
 62
    0
370
   -2
100
AcDbLine
 10
-46.66666666666669
 20
-296.6111111111113
 11
-46.11111111111109
 21
-296.6111111111113
  0
ARC
  5
1C4
100
AcDbEntity
  8
Bemaßung
  6
CONTINUOUS
 62
    0
370
   -2
100
AcDbCircle
 10
-46.11111028102761
 20
-297.7222213921389
 40
1.111110281027884
100
AcDbArc
 50
359.999957195713
 51
90.00004280428698
  0
LINE
  5
1C5
100
AcDbEntity
  8
Bemaßung
  6
CONTINUOUS
 62
    0
370
   -2
100
AcDbLine
 10
-45
 20
-297.7222222222224
 11
-45
 21
-298.8333333333335
  0
LINE
  5
1C6
100
AcDbEntity
  8
Bemaßung
  6
CONTINUOUS
 62
    0
370
   -2
100
AcDbLine
 10
-66.11111111111109
 20
-314.8333333333333
 11
-66.66666666666669
 21
-314.8333333333333
  0
ARC
  5
1C7
100
AcDbEntity
  8
Bemaßung
  6
CONTINUOUS
 62
    0
370
   -2
100
AcDbCircle
 10
-66.66666666666669
 20
-315.9444444444445
 40
1.111111111111111
100
AcDbArc
 50
90
 51
270
  0
LINE
  5
1C8
100
AcDbEntity
  8
Bemaßung
  6
CONTINUOUS
 62
    0
370
   -2
100
AcDbLine
 10
-66.66666666666669
 20
-317.0555555555555
 11
-66.11111111111109
 21
-317.0555555555555
  0
ARC
  5
1C9
100
AcDbEntity
  8
Bemaßung
  6
CONTINUOUS
 62
    0
370
   -2
100
AcDbCircle
 10
-66.11111111111109
 20
-315.9444444444445
 40
1.111111111111111
100
AcDbArc
 50
270
 51
90
  0
ARC
  5
1CA
100
AcDbEntity
  8
Bemaßung
  6
CONTINUOUS
 62
    0
370
   -2
100
AcDbCircle
 10
-68.88888888888891
 20
-315.9444444444444
 40
1.111111111111111
100
AcDbArc
 50
0
 51
180
  0
ARC
  5
1CB
100
AcDbEntity
  8
Bemaßung
  6
CONTINUOUS
 62
    0
370
   -2
100
AcDbCircle
 10
-68.88888888888891
 20
-315.9444444444444
 40
1.111111111111111
100
AcDbArc
 50
180
 51
0
  0
LINE
  5
1CC
100
AcDbEntity
  8
Bemaßung
  6
CONTINUOUS
 62
    0
370
   -2
100
AcDbLine
 10
-66.11111111111109
 20
-310.9444444444445
 11
-66.66666666666669
 21
-310.9444444444445
  0
ARC
  5
1CD
100
AcDbEntity
  8
Bemaßung
  6
CONTINUOUS
 62
    0
370
   -2
100
AcDbCircle
 10
-66.66666666666669
 20
-312.0555555555555
 40
1.111111111111111
100
AcDbArc
 50
90
 51
270
  0
LINE
  5
1CE
100
AcDbEntity
  8
Bemaßung
  6
CONTINUOUS
 62
    0
370
   -2
100
AcDbLine
 10
-66.66666666666669
 20
-313.1666666666667
 11
-66.11111111111109
 21
-313.1666666666667
  0
ARC
  5
1CF
100
AcDbEntity
  8
Bemaßung
  6
CONTINUOUS
 62
    0
370
   -2
100
AcDbCircle
 10
-66.11111111111109
 20
-312.0555555555555
 40
1.111111111111111
100
AcDbArc
 50
270
 51
90
  0
ARC
  5
1D0
100
AcDbEntity
  8
Bemaßung
  6
CONTINUOUS
 62
    0
370
   -2
100
AcDbCircle
 10
-68.88888888888891
 20
-312.0555555555555
 40
1.111111111111111
100
AcDbArc
 50
0
 51
180
  0
ARC
  5
1D1
100
AcDbEntity
  8
Bemaßung
  6
CONTINUOUS
 62
    0
370
   -2
100
AcDbCircle
 10
-68.88888888888891
 20
-312.0555555555555
 40
1.111111111111111
100
AcDbArc
 50
180
 51
0
  0
LINE
  5
1D2
100
AcDbEntity
  8
Bemaßung
  6
CONTINUOUS
 62
    0
370
   -2
100
AcDbLine
 10
-68.88888888888889
 20
-209.9444444444445
 11
-70
 21
-208.8333333333333
  0
LINE
  5
1D3
100
AcDbEntity
  8
Bemaßung
  6
CONTINUOUS
 62
    0
370
   -2
100
AcDbLine
 10
-70
 20
-208.8333333333333
 11
-65
 21
-208.8333333333333
  0
LINE
  5
1D4
100
AcDbEntity
  8
Bemaßung
  6
CONTINUOUS
 62
    0
370
   -2
100
AcDbLine
 10
-69.16666666666666
 20
-207.1666666666667
 11
-69.44444444444446
 21
-207.0178055555555
  0
ARC
  5
1D5
100
AcDbEntity
  8
Bemaßung
  6
CONTINUOUS
 62
    0
370
   -2
100
AcDbCircle
 10
-68.88888888888889
 20
-206.0555555555555
 40
1.111110722569377
100
AcDbArc
 50
59.99998843242389
 51
239.9999884324239
  0
LINE
  5
1D6
100
AcDbEntity
  8
Bemaßung
  6
CONTINUOUS
 62
    0
370
   -2
100
AcDbLine
 10
-68.33333333333334
 20
-205.0933055555556
 11
-65
 21
-207.1666666666667
  0
LINE
  5
1D7
100
AcDbEntity
  8
Bemaßung
  6
CONTINUOUS
 62
    0
370
   -2
100
AcDbLine
 10
-65
 20
-207.1666666666667
 11
-65
 21
-204.9444444444444
  0
LINE
  5
1D8
100
AcDbEntity
  8
Bemaßung
  6
CONTINUOUS
 62
    0
370
   -2
100
AcDbLine
 10
-67.22222222222223
 20
-201.0555555555555
 11
-67.22222222222223
 21
-202.1666666666667
  0
ARC
  5
1D9
100
AcDbEntity
  8
Bemaßung
  6
CONTINUOUS
 62
    0
370
   -2
100
AcDbCircle
 10
-68.33333250324981
 20
-202.1666674967502
 40
1.111110281027884
100
AcDbArc
 50
269.999957195713
 51
4.280428697680878e-05
  0
LINE
  5
1DA
100
AcDbEntity
  8
Bemaßung
  6
CONTINUOUS
 62
    0
370
   -2
100
AcDbLine
 10
-68.33333333333334
 20
-203.2777777777778
 11
-68.88888888888889
 21
-203.2777777777778
  0
ARC
  5
1DB
100
AcDbEntity
  8
Bemaßung
  6
CONTINUOUS
 62
    0
370
   -2
100
AcDbCircle
 10
-68.88888888888889
 20
-202.1666666666667
 40
1.111111111111111
100
AcDbArc
 50
90
 51
270
  0
LINE
  5
1DC
100
AcDbEntity
  8
Bemaßung
  6
CONTINUOUS
 62
    0
370
   -2
100
AcDbLine
 10
-68.88888888888889
 20
-201.0555555555555
 11
-67.22222222222223
 21
-201.0555555555555
  0
ARC
  5
1DD
100
AcDbEntity
  8
Bemaßung
  6
CONTINUOUS
 62
    0
370
   -2
100
AcDbCircle
 10
-67.22222361111236
 20
-203.3703722222239
 40
2.31481666666875
100
AcDbArc
 50
16.26023908578313
 51
89.99996562252883
  0
LINE
  5
1DE
100
AcDbEntity
  8
Bemaßung
  6
ByBlock
 62
    0
370
   -2
100
AcDbLine
 10
0
 20
-380
 11
71
 21
-380
  0
LINE
  5
1DF
100
AcDbEntity
  8
Bemaßung
  6
ByBlock
 62
    0
370
   -2
100
AcDbLine
 10
1.767766952966369
 20
-378.2322330470336
 11
-1.767766952966369
 21
-381.7677669529664
  0
LINE
  5
1E0
100
AcDbEntity
  8
Bemaßung
  6
ByBlock
 62
    0
370
   -2
100
AcDbLine
 10
72.76776695296637
 20
-378.2322330470336
 11
69.23223304703363
 21
-381.7677669529664
  0
LINE
  5
1E1
100
AcDbEntity
  8
Bemaßung
  6
ByBlock
 62
    0
370
   -2
100
AcDbLine
 10
71
 20
-367.9885801803119
 11
71
 21
-382.5
  0
LINE
  5
1E2
100
AcDbEntity
  8
Bemaßung
  6
ByBlock
 62
    0
370
   -2
100
AcDbLine
 10
-3.50278477896221e-16
 20
-367.9885801803119
 11
-4.592273826833915e-16
 21
-382.5
  0
LINE
  5
1E3
100
AcDbEntity
  8
Bemaßung
  6
ByBlock
 62
    0
370
   -2
100
AcDbLine
 10
300
 20
289.7857698628563
 11
647
 21
289.7857698628563
  0
MTEXT
  5
1E4
100
AcDbEntity
  8
Bemaßung
  6
CONTINUOUS
 62
    0
370
   -2
100
AcDbMText
 10
473.5
 20
297.2857698628563
 30
0
 40
5
 41
10.55555555555587
 71
    5
 72
    1
  1
347
  7
standard
210
0
220
0
230
1
 50
0
 73
    2
 44
1
  0
LINE
  5
1E5
100
AcDbEntity
  8
Bemaßung
  6
ByBlock
 62
    0
370
   -2
100
AcDbLine
 10
301.7677669529664
 20
291.5535368158227
 11
298.2322330470336
 21
288.0180029098899
  0
LINE
  5
1E6
100
AcDbEntity
  8
Bemaßung
  6
ByBlock
 62
    0
370
   -2
100
AcDbLine
 10
648.7677669529663
 20
291.5535368158227
 11
645.2322330470337
 21
288.0180029098899
  0
LINE
  5
1E7
100
AcDbEntity
  8
Bemaßung
  6
ByBlock
 62
    0
370
   -2
100
AcDbLine
 10
300
 20
274.7010311576665
 11
487
 21
274.7010311576665
  0
MTEXT
  5
1E8
100
AcDbEntity
  8
Bemaßung
  6
CONTINUOUS
 62
    0
370
   -2
100
AcDbMText
 10
393.5
 20
282.2010311576665
 30
0
 40
5
 41
8.888888888888889
 71
    5
 72
    1
  1
187
  7
standard
210
0
220
0
230
1
 50
0
 73
    2
 44
1
  0
LINE
  5
1E9
100
AcDbEntity
  8
Bemaßung
  6
ByBlock
 62
    0
370
   -2
100
AcDbLine
 10
301.7677669529664
 20
276.4687981106329
 11
298.2322330470336
 21
272.9332642047001
  0
LINE
  5
1EA
100
AcDbEntity
  8
Bemaßung
  6
ByBlock
 62
    0
370
   -2
100
AcDbLine
 10
488.7677669529664
 20
276.4687981106329
 11
485.2322330470336
 21
272.9332642047001
  0
MTEXT
  5
1EB
100
AcDbEntity
  8
Bemaßung
  6
CONTINUOUS
 62
    0
370
   -2
100
AcDbMText
 10
480.0670471944661
 20
222.2764744190217
 30
0
 40
5
 41
5
 71
    5
 72
    1
  1
10
  7
standard
210
0
220
0
230
1
 50
29.42514948530514
 73
    2
 44
1
  0
LINE
  5
1EC
100
AcDbEntity
  8
Bemaßung
  6
ByBlock
 62
    0
370
   -2
100
AcDbLine
 10
481.9737661965464
 20
208.1353681246487
 11
483.3162513108986
 21
212.9517706947982
  0
LINE
  5
1ED
100
AcDbEntity
  8
Bemaßung
  6
ByBlock
 62
    0
370
   -2
100
AcDbLine
 10
490.6837486891014
 20
213.0482293052018
 11
492.0262338034536
 21
217.8646318753513
  0
LINE
  5
1EE
100
AcDbEntity
  8
Bemaßung
  6
ByBlock
 62
    0
370
   -2
100
AcDbLine
 10
313
 20
243
 11
316.9314626537991
 21
242.2627067057253
  0
LINE
  5
1EF
100
AcDbEntity
  8
Bemaßung
  6
ByBlock
 62
    0
370
   -2
100
AcDbLine
 10
647
 20
270
 11
647
 21
292.2857698628563
  0
LINE
  5
1F0
100
AcDbEntity
  8
Bemaßung
  6
ByBlock
 62
    0
370
   -2
100
AcDbLine
 10
487
 20
270
 11
487
 21
277.2010311576665
  0
LINE
  5
1F1
100
AcDbEntity
  8
Bemaßung
  6
ByBlock
 62
    0
370
   -2
100
AcDbLine
 10
300.0000000000001
 20
270
 11
300
 21
277.2010311576665
  0
LINE
  5
1F2
100
AcDbEntity
  8
Bemaßung
  6
ByBlock
 62
    0
370
   -2
100
AcDbLine
 10
300
 20
270
 11
300
 21
292.2857698628563
  0
MTEXT
  5
1F3
100
AcDbEntity
  8
Bemaßung
  6
ByLayer
 62
  256
370
   -1
100
AcDbMText
 10
460
 20
230
 30
0
 40
10
 41
15.55555555555618
 71
    5
 72
    1
  1
DA
  7
standard
210
0
220
0
230
1
 50
0
 73
    2
 44
1
  0
MTEXT
  5
1F4
100
AcDbEntity
  8
Bemaßung
  6
ByLayer
 62
  256
370
   -1
100
AcDbMText
 10
90
 20
240
 30
0
 40
10
 41
15.55555555555618
 71
    5
 72
    1
  1
VD
  7
standard
210
0
220
0
230
1
 50
0
 73
    2
 44
1
  0
MTEXT
  5
1F5
100
AcDbEntity
  8
Bemaßung
  6
ByLayer
 62
  256
370
   -1
100
AcDbMText
 10
507.1472728747665
 20
101.8599011596432
 30
0
 40
10
 41
37.49999787997912
 71
    5
 72
    1
  1
SD 2x
  7
standard
210
0
220
0
230
1
 50
0
 73
    2
 44
1
  0
MTEXT
  5
1F6
100
AcDbEntity
  8
Bemaßung
  6
ByLayer
 62
  256
370
   -1
100
AcDbMText
 10
561.3110665562928
 20
55.57535312438542
 30
0
 40
10
 41
38.88888888888889
 71
    5
 72
    1
  1
W/AW
  7
standard
210
0
220
0
230
1
 50
0
 73
    2
 44
1
  0
MTEXT
  5
1F7
100
AcDbEntity
  8
Bemaßung
  6
ByLayer
 62
  256
370
   -1
100
AcDbMText
 10
437.4574224505195
 20
26.19980933006741
 30
0
 40
10
 41
31.11111111111111
 71
    5
 72
    1
  1
400V
  7
standard
210
0
220
0
230
1
 50
0
 73
    2
 44
1
  0
MTEXT
  5
1F8
100
AcDbEntity
  8
Bemaßung
  6
ByLayer
 62
  256
370
   -1
100
AcDbMText
 10
705.8910604045759
 20
217.605514861561
 30
0
 40
10
 41
177.2222427937116
 71
    4
 72
    1
  1
VD  Verteilerdose\PLS   Lichtschalter\PW/AW  Wasser/Abwasser\PSD  Steckdose\PDA  Dunstabzug
  7
standard
210
0
220
0
230
1
 50
0
 73
    2
 44
1
  0
LINE
  5
1F9
100
AcDbEntity
  8
Bemaßung
  6
CONTINUOUS
 62
    0
370
   -2
100
AcDbLine
 10
366.7777777777776
 20
-18.3436625855552
 11
367.8888888888887
 21
-17.23255147444409
  0
LINE
  5
1FA
100
AcDbEntity
  8
Bemaßung
  6
CONTINUOUS
 62
    0
370
   -2
100
AcDbLine
 10
367.8888888888887
 20
-17.23255147444409
 11
367.8888888888887
 21
-22.23255147444409
  0
LINE
  5
1FB
100
AcDbEntity
  8
Bemaßung
  6
CONTINUOUS
 62
    0
370
   -2
100
AcDbLine
 10
370.6666666666665
 20
-17.23255147444409
 11
369.5555555555554
 21
-21.12144036333298
  0
LINE
  5
1FC
100
AcDbEntity
  8
Bemaßung
  6
CONTINUOUS
 62
    0
370
   -2
100
AcDbLine
 10
369.5555555555554
 20
-21.12144036333298
 11
372.3333333333331
 21
-21.12144036333298
  0
LINE
  5
1FD
100
AcDbEntity
  8
Bemaßung
  6
CONTINUOUS
 62
    0
370
   -2
100
AcDbLine
 10
371.4999999999998
 20
-20.01032925222187
 11
371.4999999999998
 21
-22.23255147444409
  0
LINE
  5
1FE
100
AcDbEntity
  8
Bemaßung
  6
CONTINUOUS
 62
    0
370
   -2
100
AcDbLine
 10
373.9999999999998
 20
-17.23255147444409
 11
375.1111111111109
 21
-17.23255147444409
  0
ARC
  5
1FF
100
AcDbEntity
  8
Bemaßung
  6
CONTINUOUS
 62
    0
370
   -2
100
AcDbCircle
 10
375.1111111111109
 20
-18.3436625855552
 40
1.111111111111111
100
AcDbArc
 50
270
 51
90
  0
LINE
  5
200
100
AcDbEntity
  8
Bemaßung
  6
CONTINUOUS
 62
    0
370
   -2
100
AcDbLine
 10
374.5555555555554
 20
-19.45477369666631
 11
375.1111111111109
 21
-19.45477369666631
  0
ARC
  5
201
100
AcDbEntity
  8
Bemaßung
  6
CONTINUOUS
 62
    0
370
   -2
100
AcDbCircle
 10
375.1111119411945
 20
-20.56588397769389
 40
1.111110281027884
100
AcDbArc
 50
359.999957195713
 51
90.00004280428698
  0
LINE
  5
202
100
AcDbEntity
  8
Bemaßung
  6
CONTINUOUS
 62
    0
370
   -2
100
AcDbLine
 10
376.2222222222221
 20
-20.56588480777742
 11
376.2222222222221
 21
-21.12144036333298
  0
ARC
  5
203
100
AcDbEntity
  8
Bemaßung
  6
CONTINUOUS
 62
    0
370
   -2
100
AcDbCircle
 10
375.1111119411945
 20
-21.12144119341652
 40
1.111110281027884
100
AcDbArc
 50
269.999957195713
 51
4.280428697116827e-05
  0
LINE
  5
204
100
AcDbEntity
  8
Bemaßung
  6
CONTINUOUS
 62
    0
370
   -2
100
AcDbLine
 10
375.1111111111109
 20
-22.23255147444409
 11
373.9999999999998
 21
-22.23255147444409
  0
LINE
  5
205
100
AcDbEntity
  8
Bemaßung
  6
CONTINUOUS
 62
    0
370
   -2
100
AcDbLine
 10
273.4978435544693
 20
17.77777777777775
 11
277.3867324433582
 21
16.66666666666667
  0
LINE
  5
206
100
AcDbEntity
  8
Bemaßung
  6
CONTINUOUS
 62
    0
370
   -2
100
AcDbLine
 10
277.3867324433582
 20
16.66666666666667
 11
277.3867324433582
 21
19.44444444444444
  0
LINE
  5
207
100
AcDbEntity
  8
Bemaßung
  6
CONTINUOUS
 62
    0
370
   -2
100
AcDbLine
 10
276.2756213322471
 20
18.61111111111112
 11
278.4978435544693
 21
18.61111111111112
  0
ARC
  5
208
100
AcDbEntity
  8
Bemaßung
  6
CONTINUOUS
 62
    0
370
   -2
100
AcDbCircle
 10
274.1922879989137
 20
22.2222222222222
 40
0.6944444444444444
100
AcDbArc
 50
126.869897645844
 51
233.130102354156
  0
ARC
  5
209
100
AcDbEntity
  8
Bemaßung
  6
CONTINUOUS
 62
    0
370
   -2
100
AcDbCircle
 10
275.9978435544693
 20
25.83333333333334
 40
4.722222222222222
100
AcDbArc
 50
241.927513064147
 51
298.072486935853
  0
ARC
  5
20A
100
AcDbEntity
  8
Bemaßung
  6
CONTINUOUS
 62
    0
370
   -2
100
AcDbCircle
 10
277.8033991100248
 20
22.2222222222222
 40
0.6944444444444444
100
AcDbArc
 50
306.869897645844
 51
53.13010235415599
  0
ARC
  5
20B
100
AcDbEntity
  8
Bemaßung
  6
CONTINUOUS
 62
    0
370
   -2
100
AcDbCircle
 10
275.9978435544693
 20
18.61111111111111
 40
4.722222222222222
100
AcDbArc
 50
61.92751306414704
 51
118.072486935853
  0
LINE
  5
20C
100
AcDbEntity
  8
Bemaßung
  6
CONTINUOUS
 62
    0
370
   -2
100
AcDbLine
 10
151.5555555555555
 20
-391.1111111111111
 11
152.6666666666667
 21
-390
  0
LINE
  5
20D
100
AcDbEntity
  8
Bemaßung
  6
CONTINUOUS
 62
    0
370
   -2
100
AcDbLine
 10
152.6666666666667
 20
-390
 11
152.6666666666667
 21
-395
  0
LINE
  5
20E
100
AcDbEntity
  8
Bemaßung
  6
CONTINUOUS
 62
    0
370
   -2
100
AcDbLine
 10
154.3333333333333
 20
-390.8333333333333
 11
154.4821944444445
 21
-390.5555555555555
  0
ARC
  5
20F
100
AcDbEntity
  8
Bemaßung
  6
CONTINUOUS
 62
    0
370
   -2
100
AcDbCircle
 10
155.4444444444445
 20
-391.1111111111111
 40
1.111110722569377
100
AcDbArc
 50
329.9999884324239
 51
149.9999884324239
  0
LINE
  5
210
100
AcDbEntity
  8
Bemaßung
  6
CONTINUOUS
 62
    0
370
   -2
100
AcDbLine
 10
156.4066944444444
 20
-391.6666666666667
 11
154.3333333333333
 21
-395
  0
LINE
  5
211
100
AcDbEntity
  8
Bemaßung
  6
CONTINUOUS
 62
    0
370
   -2
100
AcDbLine
 10
154.3333333333333
 20
-395
 11
156.5555555555556
 21
-395
  0
ARC
  5
212
100
AcDbEntity
  8
Bemaßung
  6
CONTINUOUS
 62
    0
370
   -2
100
AcDbCircle
 10
159.3333333333333
 20
-390.6944444444445
 40
0.6944444444444444
100
AcDbArc
 50
36.86989764584401
 51
143.130102354156
  0
ARC
  5
213
100
AcDbEntity
  8
Bemaßung
  6
CONTINUOUS
 62
    0
370
   -2
100
AcDbCircle
 10
162.9444444444445
 20
-392.5
 40
4.722222222222222
100
AcDbArc
 50
151.927513064147
 51
208.0724869358529
  0
ARC
  5
214
100
AcDbEntity
  8
Bemaßung
  6
CONTINUOUS
 62
    0
370
   -2
100
AcDbCircle
 10
159.3333333333333
 20
-394.3055555555555
 40
0.6944444444444444
100
AcDbArc
 50
216.869897645844
 51
323.130102354156
  0
ARC
  5
215
100
AcDbEntity
  8
Bemaßung
  6
CONTINUOUS
 62
    0
370
   -2
100
AcDbCircle
 10
155.7222222222222
 20
-392.5
 40
4.722222222222222
100
AcDbArc
 50
331.927513064147
 51
28.07248693585295
  0
LINE
  5
216
100
AcDbEntity
  8
Bemaßung
  6
CONTINUOUS
 62
    0
370
   -2
100
AcDbLine
 10
229.4444444444441
 20
-390
 11
230.5555555555553
 21
-390
  0
ARC
  5
217
100
AcDbEntity
  8
Bemaßung
  6
CONTINUOUS
 62
    0
370
   -2
100
AcDbCircle
 10
230.5555555555553
 20
-391.1111111111111
 40
1.111111111111111
100
AcDbArc
 50
270
 51
90
  0
LINE
  5
218
100
AcDbEntity
  8
Bemaßung
  6
CONTINUOUS
 62
    0
370
   -2
100
AcDbLine
 10
229.9999999999997
 20
-392.2222222222222
 11
230.5555555555553
 21
-392.2222222222222
  0
ARC
  5
219
100
AcDbEntity
  8
Bemaßung
  6
CONTINUOUS
 62
    0
370
   -2
100
AcDbCircle
 10
230.5555563856388
 20
-393.3333325032498
 40
1.111110281027884
100
AcDbArc
 50
359.999957195713
 51
90.00004280428698
  0
LINE
  5
21A
100
AcDbEntity
  8
Bemaßung
  6
CONTINUOUS
 62
    0
370
   -2
100
AcDbLine
 10
231.6666666666664
 20
-393.3333333333333
 11
231.6666666666664
 21
-393.8888888888889
  0
ARC
  5
21B
100
AcDbEntity
  8
Bemaßung
  6
CONTINUOUS
 62
    0
370
   -2
100
AcDbCircle
 10
230.5555563856388
 20
-393.8888897189724
 40
1.111110281027884
100
AcDbArc
 50
269.999957195713
 51
4.280428697116827e-05
  0
LINE
  5
21C
100
AcDbEntity
  8
Bemaßung
  6
CONTINUOUS
 62
    0
370
   -2
100
AcDbLine
 10
230.5555555555553
 20
-395
 11
229.4444444444441
 21
-395
  0
LINE
  5
21D
100
AcDbEntity
  8
Bemaßung
  6
CONTINUOUS
 62
    0
370
   -2
100
AcDbLine
 10
233.3333333333333
 20
-390
 11
234.4444444444445
 21
-390
  0
ARC
  5
21E
100
AcDbEntity
  8
Bemaßung
  6
CONTINUOUS
 62
    0
370
   -2
100
AcDbCircle
 10
234.4444444444445
 20
-391.1111111111111
 40
1.111111111111111
100
AcDbArc
 50
270
 51
90
  0
LINE
  5
21F
100
AcDbEntity
  8
Bemaßung
  6
CONTINUOUS
 62
    0
370
   -2
100
AcDbLine
 10
233.8888888888889
 20
-392.2222222222222
 11
234.4444444444445
 21
-392.2222222222222
  0
ARC
  5
220
100
AcDbEntity
  8
Bemaßung
  6
CONTINUOUS
 62
    0
370
   -2
100
AcDbCircle
 10
234.444445274528
 20
-393.3333325032498
 40
1.111110281027884
100
AcDbArc
 50
359.999957195713
 51
90.00004280428698
  0
LINE
  5
221
100
AcDbEntity
  8
Bemaßung
  6
CONTINUOUS
 62
    0
370
   -2
100
AcDbLine
 10
235.5555555555556
 20
-393.3333333333333
 11
235.5555555555556
 21
-393.8888888888889
  0
ARC
  5
222
100
AcDbEntity
  8
Bemaßung
  6
CONTINUOUS
 62
    0
370
   -2
100
AcDbCircle
 10
234.444445274528
 20
-393.8888897189724
 40
1.111110281027884
100
AcDbArc
 50
269.999957195713
 51
4.280428697116827e-05
  0
LINE
  5
223
100
AcDbEntity
  8
Bemaßung
  6
CONTINUOUS
 62
    0
370
   -2
100
AcDbLine
 10
234.4444444444445
 20
-395
 11
233.3333333333333
 21
-395
  0
LINE
  5
224
100
AcDbEntity
  8
Bemaßung
  6
CONTINUOUS
 62
    0
370
   -2
100
AcDbLine
 10
155.1666666666665
 20
-372.7777777777778
 11
154.0555555555554
 21
-372.7777777777778
  0
ARC
  5
225
100
AcDbEntity
  8
Bemaßung
  6
CONTINUOUS
 62
    0
370
   -2
100
AcDbCircle
 10
154.0555547254719
 20
-371.6666674967502
 40
1.111110281027884
100
AcDbArc
 50
179.999957195713
 51
270.000042804287
  0
LINE
  5
226
100
AcDbEntity
  8
Bemaßung
  6
CONTINUOUS
 62
    0
370
   -2
100
AcDbLine
 10
152.9444444444443
 20
-371.6666666666667
 11
152.9444444444443
 21
-371.1111111111111
  0
ARC
  5
227
100
AcDbEntity
  8
Bemaßung
  6
CONTINUOUS
 62
    0
370
   -2
100
AcDbCircle
 10
154.0555555555554
 20
-371.1111111111111
 40
1.111111111111111
100
AcDbArc
 50
0
 51
180
  0
LINE
  5
228
100
AcDbEntity
  8
Bemaßung
  6
CONTINUOUS
 62
    0
370
   -2
100
AcDbLine
 10
155.1666666666665
 20
-371.1111111111111
 11
155.1666666666665
 21
-372.7777777777778
  0
ARC
  5
229
100
AcDbEntity
  8
Bemaßung
  6
CONTINUOUS
 62
    0
370
   -2
100
AcDbCircle
 10
152.8518499999982
 20
-372.7777763888876
 40
2.31481666666875
100
AcDbArc
 50
286.2602390857832
 51
359.9999656225289
  0
ARC
  5
22A
100
AcDbEntity
  8
Bemaßung
  6
CONTINUOUS
 62
    0
370
   -2
100
AcDbCircle
 10
157.9444444444443
 20
-370.6944444444445
 40
0.6944444444444444
100
AcDbArc
 50
36.86989764584401
 51
143.130102354156
  0
ARC
  5
22B
100
AcDbEntity
  8
Bemaßung
  6
CONTINUOUS
 62
    0
370
   -2
100
AcDbCircle
 10
161.5555555555554
 20
-372.5
 40
4.722222222222222
100
AcDbArc
 50
151.927513064147
 51
208.0724869358529
  0
ARC
  5
22C
100
AcDbEntity
  8
Bemaßung
  6
CONTINUOUS
 62
    0
370
   -2
100
AcDbCircle
 10
157.9444444444443
 20
-374.3055555555555
 40
0.6944444444444444
100
AcDbArc
 50
216.869897645844
 51
323.130102354156
  0
ARC
  5
22D
100
AcDbEntity
  8
Bemaßung
  6
CONTINUOUS
 62
    0
370
   -2
100
AcDbCircle
 10
154.3333333333332
 20
-372.5
 40
4.722222222222222
100
AcDbArc
 50
331.927513064147
 51
28.07248693585295
  0
LINE
  5
22E
100
AcDbEntity
  8
Bemaßung
  6
CONTINUOUS
 62
    0
370
   -2
100
AcDbLine
 10
333.6666666666667
 20
-390.5555555555555
 11
333.6666666666667
 21
-390
  0
LINE
  5
22F
100
AcDbEntity
  8
Bemaßung
  6
CONTINUOUS
 62
    0
370
   -2
100
AcDbLine
 10
333.6666666666667
 20
-390
 11
335.8888888888889
 21
-390
  0
LINE
  5
230
100
AcDbEntity
  8
Bemaßung
  6
CONTINUOUS
 62
    0
370
   -2
100
AcDbLine
 10
335.8888888888889
 20
-390
 11
334.7777777777778
 21
-395
  0
LINE
  5
231
100
AcDbEntity
  8
Bemaßung
  6
CONTINUOUS
 62
    0
370
   -2
100
AcDbLine
 10
338.6666666666666
 20
-390
 11
337.5555555555555
 21
-393.8888888888889
  0
LINE
  5
232
100
AcDbEntity
  8
Bemaßung
  6
CONTINUOUS
 62
    0
370
   -2
100
AcDbLine
 10
337.5555555555555
 20
-393.8888888888889
 11
340.3333333333333
 21
-393.8888888888889
  0
LINE
  5
233
100
AcDbEntity
  8
Bemaßung
  6
CONTINUOUS
 62
    0
370
   -2
100
AcDbLine
 10
339.5
 20
-392.7777777777778
 11
339.5
 21
-395
  0
LINE
  5
234
100
AcDbEntity
  8
Bemaßung
  6
CONTINUOUS
 62
    0
370
   -2
100
AcDbLine
 10
315.4444444444443
 20
-370
 11
316.5555555555554
 21
-370
  0
ARC
  5
235
100
AcDbEntity
  8
Bemaßung
  6
CONTINUOUS
 62
    0
370
   -2
100
AcDbCircle
 10
316.5555555555554
 20
-371.1111111111111
 40
1.111111111111111
100
AcDbArc
 50
270
 51
90
  0
LINE
  5
236
100
AcDbEntity
  8
Bemaßung
  6
CONTINUOUS
 62
    0
370
   -2
100
AcDbLine
 10
315.9999999999998
 20
-372.2222222222222
 11
316.5555555555554
 21
-372.2222222222222
  0
ARC
  5
237
100
AcDbEntity
  8
Bemaßung
  6
CONTINUOUS
 62
    0
370
   -2
100
AcDbCircle
 10
316.5555563856389
 20
-373.3333325032498
 40
1.111110281027884
100
AcDbArc
 50
359.999957195713
 51
90.00004280428698
  0
LINE
  5
238
100
AcDbEntity
  8
Bemaßung
  6
CONTINUOUS
 62
    0
370
   -2
100
AcDbLine
 10
317.6666666666665
 20
-373.3333333333333
 11
317.6666666666665
 21
-373.8888888888889
  0
ARC
  5
239
100
AcDbEntity
  8
Bemaßung
  6
CONTINUOUS
 62
    0
370
   -2
100
AcDbCircle
 10
316.5555563856389
 20
-373.8888897189724
 40
1.111110281027884
100
AcDbArc
 50
269.999957195713
 51
4.280428697116827e-05
  0
LINE
  5
23A
100
AcDbEntity
  8
Bemaßung
  6
CONTINUOUS
 62
    0
370
   -2
100
AcDbLine
 10
316.5555555555554
 20
-375
 11
315.4444444444443
 21
-375
  0
LINE
  5
23B
100
AcDbEntity
  8
Bemaßung
  6
CONTINUOUS
 62
    0
370
   -2
100
AcDbLine
 10
319.3333333333335
 20
-370.5555555555555
 11
319.3333333333335
 21
-370
  0
LINE
  5
23C
100
AcDbEntity
  8
Bemaßung
  6
CONTINUOUS
 62
    0
370
   -2
100
AcDbLine
 10
319.3333333333335
 20
-370
 11
321.5555555555557
 21
-370
  0
LINE
  5
23D
100
AcDbEntity
  8
Bemaßung
  6
CONTINUOUS
 62
    0
370
   -2
100
AcDbLine
 10
321.5555555555557
 20
-370
 11
320.4444444444446
 21
-375
  0
LINE
  5
23E
100
AcDbEntity
  8
Bemaßung
  6
CONTINUOUS
 62
    0
370
   -2
100
AcDbLine
 10
119.2222222222222
 20
-70.83333333333333
 11
119.3710833333333
 21
-70.55555555555556
  0
ARC
  5
23F
100
AcDbEntity
  8
Bemaßung
  6
CONTINUOUS
 62
    0
370
   -2
100
AcDbCircle
 10
120.3333333333333
 20
-71.11111111111111
 40
1.111110722569377
100
AcDbArc
 50
329.9999884324239
 51
149.9999884324239
  0
LINE
  5
240
100
AcDbEntity
  8
Bemaßung
  6
CONTINUOUS
 62
    0
370
   -2
100
AcDbLine
 10
121.2955833333333
 20
-71.66666666666667
 11
119.2222222222222
 21
-75
  0
LINE
  5
241
100
AcDbEntity
  8
Bemaßung
  6
CONTINUOUS
 62
    0
370
   -2
100
AcDbLine
 10
119.2222222222222
 20
-75
 11
121.4444444444445
 21
-75
  0
LINE
  5
242
100
AcDbEntity
  8
Bemaßung
  6
CONTINUOUS
 62
    0
370
   -2
100
AcDbLine
 10
124.2222222222222
 20
-70
 11
123.1111111111111
 21
-73.88888888888889
  0
LINE
  5
243
100
AcDbEntity
  8
Bemaßung
  6
CONTINUOUS
 62
    0
370
   -2
100
AcDbLine
 10
123.1111111111111
 20
-73.88888888888889
 11
125.8888888888889
 21
-73.88888888888889
  0
LINE
  5
244
100
AcDbEntity
  8
Bemaßung
  6
CONTINUOUS
 62
    0
370
   -2
100
AcDbLine
 10
125.0555555555556
 20
-72.77777777777777
 11
125.0555555555556
 21
-75
  0
LINE
  5
245
100
AcDbEntity
  8
Bemaßung
  6
CONTINUOUS
 62
    0
370
   -2
100
AcDbLine
 10
129.7777777777778
 20
-72.77777777777777
 11
128.6666666666667
 21
-72.77777777777777
  0
ARC
  5
246
100
AcDbEntity
  8
Bemaßung
  6
CONTINUOUS
 62
    0
370
   -2
100
AcDbCircle
 10
128.6666658365831
 20
-71.66666749675021
 40
1.111110281027884
100
AcDbArc
 50
179.999957195713
 51
270.000042804287
  0
LINE
  5
247
100
AcDbEntity
  8
Bemaßung
  6
CONTINUOUS
 62
    0
370
   -2
100
AcDbLine
 10
127.5555555555556
 20
-71.66666666666667
 11
127.5555555555556
 21
-71.11111111111111
  0
ARC
  5
248
100
AcDbEntity
  8
Bemaßung
  6
CONTINUOUS
 62
    0
370
   -2
100
AcDbCircle
 10
128.6666666666667
 20
-71.11111111111111
 40
1.111111111111111
100
AcDbArc
 50
0
 51
180
  0
LINE
  5
249
100
AcDbEntity
  8
Bemaßung
  6
CONTINUOUS
 62
    0
370
   -2
100
AcDbLine
 10
129.7777777777778
 20
-71.11111111111111
 11
129.7777777777778
 21
-72.77777777777777
  0
ARC
  5
24A
100
AcDbEntity
  8
Bemaßung
  6
CONTINUOUS
 62
    0
370
   -2
100
AcDbCircle
 10
127.4629611111095
 20
-72.77777638888763
 40
2.31481666666875
100
AcDbArc
 50
286.2602390857832
 51
359.9999656225289
  0
LINE
  5
24B
100
AcDbEntity
  8
Bemaßung
  6
CONTINUOUS
 62
    0
370
   -2
100
AcDbLine
 10
271.1111111111111
 20
-302.8888888888889
 11
270
 21
-301.7777777777778
  0
LINE
  5
24C
100
AcDbEntity
  8
Bemaßung
  6
CONTINUOUS
 62
    0
370
   -2
100
AcDbLine
 10
270
 20
-301.7777777777778
 11
275
 21
-301.7777777777778
  0
LINE
  5
24D
100
AcDbEntity
  8
Bemaßung
  6
CONTINUOUS
 62
    0
370
   -2
100
AcDbLine
 10
271.1111111111111
 20
-300.1111111111111
 11
270
 21
-299
  0
LINE
  5
24E
100
AcDbEntity
  8
Bemaßung
  6
CONTINUOUS
 62
    0
370
   -2
100
AcDbLine
 10
270
 20
-299
 11
275
 21
-299
  0
LINE
  5
24F
100
AcDbEntity
  8
Bemaßung
  6
CONTINUOUS
 62
    0
370
   -2
100
AcDbLine
 10
273.8888888888889
 20
-295.1111111111111
 11
273.3333333333333
 21
-295.1111111111111
  0
ARC
  5
250
100
AcDbEntity
  8
Bemaßung
  6
CONTINUOUS
 62
    0
370
   -2
100
AcDbCircle
 10
273.3333333333333
 20
-296.2222222222222
 40
1.111111111111111
100
AcDbArc
 50
90
 51
270
  0
LINE
  5
251
100
AcDbEntity
  8
Bemaßung
  6
CONTINUOUS
 62
    0
370
   -2
100
AcDbLine
 10
273.3333333333333
 20
-297.3333333333333
 11
273.8888888888889
 21
-297.3333333333333
  0
ARC
  5
252
100
AcDbEntity
  8
Bemaßung
  6
CONTINUOUS
 62
    0
370
   -2
100
AcDbCircle
 10
273.8888888888889
 20
-296.2222222222222
 40
1.111111111111111
100
AcDbArc
 50
270
 51
90
  0
ARC
  5
253
100
AcDbEntity
  8
Bemaßung
  6
CONTINUOUS
 62
    0
370
   -2
100
AcDbCircle
 10
271.1111111111111
 20
-296.2222222222222
 40
1.111111111111111
100
AcDbArc
 50
0
 51
180
  0
ARC
  5
254
100
AcDbEntity
  8
Bemaßung
  6
CONTINUOUS
 62
    0
370
   -2
100
AcDbCircle
 10
271.1111111111111
 20
-296.2222222222222
 40
1.111111111111111
100
AcDbArc
 50
180
 51
0
  0
LINE
  5
255
100
AcDbEntity
  8
Bemaßung
  6
CONTINUOUS
 62
    0
370
   -2
100
AcDbLine
 10
256.0399095722034
 20
-254.4444444444446
 11
255.7621317944257
 21
-254.2955833333335
  0
ARC
  5
256
100
AcDbEntity
  8
Bemaßung
  6
CONTINUOUS
 62
    0
370
   -2
100
AcDbCircle
 10
256.3176873499813
 20
-253.3333333333335
 40
1.111110722569377
100
AcDbArc
 50
59.99998843242389
 51
239.9999884324239
  0
LINE
  5
257
100
AcDbEntity
  8
Bemaßung
  6
CONTINUOUS
 62
    0
370
   -2
100
AcDbLine
 10
256.8732429055368
 20
-252.3710833333335
 11
260.2065762388701
 21
-254.4444444444446
  0
LINE
  5
258
100
AcDbEntity
  8
Bemaßung
  6
CONTINUOUS
 62
    0
370
   -2
100
AcDbLine
 10
260.2065762388701
 20
-254.4444444444446
 11
260.2065762388701
 21
-252.2222222222224
  0
LINE
  5
259
100
AcDbEntity
  8
Bemaßung
  6
CONTINUOUS
 62
    0
370
   -2
100
AcDbLine
 10
256.3176873499813
 20
-250.5555555555557
 11
255.2065762388701
 21
-249.4444444444446
  0
LINE
  5
25A
100
AcDbEntity
  8
Bemaßung
  6
CONTINUOUS
 62
    0
370
   -2
100
AcDbLine
 10
255.2065762388701
 20
-249.4444444444446
 11
260.2065762388701
 21
-249.4444444444446
  0
LINE
  5
25B
100
AcDbEntity
  8
Bemaßung
  6
CONTINUOUS
 62
    0
370
   -2
100
AcDbLine
 10
257.4287984610924
 20
-247.7777777777779
 11
257.4287984610924
 21
-246.6666666666669
  0
ARC
  5
25C
100
AcDbEntity
  8
Bemaßung
  6
CONTINUOUS
 62
    0
370
   -2
100
AcDbCircle
 10
258.5399087421199
 20
-246.6666658365833
 40
1.111110281027884
100
AcDbArc
 50
89.99995719571302
 51
180.000042804287
  0
LINE
  5
25D
100
AcDbEntity
  8
Bemaßung
  6
CONTINUOUS
 62
    0
370
   -2
100
AcDbLine
 10
258.5399095722035
 20
-245.5555555555557
 11
259.095465127759
 21
-245.5555555555557
  0
ARC
  5
25E
100
AcDbEntity
  8
Bemaßung
  6
CONTINUOUS
 62
    0
370
   -2
100
AcDbCircle
 10
259.095465127759
 20
-246.6666666666669
 40
1.111111111111111
100
AcDbArc
 50
270
 51
90
  0
LINE
  5
25F
100
AcDbEntity
  8
Bemaßung
  6
CONTINUOUS
 62
    0
370
   -2
100
AcDbLine
 10
259.095465127759
 20
-247.7777777777779
 11
257.4287984610924
 21
-247.7777777777779
  0
ARC
  5
260
100
AcDbEntity
  8
Bemaßung
  6
CONTINUOUS
 62
    0
370
   -2
100
AcDbCircle
 10
257.4287998499825
 20
-245.4629611111096
 40
2.31481666666875
100
AcDbArc
 50
196.2602390857831
 51
269.9999656225289
  0
LINE
  5
261
100
AcDbEntity
  8
Bemaßung
  6
CONTINUOUS
 62
    0
370
   -2
100
AcDbLine
 10
33
 20
-370.5555555555555
 11
33
 21
-370
  0
LINE
  5
262
100
AcDbEntity
  8
Bemaßung
  6
CONTINUOUS
 62
    0
370
   -2
100
AcDbLine
 10
33
 20
-370
 11
35.22222222222222
 21
-370
  0
LINE
  5
263
100
AcDbEntity
  8
Bemaßung
  6
CONTINUOUS
 62
    0
370
   -2
100
AcDbLine
 10
35.22222222222222
 20
-370
 11
34.11111111111111
 21
-375
  0
LINE
  5
264
100
AcDbEntity
  8
Bemaßung
  6
CONTINUOUS
 62
    0
370
   -2
100
AcDbLine
 10
36.88888888888889
 20
-371.1111111111111
 11
38
 21
-370
  0
LINE
  5
265
100
AcDbEntity
  8
Bemaßung
  6
CONTINUOUS
 62
    0
370
   -2
100
AcDbLine
 10
38
 20
-370
 11
38
 21
-375
  0
ARC
  5
266
100
AcDbEntity
  8
Bemaßung
  6
ByLayer
 62
  256
370
   -1
100
AcDbCircle
 10
313.0955399749984
 20
-223.0973369075348
 40
5.555544518509238
100
AcDbArc
 50
233.1300644115061
 51
270.0000379426498
  0
ARC
  5
267
100
AcDbEntity
  8
Bemaßung
  6
ByLayer
 62
  256
370
   -1
100
AcDbCircle
 10
313.0955428031928
 20
-226.4306604730208
 40
2.222220953022241
100
AcDbArc
 50
270.0000219368293
 51
62.98101938430567
  0
LINE
  5
268
100
AcDbEntity
  8
Bemaßung
  6
ByLayer
 62
  256
370
   -1
100
AcDbLine
 10
314.1050658762365
 20
-224.4509814260429
 11
310.9749103206809
 21
-222.8547814260428
  0
ARC
  5
269
100
AcDbEntity
  8
Bemaßung
  6
ByLayer
 62
  256
370
   -1
100
AcDbCircle
 10
311.9844333937247
 20
-220.8751023790649
 40
2.222220953022241
100
AcDbArc
 50
90.00002193682934
 51
242.9810193843057
  0
ARC
  5
26A
100
AcDbEntity
  8
Bemaßung
  6
ByLayer
 62
  256
370
   -1
100
AcDbCircle
 10
311.9844323484693
 20
-225.8751046204343
 40
7.222223194391499
100
AcDbArc
 50
67.38013659445404
 51
89.99999845750555
  0
LINE
  5
26B
100
AcDbEntity
  8
Bemaßung
  6
ByLayer
 62
  256
370
   -1
100
AcDbLine
 10
318.6510970895483
 20
-228.6528814260429
 11
321.9844304228816
 21
-228.6528814260429
  0
ARC
  5
26C
100
AcDbEntity
  8
Bemaßung
  6
ByLayer
 62
  256
370
   -1
100
AcDbCircle
 10
321.9844320830487
 20
-226.4306608639877
 40
2.222220562055768
100
AcDbArc
 50
269.999957195713
 51
4.280428697116827e-05
  0
LINE
  5
26D
100
AcDbEntity
  8
Bemaßung
  6
ByLayer
 62
  256
370
   -1
100
AcDbLine
 10
324.2066526451039
 20
-226.4306592038206
 11
324.2066526451039
 21
-220.8751036482651
  0
ARC
  5
26E
100
AcDbEntity
  8
Bemaßung
  6
ByLayer
 62
  256
370
   -1
100
AcDbCircle
 10
321.9844320830487
 20
-220.875101988098
 40
2.222220562055768
100
AcDbArc
 50
359.999957195713
 51
90.00004280428698
  0
LINE
  5
26F
100
AcDbEntity
  8
Bemaßung
  6
ByLayer
 62
  256
370
   -1
100
AcDbLine
 10
321.9844304228816
 20
-218.6528814260429
 11
318.6510970895483
 21
-218.6528814260429
  0
LINE
  5
270
100
AcDbEntity
  8
Bemaßung
  6
ByLayer
 62
  256
370
   -1
100
AcDbLine
 10
318.6510970895483
 20
-218.6528814260429
 11
318.6510970895483
 21
-228.6528814260429
  0
LINE
  5
271
100
AcDbEntity
  8
Bemaßung
  6
ByLayer
 62
  256
370
   -1
100
AcDbLine
 10
335.0399859784378
 20
-220.3195480927095
 11
335.33770820066
 21
-219.763992537154
  0
ARC
  5
272
100
AcDbEntity
  8
Bemaßung
  6
ByLayer
 62
  256
370
   -1
100
AcDbCircle
 10
337.26220820066
 20
-220.8751036482651
 40
2.222221445138753
100
AcDbArc
 50
329.9999884324239
 51
149.9999884324239
  0
LINE
  5
273
100
AcDbEntity
  8
Bemaßung
  6
ByLayer
 62
  256
370
   -1
100
AcDbLine
 10
339.1867082006601
 20
-221.9862147593762
 11
335.0399859784378
 21
-228.6528814260429
  0
LINE
  5
274
100
AcDbEntity
  8
Bemaßung
  6
ByLayer
 62
  256
370
   -1
100
AcDbLine
 10
335.0399859784378
 20
-228.6528814260429
 11
339.4844304228823
 21
-228.6528814260429
  0
LINE
  5
275
100
AcDbEntity
  8
Bemaßung
  6
ByLayer
 62
  256
370
   -1
100
AcDbLine
 10
342.8177637562156
 20
-228.6528814260429
 11
347.26220820066
 21
-221.9862147593762
  0
LINE
  5
276
100
AcDbEntity
  8
Bemaßung
  6
ByLayer
 62
  256
370
   -1
100
AcDbLine
 10
342.8177637562156
 20
-221.9862147593762
 11
347.26220820066
 21
-228.6528814260429
  0
ARC
  5
277
100
AcDbEntity
  8
Bemaßung
  6
ByLayer
 62
  256
370
   -1
100
AcDbCircle
 10
45.25619431345961
 20
-223.8912705235975
 40
5.555544518509238
100
AcDbArc
 50
233.1300644115061
 51
270.0000379426498
  0
ARC
  5
278
100
AcDbEntity
  8
Bemaßung
  6
ByLayer
 62
  256
370
   -1
100
AcDbCircle
 10
45.25619714165394
 20
-227.2245940890834
 40
2.222220953022241
100
AcDbArc
 50
270.0000219368293
 51
62.98101938430567
  0
LINE
  5
279
100
AcDbEntity
  8
Bemaßung
  6
ByLayer
 62
  256
370
   -1
100
AcDbLine
 10
46.26572021469767
 20
-225.2449150421055
 11
43.13556465914213
 21
-223.6487150421055
  0
ARC
  5
27A
100
AcDbEntity
  8
Bemaßung
  6
ByLayer
 62
  256
370
   -1
100
AcDbCircle
 10
44.14508773218585
 20
-221.6690359951276
 40
2.222220953022241
100
AcDbArc
 50
90.00002193682934
 51
242.9810193843057
  0
ARC
  5
27B
100
AcDbEntity
  8
Bemaßung
  6
ByLayer
 62
  256
370
   -1
100
AcDbCircle
 10
44.14508668693049
 20
-226.669038236497
 40
7.222223194391499
100
AcDbArc
 50
67.38013659445404
 51
89.99999845750555
  0
LINE
  5
27C
100
AcDbEntity
  8
Bemaßung
  6
ByLayer
 62
  256
370
   -1
100
AcDbLine
 10
50.81175142800952
 20
-229.4468150421055
 11
54.14508476134286
 21
-229.4468150421055
  0
ARC
  5
27D
100
AcDbEntity
  8
Bemaßung
  6
ByLayer
 62
  256
370
   -1
100
AcDbCircle
 10
54.14508642150993
 20
-227.2245944800503
 40
2.222220562055768
100
AcDbArc
 50
269.999957195713
 51
4.280428697116827e-05
  0
LINE
  5
27E
100
AcDbEntity
  8
Bemaßung
  6
ByLayer
 62
  256
370
   -1
100
AcDbLine
 10
56.36730698356508
 20
-227.2245928198833
 11
56.36730698356508
 21
-221.6690372643277
  0
ARC
  5
27F
100
AcDbEntity
  8
Bemaßung
  6
ByLayer
 62
  256
370
   -1
100
AcDbCircle
 10
54.14508642150993
 20
-221.6690356041607
 40
2.222220562055768
100
AcDbArc
 50
359.999957195713
 51
90.00004280428698
  0
LINE
  5
280
100
AcDbEntity
  8
Bemaßung
  6
ByLayer
 62
  256
370
   -1
100
AcDbLine
 10
54.14508476134286
 20
-219.4468150421055
 11
50.81175142800952
 21
-219.4468150421055
  0
LINE
  5
281
100
AcDbEntity
  8
Bemaßung
  6
ByLayer
 62
  256
370
   -1
100
AcDbLine
 10
50.81175142800952
 20
-219.4468150421055
 11
50.81175142800952
 21
-229.4468150421055
  0
LINE
  5
282
100
AcDbEntity
  8
Bemaßung
  6
ByLayer
 62
  256
370
   -1
100
AcDbLine
 10
67.20064031689903
 20
-221.1134817087722
 11
67.49836253912125
 21
-220.5579261532166
  0
ARC
  5
283
100
AcDbEntity
  8
Bemaßung
  6
ByLayer
 62
  256
370
   -1
100
AcDbCircle
 10
69.42286253912125
 20
-221.6690372643277
 40
2.222221445138753
100
AcDbArc
 50
329.9999884324239
 51
149.9999884324239
  0
LINE
  5
284
100
AcDbEntity
  8
Bemaßung
  6
ByLayer
 62
  256
370
   -1
100
AcDbLine
 10
71.34736253912125
 20
-222.7801483754388
 11
67.20064031689903
 21
-229.4468150421055
  0
LINE
  5
285
100
AcDbEntity
  8
Bemaßung
  6
ByLayer
 62
  256
370
   -1
100
AcDbLine
 10
67.20064031689903
 20
-229.4468150421055
 11
71.64508476134347
 21
-229.4468150421055
  0
LINE
  5
286
100
AcDbEntity
  8
Bemaßung
  6
ByLayer
 62
  256
370
   -1
100
AcDbLine
 10
74.97841809467681
 20
-229.4468150421055
 11
79.42286253912125
 21
-222.7801483754388
  0
LINE
  5
287
100
AcDbEntity
  8
Bemaßung
  6
ByLayer
 62
  256
370
   -1
100
AcDbLine
 10
74.97841809467681
 20
-222.7801483754388
 11
79.42286253912125
 21
-229.4468150421055
  0
LINE
  5
288
100
AcDbEntity
  8
Bemaßung
  6
ByLayer
 62
  256
370
   -1
100
AcDbLine
 10
306.5431145053725
 20
29.53314266340075
 11
306.8408367275947
 21
30.0886982189563
  0
ARC
  5
289
100
AcDbEntity
  8
Bemaßung
  6
ByLayer
 62
  256
370
   -1
100
AcDbCircle
 10
308.7653367275947
 20
28.97758710784519
 40
2.222221445138753
100
AcDbArc
 50
329.9999884324239
 51
149.9999884324239
  0
LINE
  5
28A
100
AcDbEntity
  8
Bemaßung
  6
ByLayer
 62
  256
370
   -1
100
AcDbLine
 10
310.6898367275948
 20
27.86647599673408
 11
306.5431145053725
 21
21.19980933006741
  0
LINE
  5
28B
100
AcDbEntity
  8
Bemaßung
  6
ByLayer
 62
  256
370
   -1
100
AcDbLine
 10
306.5431145053725
 20
21.19980933006741
 11
310.987558949817
 21
21.19980933006741
  0
LINE
  5
28C
100
AcDbEntity
  8
Bemaßung
  6
ByLayer
 62
  256
370
   -1
100
AcDbLine
 10
314.3208922831503
 20
31.19980933006741
 11
316.5431145053725
 21
31.19980933006741
  0
ARC
  5
28D
100
AcDbEntity
  8
Bemaßung
  6
ByLayer
 62
  256
370
   -1
100
AcDbCircle
 10
316.5431145053725
 20
28.97758710784519
 40
2.222222222222222
100
AcDbArc
 50
270
 51
90
  0
LINE
  5
28E
100
AcDbEntity
  8
Bemaßung
  6
ByLayer
 62
  256
370
   -1
100
AcDbLine
 10
315.4320033942614
 20
26.75536488562297
 11
316.5431145053725
 21
26.75536488562297
  0
ARC
  5
28F
100
AcDbEntity
  8
Bemaßung
  6
ByLayer
 62
  256
370
   -1
100
AcDbCircle
 10
316.5431161655396
 20
24.53314432356782
 40
2.222220562055768
100
AcDbArc
 50
359.999957195713
 51
90.00004280428698
  0
LINE
  5
290
100
AcDbEntity
  8
Bemaßung
  6
ByLayer
 62
  256
370
   -1
100
AcDbLine
 10
318.7653367275947
 20
24.53314266340074
 11
318.7653367275947
 21
23.42203155228963
  0
ARC
  5
291
100
AcDbEntity
  8
Bemaßung
  6
ByLayer
 62
  256
370
   -1
100
AcDbCircle
 10
316.5431161655396
 20
23.42202989212256
 40
2.222220562055768
100
AcDbArc
 50
269.999957195713
 51
4.280428697116827e-05
  0
LINE
  5
292
100
AcDbEntity
  8
Bemaßung
  6
ByLayer
 62
  256
370
   -1
100
AcDbLine
 10
316.5431145053725
 20
21.19980933006741
 11
314.3208922831503
 21
21.19980933006741
  0
ARC
  5
293
100
AcDbEntity
  8
Bemaßung
  6
ByLayer
 62
  256
370
   -1
100
AcDbCircle
 10
324.3208922831509
 20
29.81092044117852
 40
1.388888888888889
100
AcDbArc
 50
36.86989764584401
 51
143.130102354156
  0
ARC
  5
294
100
AcDbEntity
  8
Bemaßung
  6
ByLayer
 62
  256
370
   -1
100
AcDbCircle
 10
331.5431145053731
 20
26.19980933006741
 40
9.444444444444445
100
AcDbArc
 50
151.927513064147
 51
208.0724869358529
  0
ARC
  5
295
100
AcDbEntity
  8
Bemaßung
  6
ByLayer
 62
  256
370
   -1
100
AcDbCircle
 10
324.3208922831509
 20
22.5886982189563
 40
1.388888888888889
100
AcDbArc
 50
216.869897645844
 51
323.130102354156
  0
ARC
  5
296
100
AcDbEntity
  8
Bemaßung
  6
ByLayer
 62
  256
370
   -1
100
AcDbCircle
 10
317.0986700609287
 20
26.19980933006741
 40
9.444444444444445
100
AcDbArc
 50
331.927513064147
 51
28.07248693585295
  0
LINE
  5
297
100
AcDbEntity
  8
Bemaßung
  6
ByLayer
 62
  256
370
   -1
100
AcDbLine
 10
329.8764478387064
 20
31.19980933006741
 11
333.2097811720398
 21
21.19980933006741
  0
LINE
  5
298
100
AcDbEntity
  8
Bemaßung
  6
ByLayer
 62
  256
370
   -1
100
AcDbLine
 10
333.2097811720398
 20
21.19980933006741
 11
336.5431145053731
 21
31.19980933006741
  0
LINE
  5
299
100
AcDbEntity
  8
Bemaßung
  6
ByLayer
 62
  256
370
   -1
100
AcDbLine
 10
120.5378433580134
 20
-311.8854573042047
 11
120.5378433580134
 21
-301.8854573042047
  0
LINE
  5
29A
100
AcDbEntity
  8
Bemaßung
  6
ByLayer
 62
  256
370
   -1
100
AcDbLine
 10
126.093398913569
 20
-311.8854573042047
 11
126.093398913569
 21
-301.8854573042047
  0
LINE
  5
29B
100
AcDbEntity
  8
Bemaßung
  6
ByLayer
 62
  256
370
   -1
100
AcDbLine
 10
120.5378433580134
 20
-306.3299017486491
 11
126.093398913569
 21
-306.3299017486491
  0
LINE
  5
29C
100
AcDbEntity
  8
Bemaßung
  6
ByLayer
 62
  256
370
   -1
100
AcDbLine
 10
133.8711766913468
 20
-311.8854573042047
 11
131.093398913569
 21
-311.8854573042047
  0
ARC
  5
29D
100
AcDbEntity
  8
Bemaßung
  6
ByLayer
 62
  256
370
   -1
100
AcDbCircle
 10
131.0933976684437
 20
-310.2187918826633
 40
1.666665421541826
100
AcDbArc
 50
179.999957195713
 51
270.000042804287
  0
LINE
  5
29E
100
AcDbEntity
  8
Bemaßung
  6
ByLayer
 62
  256
370
   -1
100
AcDbLine
 10
129.4267322469023
 20
-310.218790637538
 11
129.4267322469023
 21
-307.4410128597602
  0
ARC
  5
29F
100
AcDbEntity
  8
Bemaßung
  6
ByLayer
 62
  256
370
   -1
100
AcDbCircle
 10
131.6489544691245
 20
-307.4410128597602
 40
2.222222222222222
100
AcDbArc
 50
0
 51
180
  0
LINE
  5
2A0
100
AcDbEntity
  8
Bemaßung
  6
ByLayer
 62
  256
370
   -1
100
AcDbLine
 10
133.8711766913468
 20
-307.4410128597602
 11
133.8711766913468
 21
-308.5521239708714
  0
LINE
  5
2A1
100
AcDbEntity
  8
Bemaßung
  6
ByLayer
 62
  256
370
   -1
100
AcDbLine
 10
133.8711766913468
 20
-308.5521239708714
 11
129.4267322469023
 21
-308.5521239708714
  0
LINE
  5
2A2
100
AcDbEntity
  8
Bemaßung
  6
ByLayer
 62
  256
370
   -1
100
AcDbLine
 10
137.2045100246801
 20
-311.8854573042047
 11
137.2045100246801
 21
-305.218790637538
  0
LINE
  5
2A3
100
AcDbEntity
  8
Bemaßung
  6
ByLayer
 62
  256
370
   -1
100
AcDbLine
 10
137.2045100246801
 20
-302.4410128597602
 11
137.2045100246801
 21
-301.8854573042047
  0
LINE
  5
2A4
100
AcDbEntity
  8
Bemaßung
  6
ByLayer
 62
  256
370
   -1
100
AcDbLine
 10
140.5378433580134
 20
-305.218790637538
 11
144.9822878024579
 21
-305.218790637538
  0
LINE
  5
2A5
100
AcDbEntity
  8
Bemaßung
  6
ByLayer
 62
  256
370
   -1
100
AcDbLine
 10
144.9822878024579
 20
-305.218790637538
 11
140.5378433580134
 21
-311.8854573042047
  0
LINE
  5
2A6
100
AcDbEntity
  8
Bemaßung
  6
ByLayer
 62
  256
370
   -1
100
AcDbLine
 10
140.5378433580134
 20
-311.8854573042047
 11
144.9822878024579
 21
-311.8854573042047
  0
LINE
  5
2A7
100
AcDbEntity
  8
Bemaßung
  6
ByLayer
 62
  256
370
   -1
100
AcDbLine
 10
148.3156211357912
 20
-301.8854573042047
 11
148.3156211357912
 21
-311.8854573042047
  0
LINE
  5
2A8
100
AcDbEntity
  8
Bemaßung
  6
ByLayer
 62
  256
370
   -1
100
AcDbLine
 10
148.3156211357912
 20
-308.5521239708714
 11
152.7600655802357
 21
-305.218790637538
  0
LINE
  5
2A9
100
AcDbEntity
  8
Bemaßung
  6
ByLayer
 62
  256
370
   -1
100
AcDbLine
 10
152.7600655802357
 20
-311.8854573042047
 11
150.2446211357912
 21
-307.1053684153158
  0
ARC
  5
2AA
100
AcDbEntity
  8
Bemaßung
  6
ByLayer
 62
  256
370
   -1
100
AcDbCircle
 10
158.3156211357912
 20
-309.6632350819825
 40
2.222222222222222
100
AcDbArc
 50
180
 51
0
  0
LINE
  5
2AB
100
AcDbEntity
  8
Bemaßung
  6
ByLayer
 62
  256
370
   -1
100
AcDbLine
 10
156.093398913569
 20
-309.6632350819825
 11
156.093398913569
 21
-307.4410128597602
  0
ARC
  5
2AC
100
AcDbEntity
  8
Bemaßung
  6
ByLayer
 62
  256
370
   -1
100
AcDbCircle
 10
158.3156211357912
 20
-307.4410128597602
 40
2.222222222222222
100
AcDbArc
 50
0
 51
180
  0
LINE
  5
2AD
100
AcDbEntity
  8
Bemaßung
  6
ByLayer
 62
  256
370
   -1
100
AcDbLine
 10
160.5378433580134
 20
-307.4410128597602
 11
160.5378433580134
 21
-309.6632350819825
  0
LINE
  5
2AE
100
AcDbEntity
  8
Bemaßung
  6
ByLayer
 62
  256
370
   -1
100
AcDbLine
 10
156.6489544691245
 20
-302.4410128597602
 11
156.6489544691245
 21
-301.8854573042047
  0
LINE
  5
2AF
100
AcDbEntity
  8
Bemaßung
  6
ByLayer
 62
  256
370
   -1
100
AcDbLine
 10
159.9822878024579
 20
-302.4410128597602
 11
159.9822878024579
 21
-301.8854573042047
  0
LINE
  5
2B0
100
AcDbEntity
  8
Bemaßung
  6
ByLayer
 62
  256
370
   -1
100
AcDbLine
 10
163.8711766913468
 20
-311.8854573042047
 11
163.8711766913468
 21
-305.218790637538
  0
LINE
  5
2B1
100
AcDbEntity
  8
Bemaßung
  6
ByLayer
 62
  256
370
   -1
100
AcDbLine
 10
163.8711766913468
 20
-305.218790637538
 11
167.2045100246801
 21
-305.218790637538
  0
LINE
  5
2B2
100
AcDbEntity
  8
Bemaßung
  6
ByLayer
 62
  256
370
   -1
100
AcDbLine
 10
167.2045100246801
 20
-305.218790637538
 11
167.2045100246801
 21
-306.3299017486491
  0
LINE
  5
2B3
100
AcDbEntity
  8
Bemaßung
  6
ByLayer
 62
  256
370
   -1
100
AcDbLine
 10
170.5378433580134
 20
-315.218790637538
 11
170.5378433580134
 21
-305.218790637538
  0
LINE
  5
2B4
100
AcDbEntity
  8
Bemaßung
  6
ByLayer
 62
  256
370
   -1
100
AcDbLine
 10
170.5378433580134
 20
-305.218790637538
 11
173.3156211357912
 21
-305.218790637538
  0
ARC
  5
2B5
100
AcDbEntity
  8
Bemaßung
  6
ByLayer
 62
  256
370
   -1
100
AcDbCircle
 10
173.3155825473476
 20
-306.8854958926483
 40
1.666705255556963
100
AcDbArc
 50
0.00132654225952257
 51
89.99867345774048
  0
LINE
  5
2B6
100
AcDbEntity
  8
Bemaßung
  6
ByLayer
 62
  256
370
   -1
100
AcDbLine
 10
174.9822878024579
 20
-306.8854573042047
 11
174.9822878024579
 21
-310.218790637538
  0
ARC
  5
2B7
100
AcDbEntity
  8
Bemaßung
  6
ByLayer
 62
  256
370
   -1
100
AcDbCircle
 10
173.3155825473476
 20
-310.2187520490944
 40
1.666705255556963
100
AcDbArc
 50
270.0013265422595
 51
359.9986734577404
  0
LINE
  5
2B8
100
AcDbEntity
  8
Bemaßung
  6
ByLayer
 62
  256
370
   -1
100
AcDbLine
 10
173.3156211357912
 20
-311.8854573042047
 11
170.5378433580134
 21
-311.8854573042047
  0
LINE
  5
2B9
100
AcDbEntity
  8
Bemaßung
  6
ByLayer
 62
  256
370
   -1
100
AcDbLine
 10
182.7600655802357
 20
-311.8854573042047
 11
179.9822878024579
 21
-311.8854573042047
  0
ARC
  5
2BA
100
AcDbEntity
  8
Bemaßung
  6
ByLayer
 62
  256
370
   -1
100
AcDbCircle
 10
179.9822865573326
 20
-310.2187918826633
 40
1.666665421541826
100
AcDbArc
 50
179.999957195713
 51
270.000042804287
  0
LINE
  5
2BB
100
AcDbEntity
  8
Bemaßung
  6
ByLayer
 62
  256
370
   -1
100
AcDbLine
 10
178.3156211357912
 20
-310.218790637538
 11
178.3156211357912
 21
-307.4410128597602
  0
ARC
  5
2BC
100
AcDbEntity
  8
Bemaßung
  6
ByLayer
 62
  256
370
   -1
100
AcDbCircle
 10
180.5378433580134
 20
-307.4410128597602
 40
2.222222222222222
100
AcDbArc
 50
0
 51
180
  0
LINE
  5
2BD
100
AcDbEntity
  8
Bemaßung
  6
ByLayer
 62
  256
370
   -1
100
AcDbLine
 10
182.7600655802357
 20
-307.4410128597602
 11
182.7600655802357
 21
-308.5521239708714
  0
LINE
  5
2BE
100
AcDbEntity
  8
Bemaßung
  6
ByLayer
 62
  256
370
   -1
100
AcDbLine
 10
182.7600655802357
 20
-308.5521239708714
 11
178.3156211357912
 21
-308.5521239708714
  0
LINE
  5
2BF
100
AcDbEntity
  8
Bemaßung
  6
ByLayer
 62
  256
370
   -1
100
AcDbLine
 10
186.093398913569
 20
-311.8854573042047
 11
186.093398913569
 21
-305.218790637538
  0
LINE
  5
2C0
100
AcDbEntity
  8
Bemaßung
  6
ByLayer
 62
  256
370
   -1
100
AcDbLine
 10
186.093398913569
 20
-305.218790637538
 11
189.4267322469023
 21
-305.218790637538
  0
LINE
  5
2C1
100
AcDbEntity
  8
Bemaßung
  6
ByLayer
 62
  256
370
   -1
100
AcDbLine
 10
189.4267322469023
 20
-305.218790637538
 11
189.4267322469023
 21
-306.3299017486491
  0
LINE
  5
2C2
100
AcDbEntity
  8
Bemaßung
  6
ByBlock
 62
    0
370
   -2
100
AcDbLine
 10
-9.208260762826072
 20
-358
 11
-62.50000000000001
 21
-358
  0
LINE
  5
2C3
100
AcDbEntity
  8
Bemaßung
  6
ByBlock
 62
    0
370
   -2
100
AcDbLine
 10
-9.91160064494788
 20
1.88167125758731e-16
 11
-31.49759321665216
 21
1.530757942277972e-16
  0
LINE
  5
2C4
100
AcDbEntity
  8
Bemaßung
  6
ByBlock
 62
    0
370
   -2
100
AcDbLine
 10
-9.91160064494788
 20
2.292072461209491e-16
 11
-48.24179660444174
 21
1.530757942277972e-16
  0
LWPOLYLINE
  5
2C5
100
AcDbEntity
  8
0
  6
ByLayer
 62
  256
370
   -1
100
AcDbPolyline
 90
    4
 70
    1
 43
0
 10
300
 20
-100
 10
647
 20
-100
 10
647
 20
-358
 10
300
 20
-358
  0
LINE
  5
2C6
100
AcDbEntity
  8
Bemaßung
  6
CONTINUOUS
 62
    0
370
   -2
100
AcDbLine
 10
482.5
 20
-390.8333333333333
 11
482.6488611111111
 21
-390.5555555555555
  0
ARC
  5
2C7
100
AcDbEntity
  8
Bemaßung
  6
CONTINUOUS
 62
    0
370
   -2
100
AcDbCircle
 10
483.6111111111111
 20
-391.1111111111111
 40
1.111110722569377
100
AcDbArc
 50
329.9999884324239
 51
149.9999884324239
  0
LINE
  5
2C8
100
AcDbEntity
  8
Bemaßung
  6
CONTINUOUS
 62
    0
370
   -2
100
AcDbLine
 10
484.5733611111111
 20
-391.6666666666667
 11
482.5
 21
-395
  0
LINE
  5
2C9
100
AcDbEntity
  8
Bemaßung
  6
CONTINUOUS
 62
    0
370
   -2
100
AcDbLine
 10
482.5
 20
-395
 11
484.7222222222222
 21
-395
  0
LINE
  5
2CA
100
AcDbEntity
  8
Bemaßung
  6
CONTINUOUS
 62
    0
370
   -2
100
AcDbLine
 10
486.3888888888889
 20
-390.8333333333333
 11
486.53775
 21
-390.5555555555555
  0
ARC
  5
2CB
100
AcDbEntity
  8
Bemaßung
  6
CONTINUOUS
 62
    0
370
   -2
100
AcDbCircle
 10
487.5
 20
-391.1111111111111
 40
1.111110722569377
100
AcDbArc
 50
329.9999884324239
 51
149.9999884324239
  0
LINE
  5
2CC
100
AcDbEntity
  8
Bemaßung
  6
CONTINUOUS
 62
    0
370
   -2
100
AcDbLine
 10
488.46225
 20
-391.6666666666667
 11
486.3888888888889
 21
-395
  0
LINE
  5
2CD
100
AcDbEntity
  8
Bemaßung
  6
CONTINUOUS
 62
    0
370
   -2
100
AcDbLine
 10
486.3888888888889
 20
-395
 11
488.6111111111111
 21
-395
  0
LINE
  5
2CE
100
AcDbEntity
  8
Bemaßung
  6
CONTINUOUS
 62
    0
370
   -2
100
AcDbLine
 10
490.2777777777778
 20
-390.5555555555555
 11
490.2777777777778
 21
-390
  0
LINE
  5
2CF
100
AcDbEntity
  8
Bemaßung
  6
CONTINUOUS
 62
    0
370
   -2
100
AcDbLine
 10
490.2777777777778
 20
-390
 11
492.5
 21
-390
  0
LINE
  5
2D0
100
AcDbEntity
  8
Bemaßung
  6
CONTINUOUS
 62
    0
370
   -2
100
AcDbLine
 10
492.5
 20
-390
 11
491.3888888888889
 21
-395
  0
LINE
  5
2D1
100
AcDbEntity
  8
Bemaßung
  6
CONTINUOUS
 62
    0
370
   -2
100
AcDbLine
 10
661.1111111111111
 20
-305.8333333333333
 11
660
 21
-304.7222222222222
  0
LINE
  5
2D2
100
AcDbEntity
  8
Bemaßung
  6
CONTINUOUS
 62
    0
370
   -2
100
AcDbLine
 10
660
 20
-304.7222222222222
 11
665
 21
-304.7222222222222
  0
LINE
  5
2D3
100
AcDbEntity
  8
Bemaßung
  6
CONTINUOUS
 62
    0
370
   -2
100
AcDbLine
 10
661.1111111111111
 20
-303.0555555555555
 11
660
 21
-301.9444444444445
  0
LINE
  5
2D4
100
AcDbEntity
  8
Bemaßung
  6
CONTINUOUS
 62
    0
370
   -2
100
AcDbLine
 10
660
 20
-301.9444444444445
 11
665
 21
-301.9444444444445
  0
LINE
  5
2D5
100
AcDbEntity
  8
Bemaßung
  6
CONTINUOUS
 62
    0
370
   -2
100
AcDbLine
 10
661.1111111111111
 20
-300.2777777777778
 11
660
 21
-299.1666666666667
  0
LINE
  5
2D6
100
AcDbEntity
  8
Bemaßung
  6
CONTINUOUS
 62
    0
370
   -2
100
AcDbLine
 10
660
 20
-299.1666666666667
 11
665
 21
-299.1666666666667
  0
LINE
  5
2D7
100
AcDbEntity
  8
Bemaßung
  6
ByLayer
 62
  256
370
   -1
100
AcDbLine
 10
558.3363834458089
 20
-153.6314666422186
 11
560.0387044305177
 21
-152.2030497318041
  0
ARC
  5
2D8
100
AcDbEntity
  8
Bemaßung
  6
ByLayer
 62
  256
370
   -1
100
AcDbCircle
 10
561.4671213409322
 20
-153.9053707165129
 40
2.222222222222222
100
AcDbArc
 50
310
 51
130
  0
LINE
  5
2D9
100
AcDbEntity
  8
Bemaßung
  6
ByLayer
 62
  256
370
   -1
100
AcDbLine
 10
562.0443777589924
 20
-156.321900156429
 11
562.8955382513467
 21
-155.6076917012218
  0
ARC
  5
2DA
100
AcDbEntity
  8
Bemaßung
  6
ByLayer
 62
  256
370
   -1
100
AcDbCircle
 10
564.3239553663883
 20
-157.310010347034
 40
2.222220562055768
100
AcDbArc
 50
39.99995719571303
 51
130.000042804287
  0
LINE
  5
2DB
100
AcDbEntity
  8
Bemaßung
  6
ByLayer
 62
  256
370
   -1
100
AcDbLine
 10
566.0262761464702
 20
-155.881595775516
 11
566.7404846016774
 21
-156.7327562678704
  0
ARC
  5
2DC
100
AcDbEntity
  8
Bemaßung
  6
ByLayer
 62
  256
370
   -1
100
AcDbCircle
 10
565.0381659558652
 20
-158.1611733829119
 40
2.222220562055768
100
AcDbArc
 50
309.999957195713
 51
40.00004280428697
  0
LINE
  5
2DD
100
AcDbEntity
  8
Bemaßung
  6
ByLayer
 62
  256
370
   -1
100
AcDbLine
 10
566.466580527383
 20
-159.8634941629938
 11
564.7642595426743
 21
-161.2919110734084
  0
ARC
  5
2DE
100
AcDbEntity
  8
Bemaßung
  6
ByLayer
 62
  256
370
   -1
100
AcDbCircle
 10
566.8895884460081
 20
-148.2675411607958
 40
1.388888888888889
100
AcDbArc
 50
76.86989764584402
 51
183.130102354156
  0
ARC
  5
2DF
100
AcDbEntity
  8
Bemaßung
  6
ByLayer
 62
  256
370
   -1
100
AcDbCircle
 10
574.7433091257355
 20
-146.3914578021005
 40
9.444444444444445
100
AcDbArc
 50
191.927513064147
 51
248.0724869358529
  0
ARC
  5
2E0
100
AcDbEntity
  8
Bemaßung
  6
ByLayer
 62
  256
370
   -1
100
AcDbCircle
 10
571.5319434048554
 20
-153.8000843610996
 40
1.388888888888889
100
AcDbArc
 50
256.869897645844
 51
3.13010235415599
  0
ARC
  5
2E1
100
AcDbEntity
  8
Bemaßung
  6
ByLayer
 62
  256
370
   -1
100
AcDbCircle
 10
563.6782227251281
 20
-155.6761677197949
 40
9.444444444444445
100
AcDbArc
 50
11.92751306414704
 51
68.07248693585295
  0
LINE
  5
2E2
100
AcDbEntity
  8
Bemaßung
  6
ByBlock
 62
    0
370
   -2
100
AcDbLine
 10
601
 20
-400
 11
647
 21
-400
  0
MTEXT
  5
2E3
100
AcDbEntity
  8
Bemaßung
  6
CONTINUOUS
 62
    0
370
   -2
100
AcDbMText
 10
624
 20
-391.875
 30
0
 40
6.25
 41
8.333333333333719
 71
    5
 72
    1
  1
46
  7
standard
210
0
220
0
230
1
 50
0
 73
    2
 44
1
  0
LINE
  5
2E4
100
AcDbEntity
  8
Bemaßung
  6
ByBlock
 62
    0
370
   -2
100
AcDbLine
 10
602.7677669529663
 20
-398.2322330470336
 11
599.2322330470337
 21
-401.7677669529664
  0
LINE
  5
2E5
100
AcDbEntity
  8
Bemaßung
  6
ByBlock
 62
    0
370
   -2
100
AcDbLine
 10
648.7677669529663
 20
-398.2322330470336
 11
645.2322330470337
 21
-401.7677669529664
  0
LINE
  5
2E6
100
AcDbEntity
  8
Bemaßung
  6
ByBlock
 62
    0
370
   -2
100
AcDbLine
 10
601
 20
-303.0651421687205
 11
601
 21
-402.5
  0
LINE
  5
2E7
100
AcDbEntity
  8
Bemaßung
  6
ByBlock
 62
    0
370
   -2
100
AcDbLine
 10
300
 20
-79.43782188876469
 11
647
 21
-79.43782188876469
  0
MTEXT
  5
2E8
100
AcDbEntity
  8
Bemaßung
  6
CONTINUOUS
 62
    0
370
   -2
100
AcDbMText
 10
473.5
 20
-71.31282188876469
 30
0
 40
6.25
 41
13.19444444444483
 71
    5
 72
    1
  1
347
  7
standard
210
0
220
0
230
1
 50
0
 73
    2
 44
1
  0
LINE
  5
2E9
100
AcDbEntity
  8
Bemaßung
  6
ByBlock
 62
    0
370
   -2
100
AcDbLine
 10
301.7677669529664
 20
-77.67005493579832
 11
298.2322330470336
 21
-81.20558884173106
  0
LINE
  5
2EA
100
AcDbEntity
  8
Bemaßung
  6
ByBlock
 62
    0
370
   -2
100
AcDbLine
 10
648.7677669529663
 20
-77.67005493579832
 11
645.2322330470337
 21
-81.20558884173106
  0
MTEXT
  5
2EB
100
AcDbEntity
  8
Bemaßung
  6
CONTINUOUS
 62
    0
370
   -2
100
AcDbMText
 10
639.5
 20
-371.9127615360219
 30
0
 40
6.25
 41
6.250000000000387
 71
    5
 72
    1
  1
15
  7
standard
210
0
220
0
230
1
 50
0
 73
    2
 44
1
  0
LINE
  5
2EC
100
AcDbEntity
  8
Bemaßung
  6
ByBlock
 62
    0
370
   -2
100
AcDbLine
 10
648.7677669529663
 20
-378.2699945830556
 11
645.2322330470337
 21
-381.8055284889883
  0
LINE
  5
2ED
100
AcDbEntity
  8
Bemaßung
  6
ByBlock
 62
    0
370
   -2
100
AcDbLine
 10
647
 20
-367.9885801803119
 11
647
 21
-382.5377615360219
  0
LINE
  5
2EE
100
AcDbEntity
  8
Bemaßung
  6
ByBlock
 62
    0
370
   -2
100
AcDbLine
 10
632
 20
-367.9885801803119
 11
632
 21
-382.5377615360219
  0
LINE
  5
2EF
100
AcDbEntity
  8
Bemaßung
  6
ByBlock
 62
    0
370
   -2
100
AcDbLine
 10
647
 20
-367.9885801803119
 11
647
 21
-402.5
  0
LINE
  5
2F0
100
AcDbEntity
  8
Bemaßung
  6
ByBlock
 62
    0
370
   -2
100
AcDbLine
 10
300
 20
-367.9885801803119
 11
300
 21
-402.5
  0
LINE
  5
2F1
100
AcDbEntity
  8
Hilfslinie
  6
ByLayer
 62
  256
370
   -1
100
AcDbLine
 10
652.1846942854105
 20
-420.3588714773203
 11
652.0841754921341
 21
-367.9885801803119
  0
LINE
  5
2F2
100
AcDbEntity
  8
Bemaßung
  6
ByBlock
 62
    0
370
   -2
100
AcDbLine
 10
647
 20
-89.43903414841212
 11
647
 21
-76.93782188876469
  0
LINE
  5
2F3
100
AcDbEntity
  8
Bemaßung
  6
ByBlock
 62
    0
370
   -2
100
AcDbLine
 10
300
 20
-89.76033044470842
 11
300
 21
-76.93782188876469
  0
LINE
  5
2F4
100
AcDbEntity
  8
Hilfslinie
  6
ByLayer
 62
  256
370
   -1
100
AcDbLine
 10
625.6504133615977
 20
-372.1782034840754
 11
625.6504133615977
 21
-438.5139057936194
  0
LINE
  5
2F5
100
AcDbEntity
  8
Bemaßung
  6
ByBlock
 62
    0
370
   -2
100
AcDbLine
 10
652.1073025196882
 20
-380.0377615360219
 11
625.6504133615977
 21
-380.037761536022
  0
LINE
  5
2F6
100
AcDbEntity
  8
Hilfslinie
  6
ByLayer
 62
  256
370
   -1
100
AcDbLine
 10
498.0628113969408
 20
232.1427160395112
 11
497.4486772275241
 21
186.6967875026757
  0
LINE
  5
2F7
100
AcDbEntity
  8
Hilfslinie
  6
ByLayer
 62
  256
370
   -1
100
AcDbLine
 10
474.1115787896896
 20
216.1752276346771
 11
473.4974446202729
 21
187.3109216720924
  0
LINE
  5
2F8
100
AcDbEntity
  8
Bemaßung
  6
ByBlock
 62
    0
370
   -2
100
AcDbLine
 10
473.8866467073889
 20
205.6034197665479
 11
497.8871107649431
 21
219.1408692716878
  0
LINE
  5
2F9
100
AcDbEntity
  8
Hilfslinie
  6
ByLayer
 62
  256
370
   -1
100
AcDbLine
 10
323.1309817375
 20
232.6225495063575
 11
322.3370481214373
 21
169.1078602213452
  0
LINE
  5
2FA
100
AcDbEntity
  8
Hilfslinie
  6
ByLayer
 62
  256
370
   -1
100
AcDbLine
 10
292.1675707110565
 20
298.5190396395577
 11
292.1675707110565
 21
172.2835946855958
  0
LINE
  5
2FB
100
AcDbEntity
  8
Hilfslinie
  6
ByLayer
 62
  256
370
   -1
100
AcDbLine
 10
273.0299040697644
 20
232.9757189505123
 11
357.9153789555189
 21
232.9757189505123
  0
LINE
  5
2FC
100
AcDbEntity
  8
Bemaßung
  6
CONTINUOUS
 62
    0
370
   -2
100
AcDbLine
 10
316.5359463227392
 20
252.511210910574
 11
314.7270604383613
 21
248.8937592455678
  0
LINE
  5
2FD
100
AcDbEntity
  8
Bemaßung
  6
CONTINUOUS
 62
    0
370
   -2
100
AcDbLine
 10
314.7270604383613
 20
248.8937592455678
 11
317.4572428368328
 21
248.3817500134326
  0
LINE
  5
2FE
100
AcDbEntity
  8
Bemaßung
  6
CONTINUOUS
 62
    0
370
   -2
100
AcDbLine
 10
316.8429918101455
 20
249.6274257424618
 11
316.4333844244373
 21
247.4432798236845
  0
LINE
  5
2FF
100
AcDbEntity
  8
Bemaßung
  6
ByLayer
 62
  256
370
   -1
100
AcDbLine
 10
321.5184037098933
 20
236.8283814857165
 11
324.8517370432266
 21
226.8283814857165
  0
LINE
  5
300
100
AcDbEntity
  8
Bemaßung
  6
ByLayer
 62
  256
370
   -1
100
AcDbLine
 10
324.8517370432266
 20
226.8283814857165
 11
328.18507037656
 21
236.8283814857165
  0
LINE
  5
301
100
AcDbEntity
  8
Bemaßung
  6
ByLayer
 62
  256
370
   -1
100
AcDbLine
 10
331.5184037098933
 20
226.8283814857165
 11
334.8517370432266
 21
226.8283814857165
  0
ARC
  5
302
100
AcDbEntity
  8
Bemaßung
  6
ByLayer
 62
  256
370
   -1
100
AcDbCircle
 10
334.8517387033937
 20
229.0506020477717
 40
2.222220562055768
100
AcDbArc
 50
269.999957195713
 51
4.280428697116827e-05
  0
LINE
  5
303
100
AcDbEntity
  8
Bemaßung
  6
ByLayer
 62
  256
370
   -1
100
AcDbLine
 10
337.0739592654488
 20
229.0506037079387
 11
337.0739592654488
 21
234.6061592634943
  0
ARC
  5
304
100
AcDbEntity
  8
Bemaßung
  6
ByLayer
 62
  256
370
   -1
100
AcDbCircle
 10
334.8517387033937
 20
234.6061609236613
 40
2.222220562055768
100
AcDbArc
 50
359.999957195713
 51
90.00004280428698
  0
LINE
  5
305
100
AcDbEntity
  8
Bemaßung
  6
ByLayer
 62
  256
370
   -1
100
AcDbLine
 10
334.8517370432266
 20
236.8283814857165
 11
331.5184037098933
 21
236.8283814857165
  0
LINE
  5
306
100
AcDbEntity
  8
Bemaßung
  6
ByLayer
 62
  256
370
   -1
100
AcDbLine
 10
331.5184037098933
 20
236.8283814857165
 11
331.5184037098933
 21
226.8283814857165
  0
LINE
  5
307
100
AcDbEntity
  8
Bemaßung
  6
ByBlock
 62
    0
370
   -2
100
AcDbLine
 10
298.2322330470336
 20
216.5639774642633
 11
301.7677669529664
 21
220.099511370196
  0
LINE
  5
308
100
AcDbEntity
  8
Bemaßung
  6
ByBlock
 62
    0
370
   -2
100
AcDbLine
 10
311.2322330470336
 20
216.5639774642633
 11
314.7677669529664
 21
220.099511370196
  0
LINE
  5
309
100
AcDbEntity
  8
Bemaßung
  6
ByBlock
 62
    0
370
   -2
100
AcDbLine
 10
300
 20
200.0459040156634
 11
300
 21
220.8317444172297
  0
LINE
  5
30A
100
AcDbEntity
  8
Bemaßung
  6
ByBlock
 62
    0
370
   -2
100
AcDbLine
 10
313
 20
241.4375
 11
313
 21
215.8317444172297
  0
MTEXT
  5
30B
100
AcDbEntity
  8
Bemaßung
  6
CONTINUOUS
 62
    0
370
   -2
100
AcDbMText
 10
275.3093009343673
 20
250.5
 30
0
 40
6.25
 41
6.250000000000387
 71
    5
 72
    1
  1
15
  7
standard
210
0
220
0
230
1
 50
90
 73
    2
 44
1
  0
LINE
  5
30C
100
AcDbEntity
  8
Bemaßung
  6
ByBlock
 62
    0
370
   -2
100
AcDbLine
 10
281.6665339814009
 20
259.7677669529664
 11
285.2020678873337
 21
256.2322330470336
  0
LINE
  5
30D
100
AcDbEntity
  8
Bemaßung
  6
ByBlock
 62
    0
370
   -2
100
AcDbLine
 10
281.6665339814009
 20
244.7677669529664
 11
285.2020678873337
 21
241.2322330470336
  0
LINE
  5
30E
100
AcDbEntity
  8
Bemaßung
  6
CONTINUOUS
 62
    0
370
   -2
100
AcDbLine
 10
303.3749999999998
 20
228.1928555283408
 11
304.7638888888887
 21
229.5817444172297
  0
LINE
  5
30F
100
AcDbEntity
  8
Bemaßung
  6
CONTINUOUS
 62
    0
370
   -2
100
AcDbLine
 10
304.7638888888887
 20
229.5817444172297
 11
304.7638888888887
 21
223.3317444172297
  0
LINE
  5
310
100
AcDbEntity
  8
Bemaßung
  6
CONTINUOUS
 62
    0
370
   -2
100
AcDbLine
 10
306.847222222222
 20
229.5817444172297
 11
308.2361111111109
 21
229.5817444172297
  0
ARC
  5
311
100
AcDbEntity
  8
Bemaßung
  6
CONTINUOUS
 62
    0
370
   -2
100
AcDbCircle
 10
308.2361111111109
 20
228.1928555283408
 40
1.388888888888889
100
AcDbArc
 50
270
 51
90
  0
LINE
  5
312
100
AcDbEntity
  8
Bemaßung
  6
CONTINUOUS
 62
    0
370
   -2
100
AcDbLine
 10
307.5416666666665
 20
226.8039666394519
 11
308.2361111111109
 21
226.8039666394519
  0
ARC
  5
313
100
AcDbEntity
  8
Bemaßung
  6
CONTINUOUS
 62
    0
370
   -2
100
AcDbCircle
 10
308.2361121487153
 20
225.4150787881674
 40
1.388887851284855
100
AcDbArc
 50
359.999957195713
 51
90.00004280428698
  0
LINE
  5
314
100
AcDbEntity
  8
Bemaßung
  6
CONTINUOUS
 62
    0
370
   -2
100
AcDbLine
 10
309.6249999999998
 20
225.415077750563
 11
309.6249999999998
 21
224.7206333061186
  0
ARC
  5
315
100
AcDbEntity
  8
Bemaßung
  6
CONTINUOUS
 62
    0
370
   -2
100
AcDbCircle
 10
308.2361121487153
 20
224.7206322685142
 40
1.388887851284855
100
AcDbArc
 50
269.999957195713
 51
4.280428697116827e-05
  0
LINE
  5
316
100
AcDbEntity
  8
Bemaßung
  6
CONTINUOUS
 62
    0
370
   -2
100
AcDbLine
 10
308.2361111111109
 20
223.3317444172297
 11
306.847222222222
 21
223.3317444172297
  0
LINE
  5
317
100
AcDbEntity
  8
Bemaßung
  6
ByBlock
 62
    0
370
   -2
100
AcDbLine
 10
292.1675707110565
 20
258
 11
280.9343009343673
 21
258
  0
LINE
  5
318
100
AcDbEntity
  8
Bemaßung
  6
ByBlock
 62
    0
370
   -2
100
AcDbLine
 10
292.1675707110565
 20
243
 11
280.9343009343673
 21
243
  0
LINE
  5
319
100
AcDbEntity
  8
Bemaßung
  6
ByBlock
 62
    0
370
   -2
100
AcDbLine
 10
292.1675707110565
 20
218.3317444172297
 11
322.9523466738859
 21
218.3317444172297
  0
LINE
  5
31A
100
AcDbEntity
  8
Bemaßung
  6
ByBlock
 62
    0
370
   -2
100
AcDbLine
 10
283.4343009343673
 20
270
 11
283.4343009343673
 21
232.9757189505123
  0
DIMENSION
  5
31B
100
AcDbEntity
  8
Bemaßung
  6
ByLayer
 62
  256
370
   -1
100
AcDbDimension
  2
*D2
 10
514.4689832085999
 20
213
 30
0
 11
506.3439832085999
 21
235.5
 31
0
 70
   32
 71
    5
 72
    0
  3
Standard
 53
0
210
0
220
0
230
1
100
AcDbAlignedDimension
 13
531.9355227619783
 23
258
 33
0
 14
487
 24
213
 34
0
 50
90
100
AcDbRotatedDimension
  0
CIRCLE
  5
31C
100
AcDbEntity
  8
Bemaßung
  6
ByLayer
 62
  256
370
   -1
100
AcDbCircle
 10
632
 20
-243
 40
3
  0
CIRCLE
  5
31D
100
AcDbEntity
  8
Bemaßung
  6
ByLayer
 62
  256
370
   -1
100
AcDbCircle
 10
632
 20
-251
 40
3
  0
LINE
  5
31E
100
AcDbEntity
  8
Bemaßung
  6
ByLayer
 62
  256
370
   -1
100
AcDbLine
 10
632
 20
-243
 11
632
 21
-251
  0
MTEXT
  5
31F
100
AcDbEntity
  8
Bemaßung
  6
ByLayer
 62
  256
370
   -1
100
AcDbMText
 10
606.8223979561596
 20
-231.5080606233689
 30
0
 40
10
 41
36.38888676886739
 71
    4
 72
    1
  1
LS 2x
  7
standard
210
0
220
0
230
1
 50
0
 73
    2
 44
1
  0
ENDSEC
  0
SECTION
  2
OBJECTS
  0
DICTIONARY
  5
C
330
0
100
AcDbDictionary
281
    1
  3
ACAD_GROUP
350
D
  0
DICTIONARY
  5
D
330
C
100
AcDbDictionary
281
    1
  0
PLOTSETTINGS
  5
320
100
AcDbPlotSettings
  6
1x1
 40
4.23
 41
4.23
 42
4.23
 43
4.23
  0
ENDSEC
  0
EOF
