999
dxfrw 0.6.3
  0
SECTION
  2
HEADER
  9
$ACADVER
  1
AC1021
  9
$DWGCODEPAGE
  3
ANSI_1252
  9
$INSBASE
 10
0
 20
0
 30
0
  9
$EXTMIN
 10
120
 20
380.5857864376269
 30
0
  9
$EXTMAX
 10
655
 20
959
 30
0
  9
$LIMMIN
 10
0
 20
0
  9
$LIMMAX
 10
420
 20
297
  9
$ORTHOMODE
 70
    0
  9
$REGENMODE
 70
    1
  9
$FILLMODE
 70
    1
  9
$QTEXTMODE
 70
    0
  9
$MIRRTEXT
 70
    0
  9
$LTSCALE
 40
1
  9
$ATTMODE
 70
    0
  9
$TEXTSIZE
 40
2.5
  9
$TRACEWID
 40
15.68
  9
$TEXTSTYLE
  7
STANDARD
  9
$CLAYER
  8
addition
  9
$CELTYPE
  6
BYLAYER
  9
$CECOLOR
 62
  256
  9
$CELTSCALE
 40
1
  9
$DISPSILH
 70
    0
  9
$DIMSCALE
 40
1
  9
$DIMASZ
 40
0
  9
$DIMEXO
 40
1
  9
$DIMDLI
 40
3.75
  9
$DIMRND
 40
0
  9
$DIMDLE
 40
0
  9
$DIMEXE
 40
0
  9
$DIMTP
 40
0
  9
$DIMTM
 40
0
  9
$DIMTXT
 40
5
  9
$DIMCEN
 40
2.5
  9
$DIMTSZ
 40
2
  9
$DIMTOL
 70
    0
  9
$DIMLIM
 70
    0
  9
$DIMTIH
 70
    1
  9
$DIMTOH
 70
    0
  9
$DIMSE1
 70
    0
  9
$DIMSE2
 70
    0
  9
$DIMTAD
 70
    1
  9
$DIMZIN
 70
    8
  9
$DIMBLK
  1

  9
$DIMASO
 70
    1
  9
$DIMSHO
 70
    1
  9
$DIMPOST
  1

  9
$DIMAPOST
  1

  9
$DIMALT
 70
    0
  9
$DIMALTD
 70
    3
  9
$DIMALTF
 40
0.03937
  9
$DIMLFAC
 40
1
  9
$DIMTOFL
 70
    1
  9
$DIMTVP
 40
0
  9
$DIMTIX
 70
    0
  9
$DIMSOXD
 70
    0
  9
$DIMSAH
 70
    0
  9
$DIMBLK1
  1

  9
$DIMBLK2
  1

  9
$DIMSTYLE
  2
STANDARD
  9
$DIMCLRD
 70
    7
  9
$DIMCLRE
 70
    7
  9
$DIMCLRT
 70
    7
  9
$DIMTFAC
 40
1
  9
$DIMGAP
 40
1
  9
$DIMJUST
 70
    0
  9
$DIMSD1
 70
    0
  9
$DIMSD2
 70
    0
  9
$DIMTOLJ
 70
    0
  9
$DIMTZIN
 70
    8
  9
$DIMALTZ
 70
    0
  9
$DIMALTTZ
 70
    0
  9
$DIMUPT
 70
    0
  9
$DIMDEC
 70
    1
  9
$DIMTDEC
 70
    2
  9
$DIMALTU
 70
    2
  9
$DIMALTTD
 70
    3
  9
$DIMTXSTY
  7
standard
  9
$DIMAUNIT
 70
    0
  9
$DIMADEC
 70
    2
  9
$DIMALTRND
 40
0
  9
$DIMAZIN
 70
    0
  9
$DIMDSEP
 70
    0
  9
$DIMATFIT
 70
    3
  9
$DIMFRAC
 70
    0
  9
$DIMLDRBLK
  1
STANDARD
  9
$DIMLUNIT
 70
    2
  9
$DIMLWD
 70
   -3
  9
$DIMLWE
 70
   -3
  9
$DIMTMOVE
 70
    0
  9
$DIMFXL
 40
0
  9
$DIMFXLON
 70
    1
  9
$DIMJOGANG
 40
0.7854
  9
$DIMTFILL
 70
    0
  9
$DIMTFILLCLR
 70
    0
  9
$DIMARCSYM
 70
    0
  9
$DIMLTYPE
  6

  9
$DIMLTEX1
  6

  9
$DIMLTEX2
  6

  9
$LUNITS
 70
    2
  9
$LUPREC
 70
    1
  9
$SKETCHINC
 40
1
  9
$FILLETRAD
 40
0
  9
$AUNITS
 70
    0
  9
$AUPREC
 70
    2
  9
$MENU
  1
.
  9
$ELEVATION
 40
0
  9
$PELEVATION
 40
0
  9
$THICKNESS
 40
0
  9
$LIMCHECK
 70
    0
  9
$CHAMFERA
 40
0
  9
$CHAMFERB
 40
0
  9
$CHAMFERC
 40
0
  9
$CHAMFERD
 40
0
  9
$SKPOLY
 70
    0
  9
$USRTIMER
 70
    1
  9
$ANGBASE
 50
0
  9
$ANGDIR
 70
    0
  9
$PDMODE
 70
   34
  9
$PDSIZE
 40
0
  9
$PLINEWID
 40
0
  9
$SPLFRAME
 70
    0
  9
$SPLINETYPE
 70
    2
  9
$SPLINESEGS
 70
    8
  9
$HANDSEED
  5
20000
  9
$SURFTAB1
 70
    6
  9
$SURFTAB2
 70
    6
  9
$SURFTYPE
 70
    6
  9
$SURFU
 70
    6
  9
$SURFV
 70
    6
  9
$UCSBASE
  2

  9
$UCSNAME
  2

  9
$UCSORG
 10
0
 20
0
 30
0
  9
$UCSXDIR
 10
1
 20
0
 30
0
  9
$UCSYDIR
 10
0
 20
1
 30
0
  9
$UCSORTHOREF
  2

  9
$UCSORTHOVIEW
 70
    0
  9
$UCSORGTOP
 10
0
 20
0
 30
0
  9
$UCSORGBOTTOM
 10
0
 20
0
 30
0
  9
$UCSORGLEFT
 10
0
 20
0
 30
0
  9
$UCSORGRIGHT
 10
0
 20
0
 30
0
  9
$UCSORGFRONT
 10
0
 20
0
 30
0
  9
$UCSORGBACK
 10
0
 20
0
 30
0
  9
$PUCSBASE
  2

  9
$PUCSNAME
  2

  9
$PUCSORG
 10
0
 20
0
 30
0
  9
$PUCSXDIR
 10
1
 20
0
 30
0
  9
$PUCSYDIR
 10
0
 20
1
 30
0
  9
$PUCSORTHOREF
  2

  9
$PUCSORTHOVIEW
 70
    0
  9
$PUCSORGTOP
 10
0
 20
0
 30
0
  9
$PUCSORGBOTTOM
 10
0
 20
0
 30
0
  9
$PUCSORGLEFT
 10
0
 20
0
 30
0
  9
$PUCSORGRIGHT
 10
0
 20
0
 30
0
  9
$PUCSORGFRONT
 10
0
 20
0
 30
0
  9
$PUCSORGBACK
 10
0
 20
0
 30
0
  9
$USERI1
 70
    0
  9
$USERI2
 70
    0
  9
$USERI3
 70
    0
  9
$USERI4
 70
    0
  9
$USERI5
 70
    0
  9
$USERR1
 40
0
  9
$USERR2
 40
0
  9
$USERR3
 40
0
  9
$USERR4
 40
0
  9
$USERR5
 40
0
  9
$WORLDVIEW
 70
    1
  9
$SHADEDGE
 70
    3
  9
$SHADEDIF
 70
   70
  9
$TILEMODE
 70
    1
  9
$MAXACTVP
 70
   64
  9
$PINSBASE
 10
-0.5937500000000001
 20
-2.872411165235169
 30
0
  9
$PLIMCHECK
 70
    0
  9
$PEXTMIN
 10
0
 20
0
 30
0
  9
$PEXTMAX
 10
0
 20
0
 30
0
  9
$GRIDMODE
 70
    0
  9
$SNAPSTYLE
 70
    0
  9
$GRIDUNIT
 10
0.5
 20
0.5
  9
$PLIMMIN
 10
0
 20
0
  9
$PLIMMAX
 10
8.5
 20
11
  9
$UNITMODE
 70
    0
  9
$VISRETAIN
 70
    1
  9
$PLINEGEN
 70
    0
  9
$PSLTSCALE
 70
    1
  9
$TREEDEPTH
 70
 3020
  9
$CMLSTYLE
  2
Standard
  9
$CMLJUST
 70
    0
  9
$CMLSCALE
 40
20
  9
$PROXYGRAPHICS
 70
    1
  9
$MEASUREMENT
 70
    0
  9
$CELWEIGHT
370
   -1
  9
$ENDCAPS
280
    0
  9
$JOINSTYLE
280
    0
  9
$LWDISPLAY
290
    0
  9
$INSUNITS
 70
    1
  9
$HYPERLINKBASE
  1

  9
$STYLESHEET
  1

  9
$XEDIT
290
    1
  9
$CEPSNTYPE
380
    0
  9
$PSTYLEMODE
290
    1
  9
$EXTNAMES
290
    1
  9
$PSVPSCALE
 40
0.0125
  9
$OLESTARTUP
290
    0
  9
$SORTENTS
280
  127
  9
$INDEXCTL
280
    0
  9
$HIDETEXT
280
    1
  9
$XCLIPFRAME
290
    0
  9
$HALOGAP
280
    0
  9
$OBSCOLOR
 70
  257
  9
$OBSLTYPE
280
    0
  9
$INTERSECTIONDISPLAY
280
    0
  9
$INTERSECTIONCOLOR
 70
  257
  9
$DIMASSOC
280
    1
  9
$PROJECTNAME
  1

  9
$CAMERADISPLAY
290
    0
  9
$LENSLENGTH
 40
50
  9
$CAMERAHEIGHT
 40
0
  9
$STEPSPERSEC
 40
2
  9
$STEPSIZE
 40
50
  9
$3DDWFPREC
 40
2
  9
$PSOLWIDTH
 40
5
  9
$PSOLHEIGHT
 40
80
  9
$LOFTANG1
 40
1.570796326794897
  9
$LOFTANG2
 40
1.570796326794897
  9
$LOFTMAG1
 40
0
  9
$LOFTMAG2
 40
0
  9
$LOFTPARAM
 70
    7
  9
$LOFTNORMALS
280
    1
  9
$LATITUDE
 40
1
  9
$LONGITUDE
 40
1
  9
$NORTHDIRECTION
 40
0
  9
$TIMEZONE
 70
-8000
  9
$LIGHTGLYPHDISPLAY
280
    1
  9
$TILEMODELIGHTSYNCH
280
    1
  9
$SOLIDHIST
280
    1
  9
$SHOWHIST
280
    1
  9
$DWFFRAME
280
    2
  9
$DGNFRAME
280
    0
  9
$REALWORLDSCALE
290
    1
  9
$INTERFERECOLOR
 62
    1
  9
$CSHADOW
280
    0
  9
$SHADOWPLANELOCATION
 40
0
  0
ENDSEC
  0
SECTION
  2
CLASSES
  0
ENDSEC
  0
SECTION
  2
TABLES
  0
TABLE
  2
VPORT
  5
8
330
0
100
AcDbSymbolTable
 70
    1
  0
VPORT
  5
31
330
2
100
AcDbSymbolTableRecord
100
AcDbViewportTableRecord
  2
*ACTIVE
 70
    0
 10
0
 20
0
 11
1
 21
1
 12
530.8302872062662
 22
552.4177545691905
 13
0
 23
0
 14
10
 24
10
 15
0.5
 25
0.5
 16
0
 26
0
 36
1
 17
0
 27
0
 37
0
 40
870.1409921671017
 41
1.547073791348601
 42
50
 43
0
 44
0
 50
0
 51
0
 71
    0
 72
  100
 73
    1
 74
    3
 75
    0
 76
    0
 77
    0
 78
    0
281
    0
 65
    1
110
0
120
0
130
0
111
1
121
0
131
0
112
0
122
1
132
0
 79
    0
146
0
348
10020
 60
    3
 61
    5
292
1
282
    1
141
0
142
0
 63
  250
421
3358443
  0
ENDTAB
  0
TABLE
  2
LTYPE
  5
5
330
0
100
AcDbSymbolTable
 70
    4
  0
LTYPE
  5
14
330
5
100
AcDbSymbolTableRecord
100
AcDbLinetypeTableRecord
  2
ByBlock
 70
    0
  3

 72
   65
 73
    0
 40
0
  0
LTYPE
  5
15
330
5
100
AcDbSymbolTableRecord
100
AcDbLinetypeTableRecord
  2
ByLayer
 70
    0
  3

 72
   65
 73
    0
 40
0
  0
LTYPE
  5
16
330
5
100
AcDbSymbolTableRecord
100
AcDbLinetypeTableRecord
  2
Continuous
 70
    0
  3
Solid line
 72
   65
 73
    0
 40
0
  0
LTYPE
  5
32
330
5
100
AcDbSymbolTableRecord
100
AcDbLinetypeTableRecord
  2
DOT
 70
    0
  3
Dot . . . . . . . . . . . . . . . . . . . . . .
 72
   65
 73
    2
 40
6.35
 49
0
 74
    0
 49
-6.35
 74
    0
  0
LTYPE
  5
33
330
5
100
AcDbSymbolTableRecord
100
AcDbLinetypeTableRecord
  2
DOTTINY
 70
    0
  3
Dot (.15x) .....................................
 72
   65
 73
    2
 40
0.9525
 49
0
 74
    0
 49
-0.9525
 74
    0
  0
LTYPE
  5
34
330
5
100
AcDbSymbolTableRecord
100
AcDbLinetypeTableRecord
  2
DOT2
 70
    0
  3
Dot (.5x) .....................................
 72
   65
 73
    2
 40
3.175
 49
0
 74
    0
 49
-3.175
 74
    0
  0
LTYPE
  5
35
330
5
100
AcDbSymbolTableRecord
100
AcDbLinetypeTableRecord
  2
DOTX2
 70
    0
  3
Dot (2x) .  .  .  .  .  .  .  .  .  .  .  .  .
 72
   65
 73
    2
 40
12.7
 49
0
 74
    0
 49
-12.7
 74
    0
  0
LTYPE
  5
36
330
5
100
AcDbSymbolTableRecord
100
AcDbLinetypeTableRecord
  2
DASHED
 70
    0
  3
Dashed _ _ _ _ _ _ _ _ _ _ _ _ _ _ _ _ _
 72
   65
 73
    2
 40
19.05
 49
12.7
 74
    0
 49
-6.35
 74
    0
  0
LTYPE
  5
37
330
5
100
AcDbSymbolTableRecord
100
AcDbLinetypeTableRecord
  2
DASHEDTINY
 70
    0
  3
Dashed (.15x) _ _ _ _ _ _ _ _ _ _ _ _ _ _ _ _ _
 72
   65
 73
    2
 40
2.8575
 49
1.905
 74
    0
 49
-0.9525
 74
    0
  0
LTYPE
  5
38
330
5
100
AcDbSymbolTableRecord
100
AcDbLinetypeTableRecord
  2
DASHED2
 70
    0
  3
Dashed (.5x) _ _ _ _ _ _ _ _ _ _ _ _ _ _ _ _ _
 72
   65
 73
    2
 40
9.524999999999999
 49
6.35
 74
    0
 49
-3.175
 74
    0
  0
LTYPE
  5
39
330
5
100
AcDbSymbolTableRecord
100
AcDbLinetypeTableRecord
  2
DASHEDX2
 70
    0
  3
Dashed (2x) ____  ____  ____  ____  ____  ___
 72
   65
 73
    2
 40
38.09999999999999
 49
25.4
 74
    0
 49
-12.7
 74
    0
  0
LTYPE
  5
3A
330
5
100
AcDbSymbolTableRecord
100
AcDbLinetypeTableRecord
  2
DASHDOT
 70
    0
  3
Dash dot __ . __ . __ . __ . __ . __ . __ . __
 72
   65
 73
    4
 40
25.4
 49
12.7
 74
    0
 49
-6.35
 74
    0
 49
0
 74
    0
 49
-6.35
 74
    0
  0
LTYPE
  5
3B
330
5
100
AcDbSymbolTableRecord
100
AcDbLinetypeTableRecord
  2
DASHDOTTINY
 70
    0
  3
Dash dot (.15x) _._._._._._._._._._._._._._._.
 72
   65
 73
    4
 40
3.81
 49
1.905
 74
    0
 49
-0.9525
 74
    0
 49
0
 74
    0
 49
-0.9525
 74
    0
  0
LTYPE
  5
3C
330
5
100
AcDbSymbolTableRecord
100
AcDbLinetypeTableRecord
  2
DASHDOT2
 70
    0
  3
Dash dot (.5x) _._._._._._._._._._._._._._._.
 72
   65
 73
    4
 40
12.7
 49
6.35
 74
    0
 49
-3.175
 74
    0
 49
0
 74
    0
 49
-3.175
 74
    0
  0
LTYPE
  5
3D
330
5
100
AcDbSymbolTableRecord
100
AcDbLinetypeTableRecord
  2
DASHDOTX2
 70
    0
  3
Dash dot (2x) ____  .  ____  .  ____  .  ___
 72
   65
 73
    4
 40
50.8
 49
25.4
 74
    0
 49
-12.7
 74
    0
 49
0
 74
    0
 49
-12.7
 74
    0
  0
LTYPE
  5
3E
330
5
100
AcDbSymbolTableRecord
100
AcDbLinetypeTableRecord
  2
DIVIDE
 70
    0
  3
Divide ____ . . ____ . . ____ . . ____ . . ____
 72
   65
 73
    6
 40
31.75
 49
12.7
 74
    0
 49
-6.35
 74
    0
 49
0
 74
    0
 49
-6.35
 74
    0
 49
0
 74
    0
 49
-6.35
 74
    0
  0
LTYPE
  5
3F
330
5
100
AcDbSymbolTableRecord
100
AcDbLinetypeTableRecord
  2
DIVIDETINY
 70
    0
  3
Divide (.15x) __..__..__..__..__..__..__..__.._
 72
   65
 73
    6
 40
4.7625
 49
1.905
 74
    0
 49
-0.9525
 74
    0
 49
0
 74
    0
 49
-0.9525
 74
    0
 49
0
 74
    0
 49
-0.9525
 74
    0
  0
LTYPE
  5
40
330
5
100
AcDbSymbolTableRecord
100
AcDbLinetypeTableRecord
  2
DIVIDE2
 70
    0
  3
Divide (.5x) __..__..__..__..__..__..__..__.._
 72
   65
 73
    6
 40
15.875
 49
6.35
 74
    0
 49
-3.175
 74
    0
 49
0
 74
    0
 49
-3.175
 74
    0
 49
0
 74
    0
 49
-3.175
 74
    0
  0
LTYPE
  5
41
330
5
100
AcDbSymbolTableRecord
100
AcDbLinetypeTableRecord
  2
DIVIDEX2
 70
    0
  3
Divide (2x) ________  .  .  ________  .  .  _
 72
   65
 73
    6
 40
63.5
 49
25.4
 74
    0
 49
-12.7
 74
    0
 49
0
 74
    0
 49
-12.7
 74
    0
 49
0
 74
    0
 49
-12.7
 74
    0
  0
LTYPE
  5
42
330
5
100
AcDbSymbolTableRecord
100
AcDbLinetypeTableRecord
  2
BORDER
 70
    0
  3
Border __ __ . __ __ . __ __ . __ __ . __ __ .
 72
   65
 73
    6
 40
44.45
 49
12.7
 74
    0
 49
-6.35
 74
    0
 49
12.7
 74
    0
 49
-6.35
 74
    0
 49
0
 74
    0
 49
-6.35
 74
    0
  0
LTYPE
  5
43
330
5
100
AcDbSymbolTableRecord
100
AcDbLinetypeTableRecord
  2
BORDERTINY
 70
    0
  3
Border (.15x) __.__.__.__.__.__.__.__.__.__.__.
 72
   65
 73
    6
 40
6.6675
 49
1.905
 74
    0
 49
-0.9525
 74
    0
 49
1.905
 74
    0
 49
-0.9525
 74
    0
 49
0
 74
    0
 49
-0.9525
 74
    0
  0
LTYPE
  5
44
330
5
100
AcDbSymbolTableRecord
100
AcDbLinetypeTableRecord
  2
BORDER2
 70
    0
  3
Border (.5x) __.__.__.__.__.__.__.__.__.__.__.
 72
   65
 73
    6
 40
22.225
 49
6.35
 74
    0
 49
-3.175
 74
    0
 49
6.35
 74
    0
 49
-3.175
 74
    0
 49
0
 74
    0
 49
-3.175
 74
    0
  0
LTYPE
  5
45
330
5
100
AcDbSymbolTableRecord
100
AcDbLinetypeTableRecord
  2
BORDERX2
 70
    0
  3
Border (2x) ____  ____  .  ____  ____  .  ___
 72
   65
 73
    6
 40
88.89999999999999
 49
25.4
 74
    0
 49
-12.7
 74
    0
 49
25.4
 74
    0
 49
-12.7
 74
    0
 49
0
 74
    0
 49
-12.7
 74
    0
  0
LTYPE
  5
46
330
5
100
AcDbSymbolTableRecord
100
AcDbLinetypeTableRecord
  2
CENTER
 70
    0
  3
Center ____ _ ____ _ ____ _ ____ _ ____ _ ____
 72
   65
 73
    4
 40
50.8
 49
31.75
 74
    0
 49
-6.35
 74
    0
 49
6.35
 74
    0
 49
-6.35
 74
    0
  0
LTYPE
  5
47
330
5
100
AcDbSymbolTableRecord
100
AcDbLinetypeTableRecord
  2
CENTERTINY
 70
    0
  3
Center (.15x) ___ _ ___ _ ___ _ ___ _ ___ _ ___
 72
   65
 73
    4
 40
7.62
 49
4.7625
 74
    0
 49
-0.9525
 74
    0
 49
0.9525
 74
    0
 49
-0.9525
 74
    0
  0
LTYPE
  5
48
330
5
100
AcDbSymbolTableRecord
100
AcDbLinetypeTableRecord
  2
CENTER2
 70
    0
  3
Center (.5x) ___ _ ___ _ ___ _ ___ _ ___ _ ___
 72
   65
 73
    4
 40
28.575
 49
19.05
 74
    0
 49
-3.175
 74
    0
 49
3.175
 74
    0
 49
-3.175
 74
    0
  0
LTYPE
  5
49
330
5
100
AcDbSymbolTableRecord
100
AcDbLinetypeTableRecord
  2
CENTERX2
 70
    0
  3
Center (2x) ________  __  ________  __  _____
 72
   65
 73
    4
 40
101.6
 49
63.5
 74
    0
 49
-12.7
 74
    0
 49
12.7
 74
    0
 49
-12.7
 74
    0
  0
ENDTAB
  0
TABLE
  2
LAYER
  5
2
330
0
100
AcDbSymbolTable
 70
    1
  0
LAYER
  5
10
330
2
100
AcDbSymbolTableRecord
100
AcDbLayerTableRecord
  2
0
 70
    0
 62
    7
  6
CONTINUOUS
370
    0
390
F
  0
LAYER
  5
4A
330
2
100
AcDbSymbolTableRecord
100
AcDbLayerTableRecord
  2
addition
 70
    1
 62
    7
  6
CONTINUOUS
370
    0
390
F
  0
LAYER
  5
4B
330
2
100
AcDbSymbolTableRecord
100
AcDbLayerTableRecord
  2
footprint
 70
    1
 62
    7
  6
CONTINUOUS
370
    0
390
F
  0
LAYER
  5
4C
330
2
100
AcDbSymbolTableRecord
100
AcDbLayerTableRecord
  2
in_dim
 70
    0
 62
    7
  6
CONTINUOUS
370
   -3
390
F
  0
LAYER
  5
4D
330
2
100
AcDbSymbolTableRecord
100
AcDbLayerTableRecord
  2
out_dim
 70
    1
 62
    7
  6
CONTINUOUS
370
   -3
390
F
  0
LAYER
  5
4E
330
2
100
AcDbSymbolTableRecord
100
AcDbLayerTableRecord
  2
property
 70
    1
 62
    7
  6
CONTINUOUS
370
    0
390
F
  0
LAYER
  5
4F
330
2
100
AcDbSymbolTableRecord
100
AcDbLayerTableRecord
  2
walls
 70
    0
 62
    7
  6
CONTINUOUS
370
   -3
390
F
  0
ENDTAB
  0
TABLE
  2
STYLE
  5
3
330
0
100
AcDbSymbolTable
 70
    3
  0
STYLE
  5
50
330
2
100
AcDbSymbolTableRecord
100
AcDbTextStyleTableRecord
  2
Standard
 70
    0
 40
0
 41
1
 50
0
 71
    0
 42
1
  3
txt
  4

  0
ENDTAB
  0
TABLE
  2
VIEW
  5
6
330
0
100
AcDbSymbolTable
 70
    0
  0
ENDTAB
  0
TABLE
  2
UCS
  5
7
330
0
100
AcDbSymbolTable
 70
    0
  0
ENDTAB
  0
TABLE
  2
APPID
  5
9
330
0
100
AcDbSymbolTable
 70
    1
  0
APPID
  5
12
330
9
100
AcDbSymbolTableRecord
100
AcDbRegAppTableRecord
  2
ACAD
 70
    0
  0
APPID
  5
51
330
9
100
AcDbSymbolTableRecord
100
AcDbRegAppTableRecord
  2
LibreCad
 70
    0
  0
ENDTAB
  0
TABLE
  2
DIMSTYLE
  5
A
330
0
100
AcDbSymbolTable
 70
    1
100
AcDbDimStyleTable
 71
    1
  0
DIMSTYLE
105
52
330
A
100
AcDbSymbolTableRecord
100
AcDbDimStyleTableRecord
  2
Standard
 70
    0
 40
1
 41
0
 42
1
 43
0.38
 44
0
 45
0
 46
0
 47
0
 48
0
 49
0
140
5
141
0.09
142
2
143
25.4
144
1
145
0
146
1
147
1
148
0
 71
    0
 72
    0
 73
    1
 74
    1
 75
    0
 76
    0
 77
    0
 78
    8
 79
    0
170
    0
171
    2
172
    0
173
    0
174
    0
175
    0
176
    7
177
    7
178
    7
179
    2
271
    1
272
    4
273
    2
274
    2
275
    0
276
    0
277
    2
278
    0
279
    0
280
    0
281
    0
282
    0
283
    1
284
    0
285
    0
286
    0
288
    0
289
    3
290
    1
340
standard
341

371
   -3
372
   -3
  0
ENDTAB
  0
TABLE
  2
BLOCK_RECORD
  5
1
330
0
100
AcDbSymbolTable
 70
    2
  0
BLOCK_RECORD
  5
1F
330
1
100
AcDbSymbolTableRecord
100
AcDbBlockTableRecord
  2
*Model_Space
 70
    0
280
    1
281
    0
  0
BLOCK_RECORD
  5
1E
330
1
100
AcDbSymbolTableRecord
100
AcDbBlockTableRecord
  2
*Paper_Space
 70
    0
280
    1
281
    0
  0
BLOCK_RECORD
  5
53
330
1
100
AcDbSymbolTableRecord
100
AcDbBlockTableRecord
  2
*D30
 70
    0
280
    1
281
    0
  0
BLOCK_RECORD
  5
56
330
1
100
AcDbSymbolTableRecord
100
AcDbBlockTableRecord
  2
*D25
 70
    0
280
    1
281
    0
  0
BLOCK_RECORD
  5
59
330
1
100
AcDbSymbolTableRecord
100
AcDbBlockTableRecord
  2
*D19
 70
    0
280
    1
281
    0
  0
BLOCK_RECORD
  5
5C
330
1
100
AcDbSymbolTableRecord
100
AcDbBlockTableRecord
  2
*D2
 70
    0
280
    1
281
    0
  0
BLOCK_RECORD
  5
5F
330
1
100
AcDbSymbolTableRecord
100
AcDbBlockTableRecord
  2
*D42
 70
    0
280
    1
281
    0
  0
BLOCK_RECORD
  5
62
330
1
100
AcDbSymbolTableRecord
100
AcDbBlockTableRecord
  2
*D39
 70
    0
280
    1
281
    0
  0
BLOCK_RECORD
  5
65
330
1
100
AcDbSymbolTableRecord
100
AcDbBlockTableRecord
  2
*D23
 70
    0
280
    1
281
    0
  0
BLOCK_RECORD
  5
68
330
1
100
AcDbSymbolTableRecord
100
AcDbBlockTableRecord
  2
*D6
 70
    0
280
    1
281
    0
  0
BLOCK_RECORD
  5
6B
330
1
100
AcDbSymbolTableRecord
100
AcDbBlockTableRecord
  2
*D14
 70
    0
280
    1
281
    0
  0
BLOCK_RECORD
  5
6E
330
1
100
AcDbSymbolTableRecord
100
AcDbBlockTableRecord
  2
*D49
 70
    0
280
    1
281
    0
  0
BLOCK_RECORD
  5
71
330
1
100
AcDbSymbolTableRecord
100
AcDbBlockTableRecord
  2
*D27
 70
    0
280
    1
281
    0
  0
BLOCK_RECORD
  5
74
330
1
100
AcDbSymbolTableRecord
100
AcDbBlockTableRecord
  2
*D33
 70
    0
280
    1
281
    0
  0
BLOCK_RECORD
  5
77
330
1
100
AcDbSymbolTableRecord
100
AcDbBlockTableRecord
  2
*D11
 70
    0
280
    1
281
    0
  0
BLOCK_RECORD
  5
7A
330
1
100
AcDbSymbolTableRecord
100
AcDbBlockTableRecord
  2
*D36
 70
    0
280
    1
281
    0
  0
BLOCK_RECORD
  5
7D
330
1
100
AcDbSymbolTableRecord
100
AcDbBlockTableRecord
  2
*D61
 70
    0
280
    1
281
    0
  0
BLOCK_RECORD
  5
80
330
1
100
AcDbSymbolTableRecord
100
AcDbBlockTableRecord
  2
*D3
 70
    0
280
    1
281
    0
  0
BLOCK_RECORD
  5
83
330
1
100
AcDbSymbolTableRecord
100
AcDbBlockTableRecord
  2
*D43
 70
    0
280
    1
281
    0
  0
BLOCK_RECORD
  5
86
330
1
100
AcDbSymbolTableRecord
100
AcDbBlockTableRecord
  2
*D17
 70
    0
280
    1
281
    0
  0
BLOCK_RECORD
  5
89
330
1
100
AcDbSymbolTableRecord
100
AcDbBlockTableRecord
  2
*D13
 70
    0
280
    1
281
    0
  0
BLOCK_RECORD
  5
8C
330
1
100
AcDbSymbolTableRecord
100
AcDbBlockTableRecord
  2
*D58
 70
    0
280
    1
281
    0
  0
BLOCK_RECORD
  5
8F
330
1
100
AcDbSymbolTableRecord
100
AcDbBlockTableRecord
  2
*D51
 70
    0
280
    1
281
    0
  0
BLOCK_RECORD
  5
92
330
1
100
AcDbSymbolTableRecord
100
AcDbBlockTableRecord
  2
*D37
 70
    0
280
    1
281
    0
  0
BLOCK_RECORD
  5
95
330
1
100
AcDbSymbolTableRecord
100
AcDbBlockTableRecord
  2
*D26
 70
    0
280
    1
281
    0
  0
BLOCK_RECORD
  5
98
330
1
100
AcDbSymbolTableRecord
100
AcDbBlockTableRecord
  2
*D28
 70
    0
280
    1
281
    0
  0
BLOCK_RECORD
  5
9B
330
1
100
AcDbSymbolTableRecord
100
AcDbBlockTableRecord
  2
*D4
 70
    0
280
    1
281
    0
  0
BLOCK_RECORD
  5
9E
330
1
100
AcDbSymbolTableRecord
100
AcDbBlockTableRecord
  2
*D18
 70
    0
280
    1
281
    0
  0
BLOCK_RECORD
  5
A1
330
1
100
AcDbSymbolTableRecord
100
AcDbBlockTableRecord
  2
*D10
 70
    0
280
    1
281
    0
  0
BLOCK_RECORD
  5
A4
330
1
100
AcDbSymbolTableRecord
100
AcDbBlockTableRecord
  2
*D48
 70
    0
280
    1
281
    0
  0
BLOCK_RECORD
  5
A7
330
1
100
AcDbSymbolTableRecord
100
AcDbBlockTableRecord
  2
*D50
 70
    0
280
    1
281
    0
  0
BLOCK_RECORD
  5
AA
330
1
100
AcDbSymbolTableRecord
100
AcDbBlockTableRecord
  2
*D29
 70
    0
280
    1
281
    0
  0
BLOCK_RECORD
  5
AD
330
1
100
AcDbSymbolTableRecord
100
AcDbBlockTableRecord
  2
*D54
 70
    0
280
    1
281
    0
  0
BLOCK_RECORD
  5
B0
330
1
100
AcDbSymbolTableRecord
100
AcDbBlockTableRecord
  2
*D60
 70
    0
280
    1
281
    0
  0
BLOCK_RECORD
  5
B3
330
1
100
AcDbSymbolTableRecord
100
AcDbBlockTableRecord
  2
*D40
 70
    0
280
    1
281
    0
  0
BLOCK_RECORD
  5
B6
330
1
100
AcDbSymbolTableRecord
100
AcDbBlockTableRecord
  2
*D31
 70
    0
280
    1
281
    0
  0
BLOCK_RECORD
  5
B9
330
1
100
AcDbSymbolTableRecord
100
AcDbBlockTableRecord
  2
*D12
 70
    0
280
    1
281
    0
  0
BLOCK_RECORD
  5
BC
330
1
100
AcDbSymbolTableRecord
100
AcDbBlockTableRecord
  2
*D21
 70
    0
280
    1
281
    0
  0
BLOCK_RECORD
  5
BF
330
1
100
AcDbSymbolTableRecord
100
AcDbBlockTableRecord
  2
*D35
 70
    0
280
    1
281
    0
  0
BLOCK_RECORD
  5
C2
330
1
100
AcDbSymbolTableRecord
100
AcDbBlockTableRecord
  2
*D47
 70
    0
280
    1
281
    0
  0
BLOCK_RECORD
  5
C5
330
1
100
AcDbSymbolTableRecord
100
AcDbBlockTableRecord
  2
*D53
 70
    0
280
    1
281
    0
  0
BLOCK_RECORD
  5
C8
330
1
100
AcDbSymbolTableRecord
100
AcDbBlockTableRecord
  2
*D22
 70
    0
280
    1
281
    0
  0
BLOCK_RECORD
  5
CB
330
1
100
AcDbSymbolTableRecord
100
AcDbBlockTableRecord
  2
*D59
 70
    0
280
    1
281
    0
  0
BLOCK_RECORD
  5
CE
330
1
100
AcDbSymbolTableRecord
100
AcDbBlockTableRecord
  2
*D1
 70
    0
280
    1
281
    0
  0
BLOCK_RECORD
  5
D1
330
1
100
AcDbSymbolTableRecord
100
AcDbBlockTableRecord
  2
*D32
 70
    0
280
    1
281
    0
  0
BLOCK_RECORD
  5
D4
330
1
100
AcDbSymbolTableRecord
100
AcDbBlockTableRecord
  2
*D16
 70
    0
280
    1
281
    0
  0
BLOCK_RECORD
  5
D7
330
1
100
AcDbSymbolTableRecord
100
AcDbBlockTableRecord
  2
*D41
 70
    0
280
    1
281
    0
  0
BLOCK_RECORD
  5
DA
330
1
100
AcDbSymbolTableRecord
100
AcDbBlockTableRecord
  2
*D38
 70
    0
280
    1
281
    0
  0
BLOCK_RECORD
  5
DD
330
1
100
AcDbSymbolTableRecord
100
AcDbBlockTableRecord
  2
*D20
 70
    0
280
    1
281
    0
  0
BLOCK_RECORD
  5
E0
330
1
100
AcDbSymbolTableRecord
100
AcDbBlockTableRecord
  2
*D45
 70
    0
280
    1
281
    0
  0
BLOCK_RECORD
  5
E3
330
1
100
AcDbSymbolTableRecord
100
AcDbBlockTableRecord
  2
*D46
 70
    0
280
    1
281
    0
  0
BLOCK_RECORD
  5
E6
330
1
100
AcDbSymbolTableRecord
100
AcDbBlockTableRecord
  2
*D5
 70
    0
280
    1
281
    0
  0
BLOCK_RECORD
  5
E9
330
1
100
AcDbSymbolTableRecord
100
AcDbBlockTableRecord
  2
*D57
 70
    0
280
    1
281
    0
  0
BLOCK_RECORD
  5
EC
330
1
100
AcDbSymbolTableRecord
100
AcDbBlockTableRecord
  2
*D44
 70
    0
280
    1
281
    0
  0
BLOCK_RECORD
  5
EF
330
1
100
AcDbSymbolTableRecord
100
AcDbBlockTableRecord
  2
*D9
 70
    0
280
    1
281
    0
  0
BLOCK_RECORD
  5
F2
330
1
100
AcDbSymbolTableRecord
100
AcDbBlockTableRecord
  2
*D24
 70
    0
280
    1
281
    0
  0
BLOCK_RECORD
  5
F5
330
1
100
AcDbSymbolTableRecord
100
AcDbBlockTableRecord
  2
*D15
 70
    0
280
    1
281
    0
  0
BLOCK_RECORD
  5
F8
330
1
100
AcDbSymbolTableRecord
100
AcDbBlockTableRecord
  2
*D52
 70
    0
280
    1
281
    0
  0
BLOCK_RECORD
  5
FB
330
1
100
AcDbSymbolTableRecord
100
AcDbBlockTableRecord
  2
*D55
 70
    0
280
    1
281
    0
  0
BLOCK_RECORD
  5
FE
330
1
100
AcDbSymbolTableRecord
100
AcDbBlockTableRecord
  2
*D7
 70
    0
280
    1
281
    0
  0
BLOCK_RECORD
  5
101
330
1
100
AcDbSymbolTableRecord
100
AcDbBlockTableRecord
  2
*D8
 70
    0
280
    1
281
    0
  0
BLOCK_RECORD
  5
104
330
1
100
AcDbSymbolTableRecord
100
AcDbBlockTableRecord
  2
*D56
 70
    0
280
    1
281
    0
  0
BLOCK_RECORD
  5
107
330
1
100
AcDbSymbolTableRecord
100
AcDbBlockTableRecord
  2
*D34
 70
    0
280
    1
281
    0
  0
ENDTAB
  0
ENDSEC
  0
SECTION
  2
BLOCKS
  0
BLOCK
  5
20
330
1F
100
AcDbEntity
  8
0
100
AcDbBlockBegin
  2
*Model_Space
 70
    0
 10
0
 20
0
 30
0
  3
*Model_Space
  1

  0
ENDBLK
  5
21
330
1F
100
AcDbEntity
  8
0
100
AcDbBlockEnd
  0
BLOCK
  5
1C
330
1B
100
AcDbEntity
  8
0
100
AcDbBlockBegin
  2
*Paper_Space
 70
    0
 10
0
 20
0
 30
0
  3
*Paper_Space
  1

  0
ENDBLK
  5
1D
330
1F
100
AcDbEntity
  8
0
100
AcDbBlockEnd
  0
BLOCK
  5
54
330
53
100
AcDbEntity
  8
0
100
AcDbBlockBegin
  2
*D30
 70
    1
 10
0
 20
0
  3
*D30
  1

  0
LINE
  5
10A
100
AcDbEntity
  8
in_dim
  6
ByBlock
 62
    7
370
   -3
100
AcDbLine
 10
480
 20
762
 11
480
 21
762
  0
LINE
  5
10B
100
AcDbEntity
  8
in_dim
  6
ByBlock
 62
    7
370
   -3
100
AcDbLine
 10
480
 20
673
 11
480
 21
673
  0
LINE
  5
10C
100
AcDbEntity
  8
in_dim
  6
ByBlock
 62
    7
370
   -3
100
AcDbLine
 10
481.4142135623731
 20
760.5857864376269
 11
478.5857864376269
 21
763.4142135623731
  0
LINE
  5
10D
100
AcDbEntity
  8
in_dim
  6
ByBlock
 62
    7
370
   -3
100
AcDbLine
 10
481.4142135623731
 20
671.5857864376269
 11
478.5857864376269
 21
674.4142135623731
  0
LINE
  5
10E
100
AcDbEntity
  8
addition
  6
ByLayer
 62
  256
370
   -1
100
AcDbLine
 10
480
 20
762
 11
480
 21
721
  0
LINE
  5
10F
100
AcDbEntity
  8
addition
  6
ByLayer
 62
  256
370
   -1
100
AcDbLine
 10
480
 20
714
 11
480
 21
673
  0
MTEXT
  5
110
100
AcDbEntity
  8
in_dim
  6
CONTINUOUS
 62
    7
370
   -2
100
AcDbMText
 10
480
 20
717.5
 30
0
 40
5
 41
6.111111111111112
 71
    5
 72
    1
  1
89
  7
standard
210
0
220
0
230
1
 50
0
 73
    2
 44
1
  0
ENDBLK
  5
55
330
53
100
AcDbEntity
  8
0
100
AcDbBlockEnd
  0
BLOCK
  5
57
330
56
100
AcDbEntity
  8
0
100
AcDbBlockBegin
  2
*D25
 70
    1
 10
0
 20
0
  3
*D25
  1

  0
LINE
  5
111
100
AcDbEntity
  8
in_dim
  6
ByBlock
 62
    7
370
   -3
100
AcDbLine
 10
543
 20
610
 11
543
 21
610
  0
LINE
  5
112
100
AcDbEntity
  8
in_dim
  6
ByBlock
 62
    7
370
   -3
100
AcDbLine
 10
566
 20
610
 11
566
 21
610
  0
LINE
  5
113
100
AcDbEntity
  8
in_dim
  6
ByBlock
 62
    7
370
   -3
100
AcDbLine
 10
544.4142135623731
 20
611.4142135623731
 11
541.5857864376269
 21
608.5857864376269
  0
LINE
  5
114
100
AcDbEntity
  8
in_dim
  6
ByBlock
 62
    7
370
   -3
100
AcDbLine
 10
567.4142135623731
 20
611.4142135623731
 11
564.5857864376269
 21
608.5857864376269
  0
LINE
  5
115
100
AcDbEntity
  8
addition
  6
ByLayer
 62
  256
370
   -1
100
AcDbLine
 10
543
 20
610
 11
550.4444444444443
 21
610
  0
LINE
  5
116
100
AcDbEntity
  8
addition
  6
ByLayer
 62
  256
370
   -1
100
AcDbLine
 10
558.5555555555557
 20
610
 11
566
 21
610
  0
MTEXT
  5
117
100
AcDbEntity
  8
in_dim
  6
CONTINUOUS
 62
    7
370
   -2
100
AcDbMText
 10
554.5
 20
610
 30
0
 40
5
 41
6.111111111111422
 71
    5
 72
    1
  1
23
  7
standard
210
0
220
0
230
1
 50
0
 73
    2
 44
1
  0
ENDBLK
  5
58
330
56
100
AcDbEntity
  8
0
100
AcDbBlockEnd
  0
BLOCK
  5
5A
330
59
100
AcDbEntity
  8
0
100
AcDbBlockBegin
  2
*D19
 70
    1
 10
0
 20
0
  3
*D19
  1

  0
LINE
  5
118
100
AcDbEntity
  8
in_dim
  6
ByBlock
 62
    7
370
   -3
100
AcDbLine
 10
307
 20
879.5
 11
307
 21
879.5
  0
LINE
  5
119
100
AcDbEntity
  8
in_dim
  6
ByBlock
 62
    7
370
   -3
100
AcDbLine
 10
265
 20
879.5
 11
265
 21
879.5
  0
LINE
  5
11A
100
AcDbEntity
  8
in_dim
  6
ByBlock
 62
    7
370
   -3
100
AcDbLine
 10
305.5857864376269
 20
878.0857864376269
 11
308.4142135623731
 21
880.9142135623731
  0
LINE
  5
11B
100
AcDbEntity
  8
in_dim
  6
ByBlock
 62
    7
370
   -3
100
AcDbLine
 10
263.5857864376269
 20
878.0857864376269
 11
266.4142135623731
 21
880.9142135623731
  0
LINE
  5
11C
100
AcDbEntity
  8
addition
  6
ByLayer
 62
  256
370
   -1
100
AcDbLine
 10
307
 20
879.5
 11
290.3333333333333
 21
879.5
  0
LINE
  5
11D
100
AcDbEntity
  8
addition
  6
ByLayer
 62
  256
370
   -1
100
AcDbLine
 10
281.6666666666667
 20
879.5
 11
265
 21
879.5
  0
MTEXT
  5
11E
100
AcDbEntity
  8
in_dim
  6
CONTINUOUS
 62
    7
370
   -2
100
AcDbMText
 10
286
 20
879.5
 30
0
 40
5
 41
6.666666666666666
 71
    5
 72
    1
  1
42
  7
standard
210
0
220
0
230
1
 50
0
 73
    2
 44
1
  0
ENDBLK
  5
5B
330
59
100
AcDbEntity
  8
0
100
AcDbBlockEnd
  0
BLOCK
  5
5D
330
5C
100
AcDbEntity
  8
0
100
AcDbBlockBegin
  2
*D2
 70
    1
 10
0
 20
0
  3
*D2
  1

  0
LINE
  5
11F
100
AcDbEntity
  8
in_dim
  6
ByBlock
 62
    7
370
   -3
100
AcDbLine
 10
340
 20
665.5
 11
340
 21
665.5
  0
LINE
  5
120
100
AcDbEntity
  8
in_dim
  6
ByBlock
 62
    7
370
   -3
100
AcDbLine
 10
340
 20
622.5
 11
340
 21
622.5
  0
LINE
  5
121
100
AcDbEntity
  8
in_dim
  6
ByBlock
 62
    7
370
   -3
100
AcDbLine
 10
341.4142135623731
 20
664.0857864376269
 11
338.5857864376269
 21
666.9142135623731
  0
LINE
  5
122
100
AcDbEntity
  8
in_dim
  6
ByBlock
 62
    7
370
   -3
100
AcDbLine
 10
341.4142135623731
 20
621.0857864376269
 11
338.5857864376269
 21
623.9142135623731
  0
LINE
  5
123
100
AcDbEntity
  8
addition
  6
ByLayer
 62
  256
370
   -1
100
AcDbLine
 10
340
 20
665.5
 11
340
 21
647.5
  0
LINE
  5
124
100
AcDbEntity
  8
addition
  6
ByLayer
 62
  256
370
   -1
100
AcDbLine
 10
340
 20
640.5
 11
340
 21
622.5
  0
MTEXT
  5
125
100
AcDbEntity
  8
in_dim
  6
CONTINUOUS
 62
    7
370
   -2
100
AcDbMText
 10
340
 20
644
 30
0
 40
5
 41
6.666666666666977
 71
    5
 72
    1
  1
43
  7
standard
210
0
220
0
230
1
 50
0
 73
    2
 44
1
  0
ENDBLK
  5
5E
330
5C
100
AcDbEntity
  8
0
100
AcDbBlockEnd
  0
BLOCK
  5
60
330
5F
100
AcDbEntity
  8
0
100
AcDbBlockBegin
  2
*D42
 70
    1
 10
0
 20
0
  3
*D42
  1

  0
LINE
  5
126
100
AcDbEntity
  8
in_dim
  6
ByBlock
 62
    7
370
   -3
100
AcDbLine
 10
485.5000000000001
 20
575
 11
485.5000000000001
 21
575
  0
LINE
  5
127
100
AcDbEntity
  8
in_dim
  6
ByBlock
 62
    7
370
   -3
100
AcDbLine
 10
515.5000000000035
 20
575
 11
515.5000000000035
 21
575
  0
LINE
  5
128
100
AcDbEntity
  8
in_dim
  6
ByBlock
 62
    7
370
   -3
100
AcDbLine
 10
486.9142135623732
 20
576.4142135623731
 11
484.085786437627
 21
573.5857864376269
  0
LINE
  5
129
100
AcDbEntity
  8
in_dim
  6
ByBlock
 62
    7
370
   -3
100
AcDbLine
 10
516.9142135623766
 20
576.4142135623731
 11
514.0857864376304
 21
573.5857864376269
  0
LINE
  5
12A
100
AcDbEntity
  8
addition
  6
ByLayer
 62
  256
370
   -1
100
AcDbLine
 10
485.5000000000001
 20
575
 11
496.4444444444461
 21
575
  0
LINE
  5
12B
100
AcDbEntity
  8
addition
  6
ByLayer
 62
  256
370
   -1
100
AcDbLine
 10
504.5555555555575
 20
575
 11
515.5000000000035
 21
575
  0
MTEXT
  5
12C
100
AcDbEntity
  8
in_dim
  6
CONTINUOUS
 62
    7
370
   -2
100
AcDbMText
 10
500.5000000000018
 20
575
 30
0
 40
5
 41
6.111111111111422
 71
    5
 72
    1
  1
30
  7
standard
210
0
220
0
230
1
 50
0
 73
    2
 44
1
  0
ENDBLK
  5
61
330
5F
100
AcDbEntity
  8
0
100
AcDbBlockEnd
  0
BLOCK
  5
63
330
62
100
AcDbEntity
  8
0
100
AcDbBlockBegin
  2
*D39
 70
    1
 10
0
 20
0
  3
*D39
  1

  0
LINE
  5
12D
100
AcDbEntity
  8
in_dim
  6
ByBlock
 62
    7
370
   -3
100
AcDbLine
 10
523.109656176876
 20
661.9999999999977
 11
523.109656176876
 21
661.9999999999977
  0
LINE
  5
12E
100
AcDbEntity
  8
in_dim
  6
ByBlock
 62
    7
370
   -3
100
AcDbLine
 10
523.109656176876
 20
632
 11
523.109656176876
 21
632
  0
LINE
  5
12F
100
AcDbEntity
  8
in_dim
  6
ByBlock
 62
    7
370
   -3
100
AcDbLine
 10
524.5238697392491
 20
660.5857864376246
 11
521.6954426145029
 21
663.4142135623708
  0
LINE
  5
130
100
AcDbEntity
  8
in_dim
  6
ByBlock
 62
    7
370
   -3
100
AcDbLine
 10
524.5238697392491
 20
630.5857864376269
 11
521.6954426145029
 21
633.4142135623731
  0
LINE
  5
131
100
AcDbEntity
  8
addition
  6
ByLayer
 62
  256
370
   -1
100
AcDbLine
 10
523.109656176876
 20
661.9999999999977
 11
523.109656176876
 21
650.4999999999989
  0
LINE
  5
132
100
AcDbEntity
  8
addition
  6
ByLayer
 62
  256
370
   -1
100
AcDbLine
 10
523.109656176876
 20
643.4999999999989
 11
523.109656176876
 21
632
  0
MTEXT
  5
133
100
AcDbEntity
  8
in_dim
  6
CONTINUOUS
 62
    7
370
   -2
100
AcDbMText
 10
523.109656176876
 20
646.9999999999989
 30
0
 40
5
 41
6.111111111111422
 71
    5
 72
    1
  1
30
  7
standard
210
0
220
0
230
1
 50
0
 73
    2
 44
1
  0
ENDBLK
  5
64
330
62
100
AcDbEntity
  8
0
100
AcDbBlockEnd
  0
BLOCK
  5
66
330
65
100
AcDbEntity
  8
0
100
AcDbBlockBegin
  2
*D23
 70
    1
 10
0
 20
0
  3
*D23
  1

  0
LINE
  5
134
100
AcDbEntity
  8
in_dim
  6
ByBlock
 62
    7
370
   -3
100
AcDbLine
 10
635
 20
572
 11
635
 21
572
  0
LINE
  5
135
100
AcDbEntity
  8
in_dim
  6
ByBlock
 62
    7
370
   -3
100
AcDbLine
 10
635
 20
440.5
 11
635
 21
440.5
  0
LINE
  5
136
100
AcDbEntity
  8
in_dim
  6
ByBlock
 62
    7
370
   -3
100
AcDbLine
 10
636.4142135623731
 20
570.5857864376269
 11
633.5857864376269
 21
573.4142135623731
  0
LINE
  5
137
100
AcDbEntity
  8
in_dim
  6
ByBlock
 62
    7
370
   -3
100
AcDbLine
 10
636.4142135623731
 20
439.0857864376269
 11
633.5857864376269
 21
441.9142135623731
  0
LINE
  5
138
100
AcDbEntity
  8
addition
  6
ByLayer
 62
  256
370
   -1
100
AcDbLine
 10
635
 20
572
 11
635
 21
509.7499999999999
  0
LINE
  5
139
100
AcDbEntity
  8
addition
  6
ByLayer
 62
  256
370
   -1
100
AcDbLine
 10
635
 20
502.7499999999999
 11
635
 21
440.5
  0
MTEXT
  5
13A
100
AcDbEntity
  8
in_dim
  6
CONTINUOUS
 62
    7
370
   -2
100
AcDbMText
 10
635
 20
506.25
 30
0
 40
5
 41
13.33333333333395
 71
    5
 72
    1
  1
131.5
  7
standard
210
0
220
0
230
1
 50
0
 73
    2
 44
1
  0
ENDBLK
  5
67
330
65
100
AcDbEntity
  8
0
100
AcDbBlockEnd
  0
BLOCK
  5
69
330
68
100
AcDbEntity
  8
0
100
AcDbBlockBegin
  2
*D6
 70
    1
 10
0
 20
0
  3
*D6
  1

  0
LINE
  5
13B
100
AcDbEntity
  8
in_dim
  6
ByBlock
 62
    7
370
   -3
100
AcDbLine
 10
480.5
 20
450
 11
480.5
 21
450
  0
LINE
  5
13C
100
AcDbEntity
  8
in_dim
  6
ByBlock
 62
    7
370
   -3
100
AcDbLine
 10
649.5
 20
450
 11
649.5
 21
450
  0
LINE
  5
13D
100
AcDbEntity
  8
in_dim
  6
ByBlock
 62
    7
370
   -3
100
AcDbLine
 10
481.9142135623731
 20
451.4142135623731
 11
479.0857864376269
 21
448.5857864376269
  0
LINE
  5
13E
100
AcDbEntity
  8
in_dim
  6
ByBlock
 62
    7
370
   -3
100
AcDbLine
 10
650.9142135623731
 20
451.4142135623731
 11
648.0857864376269
 21
448.5857864376269
  0
LINE
  5
13F
100
AcDbEntity
  8
addition
  6
ByLayer
 62
  256
370
   -1
100
AcDbLine
 10
480.5
 20
450
 11
559.5555555555554
 21
450
  0
LINE
  5
140
100
AcDbEntity
  8
addition
  6
ByLayer
 62
  256
370
   -1
100
AcDbLine
 10
570.4444444444446
 20
450
 11
649.5
 21
450
  0
MTEXT
  5
141
100
AcDbEntity
  8
in_dim
  6
CONTINUOUS
 62
    7
370
   -2
100
AcDbMText
 10
565
 20
450
 30
0
 40
5
 41
8.888888888889198
 71
    5
 72
    1
  1
169
  7
standard
210
0
220
0
230
1
 50
0
 73
    2
 44
1
  0
ENDBLK
  5
6A
330
68
100
AcDbEntity
  8
0
100
AcDbBlockEnd
  0
BLOCK
  5
6C
330
6B
100
AcDbEntity
  8
0
100
AcDbBlockBegin
  2
*D14
 70
    1
 10
0
 20
0
  3
*D14
  1

  0
LINE
  5
142
100
AcDbEntity
  8
in_dim
  6
ByBlock
 62
    7
370
   -3
100
AcDbLine
 10
265
 20
655
 11
265
 21
655
  0
LINE
  5
143
100
AcDbEntity
  8
in_dim
  6
ByBlock
 62
    7
370
   -3
100
AcDbLine
 10
349
 20
655
 11
349
 21
655
  0
LINE
  5
144
100
AcDbEntity
  8
in_dim
  6
ByBlock
 62
    7
370
   -3
100
AcDbLine
 10
266.4142135623731
 20
656.4142135623731
 11
263.5857864376269
 21
653.5857864376269
  0
LINE
  5
145
100
AcDbEntity
  8
in_dim
  6
ByBlock
 62
    7
370
   -3
100
AcDbLine
 10
350.4142135623731
 20
656.4142135623731
 11
347.5857864376269
 21
653.5857864376269
  0
LINE
  5
146
100
AcDbEntity
  8
addition
  6
ByLayer
 62
  256
370
   -1
100
AcDbLine
 10
265
 20
655
 11
302.6666666666667
 21
655
  0
LINE
  5
147
100
AcDbEntity
  8
addition
  6
ByLayer
 62
  256
370
   -1
100
AcDbLine
 10
311.3333333333333
 20
655
 11
349
 21
655
  0
MTEXT
  5
148
100
AcDbEntity
  8
in_dim
  6
CONTINUOUS
 62
    7
370
   -2
100
AcDbMText
 10
307
 20
655
 30
0
 40
5
 41
6.666666666666666
 71
    5
 72
    1
  1
84
  7
standard
210
0
220
0
230
1
 50
0
 73
    2
 44
1
  0
ENDBLK
  5
6D
330
6B
100
AcDbEntity
  8
0
100
AcDbBlockEnd
  0
BLOCK
  5
6F
330
6E
100
AcDbEntity
  8
0
100
AcDbBlockBegin
  2
*D49
 70
    1
 10
0
 20
0
  3
*D49
  1

  0
LINE
  5
149
100
AcDbEntity
  8
in_dim
  6
ByBlock
 62
    7
370
   -3
100
AcDbLine
 10
486.4142135623731
 20
666.0857864376269
 11
483.5857864376269
 21
668.9142135623731
  0
LINE
  5
14A
100
AcDbEntity
  8
in_dim
  6
ByBlock
 62
    7
370
   -3
100
AcDbLine
 10
486.4142135623731
 20
576.0857864376269
 11
483.5857864376269
 21
578.9142135623731
  0
LINE
  5
14B
100
AcDbEntity
  8
addition
  6
ByLayer
 62
  256
370
   -1
100
AcDbLine
 10
485
 20
667.5
 11
485
 21
626
  0
LINE
  5
14C
100
AcDbEntity
  8
addition
  6
ByLayer
 62
  256
370
   -1
100
AcDbLine
 10
485
 20
619
 11
485
 21
577.5
  0
MTEXT
  5
14D
100
AcDbEntity
  8
in_dim
  6
CONTINUOUS
 62
    7
370
   -2
100
AcDbMText
 10
485
 20
622.5
 30
0
 40
5
 41
6.111111111111422
 71
    5
 72
    1
  1
90
  7
standard
210
0
220
0
230
1
 50
0
 73
    2
 44
1
  0
LINE
  5
14E
100
AcDbEntity
  8
in_dim
  6
ByBlock
 62
    7
370
   -3
100
AcDbLine
 10
485
 20
667.5
 11
485
 21
667.5
  0
LINE
  5
14F
100
AcDbEntity
  8
in_dim
  6
ByBlock
 62
    7
370
   -3
100
AcDbLine
 10
485.5000000000001
 20
577.5
 11
485
 21
577.5
  0
ENDBLK
  5
70
330
6E
100
AcDbEntity
  8
0
100
AcDbBlockEnd
  0
BLOCK
  5
72
330
71
100
AcDbEntity
  8
0
100
AcDbBlockBegin
  2
*D27
 70
    1
 10
0
 20
0
  3
*D27
  1

  0
LINE
  5
150
100
AcDbEntity
  8
in_dim
  6
ByBlock
 62
    7
370
   -3
100
AcDbLine
 10
481.5
 20
395
 11
481.5
 21
395
  0
LINE
  5
151
100
AcDbEntity
  8
in_dim
  6
ByBlock
 62
    7
370
   -3
100
AcDbLine
 10
259.5
 20
395
 11
259.5
 21
395
  0
LINE
  5
152
100
AcDbEntity
  8
in_dim
  6
ByBlock
 62
    7
370
   -3
100
AcDbLine
 10
480.0857864376269
 20
393.5857864376269
 11
482.9142135623731
 21
396.4142135623731
  0
LINE
  5
153
100
AcDbEntity
  8
in_dim
  6
ByBlock
 62
    7
370
   -3
100
AcDbLine
 10
258.0857864376269
 20
393.5857864376269
 11
260.9142135623731
 21
396.4142135623731
  0
LINE
  5
154
100
AcDbEntity
  8
addition
  6
ByLayer
 62
  256
370
   -1
100
AcDbLine
 10
481.5
 20
395
 11
376.5
 21
395
  0
LINE
  5
155
100
AcDbEntity
  8
addition
  6
ByLayer
 62
  256
370
   -1
100
AcDbLine
 10
364.5
 20
395
 11
259.5
 21
395
  0
MTEXT
  5
156
100
AcDbEntity
  8
in_dim
  6
CONTINUOUS
 62
    7
370
   -2
100
AcDbMText
 10
370.5
 20
395
 30
0
 40
5
 41
10
 71
    5
 72
    1
  1
222
  7
standard
210
0
220
0
230
1
 50
0
 73
    2
 44
1
  0
ENDBLK
  5
73
330
71
100
AcDbEntity
  8
0
100
AcDbBlockEnd
  0
BLOCK
  5
75
330
74
100
AcDbEntity
  8
0
100
AcDbBlockBegin
  2
*D33
 70
    1
 10
0
 20
0
  3
*D33
  1

  0
LINE
  5
157
100
AcDbEntity
  8
in_dim
  6
ByBlock
 62
    7
370
   -3
100
AcDbLine
 10
321.5
 20
953.5
 11
321.5
 21
953.5
  0
LINE
  5
158
100
AcDbEntity
  8
in_dim
  6
ByBlock
 62
    7
370
   -3
100
AcDbLine
 10
321.5
 20
865
 11
321.5
 21
865
  0
LINE
  5
159
100
AcDbEntity
  8
in_dim
  6
ByBlock
 62
    7
370
   -3
100
AcDbLine
 10
322.9142135623731
 20
952.0857864376269
 11
320.0857864376269
 21
954.9142135623731
  0
LINE
  5
15A
100
AcDbEntity
  8
in_dim
  6
ByBlock
 62
    7
370
   -3
100
AcDbLine
 10
322.9142135623731
 20
863.5857864376269
 11
320.0857864376269
 21
866.4142135623731
  0
LINE
  5
15B
100
AcDbEntity
  8
addition
  6
ByLayer
 62
  256
370
   -1
100
AcDbLine
 10
321.5
 20
953.5
 11
321.5
 21
912.75
  0
LINE
  5
15C
100
AcDbEntity
  8
addition
  6
ByLayer
 62
  256
370
   -1
100
AcDbLine
 10
321.5
 20
905.75
 11
321.5
 21
865
  0
MTEXT
  5
15D
100
AcDbEntity
  8
in_dim
  6
CONTINUOUS
 62
    7
370
   -2
100
AcDbMText
 10
321.5
 20
909.25
 30
0
 40
5
 41
11.66666666666698
 71
    5
 72
    1
  1
88.5
  7
standard
210
0
220
0
230
1
 50
0
 73
    2
 44
1
  0
ENDBLK
  5
76
330
74
100
AcDbEntity
  8
0
100
AcDbBlockEnd
  0
BLOCK
  5
78
330
77
100
AcDbEntity
  8
0
100
AcDbBlockBegin
  2
*D11
 70
    1
 10
0
 20
0
  3
*D11
  1

  0
LINE
  5
15E
100
AcDbEntity
  8
in_dim
  6
ByBlock
 62
    7
370
   -3
100
AcDbLine
 10
462
 20
749.895652173913
 11
462
 21
749.895652173913
  0
LINE
  5
15F
100
AcDbEntity
  8
in_dim
  6
ByBlock
 62
    7
370
   -3
100
AcDbLine
 10
520
 20
749.895652173913
 11
520
 21
749.895652173913
  0
LINE
  5
160
100
AcDbEntity
  8
in_dim
  6
ByBlock
 62
    7
370
   -3
100
AcDbLine
 10
463.4142135623731
 20
751.3098657362862
 11
460.5857864376269
 21
748.4814386115399
  0
LINE
  5
161
100
AcDbEntity
  8
in_dim
  6
ByBlock
 62
    7
370
   -3
100
AcDbLine
 10
521.4142135623731
 20
751.3098657362862
 11
518.5857864376269
 21
748.4814386115399
  0
LINE
  5
162
100
AcDbEntity
  8
addition
  6
ByLayer
 62
  256
370
   -1
100
AcDbLine
 10
462
 20
749.895652173913
 11
486.9444444444443
 21
749.895652173913
  0
LINE
  5
163
100
AcDbEntity
  8
addition
  6
ByLayer
 62
  256
370
   -1
100
AcDbLine
 10
495.0555555555557
 20
749.895652173913
 11
520
 21
749.895652173913
  0
MTEXT
  5
164
100
AcDbEntity
  8
in_dim
  6
CONTINUOUS
 62
    7
370
   -2
100
AcDbMText
 10
491
 20
749.895652173913
 30
0
 40
5
 41
6.111111111111422
 71
    5
 72
    1
  1
58
  7
standard
210
0
220
0
230
1
 50
0
 73
    2
 44
1
  0
ENDBLK
  5
79
330
77
100
AcDbEntity
  8
0
100
AcDbBlockEnd
  0
BLOCK
  5
7B
330
7A
100
AcDbEntity
  8
0
100
AcDbBlockBegin
  2
*D36
 70
    1
 10
0
 20
0
  3
*D36
  1

  0
LINE
  5
165
100
AcDbEntity
  8
in_dim
  6
ByBlock
 62
    7
370
   -3
100
AcDbLine
 10
316.4142135623731
 20
671.4142135623731
 11
313.5857864376269
 21
668.5857864376269
  0
LINE
  5
166
100
AcDbEntity
  8
in_dim
  6
ByBlock
 62
    7
370
   -3
100
AcDbLine
 10
346.4142135623731
 20
671.4142135623731
 11
343.5857864376269
 21
668.5857864376269
  0
LINE
  5
167
100
AcDbEntity
  8
addition
  6
ByLayer
 62
  256
370
   -1
100
AcDbLine
 10
315
 20
670
 11
325.9444444444443
 21
670
  0
LINE
  5
168
100
AcDbEntity
  8
addition
  6
ByLayer
 62
  256
370
   -1
100
AcDbLine
 10
334.0555555555557
 20
670
 11
345
 21
670
  0
MTEXT
  5
169
100
AcDbEntity
  8
in_dim
  6
CONTINUOUS
 62
    7
370
   -2
100
AcDbMText
 10
330
 20
670
 30
0
 40
5
 41
6.111111111111422
 71
    5
 72
    1
  1
30
  7
standard
210
0
220
0
230
1
 50
0
 73
    2
 44
1
  0
LINE
  5
16A
100
AcDbEntity
  8
in_dim
  6
ByBlock
 62
    7
370
   -3
100
AcDbLine
 10
315
 20
670
 11
315
 21
670
  0
LINE
  5
16B
100
AcDbEntity
  8
in_dim
  6
ByBlock
 62
    7
370
   -3
100
AcDbLine
 10
345
 20
670
 11
345
 21
670
  0
ENDBLK
  5
7C
330
7A
100
AcDbEntity
  8
0
100
AcDbBlockEnd
  0
BLOCK
  5
7E
330
7D
100
AcDbEntity
  8
0
100
AcDbBlockBegin
  2
*D61
 70
    1
 10
0
 20
0
  3
*D61
  1

  0
LINE
  5
16C
100
AcDbEntity
  8
addition
  6
ByBlock
 62
    7
370
   -3
100
AcDbLine
 10
121.4142135623731
 20
1239.741170863543
 11
118.5857864376269
 21
1236.912743738797
  0
LINE
  5
16D
100
AcDbEntity
  8
addition
  6
ByBlock
 62
    7
370
   -3
100
AcDbLine
 10
553.4142135623731
 20
1239.741170863543
 11
550.5857864376269
 21
1236.912743738797
  0
LINE
  5
16E
100
AcDbEntity
  8
addition
  6
ByLayer
 62
  256
370
   -1
100
AcDbLine
 10
120
 20
1238.32695730117
 11
329.7222222222221
 21
1238.32695730117
  0
LINE
  5
16F
100
AcDbEntity
  8
addition
  6
ByLayer
 62
  256
370
   -1
100
AcDbLine
 10
342.2777777777779
 20
1238.32695730117
 11
552
 21
1238.32695730117
  0
MTEXT
  5
170
100
AcDbEntity
  8
addition
  6
CONTINUOUS
 62
    7
370
   -2
100
AcDbMText
 10
336
 20
1238.32695730117
 30
0
 40
5
 41
10.55555555555587
 71
    5
 72
    1
  1
432
  7
standard
210
0
220
0
230
1
 50
0
 73
    2
 44
1
  0
LINE
  5
171
100
AcDbEntity
  8
addition
  6
ByBlock
 62
    7
370
   -3
100
AcDbLine
 10
120
 20
1238.32695730117
 11
120
 21
1238.32695730117
  0
LINE
  5
172
100
AcDbEntity
  8
addition
  6
ByBlock
 62
    7
370
   -3
100
AcDbLine
 10
552
 20
1238.32695730117
 11
552
 21
1238.32695730117
  0
ENDBLK
  5
7F
330
7D
100
AcDbEntity
  8
0
100
AcDbBlockEnd
  0
BLOCK
  5
81
330
80
100
AcDbEntity
  8
0
100
AcDbBlockBegin
  2
*D3
 70
    1
 10
0
 20
0
  3
*D3
  1

  0
LINE
  5
173
100
AcDbEntity
  8
in_dim
  6
ByBlock
 62
    7
370
   -3
100
AcDbLine
 10
354.5
 20
635
 11
354.5
 21
635
  0
LINE
  5
174
100
AcDbEntity
  8
in_dim
  6
ByBlock
 62
    7
370
   -3
100
AcDbLine
 10
453.5
 20
635
 11
453.5
 21
635
  0
LINE
  5
175
100
AcDbEntity
  8
in_dim
  6
ByBlock
 62
    7
370
   -3
100
AcDbLine
 10
355.9142135623731
 20
636.4142135623731
 11
353.0857864376269
 21
633.5857864376269
  0
LINE
  5
176
100
AcDbEntity
  8
in_dim
  6
ByBlock
 62
    7
370
   -3
100
AcDbLine
 10
454.9142135623731
 20
636.4142135623731
 11
452.0857864376269
 21
633.5857864376269
  0
LINE
  5
177
100
AcDbEntity
  8
addition
  6
ByLayer
 62
  256
370
   -1
100
AcDbLine
 10
354.5
 20
635
 11
399.9444444444443
 21
635
  0
LINE
  5
178
100
AcDbEntity
  8
addition
  6
ByLayer
 62
  256
370
   -1
100
AcDbLine
 10
408.0555555555557
 20
635
 11
453.5
 21
635
  0
MTEXT
  5
179
100
AcDbEntity
  8
in_dim
  6
CONTINUOUS
 62
    7
370
   -2
100
AcDbMText
 10
404
 20
635
 30
0
 40
5
 41
6.111111111111422
 71
    5
 72
    1
  1
99
  7
standard
210
0
220
0
230
1
 50
0
 73
    2
 44
1
  0
ENDBLK
  5
82
330
80
100
AcDbEntity
  8
0
100
AcDbBlockEnd
  0
BLOCK
  5
84
330
83
100
AcDbEntity
  8
0
100
AcDbBlockBegin
  2
*D43
 70
    1
 10
0
 20
0
  3
*D43
  1

  0
LINE
  5
17A
100
AcDbEntity
  8
in_dim
  6
ByBlock
 62
    7
370
   -3
100
AcDbLine
 10
521.4142135623731
 20
621.0857864376269
 11
518.5857864376269
 21
623.9142135623731
  0
LINE
  5
17B
100
AcDbEntity
  8
in_dim
  6
ByBlock
 62
    7
370
   -3
100
AcDbLine
 10
521.4142135623731
 20
576.0857864376269
 11
518.5857864376269
 21
578.9142135623731
  0
LINE
  5
17C
100
AcDbEntity
  8
addition
  6
ByLayer
 62
  256
370
   -1
100
AcDbLine
 10
520
 20
622.5
 11
520
 21
603.5
  0
LINE
  5
17D
100
AcDbEntity
  8
addition
  6
ByLayer
 62
  256
370
   -1
100
AcDbLine
 10
520
 20
596.5
 11
520
 21
577.5
  0
MTEXT
  5
17E
100
AcDbEntity
  8
in_dim
  6
CONTINUOUS
 62
    7
370
   -2
100
AcDbMText
 10
520
 20
600
 30
0
 40
5
 41
6.666666666666977
 71
    5
 72
    1
  1
45
  7
standard
210
0
220
0
230
1
 50
0
 73
    2
 44
1
  0
LINE
  5
17F
100
AcDbEntity
  8
in_dim
  6
ByBlock
 62
    7
370
   -3
100
AcDbLine
 10
520
 20
622.5
 11
520
 21
622.5
  0
LINE
  5
180
100
AcDbEntity
  8
in_dim
  6
ByBlock
 62
    7
370
   -3
100
AcDbLine
 10
520
 20
577.5
 11
520
 21
577.5
  0
ENDBLK
  5
85
330
83
100
AcDbEntity
  8
0
100
AcDbBlockEnd
  0
BLOCK
  5
87
330
86
100
AcDbEntity
  8
0
100
AcDbBlockBegin
  2
*D17
 70
    1
 10
0
 20
0
  3
*D17
  1

  0
LINE
  5
181
100
AcDbEntity
  8
in_dim
  6
ByBlock
 62
    7
370
   -3
100
AcDbLine
 10
250
 20
907.5
 11
250
 21
907.5
  0
LINE
  5
182
100
AcDbEntity
  8
in_dim
  6
ByBlock
 62
    7
370
   -3
100
AcDbLine
 10
250
 20
953.5
 11
250
 21
953.5
  0
LINE
  5
183
100
AcDbEntity
  8
in_dim
  6
ByBlock
 62
    7
370
   -3
100
AcDbLine
 10
248.5857864376269
 20
908.9142135623731
 11
251.4142135623731
 21
906.0857864376269
  0
LINE
  5
184
100
AcDbEntity
  8
in_dim
  6
ByBlock
 62
    7
370
   -3
100
AcDbLine
 10
248.5857864376269
 20
954.9142135623731
 11
251.4142135623731
 21
952.0857864376269
  0
LINE
  5
185
100
AcDbEntity
  8
addition
  6
ByLayer
 62
  256
370
   -1
100
AcDbLine
 10
250
 20
907.5
 11
250
 21
927
  0
LINE
  5
186
100
AcDbEntity
  8
addition
  6
ByLayer
 62
  256
370
   -1
100
AcDbLine
 10
250
 20
934
 11
250
 21
953.5
  0
MTEXT
  5
187
100
AcDbEntity
  8
in_dim
  6
CONTINUOUS
 62
    7
370
   -2
100
AcDbMText
 10
250
 20
930.5
 30
0
 40
5
 41
6.666666666666977
 71
    5
 72
    1
  1
46
  7
standard
210
0
220
0
230
1
 50
0
 73
    2
 44
1
  0
ENDBLK
  5
88
330
86
100
AcDbEntity
  8
0
100
AcDbBlockEnd
  0
BLOCK
  5
8A
330
89
100
AcDbEntity
  8
0
100
AcDbBlockBegin
  2
*D13
 70
    1
 10
0
 20
0
  3
*D13
  1

  0
LINE
  5
188
100
AcDbEntity
  8
in_dim
  6
ByBlock
 62
    7
370
   -3
100
AcDbLine
 10
634.9456928838952
 20
762
 11
634.9456928838952
 21
762
  0
LINE
  5
189
100
AcDbEntity
  8
in_dim
  6
ByBlock
 62
    7
370
   -3
100
AcDbLine
 10
634.9456928838952
 20
628
 11
634.9456928838952
 21
628
  0
LINE
  5
18A
100
AcDbEntity
  8
in_dim
  6
ByBlock
 62
    7
370
   -3
100
AcDbLine
 10
636.3599064462683
 20
760.5857864376269
 11
633.5314793215221
 21
763.4142135623731
  0
LINE
  5
18B
100
AcDbEntity
  8
in_dim
  6
ByBlock
 62
    7
370
   -3
100
AcDbLine
 10
636.3599064462683
 20
626.5857864376269
 11
633.5314793215221
 21
629.4142135623731
  0
LINE
  5
18C
100
AcDbEntity
  8
addition
  6
ByLayer
 62
  256
370
   -1
100
AcDbLine
 10
634.9456928838952
 20
762
 11
634.9456928838952
 21
698.5
  0
LINE
  5
18D
100
AcDbEntity
  8
addition
  6
ByLayer
 62
  256
370
   -1
100
AcDbLine
 10
634.9456928838952
 20
691.5
 11
634.9456928838952
 21
628
  0
MTEXT
  5
18E
100
AcDbEntity
  8
in_dim
  6
CONTINUOUS
 62
    7
370
   -2
100
AcDbMText
 10
634.9456928838952
 20
695
 30
0
 40
5
 41
9.444444444444756
 71
    5
 72
    1
  1
134
  7
standard
210
0
220
0
230
1
 50
0
 73
    2
 44
1
  0
ENDBLK
  5
8B
330
89
100
AcDbEntity
  8
0
100
AcDbBlockEnd
  0
BLOCK
  5
8D
330
8C
100
AcDbEntity
  8
0
100
AcDbBlockBegin
  2
*D58
 70
    1
 10
0
 20
0
  3
*D58
  1

  0
LINE
  5
18F
100
AcDbEntity
  8
out_dim
  6
ByBlock
 62
    7
370
   -3
100
AcDbLine
 10
1.414213562373095
 20
-48.58578643762691
 11
-1.414213562373095
 21
-51.41421356237309
  0
LINE
  5
190
100
AcDbEntity
  8
out_dim
  6
ByBlock
 62
    7
370
   -3
100
AcDbLine
 10
718.4142135623731
 20
-48.58578643762691
 11
715.5857864376269
 21
-51.41421356237309
  0
LINE
  5
191
100
AcDbEntity
  8
addition
  6
ByLayer
 62
  256
370
   -1
100
AcDbLine
 10
0
 20
-50
 11
353.0555555555555
 21
-50
  0
LINE
  5
192
100
AcDbEntity
  8
addition
  6
ByLayer
 62
  256
370
   -1
100
AcDbLine
 10
363.9444444444445
 20
-50
 11
717
 21
-50
  0
MTEXT
  5
193
100
AcDbEntity
  8
out_dim
  6
CONTINUOUS
 62
    7
370
   -2
100
AcDbMText
 10
358.5
 20
-50
 30
0
 40
5
 41
8.888888888888889
 71
    5
 72
    1
  1
717
  7
standard
210
0
220
0
230
1
 50
0
 73
    2
 44
1
  0
LINE
  5
194
100
AcDbEntity
  8
out_dim
  6
ByBlock
 62
    7
370
   -3
100
AcDbLine
 10
-9.184547653667829e-15
 20
-50
 11
0
 21
-50
  0
LINE
  5
195
100
AcDbEntity
  8
out_dim
  6
ByBlock
 62
    7
370
   -3
100
AcDbLine
 10
717
 20
-50
 11
717
 21
-50
  0
ENDBLK
  5
8E
330
8C
100
AcDbEntity
  8
0
100
AcDbBlockEnd
  0
BLOCK
  5
90
330
8F
100
AcDbEntity
  8
0
100
AcDbBlockBegin
  2
*D51
 70
    1
 10
0
 20
0
  3
*D51
  1

  0
LINE
  5
196
100
AcDbEntity
  8
in_dim
  6
ByBlock
 62
    7
370
   -3
100
AcDbLine
 10
481.9142135623731
 20
626.4142135623731
 11
479.0857864376269
 21
623.5857864376269
  0
LINE
  5
197
100
AcDbEntity
  8
in_dim
  6
ByBlock
 62
    7
370
   -3
100
AcDbLine
 10
521.4142135623731
 20
626.4142135623731
 11
518.5857864376269
 21
623.5857864376269
  0
LINE
  5
198
100
AcDbEntity
  8
addition
  6
ByLayer
 62
  256
370
   -1
100
AcDbLine
 10
480.5
 20
625
 11
493.4166666666663
 21
625
  0
LINE
  5
199
100
AcDbEntity
  8
addition
  6
ByLayer
 62
  256
370
   -1
100
AcDbLine
 10
507.0833333333337
 20
625
 11
520
 21
625
  0
MTEXT
  5
19A
100
AcDbEntity
  8
in_dim
  6
CONTINUOUS
 62
    7
370
   -2
100
AcDbMText
 10
500.25
 20
625
 30
0
 40
5
 41
11.66666666666729
 71
    5
 72
    1
  1
39.5
  7
standard
210
0
220
0
230
1
 50
0
 73
    2
 44
1
  0
LINE
  5
19B
100
AcDbEntity
  8
in_dim
  6
ByBlock
 62
    7
370
   -3
100
AcDbLine
 10
480.5
 20
625
 11
480.5
 21
625
  0
LINE
  5
19C
100
AcDbEntity
  8
in_dim
  6
ByBlock
 62
    7
370
   -3
100
AcDbLine
 10
520
 20
625
 11
520
 21
625
  0
ENDBLK
  5
91
330
8F
100
AcDbEntity
  8
0
100
AcDbBlockEnd
  0
BLOCK
  5
93
330
92
100
AcDbEntity
  8
0
100
AcDbBlockBegin
  2
*D37
 70
    1
 10
0
 20
0
  3
*D37
  1

  0
LINE
  5
19D
100
AcDbEntity
  8
in_dim
  6
ByBlock
 62
    7
370
   -3
100
AcDbLine
 10
452.0857864376269
 20
753.5857864376269
 11
454.9142135623731
 21
756.4142135623731
  0
LINE
  5
19E
100
AcDbEntity
  8
in_dim
  6
ByBlock
 62
    7
370
   -3
100
AcDbLine
 10
354.5857864376269
 20
753.5857864376269
 11
357.4142135623731
 21
756.4142135623731
  0
LINE
  5
19F
100
AcDbEntity
  8
addition
  6
ByLayer
 62
  256
370
   -1
100
AcDbLine
 10
453.5
 20
755
 11
411.5833333333337
 21
755
  0
LINE
  5
1A0
100
AcDbEntity
  8
addition
  6
ByLayer
 62
  256
370
   -1
100
AcDbLine
 10
397.9166666666663
 20
755
 11
356
 21
755
  0
MTEXT
  5
1A1
100
AcDbEntity
  8
in_dim
  6
CONTINUOUS
 62
    7
370
   -2
100
AcDbMText
 10
404.75
 20
755
 30
0
 40
5
 41
11.66666666666729
 71
    5
 72
    1
  1
97.5
  7
standard
210
0
220
0
230
1
 50
0
 73
    2
 44
1
  0
LINE
  5
1A2
100
AcDbEntity
  8
in_dim
  6
ByBlock
 62
    7
370
   -3
100
AcDbLine
 10
453.5
 20
755
 11
453.5
 21
755
  0
LINE
  5
1A3
100
AcDbEntity
  8
in_dim
  6
ByBlock
 62
    7
370
   -3
100
AcDbLine
 10
356
 20
755
 11
356
 21
755
  0
ENDBLK
  5
94
330
92
100
AcDbEntity
  8
0
100
AcDbBlockEnd
  0
BLOCK
  5
96
330
95
100
AcDbEntity
  8
0
100
AcDbBlockBegin
  2
*D26
 70
    1
 10
0
 20
0
  3
*D26
  1

  0
LINE
  5
1A4
100
AcDbEntity
  8
in_dim
  6
ByBlock
 62
    7
370
   -3
100
AcDbLine
 10
275
 20
459
 11
275
 21
459
  0
LINE
  5
1A5
100
AcDbEntity
  8
in_dim
  6
ByBlock
 62
    7
370
   -3
100
AcDbLine
 10
275
 20
382
 11
275
 21
382
  0
LINE
  5
1A6
100
AcDbEntity
  8
in_dim
  6
ByBlock
 62
    7
370
   -3
100
AcDbLine
 10
276.4142135623731
 20
457.5857864376269
 11
273.5857864376269
 21
460.4142135623731
  0
LINE
  5
1A7
100
AcDbEntity
  8
in_dim
  6
ByBlock
 62
    7
370
   -3
100
AcDbLine
 10
276.4142135623731
 20
380.5857864376269
 11
273.5857864376269
 21
383.4142135623731
  0
LINE
  5
1A8
100
AcDbEntity
  8
addition
  6
ByLayer
 62
  256
370
   -1
100
AcDbLine
 10
275
 20
459
 11
275
 21
424
  0
LINE
  5
1A9
100
AcDbEntity
  8
addition
  6
ByLayer
 62
  256
370
   -1
100
AcDbLine
 10
275
 20
417
 11
275
 21
382
  0
MTEXT
  5
1AA
100
AcDbEntity
  8
in_dim
  6
CONTINUOUS
 62
    7
370
   -2
100
AcDbMText
 10
275
 20
420.5
 30
0
 40
5
 41
6.111111111111111
 71
    5
 72
    1
  1
77
  7
standard
210
0
220
0
230
1
 50
0
 73
    2
 44
1
  0
ENDBLK
  5
97
330
95
100
AcDbEntity
  8
0
100
AcDbBlockEnd
  0
BLOCK
  5
99
330
98
100
AcDbEntity
  8
0
100
AcDbBlockBegin
  2
*D28
 70
    1
 10
0
 20
0
  3
*D28
  1

  0
LINE
  5
1AB
100
AcDbEntity
  8
in_dim
  6
ByBlock
 62
    7
370
   -3
100
AcDbLine
 10
312.5
 20
875
 11
312.5
 21
875
  0
LINE
  5
1AC
100
AcDbEntity
  8
in_dim
  6
ByBlock
 62
    7
370
   -3
100
AcDbLine
 10
458
 20
875
 11
458
 21
875
  0
LINE
  5
1AD
100
AcDbEntity
  8
in_dim
  6
ByBlock
 62
    7
370
   -3
100
AcDbLine
 10
313.9142135623731
 20
876.4142135623731
 11
311.0857864376269
 21
873.5857864376269
  0
LINE
  5
1AE
100
AcDbEntity
  8
in_dim
  6
ByBlock
 62
    7
370
   -3
100
AcDbLine
 10
459.4142135623731
 20
876.4142135623731
 11
456.5857864376269
 21
873.5857864376269
  0
LINE
  5
1AF
100
AcDbEntity
  8
addition
  6
ByLayer
 62
  256
370
   -1
100
AcDbLine
 10
312.5
 20
875
 11
376.7499999999997
 21
875
  0
LINE
  5
1B0
100
AcDbEntity
  8
addition
  6
ByLayer
 62
  256
370
   -1
100
AcDbLine
 10
393.7500000000003
 20
875
 11
458
 21
875
  0
MTEXT
  5
1B1
100
AcDbEntity
  8
in_dim
  6
CONTINUOUS
 62
    7
370
   -2
100
AcDbMText
 10
385.25
 20
875
 30
0
 40
5
 41
15.00000000000062
 71
    5
 72
    1
  1
145.5
  7
standard
210
0
220
0
230
1
 50
0
 73
    2
 44
1
  0
ENDBLK
  5
9A
330
98
100
AcDbEntity
  8
0
100
AcDbBlockEnd
  0
BLOCK
  5
9C
330
9B
100
AcDbEntity
  8
0
100
AcDbBlockBegin
  2
*D4
 70
    1
 10
0
 20
0
  3
*D4
  1

  0
LINE
  5
1B2
100
AcDbEntity
  8
in_dim
  6
ByBlock
 62
    7
370
   -3
100
AcDbLine
 10
460
 20
660
 11
460
 21
660
  0
LINE
  5
1B3
100
AcDbEntity
  8
in_dim
  6
ByBlock
 62
    7
370
   -3
100
AcDbLine
 10
520
 20
660
 11
520
 21
660
  0
LINE
  5
1B4
100
AcDbEntity
  8
in_dim
  6
ByBlock
 62
    7
370
   -3
100
AcDbLine
 10
461.4142135623731
 20
661.4142135623731
 11
458.5857864376269
 21
658.5857864376269
  0
LINE
  5
1B5
100
AcDbEntity
  8
in_dim
  6
ByBlock
 62
    7
370
   -3
100
AcDbLine
 10
521.4142135623731
 20
661.4142135623731
 11
518.5857864376269
 21
658.5857864376269
  0
LINE
  5
1B6
100
AcDbEntity
  8
addition
  6
ByLayer
 62
  256
370
   -1
100
AcDbLine
 10
460
 20
660
 11
485.9444444444443
 21
660
  0
LINE
  5
1B7
100
AcDbEntity
  8
addition
  6
ByLayer
 62
  256
370
   -1
100
AcDbLine
 10
494.0555555555557
 20
660
 11
520
 21
660
  0
MTEXT
  5
1B8
100
AcDbEntity
  8
in_dim
  6
CONTINUOUS
 62
    7
370
   -2
100
AcDbMText
 10
490
 20
660
 30
0
 40
5
 41
6.111111111111422
 71
    5
 72
    1
  1
60
  7
standard
210
0
220
0
230
1
 50
0
 73
    2
 44
1
  0
ENDBLK
  5
9D
330
9B
100
AcDbEntity
  8
0
100
AcDbBlockEnd
  0
BLOCK
  5
9F
330
9E
100
AcDbEntity
  8
0
100
AcDbBlockBegin
  2
*D18
 70
    1
 10
0
 20
0
  3
*D18
  1

  0
LINE
  5
1B9
100
AcDbEntity
  8
in_dim
  6
ByBlock
 62
    7
370
   -3
100
AcDbLine
 10
125.5
 20
944.5
 11
125.5
 21
944.5
  0
LINE
  5
1BA
100
AcDbEntity
  8
in_dim
  6
ByBlock
 62
    7
370
   -3
100
AcDbLine
 10
259.5
 20
944.5
 11
259.5
 21
944.5
  0
LINE
  5
1BB
100
AcDbEntity
  8
in_dim
  6
ByBlock
 62
    7
370
   -3
100
AcDbLine
 10
126.9142135623731
 20
945.9142135623731
 11
124.0857864376269
 21
943.0857864376269
  0
LINE
  5
1BC
100
AcDbEntity
  8
in_dim
  6
ByBlock
 62
    7
370
   -3
100
AcDbLine
 10
260.9142135623731
 20
945.9142135623731
 11
258.0857864376269
 21
943.0857864376269
  0
LINE
  5
1BD
100
AcDbEntity
  8
addition
  6
ByLayer
 62
  256
370
   -1
100
AcDbLine
 10
125.5
 20
944.5
 11
186.7777777777776
 21
944.5
  0
LINE
  5
1BE
100
AcDbEntity
  8
addition
  6
ByLayer
 62
  256
370
   -1
100
AcDbLine
 10
198.2222222222224
 20
944.5
 11
259.5
 21
944.5
  0
MTEXT
  5
1BF
100
AcDbEntity
  8
in_dim
  6
CONTINUOUS
 62
    7
370
   -2
100
AcDbMText
 10
192.5
 20
944.5
 30
0
 40
5
 41
9.444444444444756
 71
    5
 72
    1
  1
134
  7
standard
210
0
220
0
230
1
 50
0
 73
    2
 44
1
  0
ENDBLK
  5
A0
330
9E
100
AcDbEntity
  8
0
100
AcDbBlockEnd
  0
BLOCK
  5
A2
330
A1
100
AcDbEntity
  8
0
100
AcDbBlockBegin
  2
*D10
 70
    1
 10
0
 20
0
  3
*D10
  1

  0
LINE
  5
1C0
100
AcDbEntity
  8
in_dim
  6
ByBlock
 62
    7
370
   -3
100
AcDbLine
 10
525.5
 20
750
 11
525.5
 21
750
  0
LINE
  5
1C1
100
AcDbEntity
  8
in_dim
  6
ByBlock
 62
    7
370
   -3
100
AcDbLine
 10
649.5
 20
750
 11
649.5
 21
750
  0
LINE
  5
1C2
100
AcDbEntity
  8
in_dim
  6
ByBlock
 62
    7
370
   -3
100
AcDbLine
 10
526.9142135623731
 20
751.4142135623731
 11
524.0857864376269
 21
748.5857864376269
  0
LINE
  5
1C3
100
AcDbEntity
  8
in_dim
  6
ByBlock
 62
    7
370
   -3
100
AcDbLine
 10
650.9142135623731
 20
751.4142135623731
 11
648.0857864376269
 21
748.5857864376269
  0
LINE
  5
1C4
100
AcDbEntity
  8
addition
  6
ByLayer
 62
  256
370
   -1
100
AcDbLine
 10
525.5
 20
750
 11
581.7777777777778
 21
750
  0
LINE
  5
1C5
100
AcDbEntity
  8
addition
  6
ByLayer
 62
  256
370
   -1
100
AcDbLine
 10
593.2222222222221
 20
750
 11
649.5
 21
750
  0
MTEXT
  5
1C6
100
AcDbEntity
  8
in_dim
  6
CONTINUOUS
 62
    7
370
   -2
100
AcDbMText
 10
587.5
 20
750
 30
0
 40
5
 41
9.444444444444445
 71
    5
 72
    1
  1
124
  7
standard
210
0
220
0
230
1
 50
0
 73
    2
 44
1
  0
ENDBLK
  5
A3
330
A1
100
AcDbEntity
  8
0
100
AcDbBlockEnd
  0
BLOCK
  5
A5
330
A4
100
AcDbEntity
  8
0
100
AcDbBlockBegin
  2
*D48
 70
    1
 10
0
 20
0
  3
*D48
  1

  0
LINE
  5
1C7
100
AcDbEntity
  8
in_dim
  6
ByBlock
 62
    7
370
   -3
100
AcDbLine
 10
545.5
 20
625.4382653901661
 11
545.5
 21
625.4382653901661
  0
LINE
  5
1C8
100
AcDbEntity
  8
in_dim
  6
ByBlock
 62
    7
370
   -3
100
AcDbLine
 10
563.5
 20
625.4382653901661
 11
563.5
 21
625.4382653901661
  0
LINE
  5
1C9
100
AcDbEntity
  8
in_dim
  6
ByBlock
 62
    7
370
   -3
100
AcDbLine
 10
546.9142135623731
 20
626.8524789525392
 11
544.0857864376269
 21
624.024051827793
  0
LINE
  5
1CA
100
AcDbEntity
  8
in_dim
  6
ByBlock
 62
    7
370
   -3
100
AcDbLine
 10
564.9142135623731
 20
626.8524789525392
 11
562.0857864376269
 21
624.024051827793
  0
LINE
  5
1CB
100
AcDbEntity
  8
addition
  6
ByLayer
 62
  256
370
   -1
100
AcDbLine
 10
545.5
 20
625.4382653901661
 11
551
 21
625.4382653901661
  0
LINE
  5
1CC
100
AcDbEntity
  8
addition
  6
ByLayer
 62
  256
370
   -1
100
AcDbLine
 10
558
 20
625.4382653901661
 11
563.5
 21
625.4382653901661
  0
MTEXT
  5
1CD
100
AcDbEntity
  8
in_dim
  6
CONTINUOUS
 62
    7
370
   -2
100
AcDbMText
 10
554.5
 20
625.4382653901661
 30
0
 40
5
 41
5
 71
    5
 72
    1
  1
18
  7
standard
210
0
220
0
230
1
 50
0
 73
    2
 44
1
  0
ENDBLK
  5
A6
330
A4
100
AcDbEntity
  8
0
100
AcDbBlockEnd
  0
BLOCK
  5
A8
330
A7
100
AcDbEntity
  8
0
100
AcDbBlockBegin
  2
*D50
 70
    1
 10
0
 20
0
  3
*D50
  1

  0
LINE
  5
1CE
100
AcDbEntity
  8
in_dim
  6
ByBlock
 62
    7
370
   -3
100
AcDbLine
 10
265
 20
785
 11
265
 21
785
  0
LINE
  5
1CF
100
AcDbEntity
  8
in_dim
  6
ByBlock
 62
    7
370
   -3
100
AcDbLine
 10
458
 20
785
 11
458
 21
785
  0
LINE
  5
1D0
100
AcDbEntity
  8
in_dim
  6
ByBlock
 62
    7
370
   -3
100
AcDbLine
 10
266.4142135623731
 20
786.4142135623731
 11
263.5857864376269
 21
783.5857864376269
  0
LINE
  5
1D1
100
AcDbEntity
  8
in_dim
  6
ByBlock
 62
    7
370
   -3
100
AcDbLine
 10
459.4142135623731
 20
786.4142135623731
 11
456.5857864376269
 21
783.5857864376269
  0
LINE
  5
1D2
100
AcDbEntity
  8
addition
  6
ByLayer
 62
  256
370
   -1
100
AcDbLine
 10
265
 20
785
 11
356.0555555555554
 21
785
  0
LINE
  5
1D3
100
AcDbEntity
  8
addition
  6
ByLayer
 62
  256
370
   -1
100
AcDbLine
 10
366.9444444444446
 20
785
 11
458
 21
785
  0
MTEXT
  5
1D4
100
AcDbEntity
  8
in_dim
  6
CONTINUOUS
 62
    7
370
   -2
100
AcDbMText
 10
361.5
 20
785
 30
0
 40
5
 41
8.888888888889198
 71
    5
 72
    1
  1
193
  7
standard
210
0
220
0
230
1
 50
0
 73
    2
 44
1
  0
ENDBLK
  5
A9
330
A7
100
AcDbEntity
  8
0
100
AcDbBlockEnd
  0
BLOCK
  5
AB
330
AA
100
AcDbEntity
  8
0
100
AcDbBlockBegin
  2
*D29
 70
    1
 10
0
 20
0
  3
*D29
  1

  0
LINE
  5
1D5
100
AcDbEntity
  8
in_dim
  6
ByBlock
 62
    7
370
   -3
100
AcDbLine
 10
635
 20
622.5
 11
635
 21
622.5
  0
LINE
  5
1D6
100
AcDbEntity
  8
in_dim
  6
ByBlock
 62
    7
370
   -3
100
AcDbLine
 10
635
 20
577.5
 11
635
 21
577.5
  0
LINE
  5
1D7
100
AcDbEntity
  8
in_dim
  6
ByBlock
 62
    7
370
   -3
100
AcDbLine
 10
636.4142135623731
 20
621.0857864376269
 11
633.5857864376269
 21
623.9142135623731
  0
LINE
  5
1D8
100
AcDbEntity
  8
in_dim
  6
ByBlock
 62
    7
370
   -3
100
AcDbLine
 10
636.4142135623731
 20
576.0857864376269
 11
633.5857864376269
 21
578.9142135623731
  0
LINE
  5
1D9
100
AcDbEntity
  8
addition
  6
ByLayer
 62
  256
370
   -1
100
AcDbLine
 10
635
 20
622.5
 11
635
 21
603.5
  0
LINE
  5
1DA
100
AcDbEntity
  8
addition
  6
ByLayer
 62
  256
370
   -1
100
AcDbLine
 10
635
 20
596.5
 11
635
 21
577.5
  0
MTEXT
  5
1DB
100
AcDbEntity
  8
in_dim
  6
CONTINUOUS
 62
    7
370
   -2
100
AcDbMText
 10
635
 20
600
 30
0
 40
5
 41
6.666666666666977
 71
    5
 72
    1
  1
45
  7
standard
210
0
220
0
230
1
 50
0
 73
    2
 44
1
  0
ENDBLK
  5
AC
330
AA
100
AcDbEntity
  8
0
100
AcDbBlockEnd
  0
BLOCK
  5
AE
330
AD
100
AcDbEntity
  8
0
100
AcDbBlockBegin
  2
*D54
 70
    1
 10
0
 20
0
  3
*D54
  1

  0
LINE
  5
1DC
100
AcDbEntity
  8
out_dim
  6
ByBlock
 62
    7
370
   -3
100
AcDbLine
 10
715.5857864376269
 20
948.5857864376269
 11
718.4142135623731
 21
951.4142135623731
  0
LINE
  5
1DD
100
AcDbEntity
  8
out_dim
  6
ByBlock
 62
    7
370
   -3
100
AcDbLine
 10
462.0857864376269
 20
948.5857864376269
 11
464.9142135623731
 21
951.4142135623731
  0
LINE
  5
1DE
100
AcDbEntity
  8
addition
  6
ByLayer
 62
  256
370
   -1
100
AcDbLine
 10
717
 20
950
 11
599.0277777777783
 21
950
  0
LINE
  5
1DF
100
AcDbEntity
  8
addition
  6
ByLayer
 62
  256
370
   -1
100
AcDbLine
 10
581.4722222222217
 20
950
 11
463.5
 21
950
  0
MTEXT
  5
1E0
100
AcDbEntity
  8
out_dim
  6
CONTINUOUS
 62
    7
370
   -2
100
AcDbMText
 10
590.25
 20
950
 30
0
 40
5
 41
15.55555555555649
 71
    5
 72
    1
  1
253.5
  7
standard
210
0
220
0
230
1
 50
0
 73
    2
 44
1
  0
LINE
  5
1E1
100
AcDbEntity
  8
out_dim
  6
ByBlock
 62
    7
370
   -3
100
AcDbLine
 10
716.9999999999999
 20
950
 11
717
 21
950
  0
LINE
  5
1E2
100
AcDbEntity
  8
out_dim
  6
ByBlock
 62
    7
370
   -3
100
AcDbLine
 10
463.5
 20
950
 11
463.5
 21
950
  0
ENDBLK
  5
AF
330
AD
100
AcDbEntity
  8
0
100
AcDbBlockEnd
  0
BLOCK
  5
B1
330
B0
100
AcDbEntity
  8
0
100
AcDbBlockBegin
  2
*D60
 70
    1
 10
0
 20
0
  3
*D60
  1

  0
LINE
  5
1E3
100
AcDbEntity
  8
addition
  6
ByBlock
 62
    7
370
   -3
100
AcDbLine
 10
104.713086129963
 20
960.4142135623731
 11
107.5415132547092
 21
957.5857864376269
  0
LINE
  5
1E4
100
AcDbEntity
  8
addition
  6
ByBlock
 62
    7
370
   -3
100
AcDbLine
 10
104.713086129963
 20
1224.414213562373
 11
107.5415132547092
 21
1221.585786437627
  0
LINE
  5
1E5
100
AcDbEntity
  8
addition
  6
ByLayer
 62
  256
370
   -1
100
AcDbLine
 10
106.1272996923361
 20
959
 11
106.1272996923361
 21
1087.5
  0
LINE
  5
1E6
100
AcDbEntity
  8
addition
  6
ByLayer
 62
  256
370
   -1
100
AcDbLine
 10
106.1272996923361
 20
1094.5
 11
106.1272996923361
 21
1223
  0
MTEXT
  5
1E7
100
AcDbEntity
  8
addition
  6
CONTINUOUS
 62
    7
370
   -2
100
AcDbMText
 10
106.1272996923361
 20
1091
 30
0
 40
5
 41
10.55555555555587
 71
    5
 72
    1
  1
264
  7
standard
210
0
220
0
230
1
 50
0
 73
    2
 44
1
  0
LINE
  5
1E8
100
AcDbEntity
  8
addition
  6
ByBlock
 62
    7
370
   -3
100
AcDbLine
 10
106.1272996923361
 20
959
 11
106.1272996923361
 21
959
  0
LINE
  5
1E9
100
AcDbEntity
  8
addition
  6
ByBlock
 62
    7
370
   -3
100
AcDbLine
 10
106.1272996923361
 20
1223
 11
106.1272996923361
 21
1223
  0
ENDBLK
  5
B2
330
B0
100
AcDbEntity
  8
0
100
AcDbBlockEnd
  0
BLOCK
  5
B4
330
B3
100
AcDbEntity
  8
0
100
AcDbBlockBegin
  2
*D40
 70
    1
 10
0
 20
0
  3
*D40
  1

  0
LINE
  5
1EA
100
AcDbEntity
  8
in_dim
  6
ByBlock
 62
    7
370
   -3
100
AcDbLine
 10
456.3420530022469
 20
662.5
 11
456.3420530022469
 21
662.5
  0
LINE
  5
1EB
100
AcDbEntity
  8
in_dim
  6
ByBlock
 62
    7
370
   -3
100
AcDbLine
 10
456.3420530022469
 20
632.5
 11
456.3420530022469
 21
632.5
  0
LINE
  5
1EC
100
AcDbEntity
  8
in_dim
  6
ByBlock
 62
    7
370
   -3
100
AcDbLine
 10
457.75626656462
 20
661.0857864376269
 11
454.9278394398738
 21
663.9142135623731
  0
LINE
  5
1ED
100
AcDbEntity
  8
in_dim
  6
ByBlock
 62
    7
370
   -3
100
AcDbLine
 10
457.75626656462
 20
631.0857864376269
 11
454.9278394398738
 21
633.9142135623731
  0
LINE
  5
1EE
100
AcDbEntity
  8
addition
  6
ByLayer
 62
  256
370
   -1
100
AcDbLine
 10
456.3420530022469
 20
662.5
 11
456.3420530022469
 21
651
  0
LINE
  5
1EF
100
AcDbEntity
  8
addition
  6
ByLayer
 62
  256
370
   -1
100
AcDbLine
 10
456.3420530022469
 20
644
 11
456.3420530022469
 21
632.5
  0
MTEXT
  5
1F0
100
AcDbEntity
  8
in_dim
  6
CONTINUOUS
 62
    7
370
   -2
100
AcDbMText
 10
456.3420530022469
 20
647.5
 30
0
 40
5
 41
6.111111111111422
 71
    5
 72
    1
  1
30
  7
standard
210
0
220
0
230
1
 50
0
 73
    2
 44
1
  0
ENDBLK
  5
B5
330
B3
100
AcDbEntity
  8
0
100
AcDbBlockEnd
  0
BLOCK
  5
B7
330
B6
100
AcDbEntity
  8
0
100
AcDbBlockBegin
  2
*D31
 70
    1
 10
0
 20
0
  3
*D31
  1

  0
LINE
  5
1F1
100
AcDbEntity
  8
in_dim
  6
ByBlock
 62
    7
370
   -3
100
AcDbLine
 10
300
 20
767.5
 11
300
 21
767.5
  0
LINE
  5
1F2
100
AcDbEntity
  8
in_dim
  6
ByBlock
 62
    7
370
   -3
100
AcDbLine
 10
300
 20
865
 11
300
 21
865
  0
LINE
  5
1F3
100
AcDbEntity
  8
in_dim
  6
ByBlock
 62
    7
370
   -3
100
AcDbLine
 10
298.5857864376269
 20
768.9142135623731
 11
301.4142135623731
 21
766.0857864376269
  0
LINE
  5
1F4
100
AcDbEntity
  8
in_dim
  6
ByBlock
 62
    7
370
   -3
100
AcDbLine
 10
298.5857864376269
 20
866.4142135623731
 11
301.4142135623731
 21
863.5857864376269
  0
LINE
  5
1F5
100
AcDbEntity
  8
addition
  6
ByLayer
 62
  256
370
   -1
100
AcDbLine
 10
300
 20
767.5
 11
300
 21
812.7500000000001
  0
LINE
  5
1F6
100
AcDbEntity
  8
addition
  6
ByLayer
 62
  256
370
   -1
100
AcDbLine
 10
300
 20
819.75
 11
300
 21
865
  0
MTEXT
  5
1F7
100
AcDbEntity
  8
in_dim
  6
CONTINUOUS
 62
    7
370
   -2
100
AcDbMText
 10
300
 20
816.25
 30
0
 40
5
 41
11.66666666666729
 71
    5
 72
    1
  1
97.5
  7
standard
210
0
220
0
230
1
 50
0
 73
    2
 44
1
  0
ENDBLK
  5
B8
330
B6
100
AcDbEntity
  8
0
100
AcDbBlockEnd
  0
BLOCK
  5
BA
330
B9
100
AcDbEntity
  8
0
100
AcDbBlockBegin
  2
*D12
 70
    1
 10
0
 20
0
  3
*D12
  1

  0
LINE
  5
1F8
100
AcDbEntity
  8
in_dim
  6
ByBlock
 62
    7
370
   -3
100
AcDbLine
 10
649.5
 20
584.5
 11
649.5
 21
584.5
  0
LINE
  5
1F9
100
AcDbEntity
  8
in_dim
  6
ByBlock
 62
    7
370
   -3
100
AcDbLine
 10
571.5
 20
584.5
 11
571.5
 21
584.5
  0
LINE
  5
1FA
100
AcDbEntity
  8
in_dim
  6
ByBlock
 62
    7
370
   -3
100
AcDbLine
 10
648.0857864376269
 20
583.0857864376269
 11
650.9142135623731
 21
585.9142135623731
  0
LINE
  5
1FB
100
AcDbEntity
  8
in_dim
  6
ByBlock
 62
    7
370
   -3
100
AcDbLine
 10
570.0857864376269
 20
583.0857864376269
 11
572.9142135623731
 21
585.9142135623731
  0
LINE
  5
1FC
100
AcDbEntity
  8
addition
  6
ByLayer
 62
  256
370
   -1
100
AcDbLine
 10
649.5
 20
584.5
 11
614.5555555555555
 21
584.5
  0
LINE
  5
1FD
100
AcDbEntity
  8
addition
  6
ByLayer
 62
  256
370
   -1
100
AcDbLine
 10
606.4444444444445
 20
584.5
 11
571.5
 21
584.5
  0
MTEXT
  5
1FE
100
AcDbEntity
  8
in_dim
  6
CONTINUOUS
 62
    7
370
   -2
100
AcDbMText
 10
610.5
 20
584.5
 30
0
 40
5
 41
6.111111111111112
 71
    5
 72
    1
  1
78
  7
standard
210
0
220
0
230
1
 50
0
 73
    2
 44
1
  0
ENDBLK
  5
BB
330
B9
100
AcDbEntity
  8
0
100
AcDbBlockEnd
  0
BLOCK
  5
BD
330
BC
100
AcDbEntity
  8
0
100
AcDbBlockBegin
  2
*D21
 70
    1
 10
0
 20
0
  3
*D21
  1

  0
LINE
  5
1FF
100
AcDbEntity
  8
in_dim
  6
ByBlock
 62
    7
370
   -3
100
AcDbLine
 10
445.0321715817694
 20
767.5
 11
445.0321715817694
 21
767.5
  0
LINE
  5
200
100
AcDbEntity
  8
in_dim
  6
ByBlock
 62
    7
370
   -3
100
AcDbLine
 10
445.0321715817694
 20
953.5
 11
445.0321715817694
 21
953.5
  0
LINE
  5
201
100
AcDbEntity
  8
in_dim
  6
ByBlock
 62
    7
370
   -3
100
AcDbLine
 10
443.6179580193963
 20
768.9142135623731
 11
446.4463851441425
 21
766.0857864376269
  0
LINE
  5
202
100
AcDbEntity
  8
in_dim
  6
ByBlock
 62
    7
370
   -3
100
AcDbLine
 10
443.6179580193963
 20
954.9142135623731
 11
446.4463851441425
 21
952.0857864376269
  0
LINE
  5
203
100
AcDbEntity
  8
addition
  6
ByLayer
 62
  256
370
   -1
100
AcDbLine
 10
445.0321715817694
 20
767.5
 11
445.0321715817694
 21
857
  0
LINE
  5
204
100
AcDbEntity
  8
addition
  6
ByLayer
 62
  256
370
   -1
100
AcDbLine
 10
445.0321715817694
 20
864
 11
445.0321715817694
 21
953.5
  0
MTEXT
  5
205
100
AcDbEntity
  8
in_dim
  6
CONTINUOUS
 62
    7
370
   -2
100
AcDbMText
 10
445.0321715817694
 20
860.5
 30
0
 40
5
 41
8.888888888889198
 71
    5
 72
    1
  1
186
  7
standard
210
0
220
0
230
1
 50
0
 73
    2
 44
1
  0
ENDBLK
  5
BE
330
BC
100
AcDbEntity
  8
0
100
AcDbBlockEnd
  0
BLOCK
  5
C0
330
BF
100
AcDbEntity
  8
0
100
AcDbBlockBegin
  2
*D35
 70
    1
 10
0
 20
0
  3
*D35
  1

  0
LINE
  5
206
100
AcDbEntity
  8
in_dim
  6
ByBlock
 62
    7
370
   -3
100
AcDbLine
 10
268.4142135623731
 20
766.4142135623731
 11
265.5857864376269
 21
763.5857864376269
  0
LINE
  5
207
100
AcDbEntity
  8
in_dim
  6
ByBlock
 62
    7
370
   -3
100
AcDbLine
 10
357.4142135623731
 20
766.4142135623731
 11
354.5857864376269
 21
763.5857864376269
  0
LINE
  5
208
100
AcDbEntity
  8
addition
  6
ByLayer
 62
  256
370
   -1
100
AcDbLine
 10
267
 20
765
 11
307.4444444444445
 21
765
  0
LINE
  5
209
100
AcDbEntity
  8
addition
  6
ByLayer
 62
  256
370
   -1
100
AcDbLine
 10
315.5555555555555
 20
765
 11
356
 21
765
  0
MTEXT
  5
20A
100
AcDbEntity
  8
in_dim
  6
CONTINUOUS
 62
    7
370
   -2
100
AcDbMText
 10
311.5
 20
765
 30
0
 40
5
 41
6.111111111111112
 71
    5
 72
    1
  1
89
  7
standard
210
0
220
0
230
1
 50
0
 73
    2
 44
1
  0
LINE
  5
20B
100
AcDbEntity
  8
in_dim
  6
ByBlock
 62
    7
370
   -3
100
AcDbLine
 10
267
 20
765
 11
267
 21
765
  0
LINE
  5
20C
100
AcDbEntity
  8
in_dim
  6
ByBlock
 62
    7
370
   -3
100
AcDbLine
 10
356
 20
765
 11
356
 21
765
  0
ENDBLK
  5
C1
330
BF
100
AcDbEntity
  8
0
100
AcDbBlockEnd
  0
BLOCK
  5
C3
330
C2
100
AcDbEntity
  8
0
100
AcDbBlockBegin
  2
*D47
 70
    1
 10
0
 20
0
  3
*D47
  1

  0
LINE
  5
20D
100
AcDbEntity
  8
in_dim
  6
ByBlock
 62
    7
370
   -3
100
AcDbLine
 10
311.4142135623731
 20
929.5857864376269
 11
308.5857864376269
 21
932.4142135623731
  0
LINE
  5
20E
100
AcDbEntity
  8
in_dim
  6
ByBlock
 62
    7
370
   -3
100
AcDbLine
 10
311.4142135623731
 20
882.5857864376269
 11
308.5857864376269
 21
885.4142135623731
  0
LINE
  5
20F
100
AcDbEntity
  8
addition
  6
ByLayer
 62
  256
370
   -1
100
AcDbLine
 10
310
 20
931
 11
310
 21
911
  0
LINE
  5
210
100
AcDbEntity
  8
addition
  6
ByLayer
 62
  256
370
   -1
100
AcDbLine
 10
310
 20
904
 11
310
 21
884
  0
MTEXT
  5
211
100
AcDbEntity
  8
in_dim
  6
CONTINUOUS
 62
    7
370
   -2
100
AcDbMText
 10
310
 20
907.5
 30
0
 40
5
 41
6.666666666666666
 71
    5
 72
    1
  1
47
  7
standard
210
0
220
0
230
1
 50
0
 73
    2
 44
1
  0
LINE
  5
212
100
AcDbEntity
  8
in_dim
  6
ByBlock
 62
    7
370
   -3
100
AcDbLine
 10
310
 20
931
 11
310
 21
931
  0
LINE
  5
213
100
AcDbEntity
  8
in_dim
  6
ByBlock
 62
    7
370
   -3
100
AcDbLine
 10
310
 20
884
 11
310
 21
884
  0
ENDBLK
  5
C4
330
C2
100
AcDbEntity
  8
0
100
AcDbBlockEnd
  0
BLOCK
  5
C6
330
C5
100
AcDbEntity
  8
0
100
AcDbBlockBegin
  2
*D53
 70
    1
 10
0
 20
0
  3
*D53
  1

  0
LINE
  5
214
100
AcDbEntity
  8
out_dim
  6
ByBlock
 62
    7
370
   -3
100
AcDbLine
 10
151.4142135623731
 20
1488.585786437627
 11
148.5857864376269
 21
1491.414213562373
  0
LINE
  5
215
100
AcDbEntity
  8
out_dim
  6
ByBlock
 62
    7
370
   -3
100
AcDbLine
 10
151.4142135623731
 20
957.5857864376269
 11
148.5857864376269
 21
960.4142135623731
  0
LINE
  5
216
100
AcDbEntity
  8
addition
  6
ByLayer
 62
  256
370
   -1
100
AcDbLine
 10
150
 20
1490
 11
150
 21
1228
  0
LINE
  5
217
100
AcDbEntity
  8
addition
  6
ByLayer
 62
  256
370
   -1
100
AcDbLine
 10
150
 20
1221
 11
150
 21
959
  0
MTEXT
  5
218
100
AcDbEntity
  8
out_dim
  6
CONTINUOUS
 62
    7
370
   -2
100
AcDbMText
 10
150
 20
1224.5
 30
0
 40
5
 41
8.888888888889511
 71
    5
 72
    1
  1
531
  7
standard
210
0
220
0
230
1
 50
0
 73
    2
 44
1
  0
LINE
  5
219
100
AcDbEntity
  8
out_dim
  6
ByBlock
 62
    7
370
   -3
100
AcDbLine
 10
150
 20
1490
 11
150
 21
1490
  0
LINE
  5
21A
100
AcDbEntity
  8
out_dim
  6
ByBlock
 62
    7
370
   -3
100
AcDbLine
 10
150
 20
959
 11
150
 21
959
  0
ENDBLK
  5
C7
330
C5
100
AcDbEntity
  8
0
100
AcDbBlockEnd
  0
BLOCK
  5
C9
330
C8
100
AcDbEntity
  8
0
100
AcDbBlockBegin
  2
*D22
 70
    1
 10
0
 20
0
  3
*D22
  1

  0
LINE
  5
21B
100
AcDbEntity
  8
in_dim
  6
ByBlock
 62
    7
370
   -3
100
AcDbLine
 10
245.0300207039338
 20
902
 11
245.0300207039338
 21
902
  0
LINE
  5
21C
100
AcDbEntity
  8
in_dim
  6
ByBlock
 62
    7
370
   -3
100
AcDbLine
 10
245.0300207039338
 20
661
 11
245.0300207039338
 21
661
  0
LINE
  5
21D
100
AcDbEntity
  8
in_dim
  6
ByBlock
 62
    7
370
   -3
100
AcDbLine
 10
246.4442342663069
 20
900.5857864376269
 11
243.6158071415607
 21
903.4142135623731
  0
LINE
  5
21E
100
AcDbEntity
  8
in_dim
  6
ByBlock
 62
    7
370
   -3
100
AcDbLine
 10
246.4442342663069
 20
659.5857864376269
 11
243.6158071415607
 21
662.4142135623731
  0
LINE
  5
21F
100
AcDbEntity
  8
addition
  6
ByLayer
 62
  256
370
   -1
100
AcDbLine
 10
245.0300207039338
 20
902
 11
245.0300207039338
 21
785.0000000000001
  0
LINE
  5
220
100
AcDbEntity
  8
addition
  6
ByLayer
 62
  256
370
   -1
100
AcDbLine
 10
245.0300207039338
 20
778.0000000000001
 11
245.0300207039338
 21
661
  0
MTEXT
  5
221
100
AcDbEntity
  8
in_dim
  6
CONTINUOUS
 62
    7
370
   -2
100
AcDbMText
 10
245.0300207039338
 20
781.5
 30
0
 40
5
 41
9.444444444444445
 71
    5
 72
    1
  1
241
  7
standard
210
0
220
0
230
1
 50
0
 73
    2
 44
1
  0
ENDBLK
  5
CA
330
C8
100
AcDbEntity
  8
0
100
AcDbBlockEnd
  0
BLOCK
  5
CC
330
CB
100
AcDbEntity
  8
0
100
AcDbBlockBegin
  2
*D59
 70
    1
 10
0
 20
0
  3
*D59
  1

  0
LINE
  5
222
100
AcDbEntity
  8
out_dim
  6
ByBlock
 62
    7
370
   -3
100
AcDbLine
 10
-73.58578643762701
 20
1488.585786437627
 11
-76.41421356237319
 21
1491.414213562373
  0
LINE
  5
223
100
AcDbEntity
  8
out_dim
  6
ByBlock
 62
    7
370
   -3
100
AcDbLine
 10
-73.58578643762701
 20
-1.414213562373095
 11
-76.41421356237319
 21
1.414213562373095
  0
LINE
  5
224
100
AcDbEntity
  8
addition
  6
ByLayer
 62
  256
370
   -1
100
AcDbLine
 10
-75.0000000000001
 20
1490
 11
-75.0000000000001
 21
748.5
  0
LINE
  5
225
100
AcDbEntity
  8
addition
  6
ByLayer
 62
  256
370
   -1
100
AcDbLine
 10
-75.0000000000001
 20
741.5
 11
-75.0000000000001
 21
0
  0
MTEXT
  5
226
100
AcDbEntity
  8
out_dim
  6
CONTINUOUS
 62
    7
370
   -2
100
AcDbMText
 10
-75.0000000000001
 20
745
 30
0
 40
5
 41
13.33333333333333
 71
    5
 72
    1
  1
1490
  7
standard
210
0
220
0
230
1
 50
0
 73
    2
 44
1
  0
LINE
  5
227
100
AcDbEntity
  8
out_dim
  6
ByBlock
 62
    7
370
   -3
100
AcDbLine
 10
-75.0000000000001
 20
1490
 11
-75.0000000000001
 21
1490
  0
LINE
  5
228
100
AcDbEntity
  8
out_dim
  6
ByBlock
 62
    7
370
   -3
100
AcDbLine
 10
-75.0000000000001
 20
9.184547653667842e-15
 11
-75.0000000000001
 21
0
  0
ENDBLK
  5
CD
330
CB
100
AcDbEntity
  8
0
100
AcDbBlockEnd
  0
BLOCK
  5
CF
330
CE
100
AcDbEntity
  8
0
100
AcDbBlockBegin
  2
*D1
 70
    1
 10
0
 20
0
  3
*D1
  1

  0
LINE
  5
229
100
AcDbEntity
  8
in_dim
  6
ByBlock
 62
    7
370
   -3
100
AcDbLine
 10
481.9142135623731
 20
606.4142135623731
 11
479.0857864376269
 21
603.5857864376269
  0
LINE
  5
22A
100
AcDbEntity
  8
in_dim
  6
ByBlock
 62
    7
370
   -3
100
AcDbLine
 10
526.4142135623731
 20
606.4142135623731
 11
523.5857864376269
 21
603.5857864376269
  0
LINE
  5
22B
100
AcDbEntity
  8
addition
  6
ByLayer
 62
  256
370
   -1
100
AcDbLine
 10
480.5
 20
605
 11
495.361111111111
 21
605
  0
LINE
  5
22C
100
AcDbEntity
  8
addition
  6
ByLayer
 62
  256
370
   -1
100
AcDbLine
 10
510.138888888889
 20
605
 11
525
 21
605
  0
MTEXT
  5
22D
100
AcDbEntity
  8
in_dim
  6
CONTINUOUS
 62
    7
370
   -2
100
AcDbMText
 10
502.75
 20
605
 30
0
 40
5
 41
12.77777777777809
 71
    5
 72
    1
  1
44.5
  7
standard
210
0
220
0
230
1
 50
0
 73
    2
 44
1
  0
LINE
  5
22E
100
AcDbEntity
  8
in_dim
  6
ByBlock
 62
    7
370
   -3
100
AcDbLine
 10
480.5
 20
605
 11
480.5
 21
605
  0
LINE
  5
22F
100
AcDbEntity
  8
in_dim
  6
ByBlock
 62
    7
370
   -3
100
AcDbLine
 10
525
 20
605
 11
525
 21
605
  0
ENDBLK
  5
D0
330
CE
100
AcDbEntity
  8
0
100
AcDbBlockEnd
  0
BLOCK
  5
D2
330
D1
100
AcDbEntity
  8
0
100
AcDbBlockBegin
  2
*D32
 70
    1
 10
0
 20
0
  3
*D32
  1

  0
LINE
  5
230
100
AcDbEntity
  8
in_dim
  6
ByBlock
 62
    7
370
   -3
100
AcDbLine
 10
136
 20
953.5
 11
136
 21
953.5
  0
LINE
  5
231
100
AcDbEntity
  8
in_dim
  6
ByBlock
 62
    7
370
   -3
100
AcDbLine
 10
136
 20
661
 11
136
 21
661
  0
LINE
  5
232
100
AcDbEntity
  8
in_dim
  6
ByBlock
 62
    7
370
   -3
100
AcDbLine
 10
137.4142135623731
 20
952.0857864376269
 11
134.5857864376269
 21
954.9142135623731
  0
LINE
  5
233
100
AcDbEntity
  8
in_dim
  6
ByBlock
 62
    7
370
   -3
100
AcDbLine
 10
137.4142135623731
 20
659.5857864376269
 11
134.5857864376269
 21
662.4142135623731
  0
LINE
  5
234
100
AcDbEntity
  8
addition
  6
ByLayer
 62
  256
370
   -1
100
AcDbLine
 10
136
 20
953.5
 11
136
 21
810.75
  0
LINE
  5
235
100
AcDbEntity
  8
addition
  6
ByLayer
 62
  256
370
   -1
100
AcDbLine
 10
136
 20
803.75
 11
136
 21
661
  0
MTEXT
  5
236
100
AcDbEntity
  8
in_dim
  6
CONTINUOUS
 62
    7
370
   -2
100
AcDbMText
 10
136
 20
807.25
 30
0
 40
5
 41
15.55555555555587
 71
    5
 72
    1
  1
292.5
  7
standard
210
0
220
0
230
1
 50
0
 73
    2
 44
1
  0
ENDBLK
  5
D3
330
D1
100
AcDbEntity
  8
0
100
AcDbBlockEnd
  0
BLOCK
  5
D5
330
D4
100
AcDbEntity
  8
0
100
AcDbBlockBegin
  2
*D16
 70
    1
 10
0
 20
0
  3
*D16
  1

  0
LINE
  5
237
100
AcDbEntity
  8
in_dim
  6
ByBlock
 62
    7
370
   -3
100
AcDbLine
 10
265
 20
680
 11
265
 21
680
  0
LINE
  5
238
100
AcDbEntity
  8
in_dim
  6
ByBlock
 62
    7
370
   -3
100
AcDbLine
 10
354.5
 20
680
 11
354.5
 21
680
  0
LINE
  5
239
100
AcDbEntity
  8
in_dim
  6
ByBlock
 62
    7
370
   -3
100
AcDbLine
 10
266.4142135623731
 20
681.4142135623731
 11
263.5857864376269
 21
678.5857864376269
  0
LINE
  5
23A
100
AcDbEntity
  8
in_dim
  6
ByBlock
 62
    7
370
   -3
100
AcDbLine
 10
355.9142135623731
 20
681.4142135623731
 11
353.0857864376269
 21
678.5857864376269
  0
LINE
  5
23B
100
AcDbEntity
  8
addition
  6
ByLayer
 62
  256
370
   -1
100
AcDbLine
 10
265
 20
680
 11
302.9166666666665
 21
680
  0
LINE
  5
23C
100
AcDbEntity
  8
addition
  6
ByLayer
 62
  256
370
   -1
100
AcDbLine
 10
316.5833333333335
 20
680
 11
354.5
 21
680
  0
MTEXT
  5
23D
100
AcDbEntity
  8
in_dim
  6
CONTINUOUS
 62
    7
370
   -2
100
AcDbMText
 10
309.75
 20
680
 30
0
 40
5
 41
11.66666666666698
 71
    5
 72
    1
  1
89.5
  7
standard
210
0
220
0
230
1
 50
0
 73
    2
 44
1
  0
ENDBLK
  5
D6
330
D4
100
AcDbEntity
  8
0
100
AcDbBlockEnd
  0
BLOCK
  5
D8
330
D7
100
AcDbEntity
  8
0
100
AcDbBlockBegin
  2
*D41
 70
    1
 10
0
 20
0
  3
*D41
  1

  0
LINE
  5
23E
100
AcDbEntity
  8
in_dim
  6
ByBlock
 62
    7
370
   -3
100
AcDbLine
 10
574.5
 20
565
 11
574.5
 21
565
  0
LINE
  5
23F
100
AcDbEntity
  8
in_dim
  6
ByBlock
 62
    7
370
   -3
100
AcDbLine
 10
646.5
 20
565
 11
646.5
 21
565
  0
LINE
  5
240
100
AcDbEntity
  8
in_dim
  6
ByBlock
 62
    7
370
   -3
100
AcDbLine
 10
575.9142135623731
 20
566.4142135623731
 11
573.0857864376269
 21
563.5857864376269
  0
LINE
  5
241
100
AcDbEntity
  8
in_dim
  6
ByBlock
 62
    7
370
   -3
100
AcDbLine
 10
647.9142135623731
 20
566.4142135623731
 11
645.0857864376269
 21
563.5857864376269
  0
LINE
  5
242
100
AcDbEntity
  8
addition
  6
ByLayer
 62
  256
370
   -1
100
AcDbLine
 10
574.5
 20
565
 11
606.4444444444445
 21
565
  0
LINE
  5
243
100
AcDbEntity
  8
addition
  6
ByLayer
 62
  256
370
   -1
100
AcDbLine
 10
614.5555555555555
 20
565
 11
646.5
 21
565
  0
MTEXT
  5
244
100
AcDbEntity
  8
in_dim
  6
CONTINUOUS
 62
    7
370
   -2
100
AcDbMText
 10
610.5
 20
565
 30
0
 40
5
 41
6.111111111111111
 71
    5
 72
    1
  1
72
  7
standard
210
0
220
0
230
1
 50
0
 73
    2
 44
1
  0
ENDBLK
  5
D9
330
D7
100
AcDbEntity
  8
0
100
AcDbBlockEnd
  0
BLOCK
  5
DB
330
DA
100
AcDbEntity
  8
0
100
AcDbBlockBegin
  2
*D38
 70
    1
 10
0
 20
0
  3
*D38
  1

  0
LINE
  5
245
100
AcDbEntity
  8
in_dim
  6
ByBlock
 62
    7
370
   -3
100
AcDbLine
 10
493.4142135623731
 20
671.4142135623731
 11
490.5857864376269
 21
668.5857864376269
  0
LINE
  5
246
100
AcDbEntity
  8
in_dim
  6
ByBlock
 62
    7
370
   -3
100
AcDbLine
 10
517.4142135623731
 20
671.4142135623731
 11
514.5857864376269
 21
668.5857864376269
  0
LINE
  5
247
100
AcDbEntity
  8
addition
  6
ByLayer
 62
  256
370
   -1
100
AcDbLine
 10
492
 20
670
 11
499.6666666666667
 21
670
  0
LINE
  5
248
100
AcDbEntity
  8
addition
  6
ByLayer
 62
  256
370
   -1
100
AcDbLine
 10
508.3333333333333
 20
670
 11
516
 21
670
  0
MTEXT
  5
249
100
AcDbEntity
  8
in_dim
  6
CONTINUOUS
 62
    7
370
   -2
100
AcDbMText
 10
504
 20
670
 30
0
 40
5
 41
6.666666666666666
 71
    5
 72
    1
  1
24
  7
standard
210
0
220
0
230
1
 50
0
 73
    2
 44
1
  0
LINE
  5
24A
100
AcDbEntity
  8
in_dim
  6
ByBlock
 62
    7
370
   -3
100
AcDbLine
 10
492
 20
670
 11
492
 21
670
  0
LINE
  5
24B
100
AcDbEntity
  8
in_dim
  6
ByBlock
 62
    7
370
   -3
100
AcDbLine
 10
516
 20
670
 11
516
 21
670
  0
ENDBLK
  5
DC
330
DA
100
AcDbEntity
  8
0
100
AcDbBlockEnd
  0
BLOCK
  5
DE
330
DD
100
AcDbEntity
  8
0
100
AcDbBlockBegin
  2
*D20
 70
    1
 10
0
 20
0
  3
*D20
  1

  0
LINE
  5
24C
100
AcDbEntity
  8
in_dim
  6
ByBlock
 62
    7
370
   -3
100
AcDbLine
 10
275
 20
953.5
 11
275
 21
953.5
  0
LINE
  5
24D
100
AcDbEntity
  8
in_dim
  6
ByBlock
 62
    7
370
   -3
100
AcDbLine
 10
275
 20
870.5
 11
275
 21
870.5
  0
LINE
  5
24E
100
AcDbEntity
  8
in_dim
  6
ByBlock
 62
    7
370
   -3
100
AcDbLine
 10
276.4142135623731
 20
952.0857864376269
 11
273.5857864376269
 21
954.9142135623731
  0
LINE
  5
24F
100
AcDbEntity
  8
in_dim
  6
ByBlock
 62
    7
370
   -3
100
AcDbLine
 10
276.4142135623731
 20
869.0857864376269
 11
273.5857864376269
 21
871.9142135623731
  0
LINE
  5
250
100
AcDbEntity
  8
addition
  6
ByLayer
 62
  256
370
   -1
100
AcDbLine
 10
275
 20
953.5
 11
275
 21
915.5
  0
LINE
  5
251
100
AcDbEntity
  8
addition
  6
ByLayer
 62
  256
370
   -1
100
AcDbLine
 10
275
 20
908.5
 11
275
 21
870.5
  0
MTEXT
  5
252
100
AcDbEntity
  8
in_dim
  6
CONTINUOUS
 62
    7
370
   -2
100
AcDbMText
 10
275
 20
912
 30
0
 40
5
 41
6.111111111111422
 71
    5
 72
    1
  1
83
  7
standard
210
0
220
0
230
1
 50
0
 73
    2
 44
1
  0
ENDBLK
  5
DF
330
DD
100
AcDbEntity
  8
0
100
AcDbBlockEnd
  0
BLOCK
  5
E1
330
E0
100
AcDbEntity
  8
0
100
AcDbBlockBegin
  2
*D45
 70
    1
 10
0
 20
0
  3
*D45
  1

  0
LINE
  5
253
100
AcDbEntity
  8
in_dim
  6
ByBlock
 62
    7
370
   -3
100
AcDbLine
 10
263.4142135623731
 20
821.0857864376269
 11
260.5857864376269
 21
823.9142135623731
  0
LINE
  5
254
100
AcDbEntity
  8
in_dim
  6
ByBlock
 62
    7
370
   -3
100
AcDbLine
 10
263.4142135623731
 20
789.0857864376269
 11
260.5857864376269
 21
791.9142135623731
  0
LINE
  5
255
100
AcDbEntity
  8
addition
  6
ByLayer
 62
  256
370
   -1
100
AcDbLine
 10
262
 20
822.5
 11
262
 21
810
  0
LINE
  5
256
100
AcDbEntity
  8
addition
  6
ByLayer
 62
  256
370
   -1
100
AcDbLine
 10
262
 20
803
 11
262
 21
790.5
  0
MTEXT
  5
257
100
AcDbEntity
  8
in_dim
  6
CONTINUOUS
 62
    7
370
   -2
100
AcDbMText
 10
262
 20
806.5
 30
0
 40
5
 41
6.111111111111422
 71
    5
 72
    1
  1
32
  7
standard
210
0
220
0
230
1
 50
0
 73
    2
 44
1
  0
LINE
  5
258
100
AcDbEntity
  8
in_dim
  6
ByBlock
 62
    7
370
   -3
100
AcDbLine
 10
262
 20
822.5
 11
262
 21
822.5
  0
LINE
  5
259
100
AcDbEntity
  8
in_dim
  6
ByBlock
 62
    7
370
   -3
100
AcDbLine
 10
262
 20
790.5
 11
262
 21
790.5
  0
ENDBLK
  5
E2
330
E0
100
AcDbEntity
  8
0
100
AcDbBlockEnd
  0
BLOCK
  5
E4
330
E3
100
AcDbEntity
  8
0
100
AcDbBlockBegin
  2
*D46
 70
    1
 10
0
 20
0
  3
*D46
  1

  0
LINE
  5
25A
100
AcDbEntity
  8
in_dim
  6
ByBlock
 62
    7
370
   -3
100
AcDbLine
 10
177.9142135623731
 20
906.4142135623731
 11
175.0857864376269
 21
903.5857864376269
  0
LINE
  5
25B
100
AcDbEntity
  8
in_dim
  6
ByBlock
 62
    7
370
   -3
100
AcDbLine
 10
209.9142135623731
 20
906.4142135623731
 11
207.0857864376269
 21
903.5857864376269
  0
LINE
  5
25C
100
AcDbEntity
  8
addition
  6
ByLayer
 62
  256
370
   -1
100
AcDbLine
 10
176.5
 20
905
 11
188.4444444444443
 21
905
  0
LINE
  5
25D
100
AcDbEntity
  8
addition
  6
ByLayer
 62
  256
370
   -1
100
AcDbLine
 10
196.5555555555557
 20
905
 11
208.5
 21
905
  0
MTEXT
  5
25E
100
AcDbEntity
  8
in_dim
  6
CONTINUOUS
 62
    7
370
   -2
100
AcDbMText
 10
192.5
 20
905
 30
0
 40
5
 41
6.111111111111422
 71
    5
 72
    1
  1
32
  7
standard
210
0
220
0
230
1
 50
0
 73
    2
 44
1
  0
LINE
  5
25F
100
AcDbEntity
  8
in_dim
  6
ByBlock
 62
    7
370
   -3
100
AcDbLine
 10
176.5
 20
905
 11
176.5
 21
905
  0
LINE
  5
260
100
AcDbEntity
  8
in_dim
  6
ByBlock
 62
    7
370
   -3
100
AcDbLine
 10
208.5
 20
905
 11
208.5
 21
905
  0
ENDBLK
  5
E5
330
E3
100
AcDbEntity
  8
0
100
AcDbBlockEnd
  0
BLOCK
  5
E7
330
E6
100
AcDbEntity
  8
0
100
AcDbBlockBegin
  2
*D5
 70
    1
 10
0
 20
0
  3
*D5
  1

  0
LINE
  5
261
100
AcDbEntity
  8
in_dim
  6
ByBlock
 62
    7
370
   -3
100
AcDbLine
 10
475
 20
667.5
 11
475
 21
667.5
  0
LINE
  5
262
100
AcDbEntity
  8
in_dim
  6
ByBlock
 62
    7
370
   -3
100
AcDbLine
 10
475
 20
628
 11
475
 21
628
  0
LINE
  5
263
100
AcDbEntity
  8
in_dim
  6
ByBlock
 62
    7
370
   -3
100
AcDbLine
 10
476.4142135623731
 20
666.0857864376269
 11
473.5857864376269
 21
668.9142135623731
  0
LINE
  5
264
100
AcDbEntity
  8
in_dim
  6
ByBlock
 62
    7
370
   -3
100
AcDbLine
 10
476.4142135623731
 20
626.5857864376269
 11
473.5857864376269
 21
629.4142135623731
  0
LINE
  5
265
100
AcDbEntity
  8
addition
  6
ByLayer
 62
  256
370
   -1
100
AcDbLine
 10
475
 20
667.5
 11
475
 21
651.25
  0
LINE
  5
266
100
AcDbEntity
  8
addition
  6
ByLayer
 62
  256
370
   -1
100
AcDbLine
 10
475
 20
644.25
 11
475
 21
628
  0
MTEXT
  5
267
100
AcDbEntity
  8
in_dim
  6
CONTINUOUS
 62
    7
370
   -2
100
AcDbMText
 10
475
 20
647.75
 30
0
 40
5
 41
11.66666666666729
 71
    5
 72
    1
  1
39.5
  7
standard
210
0
220
0
230
1
 50
0
 73
    2
 44
1
  0
ENDBLK
  5
E8
330
E6
100
AcDbEntity
  8
0
100
AcDbBlockEnd
  0
BLOCK
  5
EA
330
E9
100
AcDbEntity
  8
0
100
AcDbBlockBegin
  2
*D57
 70
    1
 10
0
 20
0
  3
*D57
  1

  0
LINE
  5
268
100
AcDbEntity
  8
out_dim
  6
ByBlock
 62
    7
370
   -3
100
AcDbLine
 10
715.5857864376269
 20
458.5857864376269
 11
718.4142135623731
 21
461.4142135623731
  0
LINE
  5
269
100
AcDbEntity
  8
out_dim
  6
ByBlock
 62
    7
370
   -3
100
AcDbLine
 10
653.5857864376269
 20
458.5857864376269
 11
656.4142135623731
 21
461.4142135623731
  0
LINE
  5
26A
100
AcDbEntity
  8
addition
  6
ByLayer
 62
  256
370
   -1
100
AcDbLine
 10
717
 20
460
 11
690.0555555555557
 21
460
  0
LINE
  5
26B
100
AcDbEntity
  8
addition
  6
ByLayer
 62
  256
370
   -1
100
AcDbLine
 10
681.9444444444443
 20
460
 11
655
 21
460
  0
MTEXT
  5
26C
100
AcDbEntity
  8
out_dim
  6
CONTINUOUS
 62
    7
370
   -2
100
AcDbMText
 10
686
 20
460
 30
0
 40
5
 41
6.111111111111422
 71
    5
 72
    1
  1
62
  7
standard
210
0
220
0
230
1
 50
0
 73
    2
 44
1
  0
LINE
  5
26D
100
AcDbEntity
  8
out_dim
  6
ByBlock
 62
    7
370
   -3
100
AcDbLine
 10
717
 20
460
 11
717
 21
460
  0
LINE
  5
26E
100
AcDbEntity
  8
out_dim
  6
ByBlock
 62
    7
370
   -3
100
AcDbLine
 10
655
 20
460
 11
655
 21
460
  0
ENDBLK
  5
EB
330
E9
100
AcDbEntity
  8
0
100
AcDbBlockEnd
  0
BLOCK
  5
ED
330
EC
100
AcDbEntity
  8
0
100
AcDbBlockBegin
  2
*D44
 70
    1
 10
0
 20
0
  3
*D44
  1

  0
LINE
  5
26F
100
AcDbEntity
  8
in_dim
  6
ByBlock
 62
    7
370
   -3
100
AcDbLine
 10
435.4142135623722
 20
462.9142135623731
 11
432.585786437626
 21
460.0857864376269
  0
LINE
  5
270
100
AcDbEntity
  8
in_dim
  6
ByBlock
 62
    7
370
   -3
100
AcDbLine
 10
471.4142135623731
 20
462.9142135623731
 11
468.5857864376269
 21
460.0857864376269
  0
LINE
  5
271
100
AcDbEntity
  8
addition
  6
ByLayer
 62
  256
370
   -1
100
AcDbLine
 10
433.9999999999991
 20
461.5
 11
447.9444444444437
 21
461.4999999999999
  0
LINE
  5
272
100
AcDbEntity
  8
addition
  6
ByLayer
 62
  256
370
   -1
100
AcDbLine
 10
456.0555555555554
 20
461.4999999999999
 11
470
 21
461.5
  0
MTEXT
  5
273
100
AcDbEntity
  8
in_dim
  6
CONTINUOUS
 62
    7
370
   -2
100
AcDbMText
 10
451.9999999999995
 20
461.5
 30
0
 40
5
 41
6.111111111111732
 71
    5
 72
    1
  1
36
  7
standard
210
0
220
0
230
1
 50
0
 73
    2
 44
1
  0
LINE
  5
274
100
AcDbEntity
  8
in_dim
  6
ByBlock
 62
    7
370
   -3
100
AcDbLine
 10
433.9999999999991
 20
461.5
 11
433.9999999999991
 21
461.5
  0
LINE
  5
275
100
AcDbEntity
  8
in_dim
  6
ByBlock
 62
    7
370
   -3
100
AcDbLine
 10
470
 20
461.5
 11
470
 21
461.5
  0
ENDBLK
  5
EE
330
EC
100
AcDbEntity
  8
0
100
AcDbBlockEnd
  0
BLOCK
  5
F0
330
EF
100
AcDbEntity
  8
0
100
AcDbBlockBegin
  2
*D9
 70
    1
 10
0
 20
0
  3
*D9
  1

  0
LINE
  5
276
100
AcDbEntity
  8
in_dim
  6
ByBlock
 62
    7
370
   -3
100
AcDbLine
 10
280
 20
762
 11
280
 21
762
  0
LINE
  5
277
100
AcDbEntity
  8
in_dim
  6
ByBlock
 62
    7
370
   -3
100
AcDbLine
 10
280
 20
671
 11
280
 21
671
  0
LINE
  5
278
100
AcDbEntity
  8
in_dim
  6
ByBlock
 62
    7
370
   -3
100
AcDbLine
 10
281.4142135623731
 20
760.5857864376269
 11
278.5857864376269
 21
763.4142135623731
  0
LINE
  5
279
100
AcDbEntity
  8
in_dim
  6
ByBlock
 62
    7
370
   -3
100
AcDbLine
 10
281.4142135623731
 20
669.5857864376269
 11
278.5857864376269
 21
672.4142135623731
  0
LINE
  5
27A
100
AcDbEntity
  8
addition
  6
ByLayer
 62
  256
370
   -1
100
AcDbLine
 10
280
 20
762
 11
280
 21
720
  0
LINE
  5
27B
100
AcDbEntity
  8
addition
  6
ByLayer
 62
  256
370
   -1
100
AcDbLine
 10
280
 20
713
 11
280
 21
671
  0
MTEXT
  5
27C
100
AcDbEntity
  8
in_dim
  6
CONTINUOUS
 62
    7
370
   -2
100
AcDbMText
 10
280
 20
716.5
 30
0
 40
5
 41
5.000000000000311
 71
    5
 72
    1
  1
91
  7
standard
210
0
220
0
230
1
 50
0
 73
    2
 44
1
  0
ENDBLK
  5
F1
330
EF
100
AcDbEntity
  8
0
100
AcDbBlockEnd
  0
BLOCK
  5
F3
330
F2
100
AcDbEntity
  8
0
100
AcDbBlockBegin
  2
*D24
 70
    1
 10
0
 20
0
  3
*D24
  1

  0
LINE
  5
27D
100
AcDbEntity
  8
in_dim
  6
ByBlock
 62
    7
370
   -3
100
AcDbLine
 10
265
 20
850
 11
265
 21
850
  0
LINE
  5
27E
100
AcDbEntity
  8
in_dim
  6
ByBlock
 62
    7
370
   -3
100
AcDbLine
 10
312.5
 20
850
 11
312.5
 21
850
  0
LINE
  5
27F
100
AcDbEntity
  8
in_dim
  6
ByBlock
 62
    7
370
   -3
100
AcDbLine
 10
266.4142135623731
 20
851.4142135623731
 11
263.5857864376269
 21
848.5857864376269
  0
LINE
  5
280
100
AcDbEntity
  8
in_dim
  6
ByBlock
 62
    7
370
   -3
100
AcDbLine
 10
313.9142135623731
 20
851.4142135623731
 11
311.0857864376269
 21
848.5857864376269
  0
LINE
  5
281
100
AcDbEntity
  8
addition
  6
ByLayer
 62
  256
370
   -1
100
AcDbLine
 10
265
 20
850
 11
281.6388888888887
 21
850
  0
LINE
  5
282
100
AcDbEntity
  8
addition
  6
ByLayer
 62
  256
370
   -1
100
AcDbLine
 10
295.8611111111113
 20
850
 11
312.5
 21
850
  0
MTEXT
  5
283
100
AcDbEntity
  8
in_dim
  6
CONTINUOUS
 62
    7
370
   -2
100
AcDbMText
 10
288.75
 20
850
 30
0
 40
5
 41
12.22222222222253
 71
    5
 72
    1
  1
47.5
  7
standard
210
0
220
0
230
1
 50
0
 73
    2
 44
1
  0
ENDBLK
  5
F4
330
F2
100
AcDbEntity
  8
0
100
AcDbBlockEnd
  0
BLOCK
  5
F6
330
F5
100
AcDbEntity
  8
0
100
AcDbBlockBegin
  2
*D15
 70
    1
 10
0
 20
0
  3
*D15
  1

  0
LINE
  5
284
100
AcDbEntity
  8
in_dim
  6
ByBlock
 62
    7
370
   -3
100
AcDbLine
 10
440
 20
628
 11
440
 21
628
  0
LINE
  5
285
100
AcDbEntity
  8
in_dim
  6
ByBlock
 62
    7
370
   -3
100
AcDbLine
 10
440
 20
762
 11
440
 21
762
  0
LINE
  5
286
100
AcDbEntity
  8
in_dim
  6
ByBlock
 62
    7
370
   -3
100
AcDbLine
 10
438.5857864376269
 20
629.4142135623731
 11
441.4142135623731
 21
626.5857864376269
  0
LINE
  5
287
100
AcDbEntity
  8
in_dim
  6
ByBlock
 62
    7
370
   -3
100
AcDbLine
 10
438.5857864376269
 20
763.4142135623731
 11
441.4142135623731
 21
760.5857864376269
  0
LINE
  5
288
100
AcDbEntity
  8
addition
  6
ByLayer
 62
  256
370
   -1
100
AcDbLine
 10
440
 20
628
 11
440
 21
691.5
  0
LINE
  5
289
100
AcDbEntity
  8
addition
  6
ByLayer
 62
  256
370
   -1
100
AcDbLine
 10
440
 20
698.5
 11
440
 21
762
  0
MTEXT
  5
28A
100
AcDbEntity
  8
in_dim
  6
CONTINUOUS
 62
    7
370
   -2
100
AcDbMText
 10
440
 20
695
 30
0
 40
5
 41
9.444444444444756
 71
    5
 72
    1
  1
134
  7
standard
210
0
220
0
230
1
 50
0
 73
    2
 44
1
  0
ENDBLK
  5
F7
330
F5
100
AcDbEntity
  8
0
100
AcDbBlockEnd
  0
BLOCK
  5
F9
330
F8
100
AcDbEntity
  8
0
100
AcDbBlockBegin
  2
*D52
 70
    1
 10
0
 20
0
  3
*D52
  1

  0
LINE
  5
28B
100
AcDbEntity
  8
in_dim
  6
ByBlock
 62
    7
370
   -3
100
AcDbLine
 10
357.4142135623731
 20
776.4142135623731
 11
354.5857864376269
 21
773.5857864376269
  0
LINE
  5
28C
100
AcDbEntity
  8
in_dim
  6
ByBlock
 62
    7
370
   -3
100
AcDbLine
 10
459.4142135623731
 20
776.4142135623731
 11
456.5857864376269
 21
773.5857864376269
  0
LINE
  5
28D
100
AcDbEntity
  8
addition
  6
ByLayer
 62
  256
370
   -1
100
AcDbLine
 10
356
 20
775
 11
401.5555555555555
 21
775
  0
LINE
  5
28E
100
AcDbEntity
  8
addition
  6
ByLayer
 62
  256
370
   -1
100
AcDbLine
 10
412.4444444444445
 20
775
 11
458
 21
775
  0
MTEXT
  5
28F
100
AcDbEntity
  8
in_dim
  6
CONTINUOUS
 62
    7
370
   -2
100
AcDbMText
 10
407
 20
775
 30
0
 40
5
 41
8.888888888888889
 71
    5
 72
    1
  1
102
  7
standard
210
0
220
0
230
1
 50
0
 73
    2
 44
1
  0
LINE
  5
290
100
AcDbEntity
  8
in_dim
  6
ByBlock
 62
    7
370
   -3
100
AcDbLine
 10
356
 20
775
 11
356
 21
775
  0
LINE
  5
291
100
AcDbEntity
  8
in_dim
  6
ByBlock
 62
    7
370
   -3
100
AcDbLine
 10
458
 20
775
 11
458
 21
775
  0
ENDBLK
  5
FA
330
F8
100
AcDbEntity
  8
0
100
AcDbBlockEnd
  0
BLOCK
  5
FC
330
FB
100
AcDbEntity
  8
0
100
AcDbBlockBegin
  2
*D55
 70
    1
 10
0
 20
0
  3
*D55
  1

  0
LINE
  5
292
100
AcDbEntity
  8
out_dim
  6
ByBlock
 62
    7
370
   -3
100
AcDbLine
 10
118.5857864376269
 20
678.5857864376269
 11
121.4142135623731
 21
681.4142135623731
  0
LINE
  5
293
100
AcDbEntity
  8
out_dim
  6
ByBlock
 62
    7
370
   -3
100
AcDbLine
 10
-1.414213562373095
 20
678.5857864376269
 11
1.414213562373095
 21
681.4142135623731
  0
LINE
  5
294
100
AcDbEntity
  8
addition
  6
ByLayer
 62
  256
370
   -1
100
AcDbLine
 10
120
 20
680
 11
65.44444444444444
 21
680
  0
LINE
  5
295
100
AcDbEntity
  8
addition
  6
ByLayer
 62
  256
370
   -1
100
AcDbLine
 10
54.55555555555556
 20
680
 11
-6.310887241768094e-30
 21
680
  0
MTEXT
  5
296
100
AcDbEntity
  8
out_dim
  6
CONTINUOUS
 62
    7
370
   -2
100
AcDbMText
 10
60
 20
680
 30
0
 40
5
 41
8.888888888888889
 71
    5
 72
    1
  1
120
  7
standard
210
0
220
0
230
1
 50
0
 73
    2
 44
1
  0
LINE
  5
297
100
AcDbEntity
  8
out_dim
  6
ByBlock
 62
    7
370
   -3
100
AcDbLine
 10
120
 20
680
 11
120
 21
680
  0
LINE
  5
298
100
AcDbEntity
  8
out_dim
  6
ByBlock
 62
    7
370
   -3
100
AcDbLine
 10
4.163661602996083e-14
 20
680
 11
-6.310887241768094e-30
 21
680
  0
ENDBLK
  5
FD
330
FB
100
AcDbEntity
  8
0
100
AcDbBlockEnd
  0
BLOCK
  5
FF
330
FE
100
AcDbEntity
  8
0
100
AcDbBlockBegin
  2
*D7
 70
    1
 10
0
 20
0
  3
*D7
  1

  0
LINE
  5
299
100
AcDbEntity
  8
in_dim
  6
ByBlock
 62
    7
370
   -3
100
AcDbLine
 10
265
 20
475
 11
265
 21
475
  0
LINE
  5
29A
100
AcDbEntity
  8
in_dim
  6
ByBlock
 62
    7
370
   -3
100
AcDbLine
 10
475
 20
475
 11
475
 21
475
  0
LINE
  5
29B
100
AcDbEntity
  8
in_dim
  6
ByBlock
 62
    7
370
   -3
100
AcDbLine
 10
266.4142135623731
 20
476.4142135623731
 11
263.5857864376269
 21
473.5857864376269
  0
LINE
  5
29C
100
AcDbEntity
  8
in_dim
  6
ByBlock
 62
    7
370
   -3
100
AcDbLine
 10
476.4142135623731
 20
476.4142135623731
 11
473.5857864376269
 21
473.5857864376269
  0
LINE
  5
29D
100
AcDbEntity
  8
addition
  6
ByLayer
 62
  256
370
   -1
100
AcDbLine
 10
265
 20
475
 11
364.5555555555555
 21
475
  0
LINE
  5
29E
100
AcDbEntity
  8
addition
  6
ByLayer
 62
  256
370
   -1
100
AcDbLine
 10
375.4444444444445
 20
475
 11
475
 21
475
  0
MTEXT
  5
29F
100
AcDbEntity
  8
in_dim
  6
CONTINUOUS
 62
    7
370
   -2
100
AcDbMText
 10
370
 20
475
 30
0
 40
5
 41
8.888888888888889
 71
    5
 72
    1
  1
210
  7
standard
210
0
220
0
230
1
 50
0
 73
    2
 44
1
  0
ENDBLK
  5
100
330
FE
100
AcDbEntity
  8
0
100
AcDbBlockEnd
  0
BLOCK
  5
102
330
101
100
AcDbEntity
  8
0
100
AcDbBlockBegin
  2
*D8
 70
    1
 10
0
 20
0
  3
*D8
  1

  0
LINE
  5
2A0
100
AcDbEntity
  8
in_dim
  6
ByBlock
 62
    7
370
   -3
100
AcDbLine
 10
280
 20
665.5
 11
280
 21
665.5
  0
LINE
  5
2A1
100
AcDbEntity
  8
in_dim
  6
ByBlock
 62
    7
370
   -3
100
AcDbLine
 10
280
 20
464.5
 11
280
 21
464.5
  0
LINE
  5
2A2
100
AcDbEntity
  8
in_dim
  6
ByBlock
 62
    7
370
   -3
100
AcDbLine
 10
281.4142135623731
 20
664.0857864376269
 11
278.5857864376269
 21
666.9142135623731
  0
LINE
  5
2A3
100
AcDbEntity
  8
in_dim
  6
ByBlock
 62
    7
370
   -3
100
AcDbLine
 10
281.4142135623731
 20
463.0857864376269
 11
278.5857864376269
 21
465.9142135623731
  0
LINE
  5
2A4
100
AcDbEntity
  8
addition
  6
ByLayer
 62
  256
370
   -1
100
AcDbLine
 10
280
 20
665.5
 11
280
 21
568.5
  0
LINE
  5
2A5
100
AcDbEntity
  8
addition
  6
ByLayer
 62
  256
370
   -1
100
AcDbLine
 10
280
 20
561.5
 11
280
 21
464.5
  0
MTEXT
  5
2A6
100
AcDbEntity
  8
in_dim
  6
CONTINUOUS
 62
    7
370
   -2
100
AcDbMText
 10
280
 20
565
 30
0
 40
5
 41
8.888888888888889
 71
    5
 72
    1
  1
201
  7
standard
210
0
220
0
230
1
 50
0
 73
    2
 44
1
  0
ENDBLK
  5
103
330
101
100
AcDbEntity
  8
0
100
AcDbBlockEnd
  0
BLOCK
  5
105
330
104
100
AcDbEntity
  8
0
100
AcDbBlockBegin
  2
*D56
 70
    1
 10
0
 20
0
  3
*D56
  1

  0
LINE
  5
2A7
100
AcDbEntity
  8
out_dim
  6
ByBlock
 62
    7
370
   -3
100
AcDbLine
 10
468.5857864376269
 20
1.414213562373095
 11
471.4142135623731
 21
-1.414213562373095
  0
LINE
  5
2A8
100
AcDbEntity
  8
out_dim
  6
ByBlock
 62
    7
370
   -3
100
AcDbLine
 10
468.5857864376269
 20
383.4142135623731
 11
471.4142135623731
 21
380.5857864376269
  0
LINE
  5
2A9
100
AcDbEntity
  8
addition
  6
ByLayer
 62
  256
370
   -1
100
AcDbLine
 10
470
 20
0
 11
470
 21
187.5
  0
LINE
  5
2AA
100
AcDbEntity
  8
addition
  6
ByLayer
 62
  256
370
   -1
100
AcDbLine
 10
470
 20
194.5
 11
470
 21
382
  0
MTEXT
  5
2AB
100
AcDbEntity
  8
out_dim
  6
CONTINUOUS
 62
    7
370
   -2
100
AcDbMText
 10
470
 20
191
 30
0
 40
5
 41
10.00000000000031
 71
    5
 72
    1
  1
382
  7
standard
210
0
220
0
230
1
 50
0
 73
    2
 44
1
  0
LINE
  5
2AC
100
AcDbEntity
  8
out_dim
  6
ByBlock
 62
    7
370
   -3
100
AcDbLine
 10
470
 20
3.024777693941272e-14
 11
470
 21
0
  0
LINE
  5
2AD
100
AcDbEntity
  8
out_dim
  6
ByBlock
 62
    7
370
   -3
100
AcDbLine
 10
470
 20
382
 11
470
 21
382
  0
ENDBLK
  5
106
330
104
100
AcDbEntity
  8
0
100
AcDbBlockEnd
  0
BLOCK
  5
108
330
107
100
AcDbEntity
  8
0
100
AcDbBlockBegin
  2
*D34
 70
    1
 10
0
 20
0
  3
*D34
  1

  0
LINE
  5
2AE
100
AcDbEntity
  8
in_dim
  6
ByBlock
 62
    7
370
   -3
100
AcDbLine
 10
349
 20
615
 11
349
 21
615
  0
LINE
  5
2AF
100
AcDbEntity
  8
in_dim
  6
ByBlock
 62
    7
370
   -3
100
AcDbLine
 10
480.5
 20
615
 11
480.5
 21
615
  0
LINE
  5
2B0
100
AcDbEntity
  8
in_dim
  6
ByBlock
 62
    7
370
   -3
100
AcDbLine
 10
350.4142135623731
 20
616.4142135623731
 11
347.5857864376269
 21
613.5857864376269
  0
LINE
  5
2B1
100
AcDbEntity
  8
in_dim
  6
ByBlock
 62
    7
370
   -3
100
AcDbLine
 10
481.9142135623731
 20
616.4142135623731
 11
479.0857864376269
 21
613.5857864376269
  0
LINE
  5
2B2
100
AcDbEntity
  8
addition
  6
ByLayer
 62
  256
370
   -1
100
AcDbLine
 10
349
 20
615
 11
407.083333333333
 21
615
  0
LINE
  5
2B3
100
AcDbEntity
  8
addition
  6
ByLayer
 62
  256
370
   -1
100
AcDbLine
 10
422.416666666667
 20
615
 11
480.5
 21
615
  0
MTEXT
  5
2B4
100
AcDbEntity
  8
in_dim
  6
CONTINUOUS
 62
    7
370
   -2
100
AcDbMText
 10
414.75
 20
615
 30
0
 40
5
 41
13.33333333333395
 71
    5
 72
    1
  1
131.5
  7
standard
210
0
220
0
230
1
 50
0
 73
    2
 44
1
  0
ENDBLK
  5
109
330
107
100
AcDbEntity
  8
0
100
AcDbBlockEnd
  0
ENDSEC
  0
SECTION
  2
ENTITIES
  0
LWPOLYLINE
  5
2B5
100
AcDbEntity
  8
property
  6
ByLayer
 62
  256
370
   -1
100
AcDbPolyline
 90
    4
 70
    1
 43
0
 10
0
 20
0
 10
717
 20
0
 10
717
 20
1490
 10
0
 20
1490
  0
LINE
  5
2B6
100
AcDbEntity
  8
walls
  6
ByLayer
 62
  256
370
   -1
100
AcDbLine
 10
475
 20
459
 11
475
 21
435
  0
LINE
  5
2B7
100
AcDbEntity
  8
walls
  6
ByLayer
 62
  256
370
   -1
100
AcDbLine
 10
480.5
 20
440.5
 11
649.5
 21
440.5
  0
LINE
  5
2B8
100
AcDbEntity
  8
walls
  6
ByLayer
 62
  256
370
   -1
100
AcDbLine
 10
265
 20
665.5
 11
265
 21
464.5
  0
LINE
  5
2B9
100
AcDbEntity
  8
walls
  6
ByLayer
 62
  256
370
   -1
100
AcDbLine
 10
265
 20
762
 11
265
 21
671
  0
LINE
  5
2BA
100
AcDbEntity
  8
walls
  6
ByLayer
 62
  256
370
   -1
100
AcDbLine
 10
349
 20
665.5
 11
349
 21
622.5
  0
LINE
  5
2BB
100
AcDbEntity
  8
walls
  6
ByLayer
 62
  256
370
   -1
100
AcDbLine
 10
354.5
 20
671
 11
354.5
 21
628
  0
LINE
  5
2BC
100
AcDbEntity
  8
walls
  6
ByLayer
 62
  256
370
   -1
100
AcDbLine
 10
520
 20
673
 11
520
 21
762
  0
LINE
  5
2BD
100
AcDbEntity
  8
walls
  6
ByLayer
 62
  256
370
   -1
100
AcDbLine
 10
649.5
 20
762
 11
525.5
 21
762
  0
LINE
  5
2BE
100
AcDbEntity
  8
walls
  6
ByLayer
 62
  256
370
   -1
100
AcDbLine
 10
480.5
 20
628
 11
480.5
 21
622.5
  0
DIMENSION
  5
2BF
100
AcDbEntity
  8
in_dim
  6
ByLayer
 62
  256
370
   -1
100
AcDbDimension
  2
*D1
 10
525
 20
605
 30
0
 11
502.75
 21
605
 31
0
 70
   32
 71
    5
 72
    0
  3
Standard
 53
0
210
0
220
0
230
1
100
AcDbAlignedDimension
 13
480.5
 23
591
 33
0
 14
525
 24
583
 34
0
100
AcDbRotatedDimension
  0
DIMENSION
  5
2C0
100
AcDbEntity
  8
in_dim
  6
ByLayer
 62
  256
370
   -1
100
AcDbDimension
  2
*D2
 10
340
 20
622.5
 30
0
 11
340
 21
644
 31
0
 70
   33
 71
    5
 72
    0
  3
Standard
 53
0
210
0
220
0
230
1
100
AcDbAlignedDimension
 13
349
 23
665.5
 33
0
 14
349
 24
622.5
 34
0
  0
LINE
  5
2C1
100
AcDbEntity
  8
walls
  6
ByLayer
 62
  256
370
   -1
100
AcDbLine
 10
453.5
 20
628
 11
354.5
 21
628
  0
LINE
  5
2C2
100
AcDbEntity
  8
walls
  6
ByLayer
 62
  256
370
   -1
100
AcDbLine
 10
480.5
 20
628
 11
460
 21
628
  0
DIMENSION
  5
2C3
100
AcDbEntity
  8
in_dim
  6
ByLayer
 62
  256
370
   -1
100
AcDbDimension
  2
*D3
 10
453.5
 20
635
 30
0
 11
404
 21
635
 31
0
 70
   33
 71
    5
 72
    0
  3
Standard
 53
0
210
0
220
0
230
1
100
AcDbAlignedDimension
 13
354.5
 23
628
 33
0
 14
453.5
 24
628
 34
0
  0
DIMENSION
  5
2C4
100
AcDbEntity
  8
in_dim
  6
ByLayer
 62
  256
370
   -1
100
AcDbDimension
  2
*D4
 10
520
 20
660
 30
0
 11
490
 21
660
 31
0
 70
   33
 71
    5
 72
    0
  3
Standard
 53
0
210
0
220
0
230
1
100
AcDbAlignedDimension
 13
460
 23
667.5
 33
0
 14
520
 24
667.5
 34
0
  0
DIMENSION
  5
2C5
100
AcDbEntity
  8
in_dim
  6
ByLayer
 62
  256
370
   -1
100
AcDbDimension
  2
*D5
 10
475
 20
628
 30
0
 11
475
 21
647.75
 31
0
 70
   33
 71
    5
 72
    0
  3
Standard
 53
0
210
0
220
0
230
1
100
AcDbAlignedDimension
 13
460
 23
667.5
 33
0
 14
460
 24
628
 34
0
  0
DIMENSION
  5
2C6
100
AcDbEntity
  8
in_dim
  6
ByLayer
 62
  256
370
   -1
100
AcDbDimension
  2
*D6
 10
649.5
 20
450
 30
0
 11
565
 21
450
 31
0
 70
   33
 71
    5
 72
    0
  3
Standard
 53
0
210
0
220
0
230
1
100
AcDbAlignedDimension
 13
480.5
 23
440.5
 33
0
 14
649.5
 24
440.5
 34
0
  0
DIMENSION
  5
2C7
100
AcDbEntity
  8
in_dim
  6
ByLayer
 62
  256
370
   -1
100
AcDbDimension
  2
*D7
 10
475
 20
475
 30
0
 11
370
 21
475
 31
0
 70
   33
 71
    5
 72
    0
  3
Standard
 53
0
210
0
220
0
230
1
100
AcDbAlignedDimension
 13
265
 23
464.5
 33
0
 14
475
 24
464.5
 34
0
  0
DIMENSION
  5
2C8
100
AcDbEntity
  8
in_dim
  6
ByLayer
 62
  256
370
   -1
100
AcDbDimension
  2
*D8
 10
280
 20
464.5
 30
0
 11
280
 21
565
 31
0
 70
   33
 71
    5
 72
    0
  3
Standard
 53
0
210
0
220
0
230
1
100
AcDbAlignedDimension
 13
265
 23
665.5
 33
0
 14
265
 24
464.5
 34
0
  0
DIMENSION
  5
2C9
100
AcDbEntity
  8
in_dim
  6
ByLayer
 62
  256
370
   -1
100
AcDbDimension
  2
*D9
 10
280
 20
671
 30
0
 11
280
 21
716.5
 31
0
 70
   33
 71
    5
 72
    0
  3
Standard
 53
0
210
0
220
0
230
1
100
AcDbAlignedDimension
 13
265
 23
762
 33
0
 14
265
 24
671
 34
0
  0
DIMENSION
  5
2CA
100
AcDbEntity
  8
in_dim
  6
ByLayer
 62
  256
370
   -1
100
AcDbDimension
  2
*D10
 10
649.5
 20
750
 30
0
 11
587.5
 21
750
 31
0
 70
   33
 71
    5
 72
    0
  3
Standard
 53
0
210
0
220
0
230
1
100
AcDbAlignedDimension
 13
525.5
 23
762
 33
0
 14
649.5
 24
762
 34
0
  0
DIMENSION
  5
2CB
100
AcDbEntity
  8
in_dim
  6
ByLayer
 62
  256
370
   -1
100
AcDbDimension
  2
*D11
 10
520
 20
749.895652173913
 30
0
 11
491
 21
749.895652173913
 31
0
 70
   33
 71
    5
 72
    0
  3
Standard
 53
0
210
0
220
0
230
1
100
AcDbAlignedDimension
 13
462
 23
762
 33
0
 14
520
 24
762
 34
0
  0
LINE
  5
2CC
100
AcDbEntity
  8
walls
  6
ByLayer
 62
  256
370
   -1
100
AcDbLine
 10
462
 20
762
 11
462
 21
673
  0
LINE
  5
2CD
100
AcDbEntity
  8
walls
  6
ByLayer
 62
  256
370
   -1
100
AcDbLine
 10
520
 20
762
 11
462
 21
762
  0
LINE
  5
2CE
100
AcDbEntity
  8
walls
  6
ByLayer
 62
  256
370
   -1
100
AcDbLine
 10
480.5
 20
585.5
 11
475
 21
585.5
  0
DIMENSION
  5
2CF
100
AcDbEntity
  8
in_dim
  6
ByLayer
 62
  256
370
   -1
100
AcDbDimension
  2
*D12
 10
571.5
 20
584.5
 30
0
 11
610.5
 21
584.5
 31
0
 70
   33
 71
    5
 72
    0
  3
Standard
 53
0
210
0
220
0
230
1
100
AcDbAlignedDimension
 13
649.5
 23
577.5
 33
0
 14
571.5
 24
577.5
 34
0
  0
LINE
  5
2D0
100
AcDbEntity
  8
walls
  6
ByLayer
 62
  256
370
   -1
100
AcDbLine
 10
480.5
 20
572
 11
480.5
 21
440.5
  0
LINE
  5
2D1
100
AcDbEntity
  8
walls
  6
ByLayer
 62
  256
370
   -1
100
AcDbLine
 10
649.5
 20
440.5
 11
649.5
 21
572
  0
DIMENSION
  5
2D2
100
AcDbEntity
  8
in_dim
  6
ByLayer
 62
  256
370
   -1
100
AcDbDimension
  2
*D13
 10
634.9456928838952
 20
628
 30
0
 11
634.9456928838952
 21
695
 31
0
 70
   33
 71
    5
 72
    0
  3
Standard
 53
0
210
0
220
0
230
1
100
AcDbAlignedDimension
 13
649.5
 23
762
 33
0
 14
649.5
 24
628
 34
0
  0
LINE
  5
2D3
100
AcDbEntity
  8
walls
  6
ByLayer
 62
  256
370
   -1
100
AcDbLine
 10
649.5
 20
628
 11
649.5
 21
762
  0
DIMENSION
  5
2D4
100
AcDbEntity
  8
in_dim
  6
ByLayer
 62
  256
370
   -1
100
AcDbDimension
  2
*D14
 10
349
 20
655
 30
0
 11
307
 21
655
 31
0
 70
   33
 71
    5
 72
    0
  3
Standard
 53
0
210
0
220
0
230
1
100
AcDbAlignedDimension
 13
265
 23
665.5
 33
0
 14
349
 24
665.5
 34
0
  0
LINE
  5
2D5
100
AcDbEntity
  8
walls
  6
ByLayer
 62
  256
370
   -1
100
AcDbLine
 10
480.5
 20
622.5
 11
349
 21
622.5
  0
DIMENSION
  5
2D6
100
AcDbEntity
  8
in_dim
  6
ByLayer
 62
  256
370
   -1
100
AcDbDimension
  2
*D15
 10
440
 20
762
 30
0
 11
440
 21
695
 31
0
 70
   33
 71
    5
 72
    0
  3
Standard
 53
0
210
0
220
0
230
1
100
AcDbAlignedDimension
 13
453.5
 23
628
 33
0
 14
453.5
 24
762
 34
0
  0
DIMENSION
  5
2D7
100
AcDbEntity
  8
in_dim
  6
ByLayer
 62
  256
370
   -1
100
AcDbDimension
  2
*D16
 10
354.5
 20
680
 30
0
 11
309.75
 21
680
 31
0
 70
   33
 71
    5
 72
    0
  3
Standard
 53
0
210
0
220
0
230
1
100
AcDbAlignedDimension
 13
265
 23
671
 33
0
 14
354.5
 24
671
 34
0
  0
LINE
  5
2D8
100
AcDbEntity
  8
walls
  6
ByLayer
 62
  256
370
   -1
100
AcDbLine
 10
259.5
 20
953.5
 11
125.5
 21
953.5
  0
DIMENSION
  5
2D9
100
AcDbEntity
  8
in_dim
  6
ByLayer
 62
  256
370
   -1
100
AcDbDimension
  2
*D17
 10
250
 20
953.5
 30
0
 11
250
 21
930.5
 31
0
 70
   33
 71
    5
 72
    0
  3
Standard
 53
0
210
0
220
0
230
1
100
AcDbAlignedDimension
 13
259.5
 23
907.5
 33
0
 14
259.5
 24
953.5
 34
0
  0
DIMENSION
  5
2DA
100
AcDbEntity
  8
in_dim
  6
ByLayer
 62
  256
370
   -1
100
AcDbDimension
  2
*D18
 10
259.5
 20
944.5
 30
0
 11
192.5
 21
944.5
 31
0
 70
   33
 71
    5
 72
    0
  3
Standard
 53
0
210
0
220
0
230
1
100
AcDbAlignedDimension
 13
125.5
 23
953.5
 33
0
 14
259.5
 24
953.5
 34
0
  0
DIMENSION
  5
2DB
100
AcDbEntity
  8
in_dim
  6
ByLayer
 62
  256
370
   -1
100
AcDbDimension
  2
*D19
 10
265
 20
879.5
 30
0
 11
286
 21
879.5
 31
0
 70
   33
 71
    5
 72
    0
  3
Standard
 53
0
210
0
220
0
230
1
100
AcDbAlignedDimension
 13
307
 23
870.5
 33
0
 14
265
 24
870.5
 34
0
  0
DIMENSION
  5
2DC
100
AcDbEntity
  8
in_dim
  6
ByLayer
 62
  256
370
   -1
100
AcDbDimension
  2
*D20
 10
275
 20
870.5
 30
0
 11
275
 21
912
 31
0
 70
   33
 71
    5
 72
    0
  3
Standard
 53
0
210
0
220
0
230
1
100
AcDbAlignedDimension
 13
265
 23
953.5
 33
0
 14
265
 24
870.5
 34
0
  0
LINE
  5
2DD
100
AcDbEntity
  8
walls
  6
ByLayer
 62
  256
370
   -1
100
AcDbLine
 10
307
 20
953.5
 11
265
 21
953.5
  0
LINE
  5
2DE
100
AcDbEntity
  8
walls
  6
ByLayer
 62
  256
370
   -1
100
AcDbLine
 10
265
 20
953.5
 11
265
 21
870.5
  0
LINE
  5
2DF
100
AcDbEntity
  8
walls
  6
ByLayer
 62
  256
370
   -1
100
AcDbLine
 10
307
 20
870.5
 11
265
 21
870.5
  0
LINE
  5
2E0
100
AcDbEntity
  8
walls
  6
ByLayer
 62
  256
370
   -1
100
AcDbLine
 10
312.5
 20
865
 11
265
 21
865
  0
LINE
  5
2E1
100
AcDbEntity
  8
walls
  6
ByLayer
 62
  256
370
   -1
100
AcDbLine
 10
125.5
 20
953.5
 11
125.5
 21
907.5
  0
LINE
  5
2E2
100
AcDbEntity
  8
walls
  6
ByLayer
 62
  256
370
   -1
100
AcDbLine
 10
259.5
 20
953.5
 11
259.5
 21
907.5
  0
DIMENSION
  5
2E3
100
AcDbEntity
  8
in_dim
  6
ByLayer
 62
  256
370
   -1
100
AcDbDimension
  2
*D21
 10
445.0321715817694
 20
953.5
 30
0
 11
445.0321715817694
 21
860.5
 31
0
 70
   33
 71
    5
 72
    0
  3
Standard
 53
0
210
0
220
0
230
1
100
AcDbAlignedDimension
 13
457
 23
767.5
 33
0
 14
457
 24
953.5
 34
0
  0
DIMENSION
  5
2E4
100
AcDbEntity
  8
in_dim
  6
ByLayer
 62
  256
370
   -1
100
AcDbDimension
  2
*D22
 10
245.0300207039338
 20
661
 30
0
 11
245.0300207039338
 21
781.5
 31
0
 70
   33
 71
    5
 72
    0
  3
Standard
 53
0
210
0
220
0
230
1
100
AcDbAlignedDimension
 13
259.5
 23
902
 33
0
 14
259.5
 24
661
 34
0
  0
LINE
  5
2E5
100
AcDbEntity
  8
walls
  6
ByLayer
 62
  256
370
   -1
100
AcDbLine
 10
125.5
 20
902
 11
125.5
 21
661
  0
LINE
  5
2E6
100
AcDbEntity
  8
walls
  6
ByLayer
 62
  256
370
   -1
100
AcDbLine
 10
525
 20
622.5
 11
525
 21
577.5
  0
LINE
  5
2E7
100
AcDbEntity
  8
walls
  6
ByLayer
 62
  256
370
   -1
100
AcDbLine
 10
541.5
 20
622.5
 11
541.5
 21
577.5
  0
LINE
  5
2E8
100
AcDbEntity
  8
walls
  6
ByLayer
 62
  256
370
   -1
100
AcDbLine
 10
543
 20
577.5
 11
543
 21
622.5
  0
LINE
  5
2E9
100
AcDbEntity
  8
walls
  6
ByLayer
 62
  256
370
   -1
100
AcDbLine
 10
566
 20
577.5
 11
566
 21
622.5
  0
DIMENSION
  5
2EA
100
AcDbEntity
  8
in_dim
  6
ByLayer
 62
  256
370
   -1
100
AcDbDimension
  2
*D23
 10
635
 20
440.5
 30
0
 11
635
 21
506.25
 31
0
 70
   33
 71
    5
  3
Standard
 53
0
210
0
220
0
230
1
100
AcDbAlignedDimension
 13
649.5
 23
572
 33
0
 14
649.5
 24
440.5
 34
0
  0
LINE
  5
2EB
100
AcDbEntity
  8
walls
  6
ByLayer
 62
  256
370
   -1
100
AcDbLine
 10
458
 20
953.5
 11
458
 21
767.5
  0
DIMENSION
  5
2EC
100
AcDbEntity
  8
in_dim
  6
ByLayer
 62
  256
370
   -1
100
AcDbDimension
  2
*D24
 10
312.5
 20
850
 30
0
 11
288.75
 21
850
 31
0
 70
   33
 71
    5
  3
Standard
 53
0
210
0
220
0
230
1
100
AcDbAlignedDimension
 13
265
 23
865
 33
0
 14
312.5
 24
865
 34
0
  0
LINE
  5
2ED
100
AcDbEntity
  8
walls
  6
ByLayer
 62
  256
370
   -1
100
AcDbLine
 10
475
 20
435
 11
655
 21
435
  0
LINE
  5
2EE
100
AcDbEntity
  8
walls
  6
ByLayer
 62
  256
370
   -1
100
AcDbLine
 10
259.5
 20
655.5
 11
259.5
 21
459
  0
LINE
  5
2EF
100
AcDbEntity
  8
walls
  6
ByLayer
 62
  256
370
   -1
100
AcDbLine
 10
655
 20
435
 11
655
 21
767.5
  0
LINE
  5
2F0
100
AcDbEntity
  8
walls
  6
ByLayer
 62
  256
370
   -1
100
AcDbLine
 10
120
 20
959
 11
120
 21
655.5
  0
LINE
  5
2F1
100
AcDbEntity
  8
walls
  6
ByLayer
 62
  256
370
   -1
100
AcDbLine
 10
259.5
 20
459
 11
259.5
 21
382
  0
LINE
  5
2F2
100
AcDbEntity
  8
walls
  6
ByLayer
 62
  256
370
   -1
100
AcDbLine
 10
259.5
 20
382
 11
481.5
 21
382
  0
LINE
  5
2F3
100
AcDbEntity
  8
walls
  6
ByLayer
 62
  256
370
   -1
100
AcDbLine
 10
481.5
 20
382
 11
481.5
 21
435
  0
LINE
  5
2F4
100
AcDbEntity
  8
walls
  6
ByLayer
 62
  256
370
   -1
100
AcDbLine
 10
259.5
 20
510
 11
241.5
 21
510
  0
LINE
  5
2F5
100
AcDbEntity
  8
walls
  6
ByLayer
 62
  256
370
   -1
100
AcDbLine
 10
241.5
 20
571.5
 11
259.5
 21
571.5
  0
LINE
  5
2F6
100
AcDbEntity
  8
walls
  6
ByLayer
 62
  256
370
   -1
100
AcDbLine
 10
241.5
 20
571.5
 11
241.5
 21
510
  0
LINE
  5
2F7
100
AcDbEntity
  8
walls
  6
ByLayer
 62
  256
370
   -1
100
AcDbLine
 10
463.5
 20
959
 11
463.5
 21
767.5
  0
LINE
  5
2F8
100
AcDbEntity
  8
walls
  6
ByLayer
 62
  256
370
   -1
100
AcDbLine
 10
655
 20
767.5
 11
463.5
 21
767.5
  0
LINE
  5
2F9
100
AcDbEntity
  8
footprint
  6
ByLayer
 62
  256
370
   -1
100
AcDbLine
 10
463.5
 20
959
 11
120
 21
959
  0
LINE
  5
2FA
100
AcDbEntity
  8
footprint
  6
ByLayer
 62
  256
370
   -1
100
AcDbLine
 10
259.4999999999999
 20
655.5
 11
120
 21
655.5
  0
LINE
  5
2FB
100
AcDbEntity
  8
footprint
  6
ByLayer
 62
  256
370
   -1
100
AcDbLine
 10
655
 20
435
 11
655
 21
767.5
  0
LINE
  5
2FC
100
AcDbEntity
  8
footprint
  6
ByLayer
 62
  256
370
   -1
100
AcDbLine
 10
120
 20
959
 11
120
 21
655.5
  0
LINE
  5
2FD
100
AcDbEntity
  8
footprint
  6
ByLayer
 62
  256
370
   -1
100
AcDbLine
 10
259.5
 20
459
 11
259.5
 21
382
  0
LINE
  5
2FE
100
AcDbEntity
  8
footprint
  6
ByLayer
 62
  256
370
   -1
100
AcDbLine
 10
259.5
 20
382
 11
481.5
 21
382
  0
LINE
  5
2FF
100
AcDbEntity
  8
footprint
  6
ByLayer
 62
  256
370
   -1
100
AcDbLine
 10
481.5
 20
382
 11
481.5
 21
435
  0
LINE
  5
300
100
AcDbEntity
  8
footprint
  6
ByLayer
 62
  256
370
   -1
100
AcDbLine
 10
259.5
 20
510
 11
241.5
 21
510
  0
LINE
  5
301
100
AcDbEntity
  8
footprint
  6
ByLayer
 62
  256
370
   -1
100
AcDbLine
 10
241.5
 20
571.5
 11
259.5
 21
571.5
  0
LINE
  5
302
100
AcDbEntity
  8
footprint
  6
ByLayer
 62
  256
370
   -1
100
AcDbLine
 10
241.5
 20
571.5
 11
241.5
 21
510
  0
LINE
  5
303
100
AcDbEntity
  8
footprint
  6
ByLayer
 62
  256
370
   -1
100
AcDbLine
 10
463.5
 20
959
 11
463.5
 21
767.5
  0
LINE
  5
304
100
AcDbEntity
  8
footprint
  6
ByLayer
 62
  256
370
   -1
100
AcDbLine
 10
463.5
 20
959
 11
120
 21
959
  0
LINE
  5
305
100
AcDbEntity
  8
footprint
  6
ByLayer
 62
  256
370
   -1
100
AcDbLine
 10
655
 20
767.5
 11
463.5
 21
767.5
  0
LINE
  5
306
100
AcDbEntity
  8
footprint
  6
ByLayer
 62
  256
370
   -1
100
AcDbLine
 10
463.5
 20
959
 11
120
 21
959
  0
LINE
  5
307
100
AcDbEntity
  8
footprint
  6
ByLayer
 62
  256
370
   -1
100
AcDbLine
 10
481.5
 20
435
 11
655
 21
435
  0
LINE
  5
308
100
AcDbEntity
  8
footprint
  6
ByLayer
 62
  256
370
   -1
100
AcDbLine
 10
259.5
 20
655.5
 11
259.5
 21
571.5
  0
LINE
  5
309
100
AcDbEntity
  8
footprint
  6
ByLayer
 62
  256
370
   -1
100
AcDbLine
 10
259.5
 20
510
 11
259.5
 21
459
  0
DIMENSION
  5
30A
100
AcDbEntity
  8
in_dim
  6
ByLayer
 62
  256
370
   -1
100
AcDbDimension
  2
*D25
 10
566
 20
610
 30
0
 11
554.5
 21
610
 31
0
 70
   33
 71
    5
 72
    0
  3
Standard
 53
0
210
0
220
0
230
1
100
AcDbAlignedDimension
 13
543
 23
622.5
 33
0
 14
566
 24
622.5
 34
0
  0
DIMENSION
  5
30B
100
AcDbEntity
  8
in_dim
  6
ByLayer
 62
  256
370
   -1
100
AcDbDimension
  2
*D26
 10
275
 20
382
 30
0
 11
275
 21
420.5
 31
0
 70
   33
 71
    5
 72
    0
  3
Standard
 53
0
210
0
220
0
230
1
100
AcDbAlignedDimension
 13
259.5
 23
459
 33
0
 14
259.5
 24
382
 34
0
  0
DIMENSION
  5
30C
100
AcDbEntity
  8
in_dim
  6
ByLayer
 62
  256
370
   -1
100
AcDbDimension
  2
*D27
 10
259.5
 20
395
 30
0
 11
370.5
 21
395
 31
0
 70
   33
 71
    5
 72
    0
  3
Standard
 53
0
210
0
220
0
230
1
100
AcDbAlignedDimension
 13
481.5
 23
382
 33
0
 14
259.5
 24
382
 34
0
  0
LINE
  5
30D
100
AcDbEntity
  8
walls
  6
ByLayer
 62
  256
370
   -1
100
AcDbLine
 10
525.5
 20
632
 11
520
 21
632
  0
LINE
  5
30E
100
AcDbEntity
  8
walls
  6
ByLayer
 62
  256
370
   -1
100
AcDbLine
 10
525.5
 20
662
 11
520
 21
662
  0
LINE
  5
30F
100
AcDbEntity
  8
walls
  6
ByLayer
 62
  256
370
   -1
100
AcDbLine
 10
525.5
 20
628
 11
525.5
 21
632
  0
LINE
  5
310
100
AcDbEntity
  8
walls
  6
ByLayer
 62
  256
370
   -1
100
AcDbLine
 10
520
 20
662
 11
520
 21
667.5
  0
LINE
  5
311
100
AcDbEntity
  8
walls
  6
ByLayer
 62
  256
370
   -1
100
AcDbLine
 10
520
 20
622.5
 11
520
 21
632
  0
LINE
  5
312
100
AcDbEntity
  8
walls
  6
ByLayer
 62
  256
370
   -1
100
AcDbLine
 10
525.5
 20
632
 11
546.7132034355964
 21
653.2132034355964
  0
ARC
  5
313
100
AcDbEntity
  8
walls
  6
ByLayer
 62
  256
370
   -1
100
AcDbCircle
 10
525.5
 20
632
 40
30
100
AcDbArc
 50
45
 51
90
  0
LINE
  5
314
100
AcDbEntity
  8
walls
  6
ByLayer
 62
  256
370
   -1
100
AcDbLine
 10
525.5
 20
661.9999999999977
 11
525.5
 21
762
  0
LINE
  5
315
100
AcDbEntity
  8
walls
  6
ByLayer
 62
  256
370
   -1
100
AcDbLine
 10
516
 20
673
 11
499.0294372515228
 21
689.9705627484772
  0
LINE
  5
316
100
AcDbEntity
  8
walls
  6
ByLayer
 62
  256
370
   -1
100
AcDbLine
 10
516
 20
673
 11
516
 21
667.5
  0
ARC
  5
317
100
AcDbEntity
  8
walls
  6
ByLayer
 62
  256
370
   -1
100
AcDbCircle
 10
516
 20
673
 40
24
100
AcDbArc
 50
135
 51
180
  0
LINE
  5
318
100
AcDbEntity
  8
walls
  6
ByLayer
 62
  256
370
   -1
100
AcDbLine
 10
491.9999999999992
 20
673
 11
491.9999999999992
 21
667.5
  0
LINE
  5
319
100
AcDbEntity
  8
walls
  6
ByLayer
 62
  256
370
   -1
100
AcDbLine
 10
520
 20
673
 11
516
 21
673
  0
LINE
  5
31A
100
AcDbEntity
  8
walls
  6
ByLayer
 62
  256
370
   -1
100
AcDbLine
 10
491.9999999999991
 20
673
 11
462.5
 21
673
  0
LINE
  5
31B
100
AcDbEntity
  8
walls
  6
ByLayer
 62
  256
370
   -1
100
AcDbLine
 10
520
 20
667.5
 11
516
 21
667.5
  0
LINE
  5
31C
100
AcDbEntity
  8
walls
  6
ByLayer
 62
  256
370
   -1
100
AcDbLine
 10
491.9999999999991
 20
667.5
 11
460
 21
667.5
  0
LINE
  5
31D
100
AcDbEntity
  8
walls
  6
ByLayer
 62
  256
370
   -1
100
AcDbLine
 10
485.5
 20
572
 11
506.7132034355964
 21
550.7867965644036
  0
ARC
  5
31E
100
AcDbEntity
  8
walls
  6
ByLayer
 62
  256
370
   -1
100
AcDbCircle
 10
485.5
 20
572
 40
30
100
AcDbArc
 50
315.0000000000001
 51
0
  0
LINE
  5
31F
100
AcDbEntity
  8
walls
  6
ByLayer
 62
  256
370
   -1
100
AcDbLine
 10
485.5000000000001
 20
572
 11
485.5000000000001
 21
577.5
  0
LINE
  5
320
100
AcDbEntity
  8
walls
  6
ByLayer
 62
  256
370
   -1
100
AcDbLine
 10
515.5000000000035
 20
572
 11
515.5000000000035
 21
577.5
  0
LINE
  5
321
100
AcDbEntity
  8
walls
  6
ByLayer
 62
  256
370
   -1
100
AcDbLine
 10
485.5000000000001
 20
577.5
 11
480.5
 21
577.5
  0
LINE
  5
322
100
AcDbEntity
  8
walls
  6
ByLayer
 62
  256
370
   -1
100
AcDbLine
 10
485.5000000000001
 20
572
 11
480.5
 21
572
  0
LINE
  5
323
100
AcDbEntity
  8
walls
  6
ByLayer
 62
  256
370
   -1
100
AcDbLine
 10
470
 20
464.5
 11
475
 21
464.5
  0
LINE
  5
324
100
AcDbEntity
  8
walls
  6
ByLayer
 62
  256
370
   -1
100
AcDbLine
 10
265
 20
464.5
 11
433.9999999999966
 21
464.4999999999999
  0
LINE
  5
325
100
AcDbEntity
  8
walls
  6
ByLayer
 62
  256
370
   -1
100
AcDbLine
 10
470
 20
459
 11
475
 21
459
  0
LINE
  5
326
100
AcDbEntity
  8
walls
  6
ByLayer
 62
  256
370
   -1
100
AcDbLine
 10
259.5
 20
459
 11
433.9999999999991
 21
458.9999999999999
  0
LINE
  5
327
100
AcDbEntity
  8
walls
  6
ByLayer
 62
  256
370
   -1
100
AcDbLine
 10
354.5
 20
671
 11
345
 21
671
  0
LINE
  5
328
100
AcDbEntity
  8
walls
  6
ByLayer
 62
  256
370
   -1
100
AcDbLine
 10
315
 20
671
 11
265
 21
671
  0
LINE
  5
329
100
AcDbEntity
  8
walls
  6
ByLayer
 62
  256
370
   -1
100
AcDbLine
 10
349
 20
665.5
 11
345
 21
665.5
  0
LINE
  5
32A
100
AcDbEntity
  8
walls
  6
ByLayer
 62
  256
370
   -1
100
AcDbLine
 10
315
 20
665.5
 11
265
 21
665.5
  0
LINE
  5
32B
100
AcDbEntity
  8
walls
  6
ByLayer
 62
  256
370
   -1
100
AcDbLine
 10
267
 20
767.5
 11
265
 21
767.5
  0
LINE
  5
32C
100
AcDbEntity
  8
walls
  6
ByLayer
 62
  256
370
   -1
100
AcDbLine
 10
267
 20
762
 11
265
 21
762
  0
LINE
  5
32D
100
AcDbEntity
  8
walls
  6
ByLayer
 62
  256
370
   -1
100
AcDbLine
 10
458
 20
767.5
 11
356
 21
767.5
  0
LINE
  5
32E
100
AcDbEntity
  8
walls
  6
ByLayer
 62
  256
370
   -1
100
AcDbLine
 10
453.5
 20
762
 11
356
 21
762
  0
LINE
  5
32F
100
AcDbEntity
  8
walls
  6
ByLayer
 62
  256
370
   -1
100
AcDbLine
 10
460
 20
632.5
 11
453.5
 21
632.5
  0
LINE
  5
330
100
AcDbEntity
  8
walls
  6
ByLayer
 62
  256
370
   -1
100
AcDbLine
 10
453.5
 20
762
 11
453.5
 21
662.5
  0
LINE
  5
331
100
AcDbEntity
  8
walls
  6
ByLayer
 62
  256
370
   -1
100
AcDbLine
 10
460
 20
667.5
 11
460
 21
662.5
  0
LINE
  5
332
100
AcDbEntity
  8
walls
  6
ByLayer
 62
  256
370
   -1
100
AcDbLine
 10
453.5
 20
632.5
 11
453.5
 21
628
  0
LINE
  5
333
100
AcDbEntity
  8
walls
  6
ByLayer
 62
  256
370
   -1
100
AcDbLine
 10
460
 20
632.5
 11
460
 21
628
  0
LINE
  5
334
100
AcDbEntity
  8
walls
  6
ByLayer
 62
  256
370
   -1
100
AcDbLine
 10
475
 20
464.5
 11
475
 21
585
  0
LINE
  5
335
100
AcDbEntity
  8
walls
  6
ByLayer
 62
  256
370
   -1
100
AcDbLine
 10
480.5
 20
577.5
 11
480.5
 21
585.5
  0
LINE
  5
336
100
AcDbEntity
  8
walls
  6
ByLayer
 62
  256
370
   -1
100
AcDbLine
 10
259.5
 20
902
 11
259.5
 21
822.5
  0
LINE
  5
337
100
AcDbEntity
  8
walls
  6
ByLayer
 62
  256
370
   -1
100
AcDbLine
 10
265
 20
865
 11
265
 21
822.5
  0
LINE
  5
338
100
AcDbEntity
  8
walls
  6
ByLayer
 62
  256
370
   -1
100
AcDbLine
 10
259.5
 20
790.5
 11
259.5
 21
661
  0
LINE
  5
339
100
AcDbEntity
  8
walls
  6
ByLayer
 62
  256
370
   -1
100
AcDbLine
 10
265.0000000000001
 20
790.5000000000028
 11
265
 21
767.5
  0
LINE
  5
33A
100
AcDbEntity
  8
walls
  6
ByLayer
 62
  256
370
   -1
100
AcDbLine
 10
307
 20
953.5
 11
307
 21
931
  0
LINE
  5
33B
100
AcDbEntity
  8
walls
  6
ByLayer
 62
  256
370
   -1
100
AcDbLine
 10
312.5
 20
953.5
 11
312.5
 21
931
  0
LINE
  5
33C
100
AcDbEntity
  8
walls
  6
ByLayer
 62
  256
370
   -1
100
AcDbLine
 10
307
 20
884
 11
307
 21
870.5
  0
LINE
  5
33D
100
AcDbEntity
  8
walls
  6
ByLayer
 62
  256
370
   -1
100
AcDbLine
 10
312.5
 20
884
 11
312.5
 21
865
  0
LINE
  5
33E
100
AcDbEntity
  8
walls
  6
ByLayer
 62
  256
370
   -1
100
AcDbLine
 10
325.5
 20
959
 11
120
 21
959
  0
LINE
  5
33F
100
AcDbEntity
  8
walls
  6
ByLayer
 62
  256
370
   -1
100
AcDbLine
 10
325.5000000000059
 20
953.5
 11
312.5
 21
953.5
  0
LINE
  5
340
100
AcDbEntity
  8
walls
  6
ByLayer
 62
  256
370
   -1
100
AcDbLine
 10
458
 20
953.5
 11
395.5
 21
953.5
  0
LINE
  5
341
100
AcDbEntity
  8
walls
  6
ByLayer
 62
  256
370
   -1
100
AcDbLine
 10
395.5
 20
953.5
 11
360.5
 21
953.5
  0
LINE
  5
342
100
AcDbEntity
  8
walls
  6
ByLayer
 62
  256
370
   -1
100
AcDbLine
 10
463.5
 20
959
 11
395.5
 21
959
  0
LINE
  5
343
100
AcDbEntity
  8
walls
  6
ByLayer
 62
  256
370
   -1
100
AcDbLine
 10
395.5
 20
959
 11
360.5
 21
959
  0
DIMENSION
  5
344
100
AcDbEntity
  8
in_dim
  6
ByLayer
 62
  256
370
   -1
100
AcDbDimension
  2
*D28
 10
458
 20
875
 30
0
 11
385.25
 21
875
 31
0
 70
   33
 71
    5
 72
    0
  3
Standard
 53
0
210
0
220
0
230
1
100
AcDbAlignedDimension
 13
312.5
 23
953.5
 33
0
 14
458
 24
953.5
 34
0
  0
LINE
  5
345
100
AcDbEntity
  8
walls
  6
ByLayer
 62
  256
370
   -1
100
AcDbLine
 10
470
 20
464.5
 11
444.5441558772843
 21
489.9558441227157
  0
LINE
  5
346
100
AcDbEntity
  8
walls
  6
ByLayer
 62
  256
370
   -1
100
AcDbLine
 10
470
 20
464.5
 11
470
 21
459
  0
LINE
  5
347
100
AcDbEntity
  8
walls
  6
ByLayer
 62
  256
370
   -1
100
AcDbLine
 10
433.9999999999991
 20
464.4999999999999
 11
433.9999999999991
 21
458.9999999999999
  0
ARC
  5
348
100
AcDbEntity
  8
walls
  6
ByLayer
 62
  256
370
   -1
100
AcDbCircle
 10
470
 20
464.5
 40
36
100
AcDbArc
 50
135.0000000000001
 51
180.0000000000002
  0
LINE
  5
349
100
AcDbEntity
  8
walls
  6
ByLayer
 62
  256
370
   -1
100
AcDbLine
 10
345
 20
665.5
 11
345
 21
671
  0
LINE
  5
34A
100
AcDbEntity
  8
walls
  6
ByLayer
 62
  256
370
   -1
100
AcDbLine
 10
315
 20
665.5
 11
315
 21
671
  0
LINE
  5
34B
100
AcDbEntity
  8
walls
  6
ByLayer
 62
  256
370
   -1
100
AcDbLine
 10
267
 20
762
 11
267
 21
767.5
  0
LINE
  5
34C
100
AcDbEntity
  8
walls
  6
ByLayer
 62
  256
370
   -1
100
AcDbLine
 10
356
 20
762
 11
356
 21
767.5
  0
LINE
  5
34D
100
AcDbEntity
  8
walls
  6
ByLayer
 62
  256
370
   -1
100
AcDbLine
 10
460
 20
662.5
 11
453.5
 21
662.5
  0
LINE
  5
34E
100
AcDbEntity
  8
walls
  6
ByLayer
 62
  256
370
   -1
100
AcDbLine
 10
265
 20
822.5
 11
287.6274169979695
 21
799.8725830020305
  0
ARC
  5
34F
100
AcDbEntity
  8
walls
  6
ByLayer
 62
  256
370
   -1
100
AcDbCircle
 10
265
 20
822.5
 40
32
100
AcDbArc
 50
270
 51
315
  0
LINE
  5
350
100
AcDbEntity
  8
walls
  6
ByLayer
 62
  256
370
   -1
100
AcDbLine
 10
265
 20
822.5
 11
259.5
 21
822.5
  0
LINE
  5
351
100
AcDbEntity
  8
walls
  6
ByLayer
 62
  256
370
   -1
100
AcDbLine
 10
265
 20
790.5
 11
259.5
 21
790.5
  0
LINE
  5
352
100
AcDbEntity
  8
walls
  6
ByLayer
 62
  256
370
   -1
100
AcDbLine
 10
312.5
 20
884
 11
307
 21
884
  0
LINE
  5
353
100
AcDbEntity
  8
walls
  6
ByLayer
 62
  256
370
   -1
100
AcDbLine
 10
312.5
 20
931
 11
307
 21
931
  0
LINE
  5
354
100
AcDbEntity
  8
walls
  6
ByLayer
 62
  256
370
   -1
100
AcDbLine
 10
325.5
 20
953.5
 11
325.5
 21
959
  0
LINE
  5
355
100
AcDbEntity
  8
walls
  6
ByLayer
 62
  256
370
   -1
100
AcDbLine
 10
360.5
 20
953.5
 11
360.5
 21
959
  0
LINE
  5
356
100
AcDbEntity
  8
walls
  6
ByLayer
 62
  256
370
   -1
100
AcDbLine
 10
395.5
 20
953.5
 11
395.5
 21
959
  0
LINE
  5
357
100
AcDbEntity
  8
walls
  6
ByLayer
 62
  256
370
   -1
100
AcDbLine
 10
360.5
 20
953.5
 11
335.7512626584709
 21
928.7512626584709
  0
ARC
  5
358
100
AcDbEntity
  8
walls
  6
ByLayer
 62
  256
370
   -1
100
AcDbCircle
 10
360.5
 20
953.5
 40
35
100
AcDbArc
 50
180
 51
225
  0
LINE
  5
359
100
AcDbEntity
  8
walls
  6
ByLayer
 62
  256
370
   -1
100
AcDbLine
 10
360.5
 20
956
 11
395.5
 21
956
  0
LINE
  5
35A
100
AcDbEntity
  8
walls
  6
ByLayer
 62
  256
370
   -1
100
AcDbLine
 10
144.5
 20
661
 11
125.4999999999999
 21
661
  0
LINE
  5
35B
100
AcDbEntity
  8
walls
  6
ByLayer
 62
  256
370
   -1
100
AcDbLine
 10
144.5
 20
655.5
 11
120
 21
655.5
  0
LINE
  5
35C
100
AcDbEntity
  8
walls
  6
ByLayer
 62
  256
370
   -1
100
AcDbLine
 10
259.4999999999999
 20
661
 11
237.5
 21
661
  0
LINE
  5
35D
100
AcDbEntity
  8
walls
  6
ByLayer
 62
  256
370
   -1
100
AcDbLine
 10
259.4999999999999
 20
655.5
 11
237.5
 21
655.5
  0
LINE
  5
35E
100
AcDbEntity
  8
walls
  6
ByLayer
 62
  256
370
   -1
100
AcDbLine
 10
144.5
 20
661
 11
144.5
 21
655.5
  0
LINE
  5
35F
100
AcDbEntity
  8
walls
  6
ByLayer
 62
  256
370
   -1
100
AcDbLine
 10
237.5
 20
655.5
 11
237.5
 21
661
  0
LINE
  5
360
100
AcDbEntity
  8
walls
  6
ByLayer
 62
  256
370
   -1
100
AcDbLine
 10
176.5
 20
907.5
 11
176.5
 21
902
  0
LINE
  5
361
100
AcDbEntity
  8
walls
  6
ByLayer
 62
  256
370
   -1
100
AcDbLine
 10
208.5
 20
907.5
 11
208.5
 21
902
  0
LINE
  5
362
100
AcDbEntity
  8
walls
  6
ByLayer
 62
  256
370
   -1
100
AcDbLine
 10
208.5
 20
902
 11
185.8725830020305
 21
879.3725830020305
  0
ARC
  5
363
100
AcDbEntity
  8
walls
  6
ByLayer
 62
  256
370
   -1
100
AcDbCircle
 10
208.5
 20
902
 40
32
100
AcDbArc
 50
180
 51
224.9999999999999
  0
LINE
  5
364
100
AcDbEntity
  8
walls
  6
ByLayer
 62
  256
370
   -1
100
AcDbLine
 10
176.5
 20
907.5
 11
125.5
 21
907.5
  0
LINE
  5
365
100
AcDbEntity
  8
walls
  6
ByLayer
 62
  256
370
   -1
100
AcDbLine
 10
176.5000000000041
 20
902
 11
125.5
 21
902
  0
LINE
  5
366
100
AcDbEntity
  8
walls
  6
ByLayer
 62
  256
370
   -1
100
AcDbLine
 10
259.5
 20
907.5
 11
208.5
 21
907.5
  0
LINE
  5
367
100
AcDbEntity
  8
walls
  6
ByLayer
 62
  256
370
   -1
100
AcDbLine
 10
259.5
 20
902
 11
208.5
 21
902
  0
LINE
  5
368
100
AcDbEntity
  8
walls
  6
ByLayer
 62
  256
370
   -1
100
AcDbLine
 10
649.5
 20
598.5
 11
571.5
 21
598.5
  0
LINE
  5
369
100
AcDbEntity
  8
walls
  6
ByLayer
 62
  256
370
   -1
100
AcDbLine
 10
649.5
 20
601.5
 11
571.5
 21
601.5
  0
LINE
  5
36A
100
AcDbEntity
  8
walls
  6
ByLayer
 62
  256
370
   -1
100
AcDbLine
 10
571.5
 20
601.5
 11
571.5
 21
622.5
  0
LINE
  5
36B
100
AcDbEntity
  8
walls
  6
ByLayer
 62
  256
370
   -1
100
AcDbLine
 10
571.5
 20
577.5
 11
571.5
 21
598.5
  0
LINE
  5
36C
100
AcDbEntity
  8
walls
  6
ByLayer
 62
  256
370
   -1
100
AcDbLine
 10
566
 20
577.5
 11
515.5000000000035
 21
577.5
  0
LINE
  5
36D
100
AcDbEntity
  8
walls
  6
ByLayer
 62
  256
370
   -1
100
AcDbLine
 10
649.5
 20
601.5
 11
649.5
 21
622.5
  0
LINE
  5
36E
100
AcDbEntity
  8
walls
  6
ByLayer
 62
  256
370
   -1
100
AcDbLine
 10
649.5
 20
577.5
 11
649.5
 21
598.5
  0
LINE
  5
36F
100
AcDbEntity
  8
walls
  6
ByLayer
 62
  256
370
   -1
100
AcDbLine
 10
646.5
 20
572
 11
646.5
 21
577.5
  0
LINE
  5
370
100
AcDbEntity
  8
walls
  6
ByLayer
 62
  256
370
   -1
100
AcDbLine
 10
649.5
 20
577.5
 11
646.5
 21
577.5
  0
LINE
  5
371
100
AcDbEntity
  8
walls
  6
ByLayer
 62
  256
370
   -1
100
AcDbLine
 10
649.5
 20
572
 11
646.5
 21
572
  0
LINE
  5
372
100
AcDbEntity
  8
walls
  6
ByLayer
 62
  256
370
   -1
100
AcDbLine
 10
649.5
 20
622.5
 11
646.5
 21
622.5
  0
LINE
  5
373
100
AcDbEntity
  8
walls
  6
ByLayer
 62
  256
370
   -1
100
AcDbLine
 10
649.5
 20
628
 11
646.5
 21
628
  0
LINE
  5
374
100
AcDbEntity
  8
walls
  6
ByLayer
 62
  256
370
   -1
100
AcDbLine
 10
646.5
 20
622.5
 11
646.5
 21
628
  0
LINE
  5
375
100
AcDbEntity
  8
walls
  6
ByLayer
 62
  256
370
   -1
100
AcDbLine
 10
574.5
 20
622.5
 11
571.5
 21
622.5
  0
LINE
  5
376
100
AcDbEntity
  8
walls
  6
ByLayer
 62
  256
370
   -1
100
AcDbLine
 10
574.5
 20
577.5
 11
571.5
 21
577.5
  0
LINE
  5
377
100
AcDbEntity
  8
walls
  6
ByLayer
 62
  256
370
   -1
100
AcDbLine
 10
574.5
 20
572
 11
515.5000000000035
 21
572
  0
LINE
  5
378
100
AcDbEntity
  8
walls
  6
ByLayer
 62
  256
370
   -1
100
AcDbLine
 10
574.5
 20
572
 11
574.5
 21
577.5
  0
LINE
  5
379
100
AcDbEntity
  8
walls
  6
ByLayer
 62
  256
370
   -1
100
AcDbLine
 10
574.5
 20
622.5
 11
574.5
 21
628
  0
LINE
  5
37A
100
AcDbEntity
  8
walls
  6
ByLayer
 62
  256
370
   -1
100
AcDbLine
 10
574.5
 20
574
 11
611.5
 21
574
  0
LINE
  5
37B
100
AcDbEntity
  8
walls
  6
ByLayer
 62
  256
370
   -1
100
AcDbLine
 10
646.5
 20
575.5
 11
609.5
 21
575.5
  0
LINE
  5
37C
100
AcDbEntity
  8
walls
  6
ByLayer
 62
  256
370
   -1
100
AcDbLine
 10
574.5
 20
624.5
 11
611.5
 21
624.5
  0
LINE
  5
37D
100
AcDbEntity
  8
walls
  6
ByLayer
 62
  256
370
   -1
100
AcDbLine
 10
646.5
 20
626
 11
609.5
 21
626
  0
LINE
  5
37E
100
AcDbEntity
  8
walls
  6
ByLayer
 62
  256
370
   -1
100
AcDbLine
 10
563.5
 20
622.5
 11
563.5
 21
628
  0
LINE
  5
37F
100
AcDbEntity
  8
walls
  6
ByLayer
 62
  256
370
   -1
100
AcDbLine
 10
545.5
 20
622.5
 11
545.5
 21
628
  0
LINE
  5
380
100
AcDbEntity
  8
walls
  6
ByLayer
 62
  256
370
   -1
100
AcDbLine
 10
545.5
 20
628
 11
558.2279220613578
 21
640.7279220613578
  0
ARC
  5
381
100
AcDbEntity
  8
walls
  6
ByLayer
 62
  256
370
   -1
100
AcDbCircle
 10
545.5
 20
628
 40
18
100
AcDbArc
 50
3.618750633085463e-13
 51
45
  0
LINE
  5
382
100
AcDbEntity
  8
walls
  6
ByLayer
 62
  256
370
   -1
100
AcDbLine
 10
545.5
 20
628
 11
525.5
 21
628
  0
LINE
  5
383
100
AcDbEntity
  8
walls
  6
ByLayer
 62
  256
370
   -1
100
AcDbLine
 10
574.5
 20
628
 11
563.4999999999941
 21
628
  0
LINE
  5
384
100
AcDbEntity
  8
walls
  6
ByLayer
 62
  256
370
   -1
100
AcDbLine
 10
566
 20
622.5
 11
563.5
 21
622.5
  0
LINE
  5
385
100
AcDbEntity
  8
walls
  6
ByLayer
 62
  256
370
   -1
100
AcDbLine
 10
545.5
 20
622.5
 11
520
 21
622.5
  0
LINE
  5
386
100
AcDbEntity
  8
walls
  6
DASHED2
 62
  256
370
   -1
100
AcDbLine
 10
237.5
 20
661
 11
237.5
 21
745
  0
LINE
  5
387
100
AcDbEntity
  8
walls
  6
DASHED2
 62
  256
370
   -1
100
AcDbLine
 10
237.5
 20
745
 11
144.5
 21
745
  0
LINE
  5
388
100
AcDbEntity
  8
walls
  6
DASHED2
 62
  256
370
   -1
100
AcDbLine
 10
144.5
 20
745
 11
144.5
 21
661
  0
LINE
  5
389
100
AcDbEntity
  8
walls
  6
ByLayer
 62
  256
370
   -1
100
AcDbLine
 10
646.5
 20
762
 11
646.5
 21
767.5
  0
LINE
  5
38A
100
AcDbEntity
  8
walls
  6
ByLayer
 62
  256
370
   -1
100
AcDbLine
 10
649.5
 20
759
 11
655
 21
759
  0
LINE
  5
38B
100
AcDbEntity
  8
walls
  6
ByLayer
 62
  256
370
   -1
100
AcDbLine
 10
649.5
 20
723
 11
655
 21
723
  0
LINE
  5
38C
100
AcDbEntity
  8
walls
  6
ByLayer
 62
  256
370
   -1
100
AcDbLine
 10
610.5
 20
762
 11
610.5
 21
767.5
  0
LINE
  5
38D
100
AcDbEntity
  8
walls
  6
ByLayer
 62
  256
370
   -1
100
AcDbLine
 10
651.5
 20
759
 11
651.5
 21
723
  0
LINE
  5
38E
100
AcDbEntity
  8
walls
  6
ByLayer
 62
  256
370
   -1
100
AcDbLine
 10
646.5
 20
764
 11
610.5
 21
764
  0
LINE
  5
38F
100
AcDbEntity
  8
walls
  6
ByLayer
 62
  256
370
   -1
100
AcDbLine
 10
509
 20
762
 11
509
 21
767.5
  0
LINE
  5
390
100
AcDbEntity
  8
walls
  6
ByLayer
 62
  256
370
   -1
100
AcDbLine
 10
473
 20
762
 11
473
 21
767.5
  0
LINE
  5
391
100
AcDbEntity
  8
walls
  6
ByLayer
 62
  256
370
   -1
100
AcDbLine
 10
473
 20
764
 11
509
 21
764
  0
LINE
  5
392
100
AcDbEntity
  8
walls
  6
ByLayer
 62
  256
370
   -1
100
AcDbLine
 10
424.5
 20
762
 11
424.5
 21
767.5
  0
LINE
  5
393
100
AcDbEntity
  8
walls
  6
ByLayer
 62
  256
370
   -1
100
AcDbLine
 10
388.5
 20
762
 11
388.5
 21
767.5
  0
LINE
  5
394
100
AcDbEntity
  8
walls
  6
DOTTINY
 62
  256
370
   -1
100
AcDbLine
 10
424.5
 20
764
 11
388.5
 21
764
  0
LINE
  5
395
100
AcDbEntity
  8
walls
  6
ByLayer
 62
  256
370
   -1
100
AcDbLine
 10
649.5
 20
489.5
 11
655
 21
489.5
  0
LINE
  5
396
100
AcDbEntity
  8
walls
  6
ByLayer
 62
  256
370
   -1
100
AcDbLine
 10
581.5
 20
440.5
 11
581.5
 21
435
  0
LINE
  5
397
100
AcDbEntity
  8
walls
  6
ByLayer
 62
  256
370
   -1
100
AcDbLine
 10
649.5
 20
525.5
 11
655
 21
525.5
  0
LINE
  5
398
100
AcDbEntity
  8
walls
  6
ByLayer
 62
  256
370
   -1
100
AcDbLine
 10
545.5
 20
440.5
 11
545.5
 21
435
  0
LINE
  5
399
100
AcDbEntity
  8
walls
  6
ByLayer
 62
  256
370
   -1
100
AcDbLine
 10
651.5
 20
489.5
 11
651.5
 21
525.5
  0
LINE
  5
39A
100
AcDbEntity
  8
walls
  6
ByLayer
 62
  256
370
   -1
100
AcDbLine
 10
581.5
 20
438.5
 11
545.5
 21
438.5
  0
LINE
  5
39B
100
AcDbEntity
  8
walls
  6
ByLayer
 62
  256
370
   -1
100
AcDbLine
 10
303
 20
464.5
 11
303
 21
459
  0
LINE
  5
39C
100
AcDbEntity
  8
walls
  6
ByLayer
 62
  256
370
   -1
100
AcDbLine
 10
394
 20
464.5
 11
394
 21
459
  0
LINE
  5
39D
100
AcDbEntity
  8
walls
  6
ByLayer
 62
  256
370
   -1
100
AcDbLine
 10
303
 20
462.5
 11
394
 21
462.5
  0
LINE
  5
39E
100
AcDbEntity
  8
walls
  6
ByLayer
 62
  256
370
   -1
100
AcDbLine
 10
265
 20
644.5
 11
259.5
 21
644.5
  0
LINE
  5
39F
100
AcDbEntity
  8
walls
  6
ByLayer
 62
  256
370
   -1
100
AcDbLine
 10
265
 20
592.5
 11
259.5
 21
592.5
  0
LINE
  5
3A0
100
AcDbEntity
  8
walls
  6
ByLayer
 62
  256
370
   -1
100
AcDbLine
 10
263
 20
644.5
 11
263
 21
592.5
  0
LINE
  5
3A1
100
AcDbEntity
  8
walls
  6
ByLayer
 62
  256
370
   -1
100
AcDbLine
 10
458
 20
815.5
 11
463.5
 21
815.5
  0
LINE
  5
3A2
100
AcDbEntity
  8
walls
  6
ByLayer
 62
  256
370
   -1
100
AcDbLine
 10
458
 20
910.5
 11
463.5
 21
910.5
  0
LINE
  5
3A3
100
AcDbEntity
  8
walls
  6
ByLayer
 62
  256
370
   -1
100
AcDbLine
 10
460
 20
815.5
 11
460
 21
910.5
  0
LINE
  5
3A4
100
AcDbEntity
  8
walls
  6
ByLayer
 62
  256
370
   -1
100
AcDbLine
 10
125.5
 20
825
 11
120
 21
825
  0
LINE
  5
3A5
100
AcDbEntity
  8
walls
  6
ByLayer
 62
  256
370
   -1
100
AcDbLine
 10
125.5
 20
789
 11
120
 21
789
  0
LINE
  5
3A6
100
AcDbEntity
  8
walls
  6
ByLayer
 62
  256
370
   -1
100
AcDbLine
 10
123.5
 20
789
 11
123.5
 21
825
  0
DIMENSION
  5
3A7
100
AcDbEntity
  8
in_dim
  6
ByLayer
 62
  256
370
   -1
100
AcDbDimension
  2
*D29
 10
635
 20
577.5
 30
0
 11
635
 21
600
 31
0
 70
   33
 71
    5
 72
    0
  3
Standard
 53
0
210
0
220
0
230
1
100
AcDbAlignedDimension
 13
649.5
 23
622.5
 33
0
 14
649.5
 24
577.5
 34
0
  0
DIMENSION
  5
3A8
100
AcDbEntity
  8
in_dim
  6
ByLayer
 62
  256
370
   -1
100
AcDbDimension
  2
*D30
 10
480
 20
673
 30
0
 11
480
 21
717.5
 31
0
 70
   33
 71
    5
 72
    0
  3
Standard
 53
0
210
0
220
0
230
1
100
AcDbAlignedDimension
 13
520
 23
762
 33
0
 14
520
 24
673
 34
0
  0
DIMENSION
  5
3A9
100
AcDbEntity
  8
in_dim
  6
ByLayer
 62
  256
370
   -1
100
AcDbDimension
  2
*D31
 10
300
 20
865
 30
0
 11
300
 21
816.25
 31
0
 70
   33
 71
    5
 72
    0
  3
Standard
 53
0
210
0
220
0
230
1
100
AcDbAlignedDimension
 13
285
 23
767.5
 33
0
 14
285
 24
865
 34
0
  0
DIMENSION
  5
3AA
100
AcDbEntity
  8
in_dim
  6
ByLayer
 62
  256
370
   -1
100
AcDbDimension
  2
*D32
 10
136
 20
661
 30
0
 11
136
 21
807.25
 31
0
 70
   33
 71
    5
 72
    0
  3
Standard
 53
0
210
0
220
0
230
1
100
AcDbAlignedDimension
 13
126.5
 23
953.5
 33
0
 14
126.5
 24
661
 34
0
  0
DIMENSION
  5
3AB
100
AcDbEntity
  8
in_dim
  6
ByLayer
 62
  256
370
   -1
100
AcDbDimension
  2
*D33
 10
321.5
 20
865
 30
0
 11
321.5
 21
909.25
 31
0
 70
   33
 71
    5
  3
Standard
 53
0
210
0
220
0
230
1
100
AcDbAlignedDimension
 13
312.5
 23
953.5
 33
0
 14
312.5
 24
865
 34
0
  0
DIMENSION
  5
3AC
100
AcDbEntity
  8
in_dim
  6
ByLayer
 62
  256
370
   -1
100
AcDbDimension
  2
*D34
 10
480.5
 20
615
 30
0
 11
414.75
 21
615
 31
0
 70
   33
 71
    5
  3
Standard
 53
0
210
0
220
0
230
1
100
AcDbAlignedDimension
 13
349
 23
622.5
 33
0
 14
480.5
 24
622.5
 34
0
  0
DIMENSION
  5
3AD
100
AcDbEntity
  8
in_dim
  6
ByLayer
 62
  256
370
   -1
100
AcDbDimension
  2
*D35
 10
356
 20
765
 30
0
 11
311.5
 21
765
 31
0
 70
   32
 71
    5
  3
Standard
 53
0
210
0
220
0
230
1
100
AcDbAlignedDimension
 13
267
 23
762
 33
0
 14
356
 24
762
 34
0
100
AcDbRotatedDimension
  0
DIMENSION
  5
3AE
100
AcDbEntity
  8
in_dim
  6
ByLayer
 62
  256
370
   -1
100
AcDbDimension
  2
*D36
 10
345
 20
670
 30
0
 11
330
 21
670
 31
0
 70
   32
 71
    5
  3
Standard
 53
0
210
0
220
0
230
1
100
AcDbAlignedDimension
 13
315
 23
665.5
 33
0
 14
345
 24
665.5
 34
0
100
AcDbRotatedDimension
  0
DIMENSION
  5
3AF
100
AcDbEntity
  8
in_dim
  6
ByLayer
 62
  256
370
   -1
100
AcDbDimension
  2
*D37
 10
356
 20
755
 30
0
 11
404.75
 21
755
 31
0
 70
   32
 71
    5
  3
Standard
 53
0
210
0
220
0
230
1
100
AcDbAlignedDimension
 13
453.5
 23
762
 33
0
 14
356
 24
762
 34
0
100
AcDbRotatedDimension
  0
DIMENSION
  5
3B0
100
AcDbEntity
  8
in_dim
  6
ByLayer
 62
  256
370
   -1
100
AcDbDimension
  2
*D38
 10
516
 20
670
 30
0
 11
504
 21
670
 31
0
 70
   32
 71
    5
  3
Standard
 53
0
210
0
220
0
230
1
100
AcDbAlignedDimension
 13
492
 23
673
 33
0
 14
516
 24
673
 34
0
100
AcDbRotatedDimension
  0
DIMENSION
  5
3B1
100
AcDbEntity
  8
in_dim
  6
ByLayer
 62
  256
370
   -1
100
AcDbDimension
  2
*D39
 10
523.109656176876
 20
632
 30
0
 11
523.109656176876
 21
646.9999999999989
 31
0
 70
   33
 71
    5
  3
Standard
 53
0
210
0
220
0
230
1
100
AcDbAlignedDimension
 13
525.5
 23
661.9999999999977
 33
0
 14
525.5
 24
632
 34
0
  0
DIMENSION
  5
3B2
100
AcDbEntity
  8
in_dim
  6
ByLayer
 62
  256
370
   -1
100
AcDbDimension
  2
*D40
 10
456.3420530022469
 20
632.5
 30
0
 11
456.3420530022469
 21
647.5
 31
0
 70
   33
 71
    5
  3
Standard
 53
0
210
0
220
0
230
1
100
AcDbAlignedDimension
 13
460
 23
662.5
 33
0
 14
460
 24
632.5
 34
0
  0
DIMENSION
  5
3B3
100
AcDbEntity
  8
in_dim
  6
ByLayer
 62
  256
370
   -1
100
AcDbDimension
  2
*D41
 10
646.5
 20
565
 30
0
 11
610.5
 21
565
 31
0
 70
   33
 71
    5
  3
Standard
 53
0
210
0
220
0
230
1
100
AcDbAlignedDimension
 13
574.5
 23
572
 33
0
 14
646.5
 24
572
 34
0
  0
DIMENSION
  5
3B4
100
AcDbEntity
  8
in_dim
  6
ByLayer
 62
  256
370
   -1
100
AcDbDimension
  2
*D42
 10
515.5000000000035
 20
575
 30
0
 11
500.5000000000018
 21
575
 31
0
 70
   33
 71
    5
  3
Standard
 53
0
210
0
220
0
230
1
100
AcDbAlignedDimension
 13
485.5000000000001
 23
577.5
 33
0
 14
515.5000000000035
 24
577.5
 34
0
  0
DIMENSION
  5
3B5
100
AcDbEntity
  8
in_dim
  6
ByLayer
 62
  256
370
   -1
100
AcDbDimension
  2
*D43
 10
520
 20
577.5
 30
0
 11
520
 21
600
 31
0
 70
   32
 71
    5
  3
Standard
 53
0
210
0
220
0
230
1
100
AcDbAlignedDimension
 13
520
 23
622.5
 33
0
 14
525
 24
577.5
 34
0
 50
90
100
AcDbRotatedDimension
  0
DIMENSION
  5
3B6
100
AcDbEntity
  8
in_dim
  6
ByLayer
 62
  256
370
   -1
100
AcDbDimension
  2
*D44
 10
470
 20
461.5
 30
0
 11
451.9999999999995
 21
461.5
 31
0
 70
   32
 71
    5
  3
Standard
 53
0
210
0
220
0
230
1
100
AcDbAlignedDimension
 13
433.9999999999991
 23
458.9999999999999
 33
0
 14
470
 24
459
 34
0
100
AcDbRotatedDimension
  0
DIMENSION
  5
3B7
100
AcDbEntity
  8
in_dim
  6
ByLayer
 62
  256
370
   -1
100
AcDbDimension
  2
*D45
 10
262
 20
790.5
 30
0
 11
262
 21
806.5
 31
0
 70
   32
 71
    5
  3
Standard
 53
0
210
0
220
0
230
1
100
AcDbAlignedDimension
 13
259.5
 23
822.5
 33
0
 14
259.5
 24
790.5
 34
0
 50
90
100
AcDbRotatedDimension
  0
DIMENSION
  5
3B8
100
AcDbEntity
  8
in_dim
  6
ByLayer
 62
  256
370
   -1
100
AcDbDimension
  2
*D46
 10
208.5
 20
905
 30
0
 11
192.5
 21
905
 31
0
 70
   32
 71
    5
  3
Standard
 53
0
210
0
220
0
230
1
100
AcDbAlignedDimension
 13
176.5
 23
907.5
 33
0
 14
208.5
 24
907.5
 34
0
100
AcDbRotatedDimension
  0
DIMENSION
  5
3B9
100
AcDbEntity
  8
in_dim
  6
ByLayer
 62
  256
370
   -1
100
AcDbDimension
  2
*D47
 10
310
 20
884
 30
0
 11
310
 21
907.5
 31
0
 70
   32
 71
    5
  3
Standard
 53
0
210
0
220
0
230
1
100
AcDbAlignedDimension
 13
312.5
 23
931
 33
0
 14
312.5
 24
884
 34
0
 50
90
100
AcDbRotatedDimension
  0
DIMENSION
  5
3BA
100
AcDbEntity
  8
in_dim
  6
ByLayer
 62
  256
370
   -1
100
AcDbDimension
  2
*D48
 10
563.5
 20
625.4382653901661
 30
0
 11
554.5
 21
625.4382653901661
 31
0
 70
   33
 71
    5
  3
Standard
 53
0
210
0
220
0
230
1
100
AcDbAlignedDimension
 13
545.5
 23
622.5
 33
0
 14
563.5
 24
622.5
 34
0
  0
DIMENSION
  5
3BB
100
AcDbEntity
  8
in_dim
  6
ByLayer
 62
  256
370
   -1
100
AcDbDimension
  2
*D49
 10
485
 20
577.5
 30
0
 11
485
 21
622.5
 31
0
 70
   32
 71
    5
  3
Standard
 53
0
210
0
220
0
230
1
100
AcDbAlignedDimension
 13
491.9999999999992
 23
667.5
 33
0
 14
485.5000000000001
 24
577.5
 34
0
 50
90
100
AcDbRotatedDimension
  0
DIMENSION
  5
3BC
100
AcDbEntity
  8
in_dim
  6
ByLayer
 62
  256
370
   -1
100
AcDbDimension
  2
*D50
 10
458
 20
785
 30
0
 11
361.5
 21
785
 31
0
 70
   33
 71
    5
 72
    0
  3
Standard
 53
0
210
0
220
0
230
1
100
AcDbAlignedDimension
 13
265
 23
767.5
 33
0
 14
458
 24
767.5
 34
0
  0
DIMENSION
  5
3BD
100
AcDbEntity
  8
in_dim
  6
ByLayer
 62
  256
370
   -1
100
AcDbDimension
  2
*D51
 10
520
 20
625
 30
0
 11
500.25
 21
625
 31
0
 70
   32
 71
    5
  3
Standard
 53
0
210
0
220
0
230
1
100
AcDbAlignedDimension
 13
480.5
 23
622.5
 33
0
 14
520
 24
622.5
 34
0
100
AcDbRotatedDimension
  0
DIMENSION
  5
3BE
100
AcDbEntity
  8
in_dim
  6
ByLayer
 62
  256
370
   -1
100
AcDbDimension
  2
*D52
 10
458
 20
775
 30
0
 11
407
 21
775
 31
0
 70
   32
 71
    5
  3
Standard
 53
0
210
0
220
0
230
1
100
AcDbAlignedDimension
 13
356
 23
767.5
 33
0
 14
458
 24
767.5
 34
0
100
AcDbRotatedDimension
  0
DIMENSION
  5
3BF
100
AcDbEntity
  8
out_dim
  6
ByLayer
 62
    7
370
   -1
100
AcDbDimension
  2
*D53
 10
150
 20
959
 30
0
 11
150
 21
1224.5
 31
0
 70
   32
 71
    5
  3
Standard
 53
0
210
0
220
0
230
1
100
AcDbAlignedDimension
 13
0
 23
1490
 33
0
 14
120
 24
959
 34
0
 50
90
100
AcDbRotatedDimension
  0
DIMENSION
  5
3C0
100
AcDbEntity
  8
out_dim
  6
ByLayer
 62
    7
370
   -1
100
AcDbDimension
  2
*D54
 10
463.5
 20
950
 30
0
 11
590.25
 21
950
 31
0
 70
   32
 71
    5
  3
Standard
 53
0
210
0
220
0
230
1
100
AcDbAlignedDimension
 13
717
 23
1490
 33
0
 14
463.5
 24
959
 34
0
100
AcDbRotatedDimension
  0
DIMENSION
  5
3C1
100
AcDbEntity
  8
out_dim
  6
ByLayer
 62
  256
370
   -1
100
AcDbDimension
  2
*D55
 10
4.163661602996083e-14
 20
680
 30
0
 11
60
 21
680
 31
0
 70
   32
 71
    5
  3
Standard
 53
0
210
0
220
0
230
1
100
AcDbAlignedDimension
 13
120
 23
655.5
 33
0
 14
0
 24
0
 34
0
100
AcDbRotatedDimension
  0
DIMENSION
  5
3C2
100
AcDbEntity
  8
out_dim
  6
ByLayer
 62
  256
370
   -1
100
AcDbDimension
  2
*D56
 10
470
 20
382
 30
0
 11
470
 21
191
 31
0
 70
   32
 71
    5
  3
Standard
 53
0
210
0
220
0
230
1
100
AcDbAlignedDimension
 13
717
 23
0
 33
0
 14
481.5
 24
382
 34
0
 50
90
100
AcDbRotatedDimension
  0
DIMENSION
  5
3C3
100
AcDbEntity
  8
out_dim
  6
ByLayer
 62
  256
370
   -1
100
AcDbDimension
  2
*D57
 10
655
 20
460
 30
0
 11
686
 21
460
 31
0
 70
   32
 71
    5
  3
Standard
 53
0
210
0
220
0
230
1
100
AcDbAlignedDimension
 13
717
 23
0
 33
0
 14
655
 24
435
 34
0
100
AcDbRotatedDimension
  0
DIMENSION
  5
3C4
100
AcDbEntity
  8
out_dim
  6
ByLayer
 62
  256
370
   -1
100
AcDbDimension
  2
*D58
 10
717
 20
-50
 30
0
 11
358.5
 21
-50
 31
0
 70
   32
 71
    5
  3
Standard
 53
0
210
0
220
0
230
1
100
AcDbAlignedDimension
 13
0
 23
0
 33
0
 14
717
 24
0
 34
0
100
AcDbRotatedDimension
  0
DIMENSION
  5
3C5
100
AcDbEntity
  8
out_dim
  6
ByLayer
 62
  256
370
   -1
100
AcDbDimension
  2
*D59
 10
-75.0000000000001
 20
9.18454765366784e-15
 30
0
 11
-75.0000000000001
 21
745
 31
0
 70
   32
 71
    5
  3
Standard
 53
0
210
0
220
0
230
1
100
AcDbAlignedDimension
 13
0
 23
1490
 33
0
 14
0
 24
0
 34
0
 50
90
100
AcDbRotatedDimension
  0
LINE
  5
3C6
100
AcDbEntity
  8
addition
  6
ByLayer
 62
  256
370
   -1
100
AcDbLine
 10
120
 20
959
 11
120
 21
1223
  0
LINE
  5
3C7
100
AcDbEntity
  8
addition
  6
ByLayer
 62
  256
370
   -1
100
AcDbLine
 10
120
 20
1223
 11
552
 21
1223
  0
LINE
  5
3C8
100
AcDbEntity
  8
addition
  6
ByLayer
 62
  256
370
   -1
100
AcDbLine
 10
546.5
 20
1217.5
 11
546.5
 21
959
  0
LINE
  5
3C9
100
AcDbEntity
  8
addition
  6
ByLayer
 62
  256
370
   -1
100
AcDbLine
 10
125.5
 20
959
 11
125.5
 21
1217.5
  0
LINE
  5
3CA
100
AcDbEntity
  8
addition
  6
ByLayer
 62
  256
370
   -1
100
AcDbLine
 10
125.5
 20
1217.5
 11
546.5
 21
1217.5
  0
LINE
  5
3CB
100
AcDbEntity
  8
addition
  6
ByLayer
 62
  256
370
   -1
100
AcDbLine
 10
552
 20
953.5
 11
463.5
 21
953.5
  0
LINE
  5
3CC
100
AcDbEntity
  8
addition
  6
ByLayer
 62
  256
370
   -1
100
AcDbLine
 10
546.5
 20
959
 11
463.5
 21
959
  0
LINE
  5
3CD
100
AcDbEntity
  8
addition
  6
ByLayer
 62
  256
370
   -1
100
AcDbLine
 10
552
 20
1223
 11
552
 21
953.5
  0
DIMENSION
  5
3CE
100
AcDbEntity
  8
addition
  6
ByLayer
 62
  256
370
   -1
100
AcDbDimension
  2
*D60
 10
106.1272996923361
 20
1223
 30
0
 11
106.1272996923361
 21
1091
 31
0
 70
   32
 71
    5
 72
    0
  3
Standard
 53
0
210
0
220
0
230
1
100
AcDbAlignedDimension
 13
120
 23
959
 33
0
 14
120
 24
1223
 34
0
 50
90
100
AcDbRotatedDimension
  0
DIMENSION
  5
3CF
100
AcDbEntity
  8
addition
  6
ByLayer
 62
  256
370
   -1
100
AcDbDimension
  2
*D61
 10
552
 20
1238.32695730117
 30
0
 11
336
 21
1238.32695730117
 31
0
 70
   32
 71
    5
 72
    0
  3
Standard
 53
0
210
0
220
0
230
1
100
AcDbAlignedDimension
 13
120
 23
1223
 33
0
 14
552
 24
1223
 34
0
100
AcDbRotatedDimension
  0
ENDSEC
  0
SECTION
  2
OBJECTS
  0
DICTIONARY
  5
C
330
0
100
AcDbDictionary
281
    1
  3
ACAD_GROUP
350
D
  0
DICTIONARY
  5
D
330
C
100
AcDbDictionary
281
    1
  0
PLOTSETTINGS
  5
3D0
100
AcDbPlotSettings
  6
1x1
 40
5.08
 41
5.08
 42
5.08
 43
5.08
  0
ENDSEC
  0
EOF
