999
dxfrw 0.6.3
  0
SECTION
  2
HEADER
  9
$ACADVER
  1
AC1021
  9
$DWGCODEPAGE
  3
ANSI_1252
  9
$INSBASE
 10
0
 20
0
 30
0
  9
$EXTMIN
 10
160.9002862450316
 20
-98.78678982948402
 30
0
  9
$EXTMAX
 10
310.5077690559996
 20
244.7069509173715
 30
0
  9
$LIMMIN
 10
0
 20
0
  9
$LIMMAX
 10
420
 20
297
  9
$ORTHOMODE
 70
    0
  9
$REGENMODE
 70
    1
  9
$FILLMODE
 70
    1
  9
$QTEXTMODE
 70
    0
  9
$MIRRTEXT
 70
    0
  9
$LTSCALE
 40
1
  9
$ATTMODE
 70
    0
  9
$TEXTSIZE
 40
2.5
  9
$TRACEWID
 40
15.68
  9
$TEXTSTYLE
  7
STANDARD
  9
$CLAYER
  8
Cotas1
  9
$CELTYPE
  6
BYLAYER
  9
$CECOLOR
 62
  256
  9
$CELTSCALE
 40
1
  9
$DISPSILH
 70
    0
  9
$DIMSCALE
 40
10
  9
$DIMASZ
 40
0
  9
$DIMEXO
 40
0
  9
$DIMDLI
 40
3.75
  9
$DIMRND
 40
0
  9
$DIMDLE
 40
0
  9
$DIMEXE
 40
0
  9
$DIMTP
 40
0
  9
$DIMTM
 40
0
  9
$DIMTXT
 40
0.35
  9
$DIMCEN
 40
2.5
  9
$DIMTSZ
 40
0.5
  9
$DIMTOL
 70
    0
  9
$DIMLIM
 70
    0
  9
$DIMTIH
 70
    0
  9
$DIMTOH
 70
    0
  9
$DIMSE1
 70
    0
  9
$DIMSE2
 70
    0
  9
$DIMTAD
 70
    1
  9
$DIMZIN
 70
    1
  9
$DIMBLK
  1

  9
$DIMASO
 70
    1
  9
$DIMSHO
 70
    1
  9
$DIMPOST
  1

  9
$DIMAPOST
  1

  9
$DIMALT
 70
    0
  9
$DIMALTD
 70
    3
  9
$DIMALTF
 40
0.03937
  9
$DIMLFAC
 40
1
  9
$DIMTOFL
 70
    1
  9
$DIMTVP
 40
0
  9
$DIMTIX
 70
    0
  9
$DIMSOXD
 70
    0
  9
$DIMSAH
 70
    0
  9
$DIMBLK1
  1

  9
$DIMBLK2
  1

  9
$DIMSTYLE
  2
STANDARD
  9
$DIMCLRD
 70
    0
  9
$DIMCLRE
 70
    0
  9
$DIMCLRT
 70
    0
  9
$DIMTFAC
 40
1
  9
$DIMGAP
 40
0.3
  9
$DIMJUST
 70
    0
  9
$DIMSD1
 70
    0
  9
$DIMSD2
 70
    0
  9
$DIMTOLJ
 70
    0
  9
$DIMTZIN
 70
    8
  9
$DIMALTZ
 70
    0
  9
$DIMALTTZ
 70
    0
  9
$DIMUPT
 70
    0
  9
$DIMDEC
 70
    2
  9
$DIMTDEC
 70
    2
  9
$DIMALTU
 70
    2
  9
$DIMALTTD
 70
    3
  9
$DIMTXSTY
  7
romans
  9
$DIMAUNIT
 70
    0
  9
$DIMADEC
 70
    2
  9
$DIMALTRND
 40
0
  9
$DIMAZIN
 70
    0
  9
$DIMDSEP
 70
    0
  9
$DIMATFIT
 70
    3
  9
$DIMFRAC
 70
    0
  9
$DIMLDRBLK
  1
STANDARD
  9
$DIMLUNIT
 70
    2
  9
$DIMLWD
 70
   -2
  9
$DIMLWE
 70
   -2
  9
$DIMTMOVE
 70
    0
  9
$DIMFXL
 40
0
  9
$DIMFXLON
 70
    1
  9
$DIMJOGANG
 40
0.7854
  9
$DIMTFILL
 70
    0
  9
$DIMTFILLCLR
 70
    0
  9
$DIMARCSYM
 70
    0
  9
$DIMLTYPE
  6

  9
$DIMLTEX1
  6

  9
$DIMLTEX2
  6

  9
$LUNITS
 70
    2
  9
$LUPREC
 70
    2
  9
$SKETCHINC
 40
1
  9
$FILLETRAD
 40
0
  9
$AUNITS
 70
    0
  9
$AUPREC
 70
    2
  9
$MENU
  1
.
  9
$ELEVATION
 40
0
  9
$PELEVATION
 40
0
  9
$THICKNESS
 40
0
  9
$LIMCHECK
 70
    0
  9
$CHAMFERA
 40
0
  9
$CHAMFERB
 40
0
  9
$CHAMFERC
 40
0
  9
$CHAMFERD
 40
0
  9
$SKPOLY
 70
    0
  9
$USRTIMER
 70
    1
  9
$ANGBASE
 50
0
  9
$ANGDIR
 70
    0
  9
$PDMODE
 70
   96
  9
$PDSIZE
 40
-2
  9
$PLINEWID
 40
0
  9
$SPLFRAME
 70
    0
  9
$SPLINETYPE
 70
    2
  9
$SPLINESEGS
 70
    8
  9
$HANDSEED
  5
20000
  9
$SURFTAB1
 70
    6
  9
$SURFTAB2
 70
    6
  9
$SURFTYPE
 70
    6
  9
$SURFU
 70
    6
  9
$SURFV
 70
    6
  9
$UCSBASE
  2

  9
$UCSNAME
  2

  9
$UCSORG
 10
0
 20
0
 30
0
  9
$UCSXDIR
 10
1
 20
0
 30
0
  9
$UCSYDIR
 10
0
 20
1
 30
0
  9
$UCSORTHOREF
  2

  9
$UCSORTHOVIEW
 70
    0
  9
$UCSORGTOP
 10
0
 20
0
 30
0
  9
$UCSORGBOTTOM
 10
0
 20
0
 30
0
  9
$UCSORGLEFT
 10
0
 20
0
 30
0
  9
$UCSORGRIGHT
 10
0
 20
0
 30
0
  9
$UCSORGFRONT
 10
0
 20
0
 30
0
  9
$UCSORGBACK
 10
0
 20
0
 30
0
  9
$PUCSBASE
  2

  9
$PUCSNAME
  2

  9
$PUCSORG
 10
0
 20
0
 30
0
  9
$PUCSXDIR
 10
1
 20
0
 30
0
  9
$PUCSYDIR
 10
0
 20
1
 30
0
  9
$PUCSORTHOREF
  2

  9
$PUCSORTHOVIEW
 70
    0
  9
$PUCSORGTOP
 10
0
 20
0
 30
0
  9
$PUCSORGBOTTOM
 10
0
 20
0
 30
0
  9
$PUCSORGLEFT
 10
0
 20
0
 30
0
  9
$PUCSORGRIGHT
 10
0
 20
0
 30
0
  9
$PUCSORGFRONT
 10
0
 20
0
 30
0
  9
$PUCSORGBACK
 10
0
 20
0
 30
0
  9
$USERI1
 70
    0
  9
$USERI2
 70
    0
  9
$USERI3
 70
    0
  9
$USERI4
 70
    0
  9
$USERI5
 70
    0
  9
$USERR1
 40
0
  9
$USERR2
 40
0
  9
$USERR3
 40
0
  9
$USERR4
 40
0
  9
$USERR5
 40
0
  9
$WORLDVIEW
 70
    1
  9
$SHADEDGE
 70
    3
  9
$SHADEDIF
 70
   70
  9
$TILEMODE
 70
    1
  9
$MAXACTVP
 70
   64
  9
$PINSBASE
 10
-15.36828502649409
 20
3.432186517870594
 30
0
  9
$PLIMCHECK
 70
    0
  9
$PEXTMIN
 10
0
 20
0
 30
0
  9
$PEXTMAX
 10
0
 20
0
 30
0
  9
$GRIDMODE
 70
    0
  9
$SNAPSTYLE
 70
    0
  9
$GRIDUNIT
 10
0
 20
0
  9
$PLIMMIN
 10
0
 20
0
  9
$PLIMMAX
 10
21
 20
29.7
  9
$UNITMODE
 70
    0
  9
$VISRETAIN
 70
    1
  9
$PLINEGEN
 70
    0
  9
$PSLTSCALE
 70
    1
  9
$TREEDEPTH
 70
 3020
  9
$CMLSTYLE
  2
Standard
  9
$CMLJUST
 70
    0
  9
$CMLSCALE
 40
20
  9
$PROXYGRAPHICS
 70
    1
  9
$MEASUREMENT
 70
    1
  9
$CELWEIGHT
370
   -1
  9
$ENDCAPS
280
    0
  9
$JOINSTYLE
280
    0
  9
$LWDISPLAY
290
    0
  9
$INSUNITS
 70
    5
  9
$HYPERLINKBASE
  1

  9
$STYLESHEET
  1

  9
$XEDIT
290
    1
  9
$CEPSNTYPE
380
    0
  9
$PSTYLEMODE
290
    1
  9
$EXTNAMES
290
    1
  9
$PSVPSCALE
 40
0.1
  9
$OLESTARTUP
290
    0
  9
$SORTENTS
280
  127
  9
$INDEXCTL
280
    0
  9
$HIDETEXT
280
    1
  9
$XCLIPFRAME
290
    0
  9
$HALOGAP
280
    0
  9
$OBSCOLOR
 70
  257
  9
$OBSLTYPE
280
    0
  9
$INTERSECTIONDISPLAY
280
    0
  9
$INTERSECTIONCOLOR
 70
  257
  9
$DIMASSOC
280
    1
  9
$PROJECTNAME
  1

  9
$CAMERADISPLAY
290
    0
  9
$LENSLENGTH
 40
50
  9
$CAMERAHEIGHT
 40
0
  9
$STEPSPERSEC
 40
2
  9
$STEPSIZE
 40
50
  9
$3DDWFPREC
 40
2
  9
$PSOLWIDTH
 40
5
  9
$PSOLHEIGHT
 40
80
  9
$LOFTANG1
 40
1.570796326794897
  9
$LOFTANG2
 40
1.570796326794897
  9
$LOFTMAG1
 40
0
  9
$LOFTMAG2
 40
0
  9
$LOFTPARAM
 70
    7
  9
$LOFTNORMALS
280
    1
  9
$LATITUDE
 40
1
  9
$LONGITUDE
 40
1
  9
$NORTHDIRECTION
 40
0
  9
$TIMEZONE
 70
-8000
  9
$LIGHTGLYPHDISPLAY
280
    1
  9
$TILEMODELIGHTSYNCH
280
    1
  9
$SOLIDHIST
280
    1
  9
$SHOWHIST
280
    1
  9
$DWFFRAME
280
    2
  9
$DGNFRAME
280
    0
  9
$REALWORLDSCALE
290
    1
  9
$INTERFERECOLOR
 62
    1
  9
$CSHADOW
280
    0
  9
$SHADOWPLANELOCATION
 40
0
  0
ENDSEC
  0
SECTION
  2
CLASSES
  0
ENDSEC
  0
SECTION
  2
TABLES
  0
TABLE
  2
VPORT
  5
8
330
0
100
AcDbSymbolTable
 70
    1
  0
VPORT
  5
31
330
2
100
AcDbSymbolTableRecord
100
AcDbViewportTableRecord
  2
*ACTIVE
 70
    0
 10
0
 20
0
 11
1
 21
1
 12
385.9380416026503
 22
166.4082658469222
 13
0
 23
0
 14
10
 24
10
 15
10
 25
10
 16
0
 26
0
 36
1
 17
0
 27
0
 37
0
 40
585.8040540219697
 41
1.598196392785571
 42
50
 43
0
 44
0
 50
0
 51
0
 71
    0
 72
  100
 73
    1
 74
    3
 75
    0
 76
    0
 77
    0
 78
    0
281
    0
 65
    1
110
0
120
0
130
0
111
1
121
0
131
0
112
0
122
1
132
0
 79
    0
146
0
348
10020
 60
    7
 61
    5
292
1
282
    1
141
0
142
0
 63
  250
421
3358443
  0
ENDTAB
  0
TABLE
  2
LTYPE
  5
5
330
0
100
AcDbSymbolTable
 70
    4
  0
LTYPE
  5
14
330
5
100
AcDbSymbolTableRecord
100
AcDbLinetypeTableRecord
  2
ByBlock
 70
    0
  3

 72
   65
 73
    0
 40
0
  0
LTYPE
  5
15
330
5
100
AcDbSymbolTableRecord
100
AcDbLinetypeTableRecord
  2
ByLayer
 70
    0
  3

 72
   65
 73
    0
 40
0
  0
LTYPE
  5
16
330
5
100
AcDbSymbolTableRecord
100
AcDbLinetypeTableRecord
  2
Continuous
 70
    0
  3
Solid line
 72
   65
 73
    0
 40
0
  0
LTYPE
  5
32
330
5
100
AcDbSymbolTableRecord
100
AcDbLinetypeTableRecord
  2
DOT
 70
    0
  3
Dot . . . . . . . . . . . . . . . . . . . . . .
 72
   65
 73
    2
 40
6.35
 49
0
 74
    0
 49
-6.35
 74
    0
  0
LTYPE
  5
33
330
5
100
AcDbSymbolTableRecord
100
AcDbLinetypeTableRecord
  2
DOTTINY
 70
    0
  3
Dot (.15x) .....................................
 72
   65
 73
    2
 40
0.9525
 49
0
 74
    0
 49
-0.9525
 74
    0
  0
LTYPE
  5
34
330
5
100
AcDbSymbolTableRecord
100
AcDbLinetypeTableRecord
  2
DOT2
 70
    0
  3
Dot (.5x) .....................................
 72
   65
 73
    2
 40
3.175
 49
0
 74
    0
 49
-3.175
 74
    0
  0
LTYPE
  5
35
330
5
100
AcDbSymbolTableRecord
100
AcDbLinetypeTableRecord
  2
DOTX2
 70
    0
  3
Dot (2x) .  .  .  .  .  .  .  .  .  .  .  .  .
 72
   65
 73
    2
 40
12.7
 49
0
 74
    0
 49
-12.7
 74
    0
  0
LTYPE
  5
36
330
5
100
AcDbSymbolTableRecord
100
AcDbLinetypeTableRecord
  2
DASHED
 70
    0
  3
Dashed _ _ _ _ _ _ _ _ _ _ _ _ _ _ _ _ _
 72
   65
 73
    2
 40
19.05
 49
12.7
 74
    0
 49
-6.35
 74
    0
  0
LTYPE
  5
37
330
5
100
AcDbSymbolTableRecord
100
AcDbLinetypeTableRecord
  2
DASHEDTINY
 70
    0
  3
Dashed (.15x) _ _ _ _ _ _ _ _ _ _ _ _ _ _ _ _ _
 72
   65
 73
    2
 40
2.8575
 49
1.905
 74
    0
 49
-0.9525
 74
    0
  0
LTYPE
  5
38
330
5
100
AcDbSymbolTableRecord
100
AcDbLinetypeTableRecord
  2
DASHED2
 70
    0
  3
Dashed (.5x) _ _ _ _ _ _ _ _ _ _ _ _ _ _ _ _ _
 72
   65
 73
    2
 40
9.524999999999999
 49
6.35
 74
    0
 49
-3.175
 74
    0
  0
LTYPE
  5
39
330
5
100
AcDbSymbolTableRecord
100
AcDbLinetypeTableRecord
  2
DASHEDX2
 70
    0
  3
Dashed (2x) ____  ____  ____  ____  ____  ___
 72
   65
 73
    2
 40
38.09999999999999
 49
25.4
 74
    0
 49
-12.7
 74
    0
  0
LTYPE
  5
3A
330
5
100
AcDbSymbolTableRecord
100
AcDbLinetypeTableRecord
  2
DASHDOT
 70
    0
  3
Dash dot __ . __ . __ . __ . __ . __ . __ . __
 72
   65
 73
    4
 40
25.4
 49
12.7
 74
    0
 49
-6.35
 74
    0
 49
0
 74
    0
 49
-6.35
 74
    0
  0
LTYPE
  5
3B
330
5
100
AcDbSymbolTableRecord
100
AcDbLinetypeTableRecord
  2
DASHDOTTINY
 70
    0
  3
Dash dot (.15x) _._._._._._._._._._._._._._._.
 72
   65
 73
    4
 40
3.81
 49
1.905
 74
    0
 49
-0.9525
 74
    0
 49
0
 74
    0
 49
-0.9525
 74
    0
  0
LTYPE
  5
3C
330
5
100
AcDbSymbolTableRecord
100
AcDbLinetypeTableRecord
  2
DASHDOT2
 70
    0
  3
Dash dot (.5x) _._._._._._._._._._._._._._._.
 72
   65
 73
    4
 40
12.7
 49
6.35
 74
    0
 49
-3.175
 74
    0
 49
0
 74
    0
 49
-3.175
 74
    0
  0
LTYPE
  5
3D
330
5
100
AcDbSymbolTableRecord
100
AcDbLinetypeTableRecord
  2
DASHDOTX2
 70
    0
  3
Dash dot (2x) ____  .  ____  .  ____  .  ___
 72
   65
 73
    4
 40
50.8
 49
25.4
 74
    0
 49
-12.7
 74
    0
 49
0
 74
    0
 49
-12.7
 74
    0
  0
LTYPE
  5
3E
330
5
100
AcDbSymbolTableRecord
100
AcDbLinetypeTableRecord
  2
DIVIDE
 70
    0
  3
Divide ____ . . ____ . . ____ . . ____ . . ____
 72
   65
 73
    6
 40
31.75
 49
12.7
 74
    0
 49
-6.35
 74
    0
 49
0
 74
    0
 49
-6.35
 74
    0
 49
0
 74
    0
 49
-6.35
 74
    0
  0
LTYPE
  5
3F
330
5
100
AcDbSymbolTableRecord
100
AcDbLinetypeTableRecord
  2
DIVIDETINY
 70
    0
  3
Divide (.15x) __..__..__..__..__..__..__..__.._
 72
   65
 73
    6
 40
4.7625
 49
1.905
 74
    0
 49
-0.9525
 74
    0
 49
0
 74
    0
 49
-0.9525
 74
    0
 49
0
 74
    0
 49
-0.9525
 74
    0
  0
LTYPE
  5
40
330
5
100
AcDbSymbolTableRecord
100
AcDbLinetypeTableRecord
  2
DIVIDE2
 70
    0
  3
Divide (.5x) __..__..__..__..__..__..__..__.._
 72
   65
 73
    6
 40
15.875
 49
6.35
 74
    0
 49
-3.175
 74
    0
 49
0
 74
    0
 49
-3.175
 74
    0
 49
0
 74
    0
 49
-3.175
 74
    0
  0
LTYPE
  5
41
330
5
100
AcDbSymbolTableRecord
100
AcDbLinetypeTableRecord
  2
DIVIDEX2
 70
    0
  3
Divide (2x) ________  .  .  ________  .  .  _
 72
   65
 73
    6
 40
63.5
 49
25.4
 74
    0
 49
-12.7
 74
    0
 49
0
 74
    0
 49
-12.7
 74
    0
 49
0
 74
    0
 49
-12.7
 74
    0
  0
LTYPE
  5
42
330
5
100
AcDbSymbolTableRecord
100
AcDbLinetypeTableRecord
  2
BORDER
 70
    0
  3
Border __ __ . __ __ . __ __ . __ __ . __ __ .
 72
   65
 73
    6
 40
44.45
 49
12.7
 74
    0
 49
-6.35
 74
    0
 49
12.7
 74
    0
 49
-6.35
 74
    0
 49
0
 74
    0
 49
-6.35
 74
    0
  0
LTYPE
  5
43
330
5
100
AcDbSymbolTableRecord
100
AcDbLinetypeTableRecord
  2
BORDERTINY
 70
    0
  3
Border (.15x) __.__.__.__.__.__.__.__.__.__.__.
 72
   65
 73
    6
 40
6.6675
 49
1.905
 74
    0
 49
-0.9525
 74
    0
 49
1.905
 74
    0
 49
-0.9525
 74
    0
 49
0
 74
    0
 49
-0.9525
 74
    0
  0
LTYPE
  5
44
330
5
100
AcDbSymbolTableRecord
100
AcDbLinetypeTableRecord
  2
BORDER2
 70
    0
  3
Border (.5x) __.__.__.__.__.__.__.__.__.__.__.
 72
   65
 73
    6
 40
22.225
 49
6.35
 74
    0
 49
-3.175
 74
    0
 49
6.35
 74
    0
 49
-3.175
 74
    0
 49
0
 74
    0
 49
-3.175
 74
    0
  0
LTYPE
  5
45
330
5
100
AcDbSymbolTableRecord
100
AcDbLinetypeTableRecord
  2
BORDERX2
 70
    0
  3
Border (2x) ____  ____  .  ____  ____  .  ___
 72
   65
 73
    6
 40
88.89999999999999
 49
25.4
 74
    0
 49
-12.7
 74
    0
 49
25.4
 74
    0
 49
-12.7
 74
    0
 49
0
 74
    0
 49
-12.7
 74
    0
  0
LTYPE
  5
46
330
5
100
AcDbSymbolTableRecord
100
AcDbLinetypeTableRecord
  2
CENTER
 70
    0
  3
Center ____ _ ____ _ ____ _ ____ _ ____ _ ____
 72
   65
 73
    4
 40
50.8
 49
31.75
 74
    0
 49
-6.35
 74
    0
 49
6.35
 74
    0
 49
-6.35
 74
    0
  0
LTYPE
  5
47
330
5
100
AcDbSymbolTableRecord
100
AcDbLinetypeTableRecord
  2
CENTERTINY
 70
    0
  3
Center (.15x) ___ _ ___ _ ___ _ ___ _ ___ _ ___
 72
   65
 73
    4
 40
7.62
 49
4.7625
 74
    0
 49
-0.9525
 74
    0
 49
0.9525
 74
    0
 49
-0.9525
 74
    0
  0
LTYPE
  5
48
330
5
100
AcDbSymbolTableRecord
100
AcDbLinetypeTableRecord
  2
CENTER2
 70
    0
  3
Center (.5x) ___ _ ___ _ ___ _ ___ _ ___ _ ___
 72
   65
 73
    4
 40
28.575
 49
19.05
 74
    0
 49
-3.175
 74
    0
 49
3.175
 74
    0
 49
-3.175
 74
    0
  0
LTYPE
  5
49
330
5
100
AcDbSymbolTableRecord
100
AcDbLinetypeTableRecord
  2
CENTERX2
 70
    0
  3
Center (2x) ________  __  ________  __  _____
 72
   65
 73
    4
 40
101.6
 49
63.5
 74
    0
 49
-12.7
 74
    0
 49
12.7
 74
    0
 49
-12.7
 74
    0
  0
ENDTAB
  0
TABLE
  2
LAYER
  5
2
330
0
100
AcDbSymbolTable
 70
    1
  0
LAYER
  5
10
330
2
100
AcDbSymbolTableRecord
100
AcDbLayerTableRecord
  2
0
 70
    1
 62
    7
  6
CONTINUOUS
370
   25
390
F
  0
LAYER
  5
4A
330
2
100
AcDbSymbolTableRecord
100
AcDbLayerTableRecord
  2
Cotas
 70
    1
 62
    1
  6
CONTINUOUS
370
   13
390
F
  0
LAYER
  5
4B
330
2
100
AcDbSymbolTableRecord
100
AcDbLayerTableRecord
  2
Cotas1
 70
    0
 62
    7
  6
CONTINUOUS
370
   13
390
F
  0
LAYER
  5
4C
330
2
100
AcDbSymbolTableRecord
100
AcDbLayerTableRecord
  2
Estantes
 70
    0
 62
    1
  6
CONTINUOUS
370
   18
390
F
  0
LAYER
  5
4D
330
2
100
AcDbSymbolTableRecord
100
AcDbLayerTableRecord
  2
Mampostería
 70
    0
 62
    2
  6
CONTINUOUS
370
   35
390
F
  0
LAYER
  5
4E
330
2
100
AcDbSymbolTableRecord
100
AcDbLayerTableRecord
  2
Marco
 70
    0
 62
    8
  6
DASHEDTINY
370
   13
390
F
  0
ENDTAB
  0
TABLE
  2
STYLE
  5
3
330
0
100
AcDbSymbolTable
 70
    3
  0
STYLE
  5
4F
330
2
100
AcDbSymbolTableRecord
100
AcDbTextStyleTableRecord
  2
romans
 70
    0
 40
0
 41
1
 50
0
 71
    0
 42
1
  3
romans
  4

  0
STYLE
  5
50
330
2
100
AcDbSymbolTableRecord
100
AcDbTextStyleTableRecord
  2
Standard
 70
    0
 40
0
 41
1
 50
0
 71
    0
 42
1
  3
txt
  4

  0
ENDTAB
  0
TABLE
  2
VIEW
  5
6
330
0
100
AcDbSymbolTable
 70
    0
  0
ENDTAB
  0
TABLE
  2
UCS
  5
7
330
0
100
AcDbSymbolTable
 70
    0
  0
ENDTAB
  0
TABLE
  2
APPID
  5
9
330
0
100
AcDbSymbolTable
 70
    1
  0
APPID
  5
12
330
9
100
AcDbSymbolTableRecord
100
AcDbRegAppTableRecord
  2
ACAD
 70
    0
  0
APPID
  5
51
330
9
100
AcDbSymbolTableRecord
100
AcDbRegAppTableRecord
  2
LibreCad
 70
    0
  0
ENDTAB
  0
TABLE
  2
DIMSTYLE
  5
A
330
0
100
AcDbSymbolTable
 70
    1
100
AcDbDimStyleTable
 71
    1
  0
DIMSTYLE
105
52
330
A
100
AcDbSymbolTableRecord
100
AcDbDimStyleTableRecord
  2
Standard
 70
    0
 40
10
 41
0
 42
0
 43
0.38
 44
0
 45
0
 46
0
 47
0
 48
0
 49
0
140
0.35
141
0.09
142
0.5
143
25.4
144
1
145
0
146
1
147
0.3
148
0
 71
    0
 72
    0
 73
    0
 74
    1
 75
    0
 76
    0
 77
    0
 78
    1
 79
    0
170
    0
171
    2
172
    0
173
    0
174
    0
175
    0
176
    0
177
    0
178
    0
179
    2
271
    2
272
    4
273
    2
274
    2
275
    0
276
    0
277
    2
278
    0
279
    0
280
    0
281
    0
282
    0
283
    1
284
    0
285
    0
286
    0
288
    0
289
    3
290
    1
340
romans
341

371
   -2
372
   -2
  0
ENDTAB
  0
TABLE
  2
BLOCK_RECORD
  5
1
330
0
100
AcDbSymbolTable
 70
    2
  0
BLOCK_RECORD
  5
1F
330
1
100
AcDbSymbolTableRecord
100
AcDbBlockTableRecord
  2
*Model_Space
 70
    0
280
    1
281
    0
  0
BLOCK_RECORD
  5
1E
330
1
100
AcDbSymbolTableRecord
100
AcDbBlockTableRecord
  2
*Paper_Space
 70
    0
280
    1
281
    0
  0
BLOCK_RECORD
  5
53
330
1
100
AcDbSymbolTableRecord
100
AcDbBlockTableRecord
  2
*D31
 70
    0
280
    1
281
    0
  0
BLOCK_RECORD
  5
56
330
1
100
AcDbSymbolTableRecord
100
AcDbBlockTableRecord
  2
*D37
 70
    0
280
    1
281
    0
  0
BLOCK_RECORD
  5
59
330
1
100
AcDbSymbolTableRecord
100
AcDbBlockTableRecord
  2
*D46
 70
    0
280
    1
281
    0
  0
BLOCK_RECORD
  5
5C
330
1
100
AcDbSymbolTableRecord
100
AcDbBlockTableRecord
  2
*D16
 70
    0
280
    1
281
    0
  0
BLOCK_RECORD
  5
5F
330
1
100
AcDbSymbolTableRecord
100
AcDbBlockTableRecord
  2
*D53
 70
    0
280
    1
281
    0
  0
BLOCK_RECORD
  5
62
330
1
100
AcDbSymbolTableRecord
100
AcDbBlockTableRecord
  2
*D5
 70
    0
280
    1
281
    0
  0
BLOCK_RECORD
  5
65
330
1
100
AcDbSymbolTableRecord
100
AcDbBlockTableRecord
  2
*D51
 70
    0
280
    1
281
    0
  0
BLOCK_RECORD
  5
68
330
1
100
AcDbSymbolTableRecord
100
AcDbBlockTableRecord
  2
*D55
 70
    0
280
    1
281
    0
  0
BLOCK_RECORD
  5
6B
330
1
100
AcDbSymbolTableRecord
100
AcDbBlockTableRecord
  2
*D32
 70
    0
280
    1
281
    0
  0
BLOCK_RECORD
  5
6E
330
1
100
AcDbSymbolTableRecord
100
AcDbBlockTableRecord
  2
*D9
 70
    0
280
    1
281
    0
  0
BLOCK_RECORD
  5
71
330
1
100
AcDbSymbolTableRecord
100
AcDbBlockTableRecord
  2
*D52
 70
    0
280
    1
281
    0
  0
BLOCK_RECORD
  5
74
330
1
100
AcDbSymbolTableRecord
100
AcDbBlockTableRecord
  2
*D39
 70
    0
280
    1
281
    0
  0
BLOCK_RECORD
  5
77
330
1
100
AcDbSymbolTableRecord
100
AcDbBlockTableRecord
  2
*D44
 70
    0
280
    1
281
    0
  0
BLOCK_RECORD
  5
7A
330
1
100
AcDbSymbolTableRecord
100
AcDbBlockTableRecord
  2
*D3
 70
    0
280
    1
281
    0
  0
BLOCK_RECORD
  5
7D
330
1
100
AcDbSymbolTableRecord
100
AcDbBlockTableRecord
  2
*D21
 70
    0
280
    1
281
    0
  0
BLOCK_RECORD
  5
80
330
1
100
AcDbSymbolTableRecord
100
AcDbBlockTableRecord
  2
*D20
 70
    0
280
    1
281
    0
  0
BLOCK_RECORD
  5
83
330
1
100
AcDbSymbolTableRecord
100
AcDbBlockTableRecord
  2
*D47
 70
    0
280
    1
281
    0
  0
BLOCK_RECORD
  5
86
330
1
100
AcDbSymbolTableRecord
100
AcDbBlockTableRecord
  2
*D10
 70
    0
280
    1
281
    0
  0
BLOCK_RECORD
  5
89
330
1
100
AcDbSymbolTableRecord
100
AcDbBlockTableRecord
  2
*D42
 70
    0
280
    1
281
    0
  0
BLOCK_RECORD
  5
8C
330
1
100
AcDbSymbolTableRecord
100
AcDbBlockTableRecord
  2
*D29
 70
    0
280
    1
281
    0
  0
BLOCK_RECORD
  5
8F
330
1
100
AcDbSymbolTableRecord
100
AcDbBlockTableRecord
  2
*D1
 70
    0
280
    1
281
    0
  0
BLOCK_RECORD
  5
92
330
1
100
AcDbSymbolTableRecord
100
AcDbBlockTableRecord
  2
*D25
 70
    0
280
    1
281
    0
  0
BLOCK_RECORD
  5
95
330
1
100
AcDbSymbolTableRecord
100
AcDbBlockTableRecord
  2
*D34
 70
    0
280
    1
281
    0
  0
BLOCK_RECORD
  5
98
330
1
100
AcDbSymbolTableRecord
100
AcDbBlockTableRecord
  2
*D15
 70
    0
280
    1
281
    0
  0
BLOCK_RECORD
  5
9B
330
1
100
AcDbSymbolTableRecord
100
AcDbBlockTableRecord
  2
*D49
 70
    0
280
    1
281
    0
  0
BLOCK_RECORD
  5
9E
330
1
100
AcDbSymbolTableRecord
100
AcDbBlockTableRecord
  2
*D13
 70
    0
280
    1
281
    0
  0
BLOCK_RECORD
  5
A1
330
1
100
AcDbSymbolTableRecord
100
AcDbBlockTableRecord
  2
*D23
 70
    0
280
    1
281
    0
  0
BLOCK_RECORD
  5
A4
330
1
100
AcDbSymbolTableRecord
100
AcDbBlockTableRecord
  2
*D48
 70
    0
280
    1
281
    0
  0
BLOCK_RECORD
  5
A7
330
1
100
AcDbSymbolTableRecord
100
AcDbBlockTableRecord
  2
*D54
 70
    0
280
    1
281
    0
  0
BLOCK_RECORD
  5
AA
330
1
100
AcDbSymbolTableRecord
100
AcDbBlockTableRecord
  2
*D7
 70
    0
280
    1
281
    0
  0
BLOCK_RECORD
  5
AD
330
1
100
AcDbSymbolTableRecord
100
AcDbBlockTableRecord
  2
*D4
 70
    0
280
    1
281
    0
  0
BLOCK_RECORD
  5
B0
330
1
100
AcDbSymbolTableRecord
100
AcDbBlockTableRecord
  2
*D33
 70
    0
280
    1
281
    0
  0
BLOCK_RECORD
  5
B3
330
1
100
AcDbSymbolTableRecord
100
AcDbBlockTableRecord
  2
*D19
 70
    0
280
    1
281
    0
  0
BLOCK_RECORD
  5
B6
330
1
100
AcDbSymbolTableRecord
100
AcDbBlockTableRecord
  2
*D18
 70
    0
280
    1
281
    0
  0
BLOCK_RECORD
  5
B9
330
1
100
AcDbSymbolTableRecord
100
AcDbBlockTableRecord
  2
*D36
 70
    0
280
    1
281
    0
  0
BLOCK_RECORD
  5
BC
330
1
100
AcDbSymbolTableRecord
100
AcDbBlockTableRecord
  2
*D26
 70
    0
280
    1
281
    0
  0
BLOCK_RECORD
  5
BF
330
1
100
AcDbSymbolTableRecord
100
AcDbBlockTableRecord
  2
*D17
 70
    0
280
    1
281
    0
  0
BLOCK_RECORD
  5
C2
330
1
100
AcDbSymbolTableRecord
100
AcDbBlockTableRecord
  2
*D14
 70
    0
280
    1
281
    0
  0
BLOCK_RECORD
  5
C5
330
1
100
AcDbSymbolTableRecord
100
AcDbBlockTableRecord
  2
*D8
 70
    0
280
    1
281
    0
  0
BLOCK_RECORD
  5
C8
330
1
100
AcDbSymbolTableRecord
100
AcDbBlockTableRecord
  2
*D45
 70
    0
280
    1
281
    0
  0
BLOCK_RECORD
  5
CB
330
1
100
AcDbSymbolTableRecord
100
AcDbBlockTableRecord
  2
*D11
 70
    0
280
    1
281
    0
  0
BLOCK_RECORD
  5
CE
330
1
100
AcDbSymbolTableRecord
100
AcDbBlockTableRecord
  2
*D41
 70
    0
280
    1
281
    0
  0
BLOCK_RECORD
  5
D1
330
1
100
AcDbSymbolTableRecord
100
AcDbBlockTableRecord
  2
*D38
 70
    0
280
    1
281
    0
  0
BLOCK_RECORD
  5
D4
330
1
100
AcDbSymbolTableRecord
100
AcDbBlockTableRecord
  2
*D28
 70
    0
280
    1
281
    0
  0
BLOCK_RECORD
  5
D7
330
1
100
AcDbSymbolTableRecord
100
AcDbBlockTableRecord
  2
*D22
 70
    0
280
    1
281
    0
  0
BLOCK_RECORD
  5
DA
330
1
100
AcDbSymbolTableRecord
100
AcDbBlockTableRecord
  2
*D43
 70
    0
280
    1
281
    0
  0
BLOCK_RECORD
  5
DD
330
1
100
AcDbSymbolTableRecord
100
AcDbBlockTableRecord
  2
*D30
 70
    0
280
    1
281
    0
  0
BLOCK_RECORD
  5
E0
330
1
100
AcDbSymbolTableRecord
100
AcDbBlockTableRecord
  2
*D24
 70
    0
280
    1
281
    0
  0
BLOCK_RECORD
  5
E3
330
1
100
AcDbSymbolTableRecord
100
AcDbBlockTableRecord
  2
*D6
 70
    0
280
    1
281
    0
  0
BLOCK_RECORD
  5
E6
330
1
100
AcDbSymbolTableRecord
100
AcDbBlockTableRecord
  2
*D50
 70
    0
280
    1
281
    0
  0
BLOCK_RECORD
  5
E9
330
1
100
AcDbSymbolTableRecord
100
AcDbBlockTableRecord
  2
*D35
 70
    0
280
    1
281
    0
  0
BLOCK_RECORD
  5
EC
330
1
100
AcDbSymbolTableRecord
100
AcDbBlockTableRecord
  2
*D40
 70
    0
280
    1
281
    0
  0
BLOCK_RECORD
  5
EF
330
1
100
AcDbSymbolTableRecord
100
AcDbBlockTableRecord
  2
*D27
 70
    0
280
    1
281
    0
  0
BLOCK_RECORD
  5
F2
330
1
100
AcDbSymbolTableRecord
100
AcDbBlockTableRecord
  2
*D2
 70
    0
280
    1
281
    0
  0
BLOCK_RECORD
  5
F5
330
1
100
AcDbSymbolTableRecord
100
AcDbBlockTableRecord
  2
*D12
 70
    0
280
    1
281
    0
  0
ENDTAB
  0
ENDSEC
  0
SECTION
  2
BLOCKS
  0
BLOCK
  5
20
330
1F
100
AcDbEntity
  8
0
100
AcDbBlockBegin
  2
*Model_Space
 70
    0
 10
0
 20
0
 30
0
  3
*Model_Space
  1

  0
ENDBLK
  5
21
330
1F
100
AcDbEntity
  8
0
100
AcDbBlockEnd
  0
BLOCK
  5
1C
330
1B
100
AcDbEntity
  8
0
100
AcDbBlockBegin
  2
*Paper_Space
 70
    0
 10
0
 20
0
 30
0
  3
*Paper_Space
  1

  0
ENDBLK
  5
1D
330
1F
100
AcDbEntity
  8
0
100
AcDbBlockEnd
  0
BLOCK
  5
54
330
53
100
AcDbEntity
  8
0
100
AcDbBlockBegin
  2
*D31
 70
    1
 10
0
 20
0
  3
*D31
  1

  0
LINE
  5
F8
100
AcDbEntity
  8
Cotas
  6
ByLayer
 62
  256
370
   -1
100
AcDbLine
 10
224.0930245872322
 20
141.9219891059512
 11
200.22327004115
 21
154.956131390983
  0
LINE
  5
F9
100
AcDbEntity
  8
Cotas
  6
ByLayer
 62
  256
370
   -1
100
AcDbLine
 10
200.22327004115
 20
154.956131390983
 11
178.5497697275466
 21
154.956131390983
  0
SOLID
  5
FA
100
AcDbEntity
  8
Cotas
  6
ByLayer
 62
  256
370
   -1
100
AcDbTrace
 10
224.0930245872322
 20
141.9219891059512
 30
0
 11
224.0930245872322
 21
141.9219891059512
 31
0
 12
224.0930245872322
 22
141.9219891059512
 32
0
 13
224.0930245872322
 23
141.9219891059512
 33
0
  0
ENDBLK
  5
55
330
53
100
AcDbEntity
  8
0
100
AcDbBlockEnd
  0
BLOCK
  5
57
330
56
100
AcDbEntity
  8
0
100
AcDbBlockBegin
  2
*D37
 70
    1
 10
0
 20
0
  3
*D37
  1

  0
LINE
  5
FB
100
AcDbEntity
  8
Cotas
  6
ByLayer
 62
  256
370
   -1
100
AcDbLine
 10
335.295697560673
 20
117.9999999999999
 11
335.295697560673
 21
117.9999999999999
  0
LINE
  5
FC
100
AcDbEntity
  8
Cotas
  6
ByLayer
 62
  256
370
   -1
100
AcDbLine
 10
335.295697560673
 20
147.2177887366385
 11
335.295697560673
 21
147.2177887366385
  0
LINE
  5
FD
100
AcDbEntity
  8
Cotas
  6
ByLayer
 62
  256
370
   -1
100
AcDbLine
 10
335.295697560673
 20
117.9999999999999
 11
335.295697560673
 21
147.2177887366385
  0
MTEXT
  5
FE
100
AcDbEntity
  8
Cotas
  6
ByLayer
 62
  256
370
   -1
100
AcDbMText
 10
330.545697560673
 20
132.6088943683192
 30
0
 40
3.5
 41
10.66666727777778
 71
    5
 72
    1
  1
29.5
  7
romans
210
0
220
0
230
1
 50
90
 73
    2
 44
1
  0
LINE
  5
FF
100
AcDbEntity
  8
Cotas
  6
ByLayer
 62
  256
370
   -1
100
AcDbLine
 10
331.7601636547403
 20
121.5355339059326
 11
338.8312314666057
 21
114.4644660940672
  0
LINE
  5
100
100
AcDbEntity
  8
Cotas
  6
ByLayer
 62
  256
370
   -1
100
AcDbLine
 10
331.7601636547403
 20
150.7533226425712
 11
338.8312314666057
 21
143.6822548307057
  0
ENDBLK
  5
58
330
56
100
AcDbEntity
  8
0
100
AcDbBlockEnd
  0
BLOCK
  5
5A
330
59
100
AcDbEntity
  8
0
100
AcDbBlockBegin
  2
*D46
 70
    1
 10
0
 20
0
  3
*D46
  1

  0
LINE
  5
101
100
AcDbEntity
  8
Cotas
  6
ByLayer
 62
  256
370
   -1
100
AcDbLine
 10
335.295697560673
 20
-7.993605777301127e-014
 11
335.295697560673
 21
-7.993605777301127e-014
  0
LINE
  5
102
100
AcDbEntity
  8
Cotas
  6
ByLayer
 62
  256
370
   -1
100
AcDbLine
 10
335.295697560673
 20
29.21778873663851
 11
335.295697560673
 21
29.21778873663851
  0
LINE
  5
103
100
AcDbEntity
  8
Cotas
  6
ByLayer
 62
  256
370
   -1
100
AcDbLine
 10
335.295697560673
 20
-7.993605777301127e-014
 11
335.295697560673
 21
29.21778873663851
  0
MTEXT
  5
104
100
AcDbEntity
  8
Cotas
  6
ByLayer
 62
  256
370
   -1
100
AcDbMText
 10
330.545697560673
 20
14.60889436831921
 30
0
 40
3.5
 41
10.66666727777778
 71
    5
 72
    1
  1
29.5
  7
romans
210
0
220
0
230
1
 50
90
 73
    2
 44
1
  0
LINE
  5
105
100
AcDbEntity
  8
Cotas
  6
ByLayer
 62
  256
370
   -1
100
AcDbLine
 10
331.7601636547403
 20
3.535533905932659
 11
338.8312314666057
 21
-3.535533905932819
  0
LINE
  5
106
100
AcDbEntity
  8
Cotas
  6
ByLayer
 62
  256
370
   -1
100
AcDbLine
 10
331.7601636547403
 20
32.75332264257125
 11
338.8312314666057
 21
25.68225483070577
  0
ENDBLK
  5
5B
330
59
100
AcDbEntity
  8
0
100
AcDbBlockEnd
  0
BLOCK
  5
5D
330
5C
100
AcDbEntity
  8
0
100
AcDbBlockBegin
  2
*D16
 70
    1
 10
0
 20
0
  3
*D16
  1

  0
LINE
  5
107
100
AcDbEntity
  8
Cotas
  6
ByLayer
 62
  256
370
   -1
100
AcDbLine
 10
167.3072542402234
 20
147.4999999999999
 11
167.3072542402234
 21
147.4999999999999
  0
LINE
  5
108
100
AcDbEntity
  8
Cotas
  6
ByLayer
 62
  256
370
   -1
100
AcDbLine
 10
167.3072542402234
 20
232.9999999999999
 11
167.3072542402234
 21
232.9999999999999
  0
LINE
  5
109
100
AcDbEntity
  8
Cotas
  6
ByLayer
 62
  256
370
   -1
100
AcDbLine
 10
167.3072542402234
 20
147.4999999999999
 11
167.3072542402234
 21
232.9999999999999
  0
MTEXT
  5
10A
100
AcDbEntity
  8
Cotas
  6
ByLayer
 62
  256
370
   -1
100
AcDbMText
 10
162.5572542402234
 20
190.2499999999999
 30
0
 40
3.5
 41
14.33333338888889
 71
    5
 72
    1
  1
85.50
  7
romans
210
0
220
0
230
1
 50
90
 73
    2
 44
1
  0
LINE
  5
10B
100
AcDbEntity
  8
Cotas
  6
ByLayer
 62
  256
370
   -1
100
AcDbLine
 10
163.7717203342906
 20
151.0355339059326
 11
170.8427881461561
 21
143.9644660940671
  0
LINE
  5
10C
100
AcDbEntity
  8
Cotas
  6
ByLayer
 62
  256
370
   -1
100
AcDbLine
 10
163.7717203342906
 20
236.5355339059326
 11
170.8427881461561
 21
229.4644660940671
  0
ENDBLK
  5
5E
330
5C
100
AcDbEntity
  8
0
100
AcDbBlockEnd
  0
BLOCK
  5
60
330
5F
100
AcDbEntity
  8
0
100
AcDbBlockBegin
  2
*D53
 70
    1
 10
0
 20
0
  3
*D53
  1

  0
LINE
  5
10D
100
AcDbEntity
  8
Cotas1
  6
ByBlock
 62
    0
370
   -2
100
AcDbLine
 10
203.0077690559996
 20
-16.1815141853826
 11
300.5077690559996
 21
-16.1815141853826
  0
MTEXT
  5
10E
100
AcDbEntity
  8
Cotas1
  6
CONTINUOUS
 62
    0
370
   -2
100
AcDbMText
 10
251.7577690559996
 20
-11.4315141853826
 30
0
 40
3.5
 41
14.16666727777778
 71
    5
 72
    1
  1
97.50
  7
romans
210
0
220
0
230
1
 50
0
 73
    2
 44
1
  0
LINE
  5
10F
100
AcDbEntity
  8
Cotas1
  6
ByBlock
 62
    0
370
   -2
100
AcDbLine
 10
206.5433029619323
 20
-12.64598027944986
 11
199.4722351500669
 21
-19.71704809131533
  0
LINE
  5
110
100
AcDbEntity
  8
Cotas1
  6
ByBlock
 62
    0
370
   -2
100
AcDbLine
 10
304.0433029619323
 20
-12.64598027944986
 11
296.9722351500668
 21
-19.71704809131533
  0
LINE
  5
111
100
AcDbEntity
  8
Cotas1
  6
ByBlock
 62
    0
370
   -2
100
AcDbLine
 10
203.0077690559996
 20
-16.1815141853826
 11
203.0077690559996
 21
-16.1815141853826
  0
LINE
  5
112
100
AcDbEntity
  8
Cotas1
  6
ByBlock
 62
    0
370
   -2
100
AcDbLine
 10
300.5077690559996
 20
-16.1815141853826
 11
300.5077690559996
 21
-16.1815141853826
  0
ENDBLK
  5
61
330
5F
100
AcDbEntity
  8
0
100
AcDbBlockEnd
  0
BLOCK
  5
63
330
62
100
AcDbEntity
  8
0
100
AcDbBlockBegin
  2
*D5
 70
    1
 10
0
 20
0
  3
*D5
  1

  0
LINE
  5
113
100
AcDbEntity
  8
Cotas
  6
CONTINUOUS
 62
    7
370
    0
100
AcDbLine
 10
224.0930245872322
 20
141.9219891059512
 11
200.22327004115
 21
154.956131390983
  0
LINE
  5
114
100
AcDbEntity
  8
Cotas
  6
CONTINUOUS
 62
    7
370
    0
100
AcDbLine
 10
200.22327004115
 20
154.956131390983
 11
178.5497697275466
 21
154.956131390983
  0
SOLID
  5
115
100
AcDbEntity
  8
Cotas
  6
CONTINUOUS
 62
    7
370
    0
100
AcDbTrace
 10
224.0930245872322
 20
141.9219891059512
 30
0
 11
224.0930245872322
 21
141.9219891059512
 31
0
 12
224.0930245872322
 22
141.9219891059512
 32
0
 13
224.0930245872322
 23
141.9219891059512
 33
0
  0
ENDBLK
  5
64
330
62
100
AcDbEntity
  8
0
100
AcDbBlockEnd
  0
BLOCK
  5
66
330
65
100
AcDbEntity
  8
0
100
AcDbBlockBegin
  2
*D51
 70
    1
 10
0
 20
0
  3
*D51
  1

  0
LINE
  5
116
100
AcDbEntity
  8
Cotas
  6
ByLayer
 62
  256
370
   -1
100
AcDbLine
 10
203.0077690559996
 20
-16.27567343841605
 11
203.0077690559996
 21
-16.27567343841605
  0
LINE
  5
117
100
AcDbEntity
  8
Cotas
  6
ByLayer
 62
  256
370
   -1
100
AcDbLine
 10
300.5077690559996
 20
-16.27567343841605
 11
300.5077690559996
 21
-16.27567343841605
  0
LINE
  5
118
100
AcDbEntity
  8
Cotas
  6
ByLayer
 62
  256
370
   -1
100
AcDbLine
 10
203.0077690559996
 20
-16.27567343841605
 11
300.5077690559996
 21
-16.27567343841605
  0
MTEXT
  5
119
100
AcDbEntity
  8
Cotas
  6
ByLayer
 62
  256
370
   -1
100
AcDbMText
 10
251.7577690559996
 20
-11.52567343841605
 30
0
 40
3.5
 41
14.16666727777778
 71
    5
 72
    1
  1
97.50
  7
romans
210
0
220
0
230
1
 50
0
 73
    2
 44
1
  0
LINE
  5
11A
100
AcDbEntity
  8
Cotas
  6
ByLayer
 62
  256
370
   -1
100
AcDbLine
 10
206.5433029619323
 20
-12.74013953248331
 11
199.4722351500669
 21
-19.81120734434879
  0
LINE
  5
11B
100
AcDbEntity
  8
Cotas
  6
ByLayer
 62
  256
370
   -1
100
AcDbLine
 10
304.0433029619323
 20
-12.74013953248331
 11
296.9722351500668
 21
-19.81120734434879
  0
ENDBLK
  5
67
330
65
100
AcDbEntity
  8
0
100
AcDbBlockEnd
  0
BLOCK
  5
69
330
68
100
AcDbEntity
  8
0
100
AcDbBlockBegin
  2
*D55
 70
    1
 10
0
 20
0
  3
*D55
  1

  0
LINE
  5
11C
100
AcDbEntity
  8
Cotas1
  6
ByBlock
 62
    0
370
   -2
100
AcDbLine
 10
167.4929128772547
 20
147.4999999999999
 11
167.4929128772547
 21
232.9999999999999
  0
MTEXT
  5
11D
100
AcDbEntity
  8
Cotas1
  6
CONTINUOUS
 62
    0
370
   -2
100
AcDbMText
 10
162.7429128772547
 20
190.2499999999999
 30
0
 40
3.5
 41
14.33333338888889
 71
    5
 72
    1
  1
85.50
  7
romans
210
0
220
0
230
1
 50
90
 73
    2
 44
1
  0
LINE
  5
11E
100
AcDbEntity
  8
Cotas1
  6
ByBlock
 62
    0
370
   -2
100
AcDbLine
 10
163.957378971322
 20
151.0355339059326
 11
171.0284467831875
 21
143.9644660940671
  0
LINE
  5
11F
100
AcDbEntity
  8
Cotas1
  6
ByBlock
 62
    0
370
   -2
100
AcDbLine
 10
163.957378971322
 20
236.5355339059326
 11
171.0284467831875
 21
229.4644660940671
  0
LINE
  5
120
100
AcDbEntity
  8
Cotas1
  6
ByBlock
 62
    0
370
   -2
100
AcDbLine
 10
167.4929128772547
 20
147.4999999999999
 11
167.4929128772547
 21
147.4999999999999
  0
LINE
  5
121
100
AcDbEntity
  8
Cotas1
  6
ByBlock
 62
    0
370
   -2
100
AcDbLine
 10
167.4929128772547
 20
232.9999999999999
 11
167.4929128772547
 21
232.9999999999999
  0
ENDBLK
  5
6A
330
68
100
AcDbEntity
  8
0
100
AcDbBlockEnd
  0
BLOCK
  5
6C
330
6B
100
AcDbEntity
  8
0
100
AcDbBlockBegin
  2
*D32
 70
    1
 10
0
 20
0
  3
*D32
  1

  0
LINE
  5
122
100
AcDbEntity
  8
Cotas
  6
ByLayer
 62
  256
370
   -1
100
AcDbLine
 10
355.3784485370998
 20
-8.072403144418141e-014
 11
355.3784485370998
 21
-8.072403144418141e-014
  0
LINE
  5
123
100
AcDbEntity
  8
Cotas
  6
ByLayer
 62
  256
370
   -1
100
AcDbLine
 10
355.3784485370998
 20
232.9999999999999
 11
355.3784485370998
 21
232.9999999999999
  0
LINE
  5
124
100
AcDbEntity
  8
Cotas
  6
ByLayer
 62
  256
370
   -1
100
AcDbLine
 10
355.3784485370998
 20
-8.072403144418141e-014
 11
355.3784485370998
 21
232.9999999999999
  0
MTEXT
  5
125
100
AcDbEntity
  8
Cotas
  6
ByLayer
 62
  256
370
   -1
100
AcDbMText
 10
350.6284485370998
 20
116.4999999999999
 30
0
 40
3.5
 41
17.83333338888889
 71
    5
 72
    1
  1
233.00
  7
romans
210
0
220
0
230
1
 50
90
 73
    2
 44
1
  0
LINE
  5
126
100
AcDbEntity
  8
Cotas
  6
ByLayer
 62
  256
370
   -1
100
AcDbLine
 10
351.842914631167
 20
3.535533905932658
 11
358.9139824430325
 21
-3.535533905932819
  0
LINE
  5
127
100
AcDbEntity
  8
Cotas
  6
ByLayer
 62
  256
370
   -1
100
AcDbLine
 10
351.842914631167
 20
236.5355339059326
 11
358.9139824430325
 21
229.4644660940671
  0
ENDBLK
  5
6D
330
6B
100
AcDbEntity
  8
0
100
AcDbBlockEnd
  0
BLOCK
  5
6F
330
6E
100
AcDbEntity
  8
0
100
AcDbBlockBegin
  2
*D9
 70
    1
 10
0
 20
0
  3
*D9
  1

  0
LINE
  5
128
100
AcDbEntity
  8
Cotas
  6
ByBlock
 62
    0
370
   -2
100
AcDbLine
 10
335.295697560673
 20
58.99999999999992
 11
335.295697560673
 21
58.99999999999992
  0
LINE
  5
129
100
AcDbEntity
  8
Cotas
  6
ByBlock
 62
    0
370
   -2
100
AcDbLine
 10
335.295697560673
 20
88.21778873663852
 11
335.295697560673
 21
88.21778873663852
  0
LINE
  5
12A
100
AcDbEntity
  8
Cotas
  6
ByBlock
 62
    0
370
   -2
100
AcDbLine
 10
335.295697560673
 20
58.99999999999992
 11
335.295697560673
 21
88.21778873663852
  0
MTEXT
  5
12B
100
AcDbEntity
  8
Cotas
  6
CONTINUOUS
 62
    0
370
   -2
100
AcDbMText
 10
330.545697560673
 20
73.60889436831923
 30
0
 40
3.5
 41
10.66666727777778
 71
    5
 72
    1
  1
29.5
  7
romans
210
0
220
0
230
1
 50
90
 73
    2
 44
1
  0
LINE
  5
12C
100
AcDbEntity
  8
Cotas
  6
ByBlock
 62
    0
370
   -2
100
AcDbLine
 10
331.7601636547403
 20
62.53553390593266
 11
338.8312314666057
 21
55.46446609406718
  0
LINE
  5
12D
100
AcDbEntity
  8
Cotas
  6
ByBlock
 62
    0
370
   -2
100
AcDbLine
 10
331.7601636547403
 20
91.75332264257126
 11
338.8312314666057
 21
84.68225483070579
  0
ENDBLK
  5
70
330
6E
100
AcDbEntity
  8
0
100
AcDbBlockEnd
  0
BLOCK
  5
72
330
71
100
AcDbEntity
  8
0
100
AcDbBlockBegin
  2
*D52
 70
    1
 10
0
 20
0
  3
*D52
  1

  0
LINE
  5
12E
100
AcDbEntity
  8
Cotas1
  6
ByBlock
 62
    0
370
   -2
100
AcDbLine
 10
207.508
 20
238.2069509173715
 11
296.008
 21
238.2069509173715
  0
MTEXT
  5
12F
100
AcDbEntity
  8
Cotas1
  6
CONTINUOUS
 62
    0
370
   -2
100
AcDbMText
 10
251.758
 20
242.9569509173715
 30
0
 40
3.5
 41
14.33333338888889
 71
    5
 72
    1
  1
88.50
  7
romans
210
0
220
0
230
1
 50
0
 73
    2
 44
1
  0
LINE
  5
130
100
AcDbEntity
  8
Cotas1
  6
ByBlock
 62
    0
370
   -2
100
AcDbLine
 10
211.0435339059327
 20
241.7424848233042
 11
203.9724660940673
 21
234.6714170114388
  0
LINE
  5
131
100
AcDbEntity
  8
Cotas1
  6
ByBlock
 62
    0
370
   -2
100
AcDbLine
 10
299.5435339059327
 20
241.7424848233042
 11
292.4724660940672
 21
234.6714170114388
  0
LINE
  5
132
100
AcDbEntity
  8
Cotas1
  6
ByBlock
 62
    0
370
   -2
100
AcDbLine
 10
207.508
 20
238.2069509173715
 11
207.508
 21
238.2069509173715
  0
LINE
  5
133
100
AcDbEntity
  8
Cotas1
  6
ByBlock
 62
    0
370
   -2
100
AcDbLine
 10
296.008
 20
238.2069509173715
 11
296.008
 21
238.2069509173715
  0
ENDBLK
  5
73
330
71
100
AcDbEntity
  8
0
100
AcDbBlockEnd
  0
BLOCK
  5
75
330
74
100
AcDbEntity
  8
0
100
AcDbBlockBegin
  2
*D39
 70
    1
 10
0
 20
0
  3
*D39
  1

  0
LINE
  5
134
100
AcDbEntity
  8
Cotas
  6
ByLayer
 62
  256
370
   -1
100
AcDbLine
 10
203.0077690559996
 20
-16.27567343841605
 11
203.0077690559996
 21
-16.27567343841605
  0
LINE
  5
135
100
AcDbEntity
  8
Cotas
  6
ByLayer
 62
  256
370
   -1
100
AcDbLine
 10
300.5077690559996
 20
-16.27567343841605
 11
300.5077690559996
 21
-16.27567343841605
  0
LINE
  5
136
100
AcDbEntity
  8
Cotas
  6
ByLayer
 62
  256
370
   -1
100
AcDbLine
 10
203.0077690559996
 20
-16.27567343841605
 11
300.5077690559996
 21
-16.27567343841605
  0
MTEXT
  5
137
100
AcDbEntity
  8
Cotas
  6
ByLayer
 62
  256
370
   -1
100
AcDbMText
 10
251.7577690559996
 20
-11.52567343841605
 30
0
 40
3.5
 41
14.16666727777778
 71
    5
 72
    1
  1
97.50
  7
romans
210
0
220
0
230
1
 50
0
 73
    2
 44
1
  0
LINE
  5
138
100
AcDbEntity
  8
Cotas
  6
ByLayer
 62
  256
370
   -1
100
AcDbLine
 10
206.5433029619323
 20
-12.74013953248331
 11
199.4722351500669
 21
-19.81120734434879
  0
LINE
  5
139
100
AcDbEntity
  8
Cotas
  6
ByLayer
 62
  256
370
   -1
100
AcDbLine
 10
304.0433029619323
 20
-12.74013953248331
 11
296.9722351500668
 21
-19.81120734434879
  0
ENDBLK
  5
76
330
74
100
AcDbEntity
  8
0
100
AcDbBlockEnd
  0
BLOCK
  5
78
330
77
100
AcDbEntity
  8
0
100
AcDbBlockBegin
  2
*D44
 70
    1
 10
0
 20
0
  3
*D44
  1

  0
LINE
  5
13A
100
AcDbEntity
  8
Cotas
  6
ByLayer
 62
  256
370
   -1
100
AcDbLine
 10
355.3784485370998
 20
-8.072403144418141e-014
 11
355.3784485370998
 21
-8.072403144418141e-014
  0
LINE
  5
13B
100
AcDbEntity
  8
Cotas
  6
ByLayer
 62
  256
370
   -1
100
AcDbLine
 10
355.3784485370998
 20
232.9999999999999
 11
355.3784485370998
 21
232.9999999999999
  0
LINE
  5
13C
100
AcDbEntity
  8
Cotas
  6
ByLayer
 62
  256
370
   -1
100
AcDbLine
 10
355.3784485370998
 20
-8.072403144418141e-014
 11
355.3784485370998
 21
232.9999999999999
  0
MTEXT
  5
13D
100
AcDbEntity
  8
Cotas
  6
ByLayer
 62
  256
370
   -1
100
AcDbMText
 10
350.6284485370998
 20
116.4999999999999
 30
0
 40
3.5
 41
17.83333338888889
 71
    5
 72
    1
  1
233.00
  7
romans
210
0
220
0
230
1
 50
90
 73
    2
 44
1
  0
LINE
  5
13E
100
AcDbEntity
  8
Cotas
  6
ByLayer
 62
  256
370
   -1
100
AcDbLine
 10
351.842914631167
 20
3.535533905932658
 11
358.9139824430325
 21
-3.535533905932819
  0
LINE
  5
13F
100
AcDbEntity
  8
Cotas
  6
ByLayer
 62
  256
370
   -1
100
AcDbLine
 10
351.842914631167
 20
236.5355339059326
 11
358.9139824430325
 21
229.4644660940671
  0
ENDBLK
  5
79
330
77
100
AcDbEntity
  8
0
100
AcDbBlockEnd
  0
BLOCK
  5
7B
330
7A
100
AcDbEntity
  8
0
100
AcDbBlockBegin
  2
*D3
 70
    1
 10
0
 20
0
  3
*D3
  1

  0
LINE
  5
140
100
AcDbEntity
  8
Cotas
  6
ByBlock
 62
    0
370
   -2
100
AcDbLine
 10
167.3072542402234
 20
147.4999999999999
 11
167.3072542402234
 21
147.4999999999999
  0
LINE
  5
141
100
AcDbEntity
  8
Cotas
  6
ByBlock
 62
    0
370
   -2
100
AcDbLine
 10
167.3072542402234
 20
232.9999999999999
 11
167.3072542402234
 21
232.9999999999999
  0
LINE
  5
142
100
AcDbEntity
  8
Cotas
  6
ByBlock
 62
    0
370
   -2
100
AcDbLine
 10
167.3072542402234
 20
147.4999999999999
 11
167.3072542402234
 21
232.9999999999999
  0
MTEXT
  5
143
100
AcDbEntity
  8
Cotas
  6
CONTINUOUS
 62
    0
370
   -2
100
AcDbMText
 10
162.5572542402234
 20
190.2499999999999
 30
0
 40
3.5
 41
14.33333338888889
 71
    5
 72
    1
  1
85.50
  7
romans
210
0
220
0
230
1
 50
90
 73
    2
 44
1
  0
LINE
  5
144
100
AcDbEntity
  8
Cotas
  6
ByBlock
 62
    0
370
   -2
100
AcDbLine
 10
163.7717203342906
 20
151.0355339059326
 11
170.8427881461561
 21
143.9644660940671
  0
LINE
  5
145
100
AcDbEntity
  8
Cotas
  6
ByBlock
 62
    0
370
   -2
100
AcDbLine
 10
163.7717203342906
 20
236.5355339059326
 11
170.8427881461561
 21
229.4644660940671
  0
ENDBLK
  5
7C
330
7A
100
AcDbEntity
  8
0
100
AcDbBlockEnd
  0
BLOCK
  5
7E
330
7D
100
AcDbEntity
  8
0
100
AcDbBlockBegin
  2
*D21
 70
    1
 10
0
 20
0
  3
*D21
  1

  0
LINE
  5
146
100
AcDbEntity
  8
Cotas
  6
ByLayer
 62
  256
370
   -1
100
AcDbLine
 10
335.295697560673
 20
-7.993605777301127e-014
 11
335.295697560673
 21
-7.993605777301127e-014
  0
LINE
  5
147
100
AcDbEntity
  8
Cotas
  6
ByLayer
 62
  256
370
   -1
100
AcDbLine
 10
335.295697560673
 20
29.21778873663851
 11
335.295697560673
 21
29.21778873663851
  0
LINE
  5
148
100
AcDbEntity
  8
Cotas
  6
ByLayer
 62
  256
370
   -1
100
AcDbLine
 10
335.295697560673
 20
-7.993605777301127e-014
 11
335.295697560673
 21
29.21778873663851
  0
MTEXT
  5
149
100
AcDbEntity
  8
Cotas
  6
ByLayer
 62
  256
370
   -1
100
AcDbMText
 10
330.545697560673
 20
14.60889436831921
 30
0
 40
3.5
 41
10.66666727777778
 71
    5
 72
    1
  1
29.5
  7
romans
210
0
220
0
230
1
 50
90
 73
    2
 44
1
  0
LINE
  5
14A
100
AcDbEntity
  8
Cotas
  6
ByLayer
 62
  256
370
   -1
100
AcDbLine
 10
331.7601636547403
 20
3.535533905932659
 11
338.8312314666057
 21
-3.535533905932819
  0
LINE
  5
14B
100
AcDbEntity
  8
Cotas
  6
ByLayer
 62
  256
370
   -1
100
AcDbLine
 10
331.7601636547403
 20
32.75332264257125
 11
338.8312314666057
 21
25.68225483070577
  0
ENDBLK
  5
7F
330
7D
100
AcDbEntity
  8
0
100
AcDbBlockEnd
  0
BLOCK
  5
81
330
80
100
AcDbEntity
  8
0
100
AcDbBlockBegin
  2
*D20
 70
    1
 10
0
 20
0
  3
*D20
  1

  0
LINE
  5
14C
100
AcDbEntity
  8
Cotas
  6
ByLayer
 62
  256
370
   -1
100
AcDbLine
 10
335.295697560673
 20
29.49999999999992
 11
335.295697560673
 21
29.49999999999992
  0
LINE
  5
14D
100
AcDbEntity
  8
Cotas
  6
ByLayer
 62
  256
370
   -1
100
AcDbLine
 10
335.295697560673
 20
58.71778873663851
 11
335.295697560673
 21
58.71778873663851
  0
LINE
  5
14E
100
AcDbEntity
  8
Cotas
  6
ByLayer
 62
  256
370
   -1
100
AcDbLine
 10
335.295697560673
 20
29.49999999999992
 11
335.295697560673
 21
58.71778873663851
  0
MTEXT
  5
14F
100
AcDbEntity
  8
Cotas
  6
ByLayer
 62
  256
370
   -1
100
AcDbMText
 10
330.545697560673
 20
44.10889436831921
 30
0
 40
3.5
 41
10.66666727777778
 71
    5
 72
    1
  1
29.5
  7
romans
210
0
220
0
230
1
 50
90
 73
    2
 44
1
  0
LINE
  5
150
100
AcDbEntity
  8
Cotas
  6
ByLayer
 62
  256
370
   -1
100
AcDbLine
 10
331.7601636547403
 20
33.03553390593266
 11
338.8312314666057
 21
25.96446609406718
  0
LINE
  5
151
100
AcDbEntity
  8
Cotas
  6
ByLayer
 62
  256
370
   -1
100
AcDbLine
 10
331.7601636547403
 20
62.25332264257125
 11
338.8312314666057
 21
55.18225483070577
  0
ENDBLK
  5
82
330
80
100
AcDbEntity
  8
0
100
AcDbBlockEnd
  0
BLOCK
  5
84
330
83
100
AcDbEntity
  8
0
100
AcDbBlockBegin
  2
*D47
 70
    1
 10
0
 20
0
  3
*D47
  1

  0
LINE
  5
152
100
AcDbEntity
  8
Cotas
  6
ByLayer
 62
  256
370
   -1
100
AcDbLine
 10
335.295697560673
 20
58.99999999999992
 11
335.295697560673
 21
58.99999999999992
  0
LINE
  5
153
100
AcDbEntity
  8
Cotas
  6
ByLayer
 62
  256
370
   -1
100
AcDbLine
 10
335.295697560673
 20
88.21778873663852
 11
335.295697560673
 21
88.21778873663852
  0
LINE
  5
154
100
AcDbEntity
  8
Cotas
  6
ByLayer
 62
  256
370
   -1
100
AcDbLine
 10
335.295697560673
 20
58.99999999999992
 11
335.295697560673
 21
88.21778873663852
  0
MTEXT
  5
155
100
AcDbEntity
  8
Cotas
  6
ByLayer
 62
  256
370
   -1
100
AcDbMText
 10
330.545697560673
 20
73.60889436831923
 30
0
 40
3.5
 41
10.66666727777778
 71
    5
 72
    1
  1
29.5
  7
romans
210
0
220
0
230
1
 50
90
 73
    2
 44
1
  0
LINE
  5
156
100
AcDbEntity
  8
Cotas
  6
ByLayer
 62
  256
370
   -1
100
AcDbLine
 10
331.7601636547403
 20
62.53553390593266
 11
338.8312314666057
 21
55.46446609406718
  0
LINE
  5
157
100
AcDbEntity
  8
Cotas
  6
ByLayer
 62
  256
370
   -1
100
AcDbLine
 10
331.7601636547403
 20
91.75332264257126
 11
338.8312314666057
 21
84.68225483070579
  0
ENDBLK
  5
85
330
83
100
AcDbEntity
  8
0
100
AcDbBlockEnd
  0
BLOCK
  5
87
330
86
100
AcDbEntity
  8
0
100
AcDbBlockBegin
  2
*D10
 70
    1
 10
0
 20
0
  3
*D10
  1

  0
LINE
  5
158
100
AcDbEntity
  8
Cotas
  6
ByBlock
 62
    0
370
   -2
100
AcDbLine
 10
335.295697560673
 20
88.49999999999993
 11
335.295697560673
 21
88.49999999999993
  0
LINE
  5
159
100
AcDbEntity
  8
Cotas
  6
ByBlock
 62
    0
370
   -2
100
AcDbLine
 10
335.295697560673
 20
117.7177887366385
 11
335.295697560673
 21
117.7177887366385
  0
LINE
  5
15A
100
AcDbEntity
  8
Cotas
  6
ByBlock
 62
    0
370
   -2
100
AcDbLine
 10
335.295697560673
 20
88.49999999999993
 11
335.295697560673
 21
117.7177887366385
  0
MTEXT
  5
15B
100
AcDbEntity
  8
Cotas
  6
CONTINUOUS
 62
    0
370
   -2
100
AcDbMText
 10
330.545697560673
 20
103.1088943683192
 30
0
 40
3.5
 41
10.66666727777778
 71
    5
 72
    1
  1
29.5
  7
romans
210
0
220
0
230
1
 50
90
 73
    2
 44
1
  0
LINE
  5
15C
100
AcDbEntity
  8
Cotas
  6
ByBlock
 62
    0
370
   -2
100
AcDbLine
 10
331.7601636547403
 20
92.03553390593267
 11
338.8312314666057
 21
84.96446609406719
  0
LINE
  5
15D
100
AcDbEntity
  8
Cotas
  6
ByBlock
 62
    0
370
   -2
100
AcDbLine
 10
331.7601636547403
 20
121.2533226425712
 11
338.8312314666057
 21
114.1822548307058
  0
ENDBLK
  5
88
330
86
100
AcDbEntity
  8
0
100
AcDbBlockEnd
  0
BLOCK
  5
8A
330
89
100
AcDbEntity
  8
0
100
AcDbBlockBegin
  2
*D42
 70
    1
 10
0
 20
0
  3
*D42
  1

  0
LINE
  5
15E
100
AcDbEntity
  8
Cotas
  6
ByLayer
 62
  256
370
   -1
100
AcDbLine
 10
167.3072542402234
 20
147.4999999999999
 11
167.3072542402234
 21
147.4999999999999
  0
LINE
  5
15F
100
AcDbEntity
  8
Cotas
  6
ByLayer
 62
  256
370
   -1
100
AcDbLine
 10
167.3072542402234
 20
232.9999999999999
 11
167.3072542402234
 21
232.9999999999999
  0
LINE
  5
160
100
AcDbEntity
  8
Cotas
  6
ByLayer
 62
  256
370
   -1
100
AcDbLine
 10
167.3072542402234
 20
147.4999999999999
 11
167.3072542402234
 21
232.9999999999999
  0
MTEXT
  5
161
100
AcDbEntity
  8
Cotas
  6
ByLayer
 62
  256
370
   -1
100
AcDbMText
 10
162.5572542402234
 20
190.2499999999999
 30
0
 40
3.5
 41
14.33333338888889
 71
    5
 72
    1
  1
85.50
  7
romans
210
0
220
0
230
1
 50
90
 73
    2
 44
1
  0
LINE
  5
162
100
AcDbEntity
  8
Cotas
  6
ByLayer
 62
  256
370
   -1
100
AcDbLine
 10
163.7717203342906
 20
151.0355339059326
 11
170.8427881461561
 21
143.9644660940671
  0
LINE
  5
163
100
AcDbEntity
  8
Cotas
  6
ByLayer
 62
  256
370
   -1
100
AcDbLine
 10
163.7717203342906
 20
236.5355339059326
 11
170.8427881461561
 21
229.4644660940671
  0
ENDBLK
  5
8B
330
89
100
AcDbEntity
  8
0
100
AcDbBlockEnd
  0
BLOCK
  5
8D
330
8C
100
AcDbEntity
  8
0
100
AcDbBlockBegin
  2
*D29
 70
    1
 10
0
 20
0
  3
*D29
  1

  0
LINE
  5
164
100
AcDbEntity
  8
Cotas
  6
ByLayer
 62
  256
370
   -1
100
AcDbLine
 10
167.3072542402234
 20
147.4999999999999
 11
167.3072542402234
 21
147.4999999999999
  0
LINE
  5
165
100
AcDbEntity
  8
Cotas
  6
ByLayer
 62
  256
370
   -1
100
AcDbLine
 10
167.3072542402234
 20
232.9999999999999
 11
167.3072542402234
 21
232.9999999999999
  0
LINE
  5
166
100
AcDbEntity
  8
Cotas
  6
ByLayer
 62
  256
370
   -1
100
AcDbLine
 10
167.3072542402234
 20
147.4999999999999
 11
167.3072542402234
 21
232.9999999999999
  0
MTEXT
  5
167
100
AcDbEntity
  8
Cotas
  6
ByLayer
 62
  256
370
   -1
100
AcDbMText
 10
162.5572542402234
 20
190.2499999999999
 30
0
 40
3.5
 41
14.33333338888889
 71
    5
 72
    1
  1
85.50
  7
romans
210
0
220
0
230
1
 50
90
 73
    2
 44
1
  0
LINE
  5
168
100
AcDbEntity
  8
Cotas
  6
ByLayer
 62
  256
370
   -1
100
AcDbLine
 10
163.7717203342906
 20
151.0355339059326
 11
170.8427881461561
 21
143.9644660940671
  0
LINE
  5
169
100
AcDbEntity
  8
Cotas
  6
ByLayer
 62
  256
370
   -1
100
AcDbLine
 10
163.7717203342906
 20
236.5355339059326
 11
170.8427881461561
 21
229.4644660940671
  0
ENDBLK
  5
8E
330
8C
100
AcDbEntity
  8
0
100
AcDbBlockEnd
  0
BLOCK
  5
90
330
8F
100
AcDbEntity
  8
0
100
AcDbBlockBegin
  2
*D1
 70
    1
 10
0
 20
0
  3
*D1
  1

  0
LINE
  5
16A
100
AcDbEntity
  8
Cotas
  6
ByBlock
 62
    0
370
   -2
100
AcDbLine
 10
181.2216891195894
 20
29.03999999999991
 11
181.2216891195894
 21
29.03999999999991
  0
LINE
  5
16B
100
AcDbEntity
  8
Cotas
  6
ByBlock
 62
    0
370
   -2
100
AcDbLine
 10
181.2216891195894
 20
145.6999999999999
 11
181.2216891195894
 21
145.6999999999999
  0
LINE
  5
16C
100
AcDbEntity
  8
Cotas
  6
ByBlock
 62
    0
370
   -2
100
AcDbLine
 10
181.2216891195894
 20
29.03999999999991
 11
181.2216891195894
 21
145.6999999999999
  0
MTEXT
  5
16D
100
AcDbEntity
  8
Cotas
  6
CONTINUOUS
 62
    0
370
   -2
100
AcDbMText
 10
176.4716891195894
 20
87.36999999999991
 30
0
 40
3.5
 41
28.29167288888889
 71
    5
 72
    1
  1
116.5 libres
  7
romans
210
0
220
0
230
1
 50
90
 73
    2
 44
1
  0
LINE
  5
16E
100
AcDbEntity
  8
Cotas
  6
ByBlock
 62
    0
370
   -2
100
AcDbLine
 10
177.6861552136567
 20
32.57553390593265
 11
184.7572230255221
 21
25.50446609406718
  0
LINE
  5
16F
100
AcDbEntity
  8
Cotas
  6
ByBlock
 62
    0
370
   -2
100
AcDbLine
 10
177.6861552136567
 20
149.2355339059326
 11
184.7572230255221
 21
142.1644660940672
  0
ENDBLK
  5
91
330
8F
100
AcDbEntity
  8
0
100
AcDbBlockEnd
  0
BLOCK
  5
93
330
92
100
AcDbEntity
  8
0
100
AcDbBlockBegin
  2
*D25
 70
    1
 10
0
 20
0
  3
*D25
  1

  0
LINE
  5
170
100
AcDbEntity
  8
Cotas
  6
ByLayer
 62
  256
370
   -1
100
AcDbLine
 10
207.508
 20
238.1992941039739
 11
207.508
 21
238.1992941039739
  0
LINE
  5
171
100
AcDbEntity
  8
Cotas
  6
ByLayer
 62
  256
370
   -1
100
AcDbLine
 10
296.008
 20
238.1992941039739
 11
296.008
 21
238.1992941039739
  0
LINE
  5
172
100
AcDbEntity
  8
Cotas
  6
ByLayer
 62
  256
370
   -1
100
AcDbLine
 10
207.508
 20
238.1992941039739
 11
296.008
 21
238.1992941039739
  0
MTEXT
  5
173
100
AcDbEntity
  8
Cotas
  6
ByLayer
 62
  256
370
   -1
100
AcDbMText
 10
251.758
 20
242.9492941039739
 30
0
 40
3.5
 41
14.33333338888889
 71
    5
 72
    1
  1
88.50
  7
romans
210
0
220
0
230
1
 50
0
 73
    2
 44
1
  0
LINE
  5
174
100
AcDbEntity
  8
Cotas
  6
ByLayer
 62
  256
370
   -1
100
AcDbLine
 10
211.0435339059327
 20
241.7348280099066
 11
203.9724660940673
 21
234.6637601980412
  0
LINE
  5
175
100
AcDbEntity
  8
Cotas
  6
ByLayer
 62
  256
370
   -1
100
AcDbLine
 10
299.5435339059327
 20
241.7348280099066
 11
292.4724660940672
 21
234.6637601980412
  0
ENDBLK
  5
94
330
92
100
AcDbEntity
  8
0
100
AcDbBlockEnd
  0
BLOCK
  5
96
330
95
100
AcDbEntity
  8
0
100
AcDbBlockBegin
  2
*D34
 70
    1
 10
0
 20
0
  3
*D34
  1

  0
LINE
  5
176
100
AcDbEntity
  8
Cotas
  6
ByLayer
 62
  256
370
   -1
100
AcDbLine
 10
335.295697560673
 20
-7.993605777301127e-014
 11
335.295697560673
 21
-7.993605777301127e-014
  0
LINE
  5
177
100
AcDbEntity
  8
Cotas
  6
ByLayer
 62
  256
370
   -1
100
AcDbLine
 10
335.295697560673
 20
29.21778873663851
 11
335.295697560673
 21
29.21778873663851
  0
LINE
  5
178
100
AcDbEntity
  8
Cotas
  6
ByLayer
 62
  256
370
   -1
100
AcDbLine
 10
335.295697560673
 20
-7.993605777301127e-014
 11
335.295697560673
 21
29.21778873663851
  0
MTEXT
  5
179
100
AcDbEntity
  8
Cotas
  6
ByLayer
 62
  256
370
   -1
100
AcDbMText
 10
330.545697560673
 20
14.60889436831921
 30
0
 40
3.5
 41
10.66666727777778
 71
    5
 72
    1
  1
29.5
  7
romans
210
0
220
0
230
1
 50
90
 73
    2
 44
1
  0
LINE
  5
17A
100
AcDbEntity
  8
Cotas
  6
ByLayer
 62
  256
370
   -1
100
AcDbLine
 10
331.7601636547403
 20
3.535533905932659
 11
338.8312314666057
 21
-3.535533905932819
  0
LINE
  5
17B
100
AcDbEntity
  8
Cotas
  6
ByLayer
 62
  256
370
   -1
100
AcDbLine
 10
331.7601636547403
 20
32.75332264257125
 11
338.8312314666057
 21
25.68225483070577
  0
ENDBLK
  5
97
330
95
100
AcDbEntity
  8
0
100
AcDbBlockEnd
  0
BLOCK
  5
99
330
98
100
AcDbEntity
  8
0
100
AcDbBlockBegin
  2
*D15
 70
    1
 10
0
 20
0
  3
*D15
  1

  0
LINE
  5
17C
100
AcDbEntity
  8
Cotas
  6
ByLayer
 62
  256
370
   -1
100
AcDbLine
 10
167.3492482668637
 20
-5.247665374817969e-014
 11
167.3492482668637
 21
-5.247665374817969e-014
  0
LINE
  5
17D
100
AcDbEntity
  8
Cotas
  6
ByLayer
 62
  256
370
   -1
100
AcDbLine
 10
167.3492482668637
 20
147.4999999999999
 11
167.3492482668637
 21
147.4999999999999
  0
LINE
  5
17E
100
AcDbEntity
  8
Cotas
  6
ByLayer
 62
  256
370
   -1
100
AcDbLine
 10
167.3492482668637
 20
-5.247665374817969e-014
 11
167.3492482668637
 21
147.4999999999999
  0
MTEXT
  5
17F
100
AcDbEntity
  8
Cotas
  6
ByLayer
 62
  256
370
   -1
100
AcDbMText
 10
162.5992482668637
 20
73.74999999999991
 30
0
 40
3.5
 41
16.50000061111111
 71
    5
 72
    1
  1
147.50
  7
romans
210
0
220
0
230
1
 50
90
 73
    2
 44
1
  0
LINE
  5
180
100
AcDbEntity
  8
Cotas
  6
ByLayer
 62
  256
370
   -1
100
AcDbLine
 10
163.813714360931
 20
3.535533905932686
 11
170.8847821727964
 21
-3.535533905932791
  0
LINE
  5
181
100
AcDbEntity
  8
Cotas
  6
ByLayer
 62
  256
370
   -1
100
AcDbLine
 10
163.813714360931
 20
151.0355339059326
 11
170.8847821727964
 21
143.9644660940671
  0
ENDBLK
  5
9A
330
98
100
AcDbEntity
  8
0
100
AcDbBlockEnd
  0
BLOCK
  5
9C
330
9B
100
AcDbEntity
  8
0
100
AcDbBlockBegin
  2
*D49
 70
    1
 10
0
 20
0
  3
*D49
  1

  0
LINE
  5
182
100
AcDbEntity
  8
Cotas
  6
ByLayer
 62
  256
370
   -1
100
AcDbLine
 10
335.295697560673
 20
117.9999999999999
 11
335.295697560673
 21
117.9999999999999
  0
LINE
  5
183
100
AcDbEntity
  8
Cotas
  6
ByLayer
 62
  256
370
   -1
100
AcDbLine
 10
335.295697560673
 20
147.2177887366385
 11
335.295697560673
 21
147.2177887366385
  0
LINE
  5
184
100
AcDbEntity
  8
Cotas
  6
ByLayer
 62
  256
370
   -1
100
AcDbLine
 10
335.295697560673
 20
117.9999999999999
 11
335.295697560673
 21
147.2177887366385
  0
MTEXT
  5
185
100
AcDbEntity
  8
Cotas
  6
ByLayer
 62
  256
370
   -1
100
AcDbMText
 10
330.545697560673
 20
132.6088943683192
 30
0
 40
3.5
 41
10.66666727777778
 71
    5
 72
    1
  1
29.5
  7
romans
210
0
220
0
230
1
 50
90
 73
    2
 44
1
  0
LINE
  5
186
100
AcDbEntity
  8
Cotas
  6
ByLayer
 62
  256
370
   -1
100
AcDbLine
 10
331.7601636547403
 20
121.5355339059326
 11
338.8312314666057
 21
114.4644660940672
  0
LINE
  5
187
100
AcDbEntity
  8
Cotas
  6
ByLayer
 62
  256
370
   -1
100
AcDbLine
 10
331.7601636547403
 20
150.7533226425712
 11
338.8312314666057
 21
143.6822548307057
  0
ENDBLK
  5
9D
330
9B
100
AcDbEntity
  8
0
100
AcDbBlockEnd
  0
BLOCK
  5
9F
330
9E
100
AcDbEntity
  8
0
100
AcDbBlockBegin
  2
*D13
 70
    1
 10
0
 20
0
  3
*D13
  1

  0
LINE
  5
188
100
AcDbEntity
  8
Cotas
  6
ByBlock
 62
    0
370
   -2
100
AcDbLine
 10
203.0077690559996
 20
-16.27567343841605
 11
203.0077690559996
 21
-16.27567343841605
  0
LINE
  5
189
100
AcDbEntity
  8
Cotas
  6
ByBlock
 62
    0
370
   -2
100
AcDbLine
 10
300.5077690559996
 20
-16.27567343841605
 11
300.5077690559996
 21
-16.27567343841605
  0
LINE
  5
18A
100
AcDbEntity
  8
Cotas
  6
ByBlock
 62
    0
370
   -2
100
AcDbLine
 10
203.0077690559996
 20
-16.27567343841605
 11
300.5077690559996
 21
-16.27567343841605
  0
MTEXT
  5
18B
100
AcDbEntity
  8
Cotas
  6
CONTINUOUS
 62
    0
370
   -2
100
AcDbMText
 10
251.7577690559996
 20
-11.52567343841605
 30
0
 40
3.5
 41
14.16666727777778
 71
    5
 72
    1
  1
97.50
  7
romans
210
0
220
0
230
1
 50
0
 73
    2
 44
1
  0
LINE
  5
18C
100
AcDbEntity
  8
Cotas
  6
ByBlock
 62
    0
370
   -2
100
AcDbLine
 10
206.5433029619323
 20
-12.74013953248331
 11
199.4722351500669
 21
-19.81120734434879
  0
LINE
  5
18D
100
AcDbEntity
  8
Cotas
  6
ByBlock
 62
    0
370
   -2
100
AcDbLine
 10
304.0433029619323
 20
-12.74013953248331
 11
296.9722351500668
 21
-19.81120734434879
  0
ENDBLK
  5
A0
330
9E
100
AcDbEntity
  8
0
100
AcDbBlockEnd
  0
BLOCK
  5
A2
330
A1
100
AcDbEntity
  8
0
100
AcDbBlockBegin
  2
*D23
 70
    1
 10
0
 20
0
  3
*D23
  1

  0
LINE
  5
18E
100
AcDbEntity
  8
Cotas
  6
ByLayer
 62
  256
370
   -1
100
AcDbLine
 10
335.295697560673
 20
88.49999999999993
 11
335.295697560673
 21
88.49999999999993
  0
LINE
  5
18F
100
AcDbEntity
  8
Cotas
  6
ByLayer
 62
  256
370
   -1
100
AcDbLine
 10
335.295697560673
 20
117.7177887366385
 11
335.295697560673
 21
117.7177887366385
  0
LINE
  5
190
100
AcDbEntity
  8
Cotas
  6
ByLayer
 62
  256
370
   -1
100
AcDbLine
 10
335.295697560673
 20
88.49999999999993
 11
335.295697560673
 21
117.7177887366385
  0
MTEXT
  5
191
100
AcDbEntity
  8
Cotas
  6
ByLayer
 62
  256
370
   -1
100
AcDbMText
 10
330.545697560673
 20
103.1088943683192
 30
0
 40
3.5
 41
10.66666727777778
 71
    5
 72
    1
  1
29.5
  7
romans
210
0
220
0
230
1
 50
90
 73
    2
 44
1
  0
LINE
  5
192
100
AcDbEntity
  8
Cotas
  6
ByLayer
 62
  256
370
   -1
100
AcDbLine
 10
331.7601636547403
 20
92.03553390593267
 11
338.8312314666057
 21
84.96446609406719
  0
LINE
  5
193
100
AcDbEntity
  8
Cotas
  6
ByLayer
 62
  256
370
   -1
100
AcDbLine
 10
331.7601636547403
 20
121.2533226425712
 11
338.8312314666057
 21
114.1822548307058
  0
ENDBLK
  5
A3
330
A1
100
AcDbEntity
  8
0
100
AcDbBlockEnd
  0
BLOCK
  5
A5
330
A4
100
AcDbEntity
  8
0
100
AcDbBlockBegin
  2
*D48
 70
    1
 10
0
 20
0
  3
*D48
  1

  0
LINE
  5
194
100
AcDbEntity
  8
Cotas
  6
ByLayer
 62
  256
370
   -1
100
AcDbLine
 10
335.295697560673
 20
88.49999999999993
 11
335.295697560673
 21
88.49999999999993
  0
LINE
  5
195
100
AcDbEntity
  8
Cotas
  6
ByLayer
 62
  256
370
   -1
100
AcDbLine
 10
335.295697560673
 20
117.7177887366385
 11
335.295697560673
 21
117.7177887366385
  0
LINE
  5
196
100
AcDbEntity
  8
Cotas
  6
ByLayer
 62
  256
370
   -1
100
AcDbLine
 10
335.295697560673
 20
88.49999999999993
 11
335.295697560673
 21
117.7177887366385
  0
MTEXT
  5
197
100
AcDbEntity
  8
Cotas
  6
ByLayer
 62
  256
370
   -1
100
AcDbMText
 10
330.545697560673
 20
103.1088943683192
 30
0
 40
3.5
 41
10.66666727777778
 71
    5
 72
    1
  1
29.5
  7
romans
210
0
220
0
230
1
 50
90
 73
    2
 44
1
  0
LINE
  5
198
100
AcDbEntity
  8
Cotas
  6
ByLayer
 62
  256
370
   -1
100
AcDbLine
 10
331.7601636547403
 20
92.03553390593267
 11
338.8312314666057
 21
84.96446609406719
  0
LINE
  5
199
100
AcDbEntity
  8
Cotas
  6
ByLayer
 62
  256
370
   -1
100
AcDbLine
 10
331.7601636547403
 20
121.2533226425712
 11
338.8312314666057
 21
114.1822548307058
  0
ENDBLK
  5
A6
330
A4
100
AcDbEntity
  8
0
100
AcDbBlockEnd
  0
BLOCK
  5
A8
330
A7
100
AcDbEntity
  8
0
100
AcDbBlockBegin
  2
*D54
 70
    1
 10
0
 20
0
  3
*D54
  1

  0
LINE
  5
19A
100
AcDbEntity
  8
Cotas1
  6
ByBlock
 62
    0
370
   -2
100
AcDbLine
 10
167.4002862450316
 20
-5.684341886080801e-014
 11
167.4002862450316
 21
147.4999999999999
  0
MTEXT
  5
19B
100
AcDbEntity
  8
Cotas1
  6
CONTINUOUS
 62
    0
370
   -2
100
AcDbMText
 10
162.6502862450316
 20
73.74999999999991
 30
0
 40
3.5
 41
16.50000061111111
 71
    5
 72
    1
  1
147.50
  7
romans
210
0
220
0
230
1
 50
90
 73
    2
 44
1
  0
LINE
  5
19C
100
AcDbEntity
  8
Cotas1
  6
ByBlock
 62
    0
370
   -2
100
AcDbLine
 10
163.8647523390989
 20
3.535533905932682
 11
170.9358201509644
 21
-3.535533905932795
  0
LINE
  5
19D
100
AcDbEntity
  8
Cotas1
  6
ByBlock
 62
    0
370
   -2
100
AcDbLine
 10
163.8647523390989
 20
151.0355339059326
 11
170.9358201509644
 21
143.9644660940671
  0
LINE
  5
19E
100
AcDbEntity
  8
Cotas1
  6
ByBlock
 62
    0
370
   -2
100
AcDbLine
 10
167.4002862450316
 20
-5.248290389141476e-014
 11
167.4002862450316
 21
-5.684341886080801e-014
  0
LINE
  5
19F
100
AcDbEntity
  8
Cotas1
  6
ByBlock
 62
    0
370
   -2
100
AcDbLine
 10
167.4002862450316
 20
147.4999999999999
 11
167.4002862450316
 21
147.4999999999999
  0
ENDBLK
  5
A9
330
A7
100
AcDbEntity
  8
0
100
AcDbBlockEnd
  0
BLOCK
  5
AB
330
AA
100
AcDbEntity
  8
0
100
AcDbBlockBegin
  2
*D7
 70
    1
 10
0
 20
0
  3
*D7
  1

  0
LINE
  5
1A0
100
AcDbEntity
  8
Cotas
  6
ByBlock
 62
    0
370
   -2
100
AcDbLine
 10
335.295697560673
 20
29.49999999999992
 11
335.295697560673
 21
29.49999999999992
  0
LINE
  5
1A1
100
AcDbEntity
  8
Cotas
  6
ByBlock
 62
    0
370
   -2
100
AcDbLine
 10
335.295697560673
 20
58.71778873663851
 11
335.295697560673
 21
58.71778873663851
  0
LINE
  5
1A2
100
AcDbEntity
  8
Cotas
  6
ByBlock
 62
    0
370
   -2
100
AcDbLine
 10
335.295697560673
 20
29.49999999999992
 11
335.295697560673
 21
58.71778873663851
  0
MTEXT
  5
1A3
100
AcDbEntity
  8
Cotas
  6
CONTINUOUS
 62
    0
370
   -2
100
AcDbMText
 10
330.545697560673
 20
44.10889436831921
 30
0
 40
3.5
 41
10.66666727777778
 71
    5
 72
    1
  1
29.5
  7
romans
210
0
220
0
230
1
 50
90
 73
    2
 44
1
  0
LINE
  5
1A4
100
AcDbEntity
  8
Cotas
  6
ByBlock
 62
    0
370
   -2
100
AcDbLine
 10
331.7601636547403
 20
33.03553390593266
 11
338.8312314666057
 21
25.96446609406718
  0
LINE
  5
1A5
100
AcDbEntity
  8
Cotas
  6
ByBlock
 62
    0
370
   -2
100
AcDbLine
 10
331.7601636547403
 20
62.25332264257125
 11
338.8312314666057
 21
55.18225483070577
  0
ENDBLK
  5
AC
330
AA
100
AcDbEntity
  8
0
100
AcDbBlockEnd
  0
BLOCK
  5
AE
330
AD
100
AcDbEntity
  8
0
100
AcDbBlockBegin
  2
*D4
 70
    1
 10
0
 20
0
  3
*D4
  1

  0
LINE
  5
1A6
100
AcDbEntity
  8
Cotas
  6
CONTINUOUS
 62
    7
370
    0
100
AcDbLine
 10
224.0930245872322
 20
204.9344058068241
 11
200.22327004115
 21
217.9685480918558
  0
LINE
  5
1A7
100
AcDbEntity
  8
Cotas
  6
CONTINUOUS
 62
    7
370
    0
100
AcDbLine
 10
200.22327004115
 20
217.9685480918558
 11
178.5497697275466
 21
217.9685480918558
  0
SOLID
  5
1A8
100
AcDbEntity
  8
Cotas
  6
CONTINUOUS
 62
    7
370
    0
100
AcDbTrace
 10
224.0930245872322
 20
204.9344058068241
 30
0
 11
224.0930245872322
 21
204.9344058068241
 31
0
 12
224.0930245872322
 22
204.9344058068241
 32
0
 13
224.0930245872322
 23
204.9344058068241
 33
0
  0
ENDBLK
  5
AF
330
AD
100
AcDbEntity
  8
0
100
AcDbBlockEnd
  0
BLOCK
  5
B1
330
B0
100
AcDbEntity
  8
0
100
AcDbBlockBegin
  2
*D33
 70
    1
 10
0
 20
0
  3
*D33
  1

  0
LINE
  5
1A9
100
AcDbEntity
  8
Cotas
  6
ByLayer
 62
  256
370
   -1
100
AcDbLine
 10
335.295697560673
 20
29.49999999999992
 11
335.295697560673
 21
29.49999999999992
  0
LINE
  5
1AA
100
AcDbEntity
  8
Cotas
  6
ByLayer
 62
  256
370
   -1
100
AcDbLine
 10
335.295697560673
 20
58.71778873663851
 11
335.295697560673
 21
58.71778873663851
  0
LINE
  5
1AB
100
AcDbEntity
  8
Cotas
  6
ByLayer
 62
  256
370
   -1
100
AcDbLine
 10
335.295697560673
 20
29.49999999999992
 11
335.295697560673
 21
58.71778873663851
  0
MTEXT
  5
1AC
100
AcDbEntity
  8
Cotas
  6
ByLayer
 62
  256
370
   -1
100
AcDbMText
 10
330.545697560673
 20
44.10889436831921
 30
0
 40
3.5
 41
10.66666727777778
 71
    5
 72
    1
  1
29.5
  7
romans
210
0
220
0
230
1
 50
90
 73
    2
 44
1
  0
LINE
  5
1AD
100
AcDbEntity
  8
Cotas
  6
ByLayer
 62
  256
370
   -1
100
AcDbLine
 10
331.7601636547403
 20
33.03553390593266
 11
338.8312314666057
 21
25.96446609406718
  0
LINE
  5
1AE
100
AcDbEntity
  8
Cotas
  6
ByLayer
 62
  256
370
   -1
100
AcDbLine
 10
331.7601636547403
 20
62.25332264257125
 11
338.8312314666057
 21
55.18225483070577
  0
ENDBLK
  5
B2
330
B0
100
AcDbEntity
  8
0
100
AcDbBlockEnd
  0
BLOCK
  5
B4
330
B3
100
AcDbEntity
  8
0
100
AcDbBlockBegin
  2
*D19
 70
    1
 10
0
 20
0
  3
*D19
  1

  0
LINE
  5
1AF
100
AcDbEntity
  8
Cotas
  6
ByLayer
 62
  256
370
   -1
100
AcDbLine
 10
355.3784485370998
 20
-8.072403144418141e-014
 11
355.3784485370998
 21
-8.072403144418141e-014
  0
LINE
  5
1B0
100
AcDbEntity
  8
Cotas
  6
ByLayer
 62
  256
370
   -1
100
AcDbLine
 10
355.3784485370998
 20
232.9999999999999
 11
355.3784485370998
 21
232.9999999999999
  0
LINE
  5
1B1
100
AcDbEntity
  8
Cotas
  6
ByLayer
 62
  256
370
   -1
100
AcDbLine
 10
355.3784485370998
 20
-8.072403144418141e-014
 11
355.3784485370998
 21
232.9999999999999
  0
MTEXT
  5
1B2
100
AcDbEntity
  8
Cotas
  6
ByLayer
 62
  256
370
   -1
100
AcDbMText
 10
350.6284485370998
 20
116.4999999999999
 30
0
 40
3.5
 41
17.83333338888889
 71
    5
 72
    1
  1
233.00
  7
romans
210
0
220
0
230
1
 50
90
 73
    2
 44
1
  0
LINE
  5
1B3
100
AcDbEntity
  8
Cotas
  6
ByLayer
 62
  256
370
   -1
100
AcDbLine
 10
351.842914631167
 20
3.535533905932658
 11
358.9139824430325
 21
-3.535533905932819
  0
LINE
  5
1B4
100
AcDbEntity
  8
Cotas
  6
ByLayer
 62
  256
370
   -1
100
AcDbLine
 10
351.842914631167
 20
236.5355339059326
 11
358.9139824430325
 21
229.4644660940671
  0
ENDBLK
  5
B5
330
B3
100
AcDbEntity
  8
0
100
AcDbBlockEnd
  0
BLOCK
  5
B7
330
B6
100
AcDbEntity
  8
0
100
AcDbBlockBegin
  2
*D18
 70
    1
 10
0
 20
0
  3
*D18
  1

  0
LINE
  5
1B5
100
AcDbEntity
  8
Cotas
  6
ByLayer
 62
  256
370
   -1
100
AcDbLine
 10
224.0930245872322
 20
141.9219891059512
 11
200.22327004115
 21
154.956131390983
  0
LINE
  5
1B6
100
AcDbEntity
  8
Cotas
  6
ByLayer
 62
  256
370
   -1
100
AcDbLine
 10
200.22327004115
 20
154.956131390983
 11
178.5497697275466
 21
154.956131390983
  0
SOLID
  5
1B7
100
AcDbEntity
  8
Cotas
  6
ByLayer
 62
  256
370
   -1
100
AcDbTrace
 10
224.0930245872322
 20
141.9219891059512
 30
0
 11
224.0930245872322
 21
141.9219891059512
 31
0
 12
224.0930245872322
 22
141.9219891059512
 32
0
 13
224.0930245872322
 23
141.9219891059512
 33
0
  0
ENDBLK
  5
B8
330
B6
100
AcDbEntity
  8
0
100
AcDbBlockEnd
  0
BLOCK
  5
BA
330
B9
100
AcDbEntity
  8
0
100
AcDbBlockBegin
  2
*D36
 70
    1
 10
0
 20
0
  3
*D36
  1

  0
LINE
  5
1B8
100
AcDbEntity
  8
Cotas
  6
ByLayer
 62
  256
370
   -1
100
AcDbLine
 10
335.295697560673
 20
88.49999999999993
 11
335.295697560673
 21
88.49999999999993
  0
LINE
  5
1B9
100
AcDbEntity
  8
Cotas
  6
ByLayer
 62
  256
370
   -1
100
AcDbLine
 10
335.295697560673
 20
117.7177887366385
 11
335.295697560673
 21
117.7177887366385
  0
LINE
  5
1BA
100
AcDbEntity
  8
Cotas
  6
ByLayer
 62
  256
370
   -1
100
AcDbLine
 10
335.295697560673
 20
88.49999999999993
 11
335.295697560673
 21
117.7177887366385
  0
MTEXT
  5
1BB
100
AcDbEntity
  8
Cotas
  6
ByLayer
 62
  256
370
   -1
100
AcDbMText
 10
330.545697560673
 20
103.1088943683192
 30
0
 40
3.5
 41
10.66666727777778
 71
    5
 72
    1
  1
29.5
  7
romans
210
0
220
0
230
1
 50
90
 73
    2
 44
1
  0
LINE
  5
1BC
100
AcDbEntity
  8
Cotas
  6
ByLayer
 62
  256
370
   -1
100
AcDbLine
 10
331.7601636547403
 20
92.03553390593267
 11
338.8312314666057
 21
84.96446609406719
  0
LINE
  5
1BD
100
AcDbEntity
  8
Cotas
  6
ByLayer
 62
  256
370
   -1
100
AcDbLine
 10
331.7601636547403
 20
121.2533226425712
 11
338.8312314666057
 21
114.1822548307058
  0
ENDBLK
  5
BB
330
B9
100
AcDbEntity
  8
0
100
AcDbBlockEnd
  0
BLOCK
  5
BD
330
BC
100
AcDbEntity
  8
0
100
AcDbBlockBegin
  2
*D26
 70
    1
 10
0
 20
0
  3
*D26
  1

  0
LINE
  5
1BE
100
AcDbEntity
  8
Cotas
  6
ByLayer
 62
  256
370
   -1
100
AcDbLine
 10
203.0077690559996
 20
-16.27567343841605
 11
203.0077690559996
 21
-16.27567343841605
  0
LINE
  5
1BF
100
AcDbEntity
  8
Cotas
  6
ByLayer
 62
  256
370
   -1
100
AcDbLine
 10
300.5077690559996
 20
-16.27567343841605
 11
300.5077690559996
 21
-16.27567343841605
  0
LINE
  5
1C0
100
AcDbEntity
  8
Cotas
  6
ByLayer
 62
  256
370
   -1
100
AcDbLine
 10
203.0077690559996
 20
-16.27567343841605
 11
300.5077690559996
 21
-16.27567343841605
  0
MTEXT
  5
1C1
100
AcDbEntity
  8
Cotas
  6
ByLayer
 62
  256
370
   -1
100
AcDbMText
 10
251.7577690559996
 20
-11.52567343841605
 30
0
 40
3.5
 41
14.16666727777778
 71
    5
 72
    1
  1
97.50
  7
romans
210
0
220
0
230
1
 50
0
 73
    2
 44
1
  0
LINE
  5
1C2
100
AcDbEntity
  8
Cotas
  6
ByLayer
 62
  256
370
   -1
100
AcDbLine
 10
206.5433029619323
 20
-12.74013953248331
 11
199.4722351500669
 21
-19.81120734434879
  0
LINE
  5
1C3
100
AcDbEntity
  8
Cotas
  6
ByLayer
 62
  256
370
   -1
100
AcDbLine
 10
304.0433029619323
 20
-12.74013953248331
 11
296.9722351500668
 21
-19.81120734434879
  0
ENDBLK
  5
BE
330
BC
100
AcDbEntity
  8
0
100
AcDbBlockEnd
  0
BLOCK
  5
C0
330
BF
100
AcDbEntity
  8
0
100
AcDbBlockBegin
  2
*D17
 70
    1
 10
0
 20
0
  3
*D17
  1

  0
LINE
  5
1C4
100
AcDbEntity
  8
Cotas
  6
ByLayer
 62
  256
370
   -1
100
AcDbLine
 10
224.0930245872322
 20
204.9344058068241
 11
200.22327004115
 21
217.9685480918558
  0
LINE
  5
1C5
100
AcDbEntity
  8
Cotas
  6
ByLayer
 62
  256
370
   -1
100
AcDbLine
 10
200.22327004115
 20
217.9685480918558
 11
178.5497697275466
 21
217.9685480918558
  0
SOLID
  5
1C6
100
AcDbEntity
  8
Cotas
  6
ByLayer
 62
  256
370
   -1
100
AcDbTrace
 10
224.0930245872322
 20
204.9344058068241
 30
0
 11
224.0930245872322
 21
204.9344058068241
 31
0
 12
224.0930245872322
 22
204.9344058068241
 32
0
 13
224.0930245872322
 23
204.9344058068241
 33
0
  0
ENDBLK
  5
C1
330
BF
100
AcDbEntity
  8
0
100
AcDbBlockEnd
  0
BLOCK
  5
C3
330
C2
100
AcDbEntity
  8
0
100
AcDbBlockBegin
  2
*D14
 70
    1
 10
0
 20
0
  3
*D14
  1

  0
LINE
  5
1C7
100
AcDbEntity
  8
Cotas
  6
ByLayer
 62
  256
370
   -1
100
AcDbLine
 10
181.2216891195894
 20
29.03999999999991
 11
181.2216891195894
 21
29.03999999999991
  0
LINE
  5
1C8
100
AcDbEntity
  8
Cotas
  6
ByLayer
 62
  256
370
   -1
100
AcDbLine
 10
181.2216891195894
 20
145.6999999999999
 11
181.2216891195894
 21
145.6999999999999
  0
LINE
  5
1C9
100
AcDbEntity
  8
Cotas
  6
ByLayer
 62
  256
370
   -1
100
AcDbLine
 10
181.2216891195894
 20
29.03999999999991
 11
181.2216891195894
 21
145.6999999999999
  0
MTEXT
  5
1CA
100
AcDbEntity
  8
Cotas
  6
ByLayer
 62
  256
370
   -1
100
AcDbMText
 10
176.4716891195894
 20
87.36999999999991
 30
0
 40
3.5
 41
28.29167288888889
 71
    5
 72
    1
  1
116.5 libres
  7
romans
210
0
220
0
230
1
 50
90
 73
    2
 44
1
  0
LINE
  5
1CB
100
AcDbEntity
  8
Cotas
  6
ByLayer
 62
  256
370
   -1
100
AcDbLine
 10
177.6861552136567
 20
32.57553390593265
 11
184.7572230255221
 21
25.50446609406718
  0
LINE
  5
1CC
100
AcDbEntity
  8
Cotas
  6
ByLayer
 62
  256
370
   -1
100
AcDbLine
 10
177.6861552136567
 20
149.2355339059326
 11
184.7572230255221
 21
142.1644660940672
  0
ENDBLK
  5
C4
330
C2
100
AcDbEntity
  8
0
100
AcDbBlockEnd
  0
BLOCK
  5
C6
330
C5
100
AcDbEntity
  8
0
100
AcDbBlockBegin
  2
*D8
 70
    1
 10
0
 20
0
  3
*D8
  1

  0
LINE
  5
1CD
100
AcDbEntity
  8
Cotas
  6
ByBlock
 62
    0
370
   -2
100
AcDbLine
 10
335.295697560673
 20
-7.993605777301127e-014
 11
335.295697560673
 21
-7.993605777301127e-014
  0
LINE
  5
1CE
100
AcDbEntity
  8
Cotas
  6
ByBlock
 62
    0
370
   -2
100
AcDbLine
 10
335.295697560673
 20
29.21778873663851
 11
335.295697560673
 21
29.21778873663851
  0
LINE
  5
1CF
100
AcDbEntity
  8
Cotas
  6
ByBlock
 62
    0
370
   -2
100
AcDbLine
 10
335.295697560673
 20
-7.993605777301127e-014
 11
335.295697560673
 21
29.21778873663851
  0
MTEXT
  5
1D0
100
AcDbEntity
  8
Cotas
  6
CONTINUOUS
 62
    0
370
   -2
100
AcDbMText
 10
330.545697560673
 20
14.60889436831921
 30
0
 40
3.5
 41
10.66666727777778
 71
    5
 72
    1
  1
29.5
  7
romans
210
0
220
0
230
1
 50
90
 73
    2
 44
1
  0
LINE
  5
1D1
100
AcDbEntity
  8
Cotas
  6
ByBlock
 62
    0
370
   -2
100
AcDbLine
 10
331.7601636547403
 20
3.535533905932659
 11
338.8312314666057
 21
-3.535533905932819
  0
LINE
  5
1D2
100
AcDbEntity
  8
Cotas
  6
ByBlock
 62
    0
370
   -2
100
AcDbLine
 10
331.7601636547403
 20
32.75332264257125
 11
338.8312314666057
 21
25.68225483070577
  0
ENDBLK
  5
C7
330
C5
100
AcDbEntity
  8
0
100
AcDbBlockEnd
  0
BLOCK
  5
C9
330
C8
100
AcDbEntity
  8
0
100
AcDbBlockBegin
  2
*D45
 70
    1
 10
0
 20
0
  3
*D45
  1

  0
LINE
  5
1D3
100
AcDbEntity
  8
Cotas
  6
ByLayer
 62
  256
370
   -1
100
AcDbLine
 10
335.295697560673
 20
29.49999999999992
 11
335.295697560673
 21
29.49999999999992
  0
LINE
  5
1D4
100
AcDbEntity
  8
Cotas
  6
ByLayer
 62
  256
370
   -1
100
AcDbLine
 10
335.295697560673
 20
58.71778873663851
 11
335.295697560673
 21
58.71778873663851
  0
LINE
  5
1D5
100
AcDbEntity
  8
Cotas
  6
ByLayer
 62
  256
370
   -1
100
AcDbLine
 10
335.295697560673
 20
29.49999999999992
 11
335.295697560673
 21
58.71778873663851
  0
MTEXT
  5
1D6
100
AcDbEntity
  8
Cotas
  6
ByLayer
 62
  256
370
   -1
100
AcDbMText
 10
330.545697560673
 20
44.10889436831921
 30
0
 40
3.5
 41
10.66666727777778
 71
    5
 72
    1
  1
29.5
  7
romans
210
0
220
0
230
1
 50
90
 73
    2
 44
1
  0
LINE
  5
1D7
100
AcDbEntity
  8
Cotas
  6
ByLayer
 62
  256
370
   -1
100
AcDbLine
 10
331.7601636547403
 20
33.03553390593266
 11
338.8312314666057
 21
25.96446609406718
  0
LINE
  5
1D8
100
AcDbEntity
  8
Cotas
  6
ByLayer
 62
  256
370
   -1
100
AcDbLine
 10
331.7601636547403
 20
62.25332264257125
 11
338.8312314666057
 21
55.18225483070577
  0
ENDBLK
  5
CA
330
C8
100
AcDbEntity
  8
0
100
AcDbBlockEnd
  0
BLOCK
  5
CC
330
CB
100
AcDbEntity
  8
0
100
AcDbBlockBegin
  2
*D11
 70
    1
 10
0
 20
0
  3
*D11
  1

  0
LINE
  5
1D9
100
AcDbEntity
  8
Cotas
  6
ByBlock
 62
    0
370
   -2
100
AcDbLine
 10
335.295697560673
 20
117.9999999999999
 11
335.295697560673
 21
117.9999999999999
  0
LINE
  5
1DA
100
AcDbEntity
  8
Cotas
  6
ByBlock
 62
    0
370
   -2
100
AcDbLine
 10
335.295697560673
 20
147.2177887366385
 11
335.295697560673
 21
147.2177887366385
  0
LINE
  5
1DB
100
AcDbEntity
  8
Cotas
  6
ByBlock
 62
    0
370
   -2
100
AcDbLine
 10
335.295697560673
 20
117.9999999999999
 11
335.295697560673
 21
147.2177887366385
  0
MTEXT
  5
1DC
100
AcDbEntity
  8
Cotas
  6
CONTINUOUS
 62
    0
370
   -2
100
AcDbMText
 10
330.545697560673
 20
132.6088943683192
 30
0
 40
3.5
 41
10.66666727777778
 71
    5
 72
    1
  1
29.5
  7
romans
210
0
220
0
230
1
 50
90
 73
    2
 44
1
  0
LINE
  5
1DD
100
AcDbEntity
  8
Cotas
  6
ByBlock
 62
    0
370
   -2
100
AcDbLine
 10
331.7601636547403
 20
121.5355339059326
 11
338.8312314666057
 21
114.4644660940672
  0
LINE
  5
1DE
100
AcDbEntity
  8
Cotas
  6
ByBlock
 62
    0
370
   -2
100
AcDbLine
 10
331.7601636547403
 20
150.7533226425712
 11
338.8312314666057
 21
143.6822548307057
  0
ENDBLK
  5
CD
330
CB
100
AcDbEntity
  8
0
100
AcDbBlockEnd
  0
BLOCK
  5
CF
330
CE
100
AcDbEntity
  8
0
100
AcDbBlockBegin
  2
*D41
 70
    1
 10
0
 20
0
  3
*D41
  1

  0
LINE
  5
1DF
100
AcDbEntity
  8
Cotas
  6
ByLayer
 62
  256
370
   -1
100
AcDbLine
 10
167.3492482668637
 20
-5.247665374817969e-014
 11
167.3492482668637
 21
-5.247665374817969e-014
  0
LINE
  5
1E0
100
AcDbEntity
  8
Cotas
  6
ByLayer
 62
  256
370
   -1
100
AcDbLine
 10
167.3492482668637
 20
147.4999999999999
 11
167.3492482668637
 21
147.4999999999999
  0
LINE
  5
1E1
100
AcDbEntity
  8
Cotas
  6
ByLayer
 62
  256
370
   -1
100
AcDbLine
 10
167.3492482668637
 20
-5.247665374817969e-014
 11
167.3492482668637
 21
147.4999999999999
  0
MTEXT
  5
1E2
100
AcDbEntity
  8
Cotas
  6
ByLayer
 62
  256
370
   -1
100
AcDbMText
 10
162.5992482668637
 20
73.74999999999991
 30
0
 40
3.5
 41
16.50000061111111
 71
    5
 72
    1
  1
147.50
  7
romans
210
0
220
0
230
1
 50
90
 73
    2
 44
1
  0
LINE
  5
1E3
100
AcDbEntity
  8
Cotas
  6
ByLayer
 62
  256
370
   -1
100
AcDbLine
 10
163.813714360931
 20
3.535533905932686
 11
170.8847821727964
 21
-3.535533905932791
  0
LINE
  5
1E4
100
AcDbEntity
  8
Cotas
  6
ByLayer
 62
  256
370
   -1
100
AcDbLine
 10
163.813714360931
 20
151.0355339059326
 11
170.8847821727964
 21
143.9644660940671
  0
ENDBLK
  5
D0
330
CE
100
AcDbEntity
  8
0
100
AcDbBlockEnd
  0
BLOCK
  5
D2
330
D1
100
AcDbEntity
  8
0
100
AcDbBlockBegin
  2
*D38
 70
    1
 10
0
 20
0
  3
*D38
  1

  0
LINE
  5
1E5
100
AcDbEntity
  8
Cotas
  6
ByLayer
 62
  256
370
   -1
100
AcDbLine
 10
207.508
 20
238.1992941039739
 11
207.508
 21
238.1992941039739
  0
LINE
  5
1E6
100
AcDbEntity
  8
Cotas
  6
ByLayer
 62
  256
370
   -1
100
AcDbLine
 10
296.008
 20
238.1992941039739
 11
296.008
 21
238.1992941039739
  0
LINE
  5
1E7
100
AcDbEntity
  8
Cotas
  6
ByLayer
 62
  256
370
   -1
100
AcDbLine
 10
207.508
 20
238.1992941039739
 11
296.008
 21
238.1992941039739
  0
MTEXT
  5
1E8
100
AcDbEntity
  8
Cotas
  6
ByLayer
 62
  256
370
   -1
100
AcDbMText
 10
251.758
 20
242.9492941039739
 30
0
 40
3.5
 41
14.33333338888889
 71
    5
 72
    1
  1
88.50
  7
romans
210
0
220
0
230
1
 50
0
 73
    2
 44
1
  0
LINE
  5
1E9
100
AcDbEntity
  8
Cotas
  6
ByLayer
 62
  256
370
   -1
100
AcDbLine
 10
211.0435339059327
 20
241.7348280099066
 11
203.9724660940673
 21
234.6637601980412
  0
LINE
  5
1EA
100
AcDbEntity
  8
Cotas
  6
ByLayer
 62
  256
370
   -1
100
AcDbLine
 10
299.5435339059327
 20
241.7348280099066
 11
292.4724660940672
 21
234.6637601980412
  0
ENDBLK
  5
D3
330
D1
100
AcDbEntity
  8
0
100
AcDbBlockEnd
  0
BLOCK
  5
D5
330
D4
100
AcDbEntity
  8
0
100
AcDbBlockBegin
  2
*D28
 70
    1
 10
0
 20
0
  3
*D28
  1

  0
LINE
  5
1EB
100
AcDbEntity
  8
Cotas
  6
ByLayer
 62
  256
370
   -1
100
AcDbLine
 10
167.3492482668637
 20
-5.247665374817969e-014
 11
167.3492482668637
 21
-5.247665374817969e-014
  0
LINE
  5
1EC
100
AcDbEntity
  8
Cotas
  6
ByLayer
 62
  256
370
   -1
100
AcDbLine
 10
167.3492482668637
 20
147.4999999999999
 11
167.3492482668637
 21
147.4999999999999
  0
LINE
  5
1ED
100
AcDbEntity
  8
Cotas
  6
ByLayer
 62
  256
370
   -1
100
AcDbLine
 10
167.3492482668637
 20
-5.247665374817969e-014
 11
167.3492482668637
 21
147.4999999999999
  0
MTEXT
  5
1EE
100
AcDbEntity
  8
Cotas
  6
ByLayer
 62
  256
370
   -1
100
AcDbMText
 10
162.5992482668637
 20
73.74999999999991
 30
0
 40
3.5
 41
16.50000061111111
 71
    5
 72
    1
  1
147.50
  7
romans
210
0
220
0
230
1
 50
90
 73
    2
 44
1
  0
LINE
  5
1EF
100
AcDbEntity
  8
Cotas
  6
ByLayer
 62
  256
370
   -1
100
AcDbLine
 10
163.813714360931
 20
3.535533905932686
 11
170.8847821727964
 21
-3.535533905932791
  0
LINE
  5
1F0
100
AcDbEntity
  8
Cotas
  6
ByLayer
 62
  256
370
   -1
100
AcDbLine
 10
163.813714360931
 20
151.0355339059326
 11
170.8847821727964
 21
143.9644660940671
  0
ENDBLK
  5
D6
330
D4
100
AcDbEntity
  8
0
100
AcDbBlockEnd
  0
BLOCK
  5
D8
330
D7
100
AcDbEntity
  8
0
100
AcDbBlockBegin
  2
*D22
 70
    1
 10
0
 20
0
  3
*D22
  1

  0
LINE
  5
1F1
100
AcDbEntity
  8
Cotas
  6
ByLayer
 62
  256
370
   -1
100
AcDbLine
 10
335.295697560673
 20
58.99999999999992
 11
335.295697560673
 21
58.99999999999992
  0
LINE
  5
1F2
100
AcDbEntity
  8
Cotas
  6
ByLayer
 62
  256
370
   -1
100
AcDbLine
 10
335.295697560673
 20
88.21778873663852
 11
335.295697560673
 21
88.21778873663852
  0
LINE
  5
1F3
100
AcDbEntity
  8
Cotas
  6
ByLayer
 62
  256
370
   -1
100
AcDbLine
 10
335.295697560673
 20
58.99999999999992
 11
335.295697560673
 21
88.21778873663852
  0
MTEXT
  5
1F4
100
AcDbEntity
  8
Cotas
  6
ByLayer
 62
  256
370
   -1
100
AcDbMText
 10
330.545697560673
 20
73.60889436831923
 30
0
 40
3.5
 41
10.66666727777778
 71
    5
 72
    1
  1
29.5
  7
romans
210
0
220
0
230
1
 50
90
 73
    2
 44
1
  0
LINE
  5
1F5
100
AcDbEntity
  8
Cotas
  6
ByLayer
 62
  256
370
   -1
100
AcDbLine
 10
331.7601636547403
 20
62.53553390593266
 11
338.8312314666057
 21
55.46446609406718
  0
LINE
  5
1F6
100
AcDbEntity
  8
Cotas
  6
ByLayer
 62
  256
370
   -1
100
AcDbLine
 10
331.7601636547403
 20
91.75332264257126
 11
338.8312314666057
 21
84.68225483070579
  0
ENDBLK
  5
D9
330
D7
100
AcDbEntity
  8
0
100
AcDbBlockEnd
  0
BLOCK
  5
DB
330
DA
100
AcDbEntity
  8
0
100
AcDbBlockBegin
  2
*D43
 70
    1
 10
0
 20
0
  3
*D43
  1

  0
LINE
  5
1F7
100
AcDbEntity
  8
Cotas
  6
ByLayer
 62
  256
370
   -1
100
AcDbLine
 10
224.0930245872322
 20
204.9344058068241
 11
200.22327004115
 21
217.9685480918558
  0
LINE
  5
1F8
100
AcDbEntity
  8
Cotas
  6
ByLayer
 62
  256
370
   -1
100
AcDbLine
 10
200.22327004115
 20
217.9685480918558
 11
178.5497697275466
 21
217.9685480918558
  0
SOLID
  5
1F9
100
AcDbEntity
  8
Cotas
  6
ByLayer
 62
  256
370
   -1
100
AcDbTrace
 10
224.0930245872322
 20
204.9344058068241
 30
0
 11
224.0930245872322
 21
204.9344058068241
 31
0
 12
224.0930245872322
 22
204.9344058068241
 32
0
 13
224.0930245872322
 23
204.9344058068241
 33
0
  0
ENDBLK
  5
DC
330
DA
100
AcDbEntity
  8
0
100
AcDbBlockEnd
  0
BLOCK
  5
DE
330
DD
100
AcDbEntity
  8
0
100
AcDbBlockBegin
  2
*D30
 70
    1
 10
0
 20
0
  3
*D30
  1

  0
LINE
  5
1FA
100
AcDbEntity
  8
Cotas
  6
ByLayer
 62
  256
370
   -1
100
AcDbLine
 10
224.0930245872322
 20
204.9344058068241
 11
200.22327004115
 21
217.9685480918558
  0
LINE
  5
1FB
100
AcDbEntity
  8
Cotas
  6
ByLayer
 62
  256
370
   -1
100
AcDbLine
 10
200.22327004115
 20
217.9685480918558
 11
178.5497697275466
 21
217.9685480918558
  0
SOLID
  5
1FC
100
AcDbEntity
  8
Cotas
  6
ByLayer
 62
  256
370
   -1
100
AcDbTrace
 10
224.0930245872322
 20
204.9344058068241
 30
0
 11
224.0930245872322
 21
204.9344058068241
 31
0
 12
224.0930245872322
 22
204.9344058068241
 32
0
 13
224.0930245872322
 23
204.9344058068241
 33
0
  0
ENDBLK
  5
DF
330
DD
100
AcDbEntity
  8
0
100
AcDbBlockEnd
  0
BLOCK
  5
E1
330
E0
100
AcDbEntity
  8
0
100
AcDbBlockBegin
  2
*D24
 70
    1
 10
0
 20
0
  3
*D24
  1

  0
LINE
  5
1FD
100
AcDbEntity
  8
Cotas
  6
ByLayer
 62
  256
370
   -1
100
AcDbLine
 10
335.295697560673
 20
117.9999999999999
 11
335.295697560673
 21
117.9999999999999
  0
LINE
  5
1FE
100
AcDbEntity
  8
Cotas
  6
ByLayer
 62
  256
370
   -1
100
AcDbLine
 10
335.295697560673
 20
147.2177887366385
 11
335.295697560673
 21
147.2177887366385
  0
LINE
  5
1FF
100
AcDbEntity
  8
Cotas
  6
ByLayer
 62
  256
370
   -1
100
AcDbLine
 10
335.295697560673
 20
117.9999999999999
 11
335.295697560673
 21
147.2177887366385
  0
MTEXT
  5
200
100
AcDbEntity
  8
Cotas
  6
ByLayer
 62
  256
370
   -1
100
AcDbMText
 10
330.545697560673
 20
132.6088943683192
 30
0
 40
3.5
 41
10.66666727777778
 71
    5
 72
    1
  1
29.5
  7
romans
210
0
220
0
230
1
 50
90
 73
    2
 44
1
  0
LINE
  5
201
100
AcDbEntity
  8
Cotas
  6
ByLayer
 62
  256
370
   -1
100
AcDbLine
 10
331.7601636547403
 20
121.5355339059326
 11
338.8312314666057
 21
114.4644660940672
  0
LINE
  5
202
100
AcDbEntity
  8
Cotas
  6
ByLayer
 62
  256
370
   -1
100
AcDbLine
 10
331.7601636547403
 20
150.7533226425712
 11
338.8312314666057
 21
143.6822548307057
  0
ENDBLK
  5
E2
330
E0
100
AcDbEntity
  8
0
100
AcDbBlockEnd
  0
BLOCK
  5
E4
330
E3
100
AcDbEntity
  8
0
100
AcDbBlockBegin
  2
*D6
 70
    1
 10
0
 20
0
  3
*D6
  1

  0
LINE
  5
203
100
AcDbEntity
  8
Cotas
  6
ByBlock
 62
    0
370
   -2
100
AcDbLine
 10
355.3784485370998
 20
-8.072403144418141e-014
 11
355.3784485370998
 21
-8.072403144418141e-014
  0
LINE
  5
204
100
AcDbEntity
  8
Cotas
  6
ByBlock
 62
    0
370
   -2
100
AcDbLine
 10
355.3784485370998
 20
232.9999999999999
 11
355.3784485370998
 21
232.9999999999999
  0
LINE
  5
205
100
AcDbEntity
  8
Cotas
  6
ByBlock
 62
    0
370
   -2
100
AcDbLine
 10
355.3784485370998
 20
-8.072403144418141e-014
 11
355.3784485370998
 21
232.9999999999999
  0
MTEXT
  5
206
100
AcDbEntity
  8
Cotas
  6
CONTINUOUS
 62
    0
370
   -2
100
AcDbMText
 10
350.6284485370998
 20
116.4999999999999
 30
0
 40
3.5
 41
17.83333338888889
 71
    5
 72
    1
  1
233.00
  7
romans
210
0
220
0
230
1
 50
90
 73
    2
 44
1
  0
LINE
  5
207
100
AcDbEntity
  8
Cotas
  6
ByBlock
 62
    0
370
   -2
100
AcDbLine
 10
351.842914631167
 20
3.535533905932658
 11
358.9139824430325
 21
-3.535533905932819
  0
LINE
  5
208
100
AcDbEntity
  8
Cotas
  6
ByBlock
 62
    0
370
   -2
100
AcDbLine
 10
351.842914631167
 20
236.5355339059326
 11
358.9139824430325
 21
229.4644660940671
  0
ENDBLK
  5
E5
330
E3
100
AcDbEntity
  8
0
100
AcDbBlockEnd
  0
BLOCK
  5
E7
330
E6
100
AcDbEntity
  8
0
100
AcDbBlockBegin
  2
*D50
 70
    1
 10
0
 20
0
  3
*D50
  1

  0
LINE
  5
209
100
AcDbEntity
  8
Cotas
  6
ByLayer
 62
  256
370
   -1
100
AcDbLine
 10
207.508
 20
238.1992941039739
 11
207.508
 21
238.1992941039739
  0
LINE
  5
20A
100
AcDbEntity
  8
Cotas
  6
ByLayer
 62
  256
370
   -1
100
AcDbLine
 10
296.008
 20
238.1992941039739
 11
296.008
 21
238.1992941039739
  0
LINE
  5
20B
100
AcDbEntity
  8
Cotas
  6
ByLayer
 62
  256
370
   -1
100
AcDbLine
 10
207.508
 20
238.1992941039739
 11
296.008
 21
238.1992941039739
  0
MTEXT
  5
20C
100
AcDbEntity
  8
Cotas
  6
ByLayer
 62
  256
370
   -1
100
AcDbMText
 10
251.758
 20
242.9492941039739
 30
0
 40
3.5
 41
14.33333338888889
 71
    5
 72
    1
  1
88.50
  7
romans
210
0
220
0
230
1
 50
0
 73
    2
 44
1
  0
LINE
  5
20D
100
AcDbEntity
  8
Cotas
  6
ByLayer
 62
  256
370
   -1
100
AcDbLine
 10
211.0435339059327
 20
241.7348280099066
 11
203.9724660940673
 21
234.6637601980412
  0
LINE
  5
20E
100
AcDbEntity
  8
Cotas
  6
ByLayer
 62
  256
370
   -1
100
AcDbLine
 10
299.5435339059327
 20
241.7348280099066
 11
292.4724660940672
 21
234.6637601980412
  0
ENDBLK
  5
E8
330
E6
100
AcDbEntity
  8
0
100
AcDbBlockEnd
  0
BLOCK
  5
EA
330
E9
100
AcDbEntity
  8
0
100
AcDbBlockBegin
  2
*D35
 70
    1
 10
0
 20
0
  3
*D35
  1

  0
LINE
  5
20F
100
AcDbEntity
  8
Cotas
  6
ByLayer
 62
  256
370
   -1
100
AcDbLine
 10
335.295697560673
 20
58.99999999999992
 11
335.295697560673
 21
58.99999999999992
  0
LINE
  5
210
100
AcDbEntity
  8
Cotas
  6
ByLayer
 62
  256
370
   -1
100
AcDbLine
 10
335.295697560673
 20
88.21778873663852
 11
335.295697560673
 21
88.21778873663852
  0
LINE
  5
211
100
AcDbEntity
  8
Cotas
  6
ByLayer
 62
  256
370
   -1
100
AcDbLine
 10
335.295697560673
 20
58.99999999999992
 11
335.295697560673
 21
88.21778873663852
  0
MTEXT
  5
212
100
AcDbEntity
  8
Cotas
  6
ByLayer
 62
  256
370
   -1
100
AcDbMText
 10
330.545697560673
 20
73.60889436831923
 30
0
 40
3.5
 41
10.66666727777778
 71
    5
 72
    1
  1
29.5
  7
romans
210
0
220
0
230
1
 50
90
 73
    2
 44
1
  0
LINE
  5
213
100
AcDbEntity
  8
Cotas
  6
ByLayer
 62
  256
370
   -1
100
AcDbLine
 10
331.7601636547403
 20
62.53553390593266
 11
338.8312314666057
 21
55.46446609406718
  0
LINE
  5
214
100
AcDbEntity
  8
Cotas
  6
ByLayer
 62
  256
370
   -1
100
AcDbLine
 10
331.7601636547403
 20
91.75332264257126
 11
338.8312314666057
 21
84.68225483070579
  0
ENDBLK
  5
EB
330
E9
100
AcDbEntity
  8
0
100
AcDbBlockEnd
  0
BLOCK
  5
ED
330
EC
100
AcDbEntity
  8
0
100
AcDbBlockBegin
  2
*D40
 70
    1
 10
0
 20
0
  3
*D40
  1

  0
LINE
  5
215
100
AcDbEntity
  8
Cotas
  6
ByLayer
 62
  256
370
   -1
100
AcDbLine
 10
181.2216891195894
 20
29.03999999999991
 11
181.2216891195894
 21
29.03999999999991
  0
LINE
  5
216
100
AcDbEntity
  8
Cotas
  6
ByLayer
 62
  256
370
   -1
100
AcDbLine
 10
181.2216891195894
 20
145.6999999999999
 11
181.2216891195894
 21
145.6999999999999
  0
LINE
  5
217
100
AcDbEntity
  8
Cotas
  6
ByLayer
 62
  256
370
   -1
100
AcDbLine
 10
181.2216891195894
 20
29.03999999999991
 11
181.2216891195894
 21
145.6999999999999
  0
MTEXT
  5
218
100
AcDbEntity
  8
Cotas
  6
ByLayer
 62
  256
370
   -1
100
AcDbMText
 10
176.4716891195894
 20
87.36999999999991
 30
0
 40
3.5
 41
28.29167288888889
 71
    5
 72
    1
  1
116.5 libres
  7
romans
210
0
220
0
230
1
 50
90
 73
    2
 44
1
  0
LINE
  5
219
100
AcDbEntity
  8
Cotas
  6
ByLayer
 62
  256
370
   -1
100
AcDbLine
 10
177.6861552136567
 20
32.57553390593265
 11
184.7572230255221
 21
25.50446609406718
  0
LINE
  5
21A
100
AcDbEntity
  8
Cotas
  6
ByLayer
 62
  256
370
   -1
100
AcDbLine
 10
177.6861552136567
 20
149.2355339059326
 11
184.7572230255221
 21
142.1644660940672
  0
ENDBLK
  5
EE
330
EC
100
AcDbEntity
  8
0
100
AcDbBlockEnd
  0
BLOCK
  5
F0
330
EF
100
AcDbEntity
  8
0
100
AcDbBlockBegin
  2
*D27
 70
    1
 10
0
 20
0
  3
*D27
  1

  0
LINE
  5
21B
100
AcDbEntity
  8
Cotas
  6
ByLayer
 62
  256
370
   -1
100
AcDbLine
 10
181.2216891195894
 20
29.03999999999991
 11
181.2216891195894
 21
29.03999999999991
  0
LINE
  5
21C
100
AcDbEntity
  8
Cotas
  6
ByLayer
 62
  256
370
   -1
100
AcDbLine
 10
181.2216891195894
 20
145.6999999999999
 11
181.2216891195894
 21
145.6999999999999
  0
LINE
  5
21D
100
AcDbEntity
  8
Cotas
  6
ByLayer
 62
  256
370
   -1
100
AcDbLine
 10
181.2216891195894
 20
29.03999999999991
 11
181.2216891195894
 21
145.6999999999999
  0
MTEXT
  5
21E
100
AcDbEntity
  8
Cotas
  6
ByLayer
 62
  256
370
   -1
100
AcDbMText
 10
176.4716891195894
 20
87.36999999999991
 30
0
 40
3.5
 41
28.29167288888889
 71
    5
 72
    1
  1
116.5 libres
  7
romans
210
0
220
0
230
1
 50
90
 73
    2
 44
1
  0
LINE
  5
21F
100
AcDbEntity
  8
Cotas
  6
ByLayer
 62
  256
370
   -1
100
AcDbLine
 10
177.6861552136567
 20
32.57553390593265
 11
184.7572230255221
 21
25.50446609406718
  0
LINE
  5
220
100
AcDbEntity
  8
Cotas
  6
ByLayer
 62
  256
370
   -1
100
AcDbLine
 10
177.6861552136567
 20
149.2355339059326
 11
184.7572230255221
 21
142.1644660940672
  0
ENDBLK
  5
F1
330
EF
100
AcDbEntity
  8
0
100
AcDbBlockEnd
  0
BLOCK
  5
F3
330
F2
100
AcDbEntity
  8
0
100
AcDbBlockBegin
  2
*D2
 70
    1
 10
0
 20
0
  3
*D2
  1

  0
LINE
  5
221
100
AcDbEntity
  8
Cotas
  6
ByBlock
 62
    0
370
   -2
100
AcDbLine
 10
167.3492482668637
 20
-5.247665374817969e-014
 11
167.3492482668637
 21
-5.247665374817969e-014
  0
LINE
  5
222
100
AcDbEntity
  8
Cotas
  6
ByBlock
 62
    0
370
   -2
100
AcDbLine
 10
167.3492482668637
 20
147.4999999999999
 11
167.3492482668637
 21
147.4999999999999
  0
LINE
  5
223
100
AcDbEntity
  8
Cotas
  6
ByBlock
 62
    0
370
   -2
100
AcDbLine
 10
167.3492482668637
 20
-5.247665374817969e-014
 11
167.3492482668637
 21
147.4999999999999
  0
MTEXT
  5
224
100
AcDbEntity
  8
Cotas
  6
CONTINUOUS
 62
    0
370
   -2
100
AcDbMText
 10
162.5992482668637
 20
73.74999999999991
 30
0
 40
3.5
 41
16.50000061111111
 71
    5
 72
    1
  1
147.50
  7
romans
210
0
220
0
230
1
 50
90
 73
    2
 44
1
  0
LINE
  5
225
100
AcDbEntity
  8
Cotas
  6
ByBlock
 62
    0
370
   -2
100
AcDbLine
 10
163.813714360931
 20
3.535533905932686
 11
170.8847821727964
 21
-3.535533905932791
  0
LINE
  5
226
100
AcDbEntity
  8
Cotas
  6
ByBlock
 62
    0
370
   -2
100
AcDbLine
 10
163.813714360931
 20
151.0355339059326
 11
170.8847821727964
 21
143.9644660940671
  0
ENDBLK
  5
F4
330
F2
100
AcDbEntity
  8
0
100
AcDbBlockEnd
  0
BLOCK
  5
F6
330
F5
100
AcDbEntity
  8
0
100
AcDbBlockBegin
  2
*D12
 70
    1
 10
0
 20
0
  3
*D12
  1

  0
LINE
  5
227
100
AcDbEntity
  8
Cotas
  6
ByBlock
 62
    0
370
   -2
100
AcDbLine
 10
207.508
 20
238.1992941039739
 11
207.508
 21
238.1992941039739
  0
LINE
  5
228
100
AcDbEntity
  8
Cotas
  6
ByBlock
 62
    0
370
   -2
100
AcDbLine
 10
296.008
 20
238.1992941039739
 11
296.008
 21
238.1992941039739
  0
LINE
  5
229
100
AcDbEntity
  8
Cotas
  6
ByBlock
 62
    0
370
   -2
100
AcDbLine
 10
207.508
 20
238.1992941039739
 11
296.008
 21
238.1992941039739
  0
MTEXT
  5
22A
100
AcDbEntity
  8
Cotas
  6
CONTINUOUS
 62
    0
370
   -2
100
AcDbMText
 10
251.758
 20
242.9492941039739
 30
0
 40
3.5
 41
14.33333338888889
 71
    5
 72
    1
  1
88.50
  7
romans
210
0
220
0
230
1
 50
0
 73
    2
 44
1
  0
LINE
  5
22B
100
AcDbEntity
  8
Cotas
  6
ByBlock
 62
    0
370
   -2
100
AcDbLine
 10
211.0435339059327
 20
241.7348280099066
 11
203.9724660940673
 21
234.6637601980412
  0
LINE
  5
22C
100
AcDbEntity
  8
Cotas
  6
ByBlock
 62
    0
370
   -2
100
AcDbLine
 10
299.5435339059327
 20
241.7348280099066
 11
292.4724660940672
 21
234.6637601980412
  0
ENDBLK
  5
F7
330
F5
100
AcDbEntity
  8
0
100
AcDbBlockEnd
  0
ENDSEC
  0
SECTION
  2
ENTITIES
  0
LWPOLYLINE
  5
22D
100
AcDbEntity
  8
0
  6
CONTINUOUS
 62
    7
370
   25
100
AcDbPolyline
 90
    4
 70
    1
 43
0
 10
213.6731133059996
 20
171.938277
 10
253.8731133059996
 20
171.938277
 10
253.8731133059996
 20
224.938277
 10
213.6731133059996
 20
224.938277
  0
LINE
  5
22E
100
AcDbEntity
  8
Estantes
  6
CONTINUOUS
 62
  256
370
   25
100
AcDbLine
 10
251.7577690559996
 20
145.1999999999999
 11
251.7577690559996
 21
-6.87837251524947e-014
  0
LINE
  5
22F
100
AcDbEntity
  8
Estantes
  6
CONTINUOUS
 62
  256
370
   25
100
AcDbLine
 10
253.5577690559996
 20
145.1999999999999
 11
253.5577690559996
 21
-6.87837251524947e-014
  0
LINE
  5
230
100
AcDbEntity
  8
Estantes
  6
CONTINUOUS
 62
    5
370
   25
100
AcDbLine
 10
203.0077690559996
 20
140.1999999999999
 11
251.7577690559996
 21
140.1999999999999
  0
LINE
  5
231
100
AcDbEntity
  8
Estantes
  6
CONTINUOUS
 62
    5
370
   25
100
AcDbLine
 10
203.0077690559996
 20
141.9999999999999
 11
251.7577690559996
 21
141.9999999999999
  0
LINE
  5
232
100
AcDbEntity
  8
Mampostería
  6
CONTINUOUS
 62
  256
370
   25
100
AcDbLine
 10
203.0077690559996
 20
-5.684341886080801e-014
 11
203.0077690559996
 21
232.9999999999999
  0
LINE
  5
233
100
AcDbEntity
  8
Mampostería
  6
ByLayer
 62
  256
370
   -1
100
AcDbLine
 10
300.5077690559996
 20
-8.072403144418141e-014
 11
203.0077690559996
 21
-5.684341886080801e-014
  0
LINE
  5
234
100
AcDbEntity
  8
Mampostería
  6
ByLayer
 62
  256
370
   -1
100
AcDbLine
 10
300.5077690559996
 20
-8.072403144418141e-014
 11
300.5077690559996
 21
232.9999999999999
  0
LINE
  5
235
100
AcDbEntity
  8
Mampostería
  6
ByLayer
 62
  256
370
   -1
100
AcDbLine
 10
203.0077690559996
 20
232.9999999999999
 11
300.5077690559996
 21
232.9999999999999
  0
LINE
  5
236
100
AcDbEntity
  8
Marco
  6
DASHEDTINY
 62
  256
370
   13
100
AcDbLine
 10
207.508
 20
-5.684340000000001e-014
 11
207.508
 21
228.5
  0
LINE
  5
237
100
AcDbEntity
  8
Marco
  6
DASHEDTINY
 62
  256
370
   13
100
AcDbLine
 10
296.008
 20
-8.0724e-014
 11
296.008
 21
228.5
  0
LINE
  5
238
100
AcDbEntity
  8
Marco
  6
DASHEDTINY
 62
  256
370
   13
100
AcDbLine
 10
207.508
 20
228.5
 11
296.008
 21
228.5
  0
LINE
  5
239
100
AcDbEntity
  8
Estantes
  6
CONTINUOUS
 62
  256
370
   25
100
AcDbLine
 10
203.0077690559996
 20
29.03999999999991
 11
251.7577690559996
 21
29.03999999999991
  0
LINE
  5
23A
100
AcDbEntity
  8
Estantes
  6
CONTINUOUS
 62
  256
370
   25
100
AcDbLine
 10
253.5577690559996
 20
29.03999999999991
 11
300.5077690559996
 21
29.03999999999992
  0
LINE
  5
23B
100
AcDbEntity
  8
Estantes
  6
CONTINUOUS
 62
  256
370
   25
100
AcDbLine
 10
203.0077690559996
 20
27.83999999999992
 11
251.7577690559996
 21
27.83999999999992
  0
LINE
  5
23C
100
AcDbEntity
  8
Estantes
  6
CONTINUOUS
 62
  256
370
   25
100
AcDbLine
 10
253.5577690559996
 20
27.83999999999992
 11
300.5077690559996
 21
27.83999999999992
  0
LINE
  5
23D
100
AcDbEntity
  8
Estantes
  6
ByLayer
 62
  256
370
   25
100
AcDbLine
 10
203.0077690559996
 20
147.4999999999999
 11
300.5077690559996
 21
147.4999999999999
  0
LINE
  5
23E
100
AcDbEntity
  8
Estantes
  6
CONTINUOUS
 62
  256
370
   25
100
AcDbLine
 10
203.0077690559996
 20
145.6999999999999
 11
300.5077690559996
 21
145.6999999999999
  0
LINE
  5
23F
100
AcDbEntity
  8
Estantes
  6
CONTINUOUS
 62
  256
370
   25
100
AcDbLine
 10
203.0077690559996
 20
145.6999999999999
 11
300.5077690559996
 21
145.6999999999999
  0
LINE
  5
240
100
AcDbEntity
  8
Estantes
  6
CONTINUOUS
 62
  256
370
   25
100
AcDbLine
 10
300.5077690559996
 20
116.7999999999999
 11
253.5577690559996
 21
116.7999999999999
  0
LINE
  5
241
100
AcDbEntity
  8
Estantes
  6
CONTINUOUS
 62
  256
370
   25
100
AcDbLine
 10
300.5077690559996
 20
117.9999999999999
 11
253.5577690559996
 21
117.9999999999999
  0
LINE
  5
242
100
AcDbEntity
  8
Estantes
  6
CONTINUOUS
 62
  256
370
   25
100
AcDbLine
 10
253.5577690559996
 20
58.99999999999995
 11
300.5077690559996
 21
58.99999999999992
  0
LINE
  5
243
100
AcDbEntity
  8
Estantes
  6
CONTINUOUS
 62
  256
370
   25
100
AcDbLine
 10
253.5577690559996
 20
57.79999999999994
 11
300.5077690559996
 21
57.79999999999993
  0
LINE
  5
244
100
AcDbEntity
  8
Estantes
  6
CONTINUOUS
 62
  256
370
   25
100
AcDbLine
 10
300.5077690559996
 20
87.07272867580764
 11
253.5577690559996
 21
87.07272867580764
  0
LINE
  5
245
100
AcDbEntity
  8
Estantes
  6
CONTINUOUS
 62
  256
370
   25
100
AcDbLine
 10
300.5077690559996
 20
88.27272867580767
 11
253.5577690559996
 21
88.27272867580766
  0
LINE
  5
246
100
AcDbEntity
  8
Estantes
  6
CONTINUOUS
 62
    5
370
   25
100
AcDbLine
 10
293.5077690559996
 20
80.07272867580765
 11
255.5577690559996
 21
80.07272867580765
  0
LINE
  5
247
100
AcDbEntity
  8
Estantes
  6
CONTINUOUS
 62
    5
370
   25
100
AcDbLine
 10
255.5577690559996
 20
86.57272867580765
 11
255.5577690559996
 21
80.07272867580765
  0
LINE
  5
248
100
AcDbEntity
  8
Estantes
  6
CONTINUOUS
 62
    5
370
   25
100
AcDbLine
 10
293.5077690559996
 20
80.07272867580765
 11
293.5077690559996
 21
86.57272867580765
  0
LINE
  5
249
100
AcDbEntity
  8
Estantes
  6
CONTINUOUS
 62
    5
370
   25
100
AcDbLine
 10
293.5077690559996
 20
86.57272867580765
 11
255.5577690559996
 21
86.57272867580765
  0
DIMENSION
  5
24A
100
AcDbEntity
  8
Cotas
  6
ByLayer
 62
  256
370
   -1
100
AcDbDimension
  2
*D1
 10
181.2216891195894
 20
145.6999999999999
 30
0
 11
176.4716891195894
 21
87.36999999999991
 31
0
 70
   33
  1
116.5 libres
 71
    5
  3
Standard
 53
0
210
0
220
0
230
1
100
AcDbAlignedDimension
 13
203.0077690559996
 23
29.03999999999991
 33
0
 14
203.0077690559996
 24
145.6999999999999
 34
0
  0
DIMENSION
  5
24B
100
AcDbEntity
  8
Cotas
  6
ByLayer
 62
  256
370
   -1
100
AcDbDimension
  2
*D2
 10
167.3492482668637
 20
147.4999999999999
 30
0
 11
162.5992482668637
 21
73.74999999999991
 31
0
 70
   33
 71
    5
  3
Standard
 53
0
210
0
220
0
230
1
100
AcDbAlignedDimension
 13
203.0077690559996
 23
-5.684341886080801e-014
 33
0
 14
203.0077690559996
 24
147.4999999999999
 34
0
  0
DIMENSION
  5
24C
100
AcDbEntity
  8
Cotas
  6
ByLayer
 62
  256
370
   -1
100
AcDbDimension
  2
*D3
 10
167.3072542402234
 20
232.9999999999999
 30
0
 11
162.5572542402234
 21
190.2499999999999
 31
0
 70
   33
 71
    5
  3
Standard
 53
0
210
0
220
0
230
1
100
AcDbAlignedDimension
 13
203.0077690559996
 23
147.4999999999999
 33
0
 14
203.0077690559996
 24
232.9999999999999
 34
0
  0
MTEXT
  5
24D
100
AcDbEntity
  8
Cotas
  6
ByLayer
 62
  256
370
   -1
100
AcDbMText
 10
178.464934733826
 20
223.5900988395273
 30
0
 40
4
 41
20.95238666666667
 71
    1
 72
    1
  1
calefón
  7
romans
210
0
220
0
230
1
 50
0
 73
    2
 44
1
  0
LEADER
  5
24E
100
AcDbEntity
  8
Cotas
  6
ByLayer
 62
  256
370
   -1
100
AcDbLeader
  3
Standard
 71
    1
 72
    0
 73
    3
 74
    0
 75
    0
 40
1
 41
10
 76
3
 76
3
 10
224.0930245872322
 20
204.9344058068241
 30
0
 10
200.22327004115
 20
217.9685480918558
 30
0
 10
178.5497697275466
 20
217.9685480918558
 30
0
  0
LEADER
  5
24F
100
AcDbEntity
  8
Cotas
  6
ByLayer
 62
  256
370
   -1
100
AcDbLeader
  3
Standard
 71
    1
 72
    0
 73
    3
 74
    0
 75
    0
 40
1
 41
10
 76
3
 76
3
 10
224.0930245872322
 20
141.9219891059512
 30
0
 10
200.22327004115
 20
154.956131390983
 30
0
 10
178.5497697275466
 20
154.956131390983
 30
0
  0
MTEXT
  5
250
100
AcDbEntity
  8
Cotas
  6
ByLayer
 62
  256
370
   -1
100
AcDbMText
 10
178.438051086171
 20
160.4908853371143
 30
0
 40
4
 41
21.90476444444444
 71
    1
 72
    1
  1
barrote
  7
romans
210
0
220
0
230
1
 50
0
 73
    2
 44
1
  0
MTEXT
  5
251
100
AcDbEntity
  8
Cotas
  6
ByLayer
 62
  256
370
   -1
100
AcDbMText
 10
306.3476367145348
 20
71.86684121732624
 30
0
 40
4
 41
15.61905333333333
 71
    1
 72
    1
  1
cajón
  7
romans
210
0
220
0
230
1
 50
0
 73
    2
 44
1
  0
DIMENSION
  5
252
100
AcDbEntity
  8
Cotas
  6
ByLayer
 62
  256
370
   -1
100
AcDbDimension
  2
*D6
 10
355.3784485370998
 20
232.9999999999999
 30
0
 11
350.6284485370998
 21
116.4999999999999
 31
0
 70
   33
 71
    5
  3
Standard
 53
0
210
0
220
0
230
1
100
AcDbAlignedDimension
 13
269.9442271073507
 23
-8.072403144418141e-014
 33
0
 14
269.9442271073507
 24
232.9999999999999
 34
0
  0
DIMENSION
  5
253
100
AcDbEntity
  8
Cotas
  6
ByLayer
 62
  256
370
   -1
100
AcDbDimension
  2
*D7
 10
335.295697560673
 20
58.71778873663851
 30
0
 11
330.545697560673
 21
44.10889436831921
 31
0
 70
   33
  1
29.5
 71
    5
  3
Standard
 53
0
210
0
220
0
230
1
100
AcDbAlignedDimension
 13
302.8067006660493
 23
29.49999999999992
 33
0
 14
302.8067006660493
 24
58.71778873663851
 34
0
  0
DIMENSION
  5
254
100
AcDbEntity
  8
Cotas
  6
ByLayer
 62
  256
370
   -1
100
AcDbDimension
  2
*D8
 10
335.295697560673
 20
29.21778873663851
 30
0
 11
330.545697560673
 21
14.60889436831921
 31
0
 70
   33
  1
29.5
 71
    5
  3
Standard
 53
0
210
0
220
0
230
1
100
AcDbAlignedDimension
 13
302.8067006660493
 23
-7.993605777301127e-014
 33
0
 14
302.8067006660493
 24
29.21778873663851
 34
0
  0
DIMENSION
  5
255
100
AcDbEntity
  8
Cotas
  6
ByLayer
 62
  256
370
   -1
100
AcDbDimension
  2
*D9
 10
335.295697560673
 20
88.21778873663852
 30
0
 11
330.545697560673
 21
73.60889436831923
 31
0
 70
   33
  1
29.5
 71
    5
  3
Standard
 53
0
210
0
220
0
230
1
100
AcDbAlignedDimension
 13
302.8067006660493
 23
58.99999999999992
 33
0
 14
302.8067006660493
 24
88.21778873663852
 34
0
  0
DIMENSION
  5
256
100
AcDbEntity
  8
Cotas
  6
ByLayer
 62
  256
370
   -1
100
AcDbDimension
  2
*D10
 10
335.295697560673
 20
117.7177887366385
 30
0
 11
330.545697560673
 21
103.1088943683192
 31
0
 70
   33
  1
29.5
 71
    5
  3
Standard
 53
0
210
0
220
0
230
1
100
AcDbAlignedDimension
 13
302.8067006660493
 23
88.49999999999993
 33
0
 14
302.8067006660493
 24
117.7177887366385
 34
0
  0
DIMENSION
  5
257
100
AcDbEntity
  8
Cotas
  6
ByLayer
 62
  256
370
   -1
100
AcDbDimension
  2
*D11
 10
335.295697560673
 20
147.2177887366385
 30
0
 11
330.545697560673
 21
132.6088943683192
 31
0
 70
   33
  1
29.5
 71
    5
  3
Standard
 53
0
210
0
220
0
230
1
100
AcDbAlignedDimension
 13
302.8067006660493
 23
117.9999999999999
 33
0
 14
302.8067006660493
 24
147.2177887366385
 34
0
  0
MTEXT
  5
258
100
AcDbEntity
  8
Cotas
  6
ByLayer
 62
  256
370
   -1
100
AcDbMText
 10
256.4007373653552
 20
152.1263427822302
 30
0
 40
3
 41
18.28571666666667
 71
    1
 72
    1
  1
e=18mm
  7
romans
210
0
220
0
230
1
 50
0
 73
    2
 44
1
  0
MTEXT
  5
259
100
AcDbEntity
  8
Cotas
  6
ByLayer
 62
  256
370
   -1
100
AcDbMText
 10
256.7578414563933
 20
123.0223593626252
 30
0
 40
3
 41
18.28571666666667
 71
    1
 72
    1
  1
e=12mm
  7
romans
210
0
220
0
230
1
 50
0
 73
    2
 44
1
  0
MTEXT
  5
25A
100
AcDbEntity
  8
Cotas
  6
ByLayer
 62
  256
370
   -1
100
AcDbMText
 10
256.9363935019123
 20
93.56127185198199
 30
0
 40
3
 41
18.28571666666667
 71
    1
 72
    1
  1
e=12mm
  7
romans
210
0
220
0
230
1
 50
0
 73
    2
 44
1
  0
MTEXT
  5
25B
100
AcDbEntity
  8
Cotas
  6
ByLayer
 62
  256
370
   -1
100
AcDbMText
 10
256.7578414563933
 20
63.92163229581975
 30
0
 40
3
 41
18.28571666666667
 71
    1
 72
    1
  1
e=12mm
  7
romans
210
0
220
0
230
1
 50
0
 73
    2
 44
1
  0
MTEXT
  5
25C
100
AcDbEntity
  8
Cotas
  6
ByLayer
 62
  256
370
   -1
100
AcDbMText
 10
256.7578414563933
 20
33.92488864861942
 30
0
 40
3
 41
18.28571666666667
 71
    1
 72
    1
  1
e=12mm
  7
romans
210
0
220
0
230
1
 50
0
 73
    2
 44
1
  0
MTEXT
  5
25D
100
AcDbEntity
  8
Cotas
  6
ByLayer
 62
  256
370
   -1
100
AcDbMText
 10
217.7578414563933
 20
33.92488864861942
 30
0
 40
3
 41
18.28571666666667
 71
    1
 72
    1
  1
e=12mm
  7
romans
210
0
220
0
230
1
 50
0
 73
    2
 44
1
  0
MTEXT
  5
25E
100
AcDbEntity
  8
Cotas
  6
ByLayer
 62
  256
370
   -1
100
AcDbMText
 10
246.5803748618075
 20
72.31357843521508
 30
0
 40
3
 41
18.28571666666667
 71
    1
 72
    1
  1
e=18mm
  7
romans
210
0
220
0
230
1
 50
90
 73
    2
 44
1
  0
MTEXT
  5
25F
100
AcDbEntity
  8
Cotas
  6
ByLayer
 62
  256
370
   -1
100
AcDbMText
 10
306.4623533540679
 20
210.3758121856065
 30
0
 40
4
 41
18.09524
 71
    1
 72
    1
  1
marco
  7
romans
210
0
220
0
230
1
 50
0
 73
    2
 44
1
  0
DIMENSION
  5
260
100
AcDbEntity
  8
Cotas
  6
ByLayer
 62
  256
370
   -1
100
AcDbDimension
  2
*D12
 10
296.008
 20
238.1992941039739
 30
0
 11
251.758
 21
242.9492941039739
 31
0
 70
   33
 71
    5
  3
Standard
 53
0
210
0
220
0
230
1
100
AcDbAlignedDimension
 13
207.508
 23
228.5
 33
0
 14
296.008
 24
228.5
 34
0
  0
DIMENSION
  5
261
100
AcDbEntity
  8
Cotas
  6
ByLayer
 62
  256
370
   -1
100
AcDbDimension
  2
*D13
 10
300.5077690559996
 20
-16.27567343841605
 30
0
 11
251.7577690559996
 21
-11.52567343841605
 31
0
 70
   33
 71
    5
 72
    0
  3
Standard
 53
0
210
0
220
0
230
1
100
AcDbAlignedDimension
 13
203.0077690559996
 23
-29.39388129705197
 33
0
 14
300.5077690559996
 24
-29.39388129705197
 34
0
  0
LINE
  5
262
100
AcDbEntity
  8
Mampostería
  6
ByLayer
 62
  256
370
   -1
100
AcDbLine
 10
300.5077690559996
 20
-6.500000000000082
 11
203.0077690559996
 21
-6.500000000000057
  0
LINE
  5
263
100
AcDbEntity
  8
Mampostería
  6
ByLayer
 62
  256
370
   -1
100
AcDbLine
 10
310.5077690559996
 20
-8.072403144418141e-014
 11
310.5077690559996
 21
232.9999999999999
  0
LINE
  5
264
100
AcDbEntity
  8
Cotas
  6
ByLayer
 62
  256
370
   -1
100
AcDbLine
 10
278.3277690559996
 20
80.07272867580765
 11
305.7501307194635
 21
65.96039768798916
  0
LINE
  5
265
100
AcDbEntity
  8
Cotas
  6
ByLayer
 62
  256
370
   -2
100
AcDbLine
 10
305.75
 20
65.96040000000001
 11
321.785
 21
65.96040000000001
  0
LINE
  5
266
100
AcDbEntity
  8
Mampostería
  6
ByLayer
 62
  256
370
   -1
100
AcDbLine
 10
203.0077690559996
 20
-5.684341886080801e-014
 11
203.0077690559996
 21
-98.78678982948402
  0
LINE
  5
267
100
AcDbEntity
  8
Mampostería
  6
ByLayer
 62
  256
370
   -1
100
AcDbLine
 10
300.5077690559996
 20
-8.072403144418141e-014
 11
300.5077690559996
 21
-98.48118307393604
  0
LINE
  5
268
100
AcDbEntity
  8
Mampostería
  6
ByLayer
 62
  256
370
   -1
100
AcDbLine
 10
203.0077690559996
 20
-39.51471593179365
 11
300.5077690559996
 21
-39.39247322957446
  0
DIMENSION
  5
269
100
AcDbEntity
  8
Cotas
  6
ByLayer
 62
  256
370
   -1
100
AcDbDimension
  2
*D14
 10
181.2216891195894
 20
145.6999999999999
 30
0
 11
176.4716891195894
 21
87.36999999999991
 31
0
 70
   33
  1
116.5 libres
 71
    5
  3
Standard
 53
0
210
0
220
0
230
1
100
AcDbAlignedDimension
 13
203.0077690559996
 23
29.03999999999991
 33
0
 14
203.0077690559996
 24
145.6999999999999
 34
0
  0
DIMENSION
  5
26A
100
AcDbEntity
  8
Cotas
  6
ByLayer
 62
  256
370
   -1
100
AcDbDimension
  2
*D15
 10
167.3492482668637
 20
147.4999999999999
 30
0
 11
162.5992482668637
 21
73.74999999999991
 31
0
 70
   33
 71
    5
  3
Standard
 53
0
210
0
220
0
230
1
100
AcDbAlignedDimension
 13
203.0077690559996
 23
-5.684341886080801e-014
 33
0
 14
203.0077690559996
 24
147.4999999999999
 34
0
  0
DIMENSION
  5
26B
100
AcDbEntity
  8
Cotas
  6
ByLayer
 62
  256
370
   -1
100
AcDbDimension
  2
*D16
 10
167.3072542402234
 20
232.9999999999999
 30
0
 11
162.5572542402234
 21
190.2499999999999
 31
0
 70
   33
 71
    5
  3
Standard
 53
0
210
0
220
0
230
1
100
AcDbAlignedDimension
 13
203.0077690559996
 23
147.4999999999999
 33
0
 14
203.0077690559996
 24
232.9999999999999
 34
0
  0
MTEXT
  5
26C
100
AcDbEntity
  8
Cotas
  6
ByLayer
 62
  256
370
   -1
100
AcDbMText
 10
178.464934733826
 20
223.5900988395273
 30
0
 40
4
 41
20.95238666666667
 71
    1
 72
    1
  1
calefón
  7
romans
210
0
220
0
230
1
 50
0
 73
    2
 44
1
  0
LEADER
  5
26D
100
AcDbEntity
  8
Cotas
  6
ByLayer
 62
  256
370
   -1
100
AcDbLeader
  3
Standard
 71
    1
 72
    0
 73
    3
 74
    0
 75
    0
 40
1
 41
10
 76
3
 76
3
 10
224.0930245872322
 20
204.9344058068241
 30
0
 10
200.22327004115
 20
217.9685480918558
 30
0
 10
178.5497697275466
 20
217.9685480918558
 30
0
  0
LEADER
  5
26E
100
AcDbEntity
  8
Cotas
  6
ByLayer
 62
  256
370
   -1
100
AcDbLeader
  3
Standard
 71
    1
 72
    0
 73
    3
 74
    0
 75
    0
 40
1
 41
10
 76
3
 76
3
 10
224.0930245872322
 20
141.9219891059512
 30
0
 10
200.22327004115
 20
154.956131390983
 30
0
 10
178.5497697275466
 20
154.956131390983
 30
0
  0
MTEXT
  5
26F
100
AcDbEntity
  8
Cotas
  6
ByLayer
 62
  256
370
   -1
100
AcDbMText
 10
178.438051086171
 20
160.4908853371143
 30
0
 40
4
 41
21.90476444444444
 71
    1
 72
    1
  1
barrote
  7
romans
210
0
220
0
230
1
 50
0
 73
    2
 44
1
  0
MTEXT
  5
270
100
AcDbEntity
  8
Cotas
  6
ByLayer
 62
  256
370
   -1
100
AcDbMText
 10
306.3476367145348
 20
71.86684121732624
 30
0
 40
4
 41
15.61905333333333
 71
    1
 72
    1
  1
cajón
  7
romans
210
0
220
0
230
1
 50
0
 73
    2
 44
1
  0
DIMENSION
  5
271
100
AcDbEntity
  8
Cotas
  6
ByLayer
 62
  256
370
   -1
100
AcDbDimension
  2
*D19
 10
355.3784485370998
 20
232.9999999999999
 30
0
 11
350.6284485370998
 21
116.4999999999999
 31
0
 70
   33
 71
    5
  3
Standard
 53
0
210
0
220
0
230
1
100
AcDbAlignedDimension
 13
269.9442271073507
 23
-8.072403144418141e-014
 33
0
 14
269.9442271073507
 24
232.9999999999999
 34
0
  0
DIMENSION
  5
272
100
AcDbEntity
  8
Cotas
  6
ByLayer
 62
  256
370
   -1
100
AcDbDimension
  2
*D20
 10
335.295697560673
 20
58.71778873663851
 30
0
 11
330.545697560673
 21
44.10889436831921
 31
0
 70
   33
  1
29.5
 71
    5
  3
Standard
 53
0
210
0
220
0
230
1
100
AcDbAlignedDimension
 13
302.8067006660493
 23
29.49999999999992
 33
0
 14
302.8067006660493
 24
58.71778873663851
 34
0
  0
DIMENSION
  5
273
100
AcDbEntity
  8
Cotas
  6
ByLayer
 62
  256
370
   -1
100
AcDbDimension
  2
*D21
 10
335.295697560673
 20
29.21778873663851
 30
0
 11
330.545697560673
 21
14.60889436831921
 31
0
 70
   33
  1
29.5
 71
    5
  3
Standard
 53
0
210
0
220
0
230
1
100
AcDbAlignedDimension
 13
302.8067006660493
 23
-7.993605777301127e-014
 33
0
 14
302.8067006660493
 24
29.21778873663851
 34
0
  0
DIMENSION
  5
274
100
AcDbEntity
  8
Cotas
  6
ByLayer
 62
  256
370
   -1
100
AcDbDimension
  2
*D22
 10
335.295697560673
 20
88.21778873663852
 30
0
 11
330.545697560673
 21
73.60889436831923
 31
0
 70
   33
  1
29.5
 71
    5
  3
Standard
 53
0
210
0
220
0
230
1
100
AcDbAlignedDimension
 13
302.8067006660493
 23
58.99999999999992
 33
0
 14
302.8067006660493
 24
88.21778873663852
 34
0
  0
DIMENSION
  5
275
100
AcDbEntity
  8
Cotas
  6
ByLayer
 62
  256
370
   -1
100
AcDbDimension
  2
*D23
 10
335.295697560673
 20
117.7177887366385
 30
0
 11
330.545697560673
 21
103.1088943683192
 31
0
 70
   33
  1
29.5
 71
    5
  3
Standard
 53
0
210
0
220
0
230
1
100
AcDbAlignedDimension
 13
302.8067006660493
 23
88.49999999999993
 33
0
 14
302.8067006660493
 24
117.7177887366385
 34
0
  0
DIMENSION
  5
276
100
AcDbEntity
  8
Cotas
  6
ByLayer
 62
  256
370
   -1
100
AcDbDimension
  2
*D24
 10
335.295697560673
 20
147.2177887366385
 30
0
 11
330.545697560673
 21
132.6088943683192
 31
0
 70
   33
  1
29.5
 71
    5
  3
Standard
 53
0
210
0
220
0
230
1
100
AcDbAlignedDimension
 13
302.8067006660493
 23
117.9999999999999
 33
0
 14
302.8067006660493
 24
147.2177887366385
 34
0
  0
MTEXT
  5
277
100
AcDbEntity
  8
Cotas
  6
ByLayer
 62
  256
370
   -1
100
AcDbMText
 10
256.4007373653552
 20
152.1263427822302
 30
0
 40
3
 41
18.28571666666667
 71
    1
 72
    1
  1
e=18mm
  7
romans
210
0
220
0
230
1
 50
0
 73
    2
 44
1
  0
MTEXT
  5
278
100
AcDbEntity
  8
Cotas
  6
ByLayer
 62
  256
370
   -1
100
AcDbMText
 10
256.7578414563933
 20
123.0223593626252
 30
0
 40
3
 41
18.28571666666667
 71
    1
 72
    1
  1
e=12mm
  7
romans
210
0
220
0
230
1
 50
0
 73
    2
 44
1
  0
MTEXT
  5
279
100
AcDbEntity
  8
Cotas
  6
ByLayer
 62
  256
370
   -1
100
AcDbMText
 10
256.9363935019123
 20
93.56127185198199
 30
0
 40
3
 41
18.28571666666667
 71
    1
 72
    1
  1
e=12mm
  7
romans
210
0
220
0
230
1
 50
0
 73
    2
 44
1
  0
MTEXT
  5
27A
100
AcDbEntity
  8
Cotas
  6
ByLayer
 62
  256
370
   -1
100
AcDbMText
 10
256.7578414563933
 20
63.92163229581975
 30
0
 40
3
 41
18.28571666666667
 71
    1
 72
    1
  1
e=12mm
  7
romans
210
0
220
0
230
1
 50
0
 73
    2
 44
1
  0
MTEXT
  5
27B
100
AcDbEntity
  8
Cotas
  6
ByLayer
 62
  256
370
   -1
100
AcDbMText
 10
256.7578414563933
 20
33.92488864861942
 30
0
 40
3
 41
18.28571666666667
 71
    1
 72
    1
  1
e=12mm
  7
romans
210
0
220
0
230
1
 50
0
 73
    2
 44
1
  0
MTEXT
  5
27C
100
AcDbEntity
  8
Cotas
  6
ByLayer
 62
  256
370
   -1
100
AcDbMText
 10
217.7578414563933
 20
33.92488864861942
 30
0
 40
3
 41
18.28571666666667
 71
    1
 72
    1
  1
e=12mm
  7
romans
210
0
220
0
230
1
 50
0
 73
    2
 44
1
  0
MTEXT
  5
27D
100
AcDbEntity
  8
Cotas
  6
ByLayer
 62
  256
370
   -1
100
AcDbMText
 10
246.5803748618075
 20
72.31357843521508
 30
0
 40
3
 41
18.28571666666667
 71
    1
 72
    1
  1
e=18mm
  7
romans
210
0
220
0
230
1
 50
90
 73
    2
 44
1
  0
MTEXT
  5
27E
100
AcDbEntity
  8
Cotas
  6
ByLayer
 62
  256
370
   -1
100
AcDbMText
 10
306.4623533540679
 20
210.3758121856065
 30
0
 40
4
 41
18.09524
 71
    1
 72
    1
  1
marco
  7
romans
210
0
220
0
230
1
 50
0
 73
    2
 44
1
  0
DIMENSION
  5
27F
100
AcDbEntity
  8
Cotas
  6
ByLayer
 62
  256
370
   -1
100
AcDbDimension
  2
*D25
 10
296.008
 20
238.1992941039739
 30
0
 11
251.758
 21
242.9492941039739
 31
0
 70
   33
 71
    5
  3
Standard
 53
0
210
0
220
0
230
1
100
AcDbAlignedDimension
 13
207.508
 23
228.5
 33
0
 14
296.008
 24
228.5
 34
0
  0
DIMENSION
  5
280
100
AcDbEntity
  8
Cotas
  6
ByLayer
 62
  256
370
   -1
100
AcDbDimension
  2
*D26
 10
300.5077690559996
 20
-16.27567343841605
 30
0
 11
251.7577690559996
 21
-11.52567343841605
 31
0
 70
   33
 71
    5
 72
    0
  3
Standard
 53
0
210
0
220
0
230
1
100
AcDbAlignedDimension
 13
203.0077690559996
 23
-29.39388129705197
 33
0
 14
300.5077690559996
 24
-29.39388129705197
 34
0
  0
LINE
  5
281
100
AcDbEntity
  8
Cotas
  6
ByLayer
 62
  256
370
   -1
100
AcDbLine
 10
278.3277690559996
 20
80.07272867580765
 11
305.7501307194635
 21
65.96039768798916
  0
LINE
  5
282
100
AcDbEntity
  8
Cotas
  6
ByLayer
 62
  256
370
   13
100
AcDbLine
 10
305.75
 20
65.96040000000001
 11
321.785
 21
65.96040000000001
  0
DIMENSION
  5
283
100
AcDbEntity
  8
Cotas
  6
ByLayer
 62
  256
370
   -1
100
AcDbDimension
  2
*D27
 10
181.2216891195894
 20
145.6999999999999
 30
0
 11
176.4716891195894
 21
87.36999999999991
 31
0
 70
   33
  1
116.5 libres
 71
    5
  3
Standard
 53
0
210
0
220
0
230
1
100
AcDbAlignedDimension
 13
203.0077690559996
 23
29.03999999999991
 33
0
 14
203.0077690559996
 24
145.6999999999999
 34
0
  0
DIMENSION
  5
284
100
AcDbEntity
  8
Cotas
  6
ByLayer
 62
  256
370
   -1
100
AcDbDimension
  2
*D28
 10
167.3492482668637
 20
147.4999999999999
 30
0
 11
162.5992482668637
 21
73.74999999999991
 31
0
 70
   33
 71
    5
  3
Standard
 53
0
210
0
220
0
230
1
100
AcDbAlignedDimension
 13
203.0077690559996
 23
-5.684341886080801e-014
 33
0
 14
203.0077690559996
 24
147.4999999999999
 34
0
  0
DIMENSION
  5
285
100
AcDbEntity
  8
Cotas
  6
ByLayer
 62
  256
370
   -1
100
AcDbDimension
  2
*D29
 10
167.3072542402234
 20
232.9999999999999
 30
0
 11
162.5572542402234
 21
190.2499999999999
 31
0
 70
   33
 71
    5
  3
Standard
 53
0
210
0
220
0
230
1
100
AcDbAlignedDimension
 13
203.0077690559996
 23
147.4999999999999
 33
0
 14
203.0077690559996
 24
232.9999999999999
 34
0
  0
MTEXT
  5
286
100
AcDbEntity
  8
Cotas
  6
ByLayer
 62
  256
370
   -1
100
AcDbMText
 10
178.464934733826
 20
223.5900988395273
 30
0
 40
4
 41
20.95238666666667
 71
    1
 72
    1
  1
calefón
  7
romans
210
0
220
0
230
1
 50
0
 73
    2
 44
1
  0
LEADER
  5
287
100
AcDbEntity
  8
Cotas
  6
ByLayer
 62
  256
370
   -1
100
AcDbLeader
  3
Standard
 71
    1
 72
    0
 73
    3
 74
    0
 75
    0
 40
1
 41
10
 76
3
 76
3
 10
224.0930245872322
 20
204.9344058068241
 30
0
 10
200.22327004115
 20
217.9685480918558
 30
0
 10
178.5497697275466
 20
217.9685480918558
 30
0
  0
LEADER
  5
288
100
AcDbEntity
  8
Cotas
  6
ByLayer
 62
  256
370
   -1
100
AcDbLeader
  3
Standard
 71
    1
 72
    0
 73
    3
 74
    0
 75
    0
 40
1
 41
10
 76
3
 76
3
 10
224.0930245872322
 20
141.9219891059512
 30
0
 10
200.22327004115
 20
154.956131390983
 30
0
 10
178.5497697275466
 20
154.956131390983
 30
0
  0
MTEXT
  5
289
100
AcDbEntity
  8
Cotas
  6
ByLayer
 62
  256
370
   -1
100
AcDbMText
 10
178.438051086171
 20
160.4908853371143
 30
0
 40
4
 41
21.90476444444444
 71
    1
 72
    1
  1
barrote
  7
romans
210
0
220
0
230
1
 50
0
 73
    2
 44
1
  0
MTEXT
  5
28A
100
AcDbEntity
  8
Cotas
  6
ByLayer
 62
  256
370
   -1
100
AcDbMText
 10
306.3476367145348
 20
71.86684121732624
 30
0
 40
4
 41
15.61905333333333
 71
    1
 72
    1
  1
cajón
  7
romans
210
0
220
0
230
1
 50
0
 73
    2
 44
1
  0
DIMENSION
  5
28B
100
AcDbEntity
  8
Cotas
  6
ByLayer
 62
  256
370
   -1
100
AcDbDimension
  2
*D32
 10
355.3784485370998
 20
232.9999999999999
 30
0
 11
350.6284485370998
 21
116.4999999999999
 31
0
 70
   33
 71
    5
  3
Standard
 53
0
210
0
220
0
230
1
100
AcDbAlignedDimension
 13
269.9442271073507
 23
-8.072403144418141e-014
 33
0
 14
269.9442271073507
 24
232.9999999999999
 34
0
  0
DIMENSION
  5
28C
100
AcDbEntity
  8
Cotas
  6
ByLayer
 62
  256
370
   -1
100
AcDbDimension
  2
*D33
 10
335.295697560673
 20
58.71778873663851
 30
0
 11
330.545697560673
 21
44.10889436831921
 31
0
 70
   33
  1
29.5
 71
    5
  3
Standard
 53
0
210
0
220
0
230
1
100
AcDbAlignedDimension
 13
302.8067006660493
 23
29.49999999999992
 33
0
 14
302.8067006660493
 24
58.71778873663851
 34
0
  0
DIMENSION
  5
28D
100
AcDbEntity
  8
Cotas
  6
ByLayer
 62
  256
370
   -1
100
AcDbDimension
  2
*D34
 10
335.295697560673
 20
29.21778873663851
 30
0
 11
330.545697560673
 21
14.60889436831921
 31
0
 70
   33
  1
29.5
 71
    5
  3
Standard
 53
0
210
0
220
0
230
1
100
AcDbAlignedDimension
 13
302.8067006660493
 23
-7.993605777301127e-014
 33
0
 14
302.8067006660493
 24
29.21778873663851
 34
0
  0
DIMENSION
  5
28E
100
AcDbEntity
  8
Cotas
  6
ByLayer
 62
  256
370
   -1
100
AcDbDimension
  2
*D35
 10
335.295697560673
 20
88.21778873663852
 30
0
 11
330.545697560673
 21
73.60889436831923
 31
0
 70
   33
  1
29.5
 71
    5
  3
Standard
 53
0
210
0
220
0
230
1
100
AcDbAlignedDimension
 13
302.8067006660493
 23
58.99999999999992
 33
0
 14
302.8067006660493
 24
88.21778873663852
 34
0
  0
DIMENSION
  5
28F
100
AcDbEntity
  8
Cotas
  6
ByLayer
 62
  256
370
   -1
100
AcDbDimension
  2
*D36
 10
335.295697560673
 20
117.7177887366385
 30
0
 11
330.545697560673
 21
103.1088943683192
 31
0
 70
   33
  1
29.5
 71
    5
  3
Standard
 53
0
210
0
220
0
230
1
100
AcDbAlignedDimension
 13
302.8067006660493
 23
88.49999999999993
 33
0
 14
302.8067006660493
 24
117.7177887366385
 34
0
  0
DIMENSION
  5
290
100
AcDbEntity
  8
Cotas
  6
ByLayer
 62
  256
370
   -1
100
AcDbDimension
  2
*D37
 10
335.295697560673
 20
147.2177887366385
 30
0
 11
330.545697560673
 21
132.6088943683192
 31
0
 70
   33
  1
29.5
 71
    5
  3
Standard
 53
0
210
0
220
0
230
1
100
AcDbAlignedDimension
 13
302.8067006660493
 23
117.9999999999999
 33
0
 14
302.8067006660493
 24
147.2177887366385
 34
0
  0
MTEXT
  5
291
100
AcDbEntity
  8
Cotas
  6
ByLayer
 62
  256
370
   -1
100
AcDbMText
 10
256.4007373653552
 20
152.1263427822302
 30
0
 40
3
 41
18.28571666666667
 71
    1
 72
    1
  1
e=18mm
  7
romans
210
0
220
0
230
1
 50
0
 73
    2
 44
1
  0
MTEXT
  5
292
100
AcDbEntity
  8
Cotas
  6
ByLayer
 62
  256
370
   -1
100
AcDbMText
 10
256.7578414563933
 20
123.0223593626252
 30
0
 40
3
 41
18.28571666666667
 71
    1
 72
    1
  1
e=12mm
  7
romans
210
0
220
0
230
1
 50
0
 73
    2
 44
1
  0
MTEXT
  5
293
100
AcDbEntity
  8
Cotas
  6
ByLayer
 62
  256
370
   -1
100
AcDbMText
 10
256.9363935019123
 20
93.56127185198199
 30
0
 40
3
 41
18.28571666666667
 71
    1
 72
    1
  1
e=12mm
  7
romans
210
0
220
0
230
1
 50
0
 73
    2
 44
1
  0
MTEXT
  5
294
100
AcDbEntity
  8
Cotas
  6
ByLayer
 62
  256
370
   -1
100
AcDbMText
 10
256.7578414563933
 20
63.92163229581975
 30
0
 40
3
 41
18.28571666666667
 71
    1
 72
    1
  1
e=12mm
  7
romans
210
0
220
0
230
1
 50
0
 73
    2
 44
1
  0
MTEXT
  5
295
100
AcDbEntity
  8
Cotas
  6
ByLayer
 62
  256
370
   -1
100
AcDbMText
 10
256.7578414563933
 20
33.92488864861942
 30
0
 40
3
 41
18.28571666666667
 71
    1
 72
    1
  1
e=12mm
  7
romans
210
0
220
0
230
1
 50
0
 73
    2
 44
1
  0
MTEXT
  5
296
100
AcDbEntity
  8
Cotas
  6
ByLayer
 62
  256
370
   -1
100
AcDbMText
 10
217.7578414563933
 20
33.92488864861942
 30
0
 40
3
 41
18.28571666666667
 71
    1
 72
    1
  1
e=12mm
  7
romans
210
0
220
0
230
1
 50
0
 73
    2
 44
1
  0
MTEXT
  5
297
100
AcDbEntity
  8
Cotas
  6
ByLayer
 62
  256
370
   -1
100
AcDbMText
 10
246.5803748618075
 20
72.31357843521508
 30
0
 40
3
 41
18.28571666666667
 71
    1
 72
    1
  1
e=18mm
  7
romans
210
0
220
0
230
1
 50
90
 73
    2
 44
1
  0
MTEXT
  5
298
100
AcDbEntity
  8
Cotas
  6
ByLayer
 62
  256
370
   -1
100
AcDbMText
 10
306.4623533540679
 20
210.3758121856065
 30
0
 40
4
 41
18.09524
 71
    1
 72
    1
  1
marco
  7
romans
210
0
220
0
230
1
 50
0
 73
    2
 44
1
  0
DIMENSION
  5
299
100
AcDbEntity
  8
Cotas
  6
ByLayer
 62
  256
370
   -1
100
AcDbDimension
  2
*D38
 10
296.008
 20
238.1992941039739
 30
0
 11
251.758
 21
242.9492941039739
 31
0
 70
   33
 71
    5
  3
Standard
 53
0
210
0
220
0
230
1
100
AcDbAlignedDimension
 13
207.508
 23
228.5
 33
0
 14
296.008
 24
228.5
 34
0
  0
DIMENSION
  5
29A
100
AcDbEntity
  8
Cotas
  6
ByLayer
 62
  256
370
   -1
100
AcDbDimension
  2
*D39
 10
300.5077690559996
 20
-16.27567343841605
 30
0
 11
251.7577690559996
 21
-11.52567343841605
 31
0
 70
   33
 71
    5
 72
    0
  3
Standard
 53
0
210
0
220
0
230
1
100
AcDbAlignedDimension
 13
203.0077690559996
 23
-29.39388129705197
 33
0
 14
300.5077690559996
 24
-29.39388129705197
 34
0
  0
LINE
  5
29B
100
AcDbEntity
  8
Cotas
  6
ByLayer
 62
  256
370
   -1
100
AcDbLine
 10
278.3277690559996
 20
80.07272867580765
 11
305.7501307194635
 21
65.96039768798916
  0
LINE
  5
29C
100
AcDbEntity
  8
Cotas
  6
ByLayer
 62
  256
370
   13
100
AcDbLine
 10
305.75
 20
65.96040000000001
 11
321.785
 21
65.96040000000001
  0
DIMENSION
  5
29D
100
AcDbEntity
  8
Cotas
  6
ByLayer
 62
  256
370
   -1
100
AcDbDimension
  2
*D40
 10
181.2216891195894
 20
145.6999999999999
 30
0
 11
176.4716891195894
 21
87.36999999999991
 31
0
 70
   33
  1
116.5 libres
 71
    5
  3
Standard
 53
0
210
0
220
0
230
1
100
AcDbAlignedDimension
 13
203.0077690559996
 23
29.03999999999991
 33
0
 14
203.0077690559996
 24
145.6999999999999
 34
0
  0
DIMENSION
  5
29E
100
AcDbEntity
  8
Cotas
  6
ByLayer
 62
  256
370
   -1
100
AcDbDimension
  2
*D41
 10
167.3492482668637
 20
147.4999999999999
 30
0
 11
162.5992482668637
 21
73.74999999999991
 31
0
 70
   33
 71
    5
  3
Standard
 53
0
210
0
220
0
230
1
100
AcDbAlignedDimension
 13
203.0077690559996
 23
-5.684341886080801e-014
 33
0
 14
203.0077690559996
 24
147.4999999999999
 34
0
  0
DIMENSION
  5
29F
100
AcDbEntity
  8
Cotas
  6
ByLayer
 62
  256
370
   -1
100
AcDbDimension
  2
*D42
 10
167.3072542402234
 20
232.9999999999999
 30
0
 11
162.5572542402234
 21
190.2499999999999
 31
0
 70
   33
 71
    5
  3
Standard
 53
0
210
0
220
0
230
1
100
AcDbAlignedDimension
 13
203.0077690559996
 23
147.4999999999999
 33
0
 14
203.0077690559996
 24
232.9999999999999
 34
0
  0
MTEXT
  5
2A0
100
AcDbEntity
  8
Cotas
  6
ByLayer
 62
  256
370
   -1
100
AcDbMText
 10
178.464934733826
 20
223.5900988395273
 30
0
 40
4
 41
20.95238666666667
 71
    1
 72
    1
  1
calefón
  7
romans
210
0
220
0
230
1
 50
0
 73
    2
 44
1
  0
LEADER
  5
2A1
100
AcDbEntity
  8
Cotas
  6
ByLayer
 62
  256
370
   -1
100
AcDbLeader
  3
Standard
 71
    1
 72
    0
 73
    3
 74
    0
 75
    0
 40
1
 41
10
 76
3
 76
3
 10
224.0930245872322
 20
204.9344058068241
 30
0
 10
200.22327004115
 20
217.9685480918558
 30
0
 10
178.5497697275466
 20
217.9685480918558
 30
0
  0
MTEXT
  5
2A2
100
AcDbEntity
  8
Cotas
  6
ByLayer
 62
  256
370
   -1
100
AcDbMText
 10
178.438051086171
 20
160.4908853371143
 30
0
 40
4
 41
21.90476444444444
 71
    1
 72
    1
  1
barrote
  7
romans
210
0
220
0
230
1
 50
0
 73
    2
 44
1
  0
MTEXT
  5
2A3
100
AcDbEntity
  8
Cotas
  6
ByLayer
 62
  256
370
   -1
100
AcDbMText
 10
306.3476367145348
 20
71.86684121732624
 30
0
 40
4
 41
15.61905333333333
 71
    1
 72
    1
  1
cajón
  7
romans
210
0
220
0
230
1
 50
0
 73
    2
 44
1
  0
DIMENSION
  5
2A4
100
AcDbEntity
  8
Cotas
  6
ByLayer
 62
  256
370
   -1
100
AcDbDimension
  2
*D44
 10
355.3784485370998
 20
232.9999999999999
 30
0
 11
350.6284485370998
 21
116.4999999999999
 31
0
 70
   33
 71
    5
  3
Standard
 53
0
210
0
220
0
230
1
100
AcDbAlignedDimension
 13
269.9442271073507
 23
-8.072403144418141e-014
 33
0
 14
269.9442271073507
 24
232.9999999999999
 34
0
  0
DIMENSION
  5
2A5
100
AcDbEntity
  8
Cotas
  6
ByLayer
 62
  256
370
   -1
100
AcDbDimension
  2
*D45
 10
335.295697560673
 20
58.71778873663851
 30
0
 11
330.545697560673
 21
44.10889436831921
 31
0
 70
   33
  1
29.5
 71
    5
  3
Standard
 53
0
210
0
220
0
230
1
100
AcDbAlignedDimension
 13
302.8067006660493
 23
29.49999999999992
 33
0
 14
302.8067006660493
 24
58.71778873663851
 34
0
  0
DIMENSION
  5
2A6
100
AcDbEntity
  8
Cotas
  6
ByLayer
 62
  256
370
   -1
100
AcDbDimension
  2
*D46
 10
335.295697560673
 20
29.21778873663851
 30
0
 11
330.545697560673
 21
14.60889436831921
 31
0
 70
   33
  1
29.5
 71
    5
  3
Standard
 53
0
210
0
220
0
230
1
100
AcDbAlignedDimension
 13
302.8067006660493
 23
-7.993605777301127e-014
 33
0
 14
302.8067006660493
 24
29.21778873663851
 34
0
  0
DIMENSION
  5
2A7
100
AcDbEntity
  8
Cotas
  6
ByLayer
 62
  256
370
   -1
100
AcDbDimension
  2
*D47
 10
335.295697560673
 20
88.21778873663852
 30
0
 11
330.545697560673
 21
73.60889436831923
 31
0
 70
   33
  1
29.5
 71
    5
  3
Standard
 53
0
210
0
220
0
230
1
100
AcDbAlignedDimension
 13
302.8067006660493
 23
58.99999999999992
 33
0
 14
302.8067006660493
 24
88.21778873663852
 34
0
  0
DIMENSION
  5
2A8
100
AcDbEntity
  8
Cotas
  6
ByLayer
 62
  256
370
   -1
100
AcDbDimension
  2
*D48
 10
335.295697560673
 20
117.7177887366385
 30
0
 11
330.545697560673
 21
103.1088943683192
 31
0
 70
   33
  1
29.5
 71
    5
  3
Standard
 53
0
210
0
220
0
230
1
100
AcDbAlignedDimension
 13
302.8067006660493
 23
88.49999999999993
 33
0
 14
302.8067006660493
 24
117.7177887366385
 34
0
  0
DIMENSION
  5
2A9
100
AcDbEntity
  8
Cotas
  6
ByLayer
 62
  256
370
   -1
100
AcDbDimension
  2
*D49
 10
335.295697560673
 20
147.2177887366385
 30
0
 11
330.545697560673
 21
132.6088943683192
 31
0
 70
   33
  1
29.5
 71
    5
  3
Standard
 53
0
210
0
220
0
230
1
100
AcDbAlignedDimension
 13
302.8067006660493
 23
117.9999999999999
 33
0
 14
302.8067006660493
 24
147.2177887366385
 34
0
  0
MTEXT
  5
2AA
100
AcDbEntity
  8
Cotas
  6
ByLayer
 62
  256
370
   -1
100
AcDbMText
 10
256.4007373653552
 20
152.1263427822302
 30
0
 40
3
 41
18.28571666666667
 71
    1
 72
    1
  1
e=18mm
  7
romans
210
0
220
0
230
1
 50
0
 73
    2
 44
1
  0
MTEXT
  5
2AB
100
AcDbEntity
  8
Cotas
  6
ByLayer
 62
  256
370
   -1
100
AcDbMText
 10
256.7578414563933
 20
123.0223593626252
 30
0
 40
3
 41
18.28571666666667
 71
    1
 72
    1
  1
e=12mm
  7
romans
210
0
220
0
230
1
 50
0
 73
    2
 44
1
  0
MTEXT
  5
2AC
100
AcDbEntity
  8
Cotas
  6
ByLayer
 62
  256
370
   -1
100
AcDbMText
 10
256.9363935019123
 20
93.56127185198199
 30
0
 40
3
 41
18.28571666666667
 71
    1
 72
    1
  1
e=12mm
  7
romans
210
0
220
0
230
1
 50
0
 73
    2
 44
1
  0
MTEXT
  5
2AD
100
AcDbEntity
  8
Cotas
  6
ByLayer
 62
  256
370
   -1
100
AcDbMText
 10
256.7578414563933
 20
63.92163229581975
 30
0
 40
3
 41
18.28571666666667
 71
    1
 72
    1
  1
e=12mm
  7
romans
210
0
220
0
230
1
 50
0
 73
    2
 44
1
  0
MTEXT
  5
2AE
100
AcDbEntity
  8
Cotas
  6
ByLayer
 62
  256
370
   -1
100
AcDbMText
 10
256.7578414563933
 20
33.92488864861942
 30
0
 40
3
 41
18.28571666666667
 71
    1
 72
    1
  1
e=12mm
  7
romans
210
0
220
0
230
1
 50
0
 73
    2
 44
1
  0
MTEXT
  5
2AF
100
AcDbEntity
  8
Cotas
  6
ByLayer
 62
  256
370
   -1
100
AcDbMText
 10
217.7578414563933
 20
33.92488864861942
 30
0
 40
3
 41
18.28571666666667
 71
    1
 72
    1
  1
e=12mm
  7
romans
210
0
220
0
230
1
 50
0
 73
    2
 44
1
  0
MTEXT
  5
2B0
100
AcDbEntity
  8
Cotas
  6
ByLayer
 62
  256
370
   -1
100
AcDbMText
 10
246.5803748618075
 20
72.31357843521508
 30
0
 40
3
 41
18.28571666666667
 71
    1
 72
    1
  1
e=18mm
  7
romans
210
0
220
0
230
1
 50
90
 73
    2
 44
1
  0
MTEXT
  5
2B1
100
AcDbEntity
  8
Cotas
  6
ByLayer
 62
  256
370
   -1
100
AcDbMText
 10
306.4623533540679
 20
210.3758121856065
 30
0
 40
4
 41
18.09524
 71
    1
 72
    1
  1
marco
  7
romans
210
0
220
0
230
1
 50
0
 73
    2
 44
1
  0
DIMENSION
  5
2B2
100
AcDbEntity
  8
Cotas
  6
ByLayer
 62
  256
370
   -1
100
AcDbDimension
  2
*D50
 10
296.008
 20
238.1992941039739
 30
0
 11
251.758
 21
242.9492941039739
 31
0
 70
   33
 71
    5
  3
Standard
 53
0
210
0
220
0
230
1
100
AcDbAlignedDimension
 13
207.508
 23
228.5
 33
0
 14
296.008
 24
228.5
 34
0
  0
DIMENSION
  5
2B3
100
AcDbEntity
  8
Cotas
  6
ByLayer
 62
  256
370
   -1
100
AcDbDimension
  2
*D51
 10
300.5077690559996
 20
-16.27567343841605
 30
0
 11
251.7577690559996
 21
-11.52567343841605
 31
0
 70
   33
 71
    5
 72
    0
  3
Standard
 53
0
210
0
220
0
230
1
100
AcDbAlignedDimension
 13
203.0077690559996
 23
-29.39388129705197
 33
0
 14
300.5077690559996
 24
-29.39388129705197
 34
0
  0
LINE
  5
2B4
100
AcDbEntity
  8
Cotas
  6
ByLayer
 62
  256
370
   -1
100
AcDbLine
 10
278.3277690559996
 20
80.07272867580765
 11
305.7501307194635
 21
65.96039768798916
  0
LINE
  5
2B5
100
AcDbEntity
  8
Cotas
  6
ByLayer
 62
  256
370
   13
100
AcDbLine
 10
305.75
 20
65.96040000000001
 11
321.785
 21
65.96040000000001
  0
DIMENSION
  5
2B6
100
AcDbEntity
  8
Cotas1
  6
ByLayer
 62
  256
370
   -1
100
AcDbDimension
  2
*D52
 10
296.008
 20
238.2069509173715
 30
0
 11
251.758
 21
242.9569509173715
 31
0
 70
   32
 71
    5
  3
Standard
 53
0
210
0
220
0
230
1
100
AcDbAlignedDimension
 13
207.508
 23
228.5
 33
0
 14
296.008
 24
228.5
 34
0
100
AcDbRotatedDimension
  0
DIMENSION
  5
2B7
100
AcDbEntity
  8
Cotas1
  6
ByLayer
 62
  256
370
   -1
100
AcDbDimension
  2
*D53
 10
300.5077690559996
 20
-16.1815141853826
 30
0
 11
251.7577690559996
 21
-11.4315141853826
 31
0
 70
   32
 71
    5
  3
Standard
 53
0
210
0
220
0
230
1
100
AcDbAlignedDimension
 13
203.0077690559996
 23
-6.500000000000057
 33
0
 14
300.5077690559996
 24
-6.500000000000082
 34
0
100
AcDbRotatedDimension
  0
DIMENSION
  5
2B8
100
AcDbEntity
  8
Cotas1
  6
ByLayer
 62
  256
370
   -1
100
AcDbDimension
  2
*D54
 10
167.4002862450316
 20
147.4999999999999
 30
0
 11
162.6502862450316
 21
73.74999999999991
 31
0
 70
   32
 71
    5
  3
Standard
 53
0
210
0
220
0
230
1
100
AcDbAlignedDimension
 13
203.0077690559996
 23
-5.684341886080801e-014
 33
0
 14
203.0077690559996
 24
147.4999999999999
 34
0
 50
90
100
AcDbRotatedDimension
  0
DIMENSION
  5
2B9
100
AcDbEntity
  8
Cotas1
  6
ByLayer
 62
  256
370
   -1
100
AcDbDimension
  2
*D55
 10
167.4929128772547
 20
232.9999999999999
 30
0
 11
162.7429128772547
 21
190.2499999999999
 31
0
 70
   32
 71
    5
  3
Standard
 53
0
210
0
220
0
230
1
100
AcDbAlignedDimension
 13
203.0077690559996
 23
147.4999999999999
 33
0
 14
203.0077690559996
 24
232.9999999999999
 34
0
 50
90
100
AcDbRotatedDimension
  0
ENDSEC
  0
SECTION
  2
OBJECTS
  0
DICTIONARY
  5
C
330
0
100
AcDbDictionary
281
    1
  3
ACAD_GROUP
350
D
  0
DICTIONARY
  5
D
330
C
100
AcDbDictionary
281
    1
  0
PLOTSETTINGS
  5
2BA
100
AcDbPlotSettings
  6
1x1
 40
0
 41
0
 42
0
 43
0
  0
ENDSEC
  0
EOF
