999
dxfrw 0.6.3
  0
SECTION
  2
HEADER
  9
$ACADVER
  1
AC1021
  9
$DWGCODEPAGE
  3
ANSI_1252
  9
$INSBASE
 10
0
 20
0
 30
0
  9
$EXTMIN
 10
98.72083333333333
 20
-0.1083333333333334
 30
0
  9
$EXTMAX
 10
5000000100.379167
 20
85.10000000000002
 30
0
  9
$LIMMIN
 10
0
 20
0
  9
$LIMMAX
 10
420
 20
297
  9
$ORTHOMODE
 70
    0
  9
$REGENMODE
 70
    1
  9
$FILLMODE
 70
    1
  9
$QTEXTMODE
 70
    0
  9
$MIRRTEXT
 70
    0
  9
$LTSCALE
 40
1
  9
$ATTMODE
 70
    0
  9
$TEXTSIZE
 40
2.5
  9
$TRACEWID
 40
15.68
  9
$TEXTSTYLE
  7
STANDARD
  9
$CLAYER
  8
05 - Zuncho Base
  9
$CELTYPE
  6
BYLAYER
  9
$CECOLOR
 62
  256
  9
$CELTSCALE
 40
1
  9
$DISPSILH
 70
    0
  9
$DIMSCALE
 40
0.1
  9
$DIMASZ
 40
1
  9
$DIMEXO
 40
0.625
  9
$DIMDLI
 40
3.75
  9
$DIMRND
 40
0
  9
$DIMDLE
 40
0
  9
$DIMEXE
 40
1.25
  9
$DIMTP
 40
0
  9
$DIMTM
 40
0
  9
$DIMTXT
 40
1.5
  9
$DIMCEN
 40
2.5
  9
$DIMTSZ
 40
0
  9
$DIMTOL
 70
    0
  9
$DIMLIM
 70
    0
  9
$DIMTIH
 70
    1
  9
$DIMTOH
 70
    0
  9
$DIMSE1
 70
    0
  9
$DIMSE2
 70
    0
  9
$DIMTAD
 70
    1
  9
$DIMZIN
 70
    0
  9
$DIMBLK
  1

  9
$DIMASO
 70
    1
  9
$DIMSHO
 70
    1
  9
$DIMPOST
  1

  9
$DIMAPOST
  1

  9
$DIMALT
 70
    0
  9
$DIMALTD
 70
    3
  9
$DIMALTF
 40
0.03937
  9
$DIMLFAC
 40
1
  9
$DIMTOFL
 70
    1
  9
$DIMTVP
 40
0
  9
$DIMTIX
 70
    0
  9
$DIMSOXD
 70
    0
  9
$DIMSAH
 70
    0
  9
$DIMBLK1
  1

  9
$DIMBLK2
  1

  9
$DIMSTYLE
  2
STANDARD
  9
$DIMCLRD
 70
    0
  9
$DIMCLRE
 70
    0
  9
$DIMCLRT
 70
    2
  9
$DIMTFAC
 40
1
  9
$DIMGAP
 40
0.625
  9
$DIMJUST
 70
    0
  9
$DIMSD1
 70
    0
  9
$DIMSD2
 70
    0
  9
$DIMTOLJ
 70
    0
  9
$DIMTZIN
 70
    8
  9
$DIMALTZ
 70
    0
  9
$DIMALTTZ
 70
    0
  9
$DIMUPT
 70
    0
  9
$DIMDEC
 70
    2
  9
$DIMTDEC
 70
    2
  9
$DIMALTU
 70
    2
  9
$DIMALTTD
 70
    3
  9
$DIMTXSTY
  7
standard
  9
$DIMAUNIT
 70
    0
  9
$DIMADEC
 70
    0
  9
$DIMALTRND
 40
0
  9
$DIMAZIN
 70
    0
  9
$DIMDSEP
 70
   44
  9
$DIMATFIT
 70
    3
  9
$DIMFRAC
 70
    0
  9
$DIMLDRBLK
  1
STANDARD
  9
$DIMLUNIT
 70
    2
  9
$DIMLWD
 70
   -2
  9
$DIMLWE
 70
   -2
  9
$DIMTMOVE
 70
    0
  9
$DIMFXL
 40
1
  9
$DIMFXLON
 70
    0
  9
$DIMJOGANG
 40
0.7854
  9
$DIMTFILL
 70
    0
  9
$DIMTFILLCLR
 70
    0
  9
$DIMARCSYM
 70
    0
  9
$DIMLTYPE
  6

  9
$DIMLTEX1
  6

  9
$DIMLTEX2
  6

  9
$LUNITS
 70
    2
  9
$LUPREC
 70
    2
  9
$SKETCHINC
 40
1
  9
$FILLETRAD
 40
0
  9
$AUNITS
 70
    0
  9
$AUPREC
 70
    2
  9
$MENU
  1
.
  9
$ELEVATION
 40
0
  9
$PELEVATION
 40
0
  9
$THICKNESS
 40
0
  9
$LIMCHECK
 70
    0
  9
$CHAMFERA
 40
0
  9
$CHAMFERB
 40
0
  9
$CHAMFERC
 40
0
  9
$CHAMFERD
 40
0
  9
$SKPOLY
 70
    0
  9
$USRTIMER
 70
    1
  9
$ANGBASE
 50
0
  9
$ANGDIR
 70
    0
  9
$PDMODE
 70
   34
  9
$PDSIZE
 40
0
  9
$PLINEWID
 40
0
  9
$SPLFRAME
 70
    0
  9
$SPLINETYPE
 70
    2
  9
$SPLINESEGS
 70
    8
  9
$HANDSEED
  5
20000
  9
$SURFTAB1
 70
    6
  9
$SURFTAB2
 70
    6
  9
$SURFTYPE
 70
    6
  9
$SURFU
 70
    6
  9
$SURFV
 70
    6
  9
$UCSBASE
  2

  9
$UCSNAME
  2

  9
$UCSORG
 10
0
 20
0
 30
0
  9
$UCSXDIR
 10
1
 20
0
 30
0
  9
$UCSYDIR
 10
0
 20
1
 30
0
  9
$UCSORTHOREF
  2

  9
$UCSORTHOVIEW
 70
    0
  9
$UCSORGTOP
 10
0
 20
0
 30
0
  9
$UCSORGBOTTOM
 10
0
 20
0
 30
0
  9
$UCSORGLEFT
 10
0
 20
0
 30
0
  9
$UCSORGRIGHT
 10
0
 20
0
 30
0
  9
$UCSORGFRONT
 10
0
 20
0
 30
0
  9
$UCSORGBACK
 10
0
 20
0
 30
0
  9
$PUCSBASE
  2

  9
$PUCSNAME
  2

  9
$PUCSORG
 10
0
 20
0
 30
0
  9
$PUCSXDIR
 10
1
 20
0
 30
0
  9
$PUCSYDIR
 10
0
 20
1
 30
0
  9
$PUCSORTHOREF
  2

  9
$PUCSORTHOVIEW
 70
    0
  9
$PUCSORGTOP
 10
0
 20
0
 30
0
  9
$PUCSORGBOTTOM
 10
0
 20
0
 30
0
  9
$PUCSORGLEFT
 10
0
 20
0
 30
0
  9
$PUCSORGRIGHT
 10
0
 20
0
 30
0
  9
$PUCSORGFRONT
 10
0
 20
0
 30
0
  9
$PUCSORGBACK
 10
0
 20
0
 30
0
  9
$USERI1
 70
    0
  9
$USERI2
 70
    0
  9
$USERI3
 70
    0
  9
$USERI4
 70
    0
  9
$USERI5
 70
    0
  9
$USERR1
 40
0
  9
$USERR2
 40
0
  9
$USERR3
 40
0
  9
$USERR4
 40
0
  9
$USERR5
 40
0
  9
$WORLDVIEW
 70
    1
  9
$SHADEDGE
 70
    3
  9
$SHADEDIF
 70
   70
  9
$TILEMODE
 70
    1
  9
$MAXACTVP
 70
   64
  9
$PINSBASE
 10
0
 20
0
 30
0
  9
$PLIMCHECK
 70
    0
  9
$PEXTMIN
 10
0
 20
0
 30
0
  9
$PEXTMAX
 10
0
 20
0
 30
0
  9
$GRIDMODE
 70
    0
  9
$SNAPSTYLE
 70
    0
  9
$GRIDUNIT
 10
0
 20
0
  9
$PLIMMIN
 10
0
 20
0
  9
$PLIMMAX
 10
0.21
 20
0.297
  9
$UNITMODE
 70
    0
  9
$VISRETAIN
 70
    1
  9
$PLINEGEN
 70
    0
  9
$PSLTSCALE
 70
    1
  9
$TREEDEPTH
 70
 3020
  9
$CMLSTYLE
  2
Standard
  9
$CMLJUST
 70
    0
  9
$CMLSCALE
 40
20
  9
$PROXYGRAPHICS
 70
    1
  9
$MEASUREMENT
 70
    1
  9
$CELWEIGHT
370
   -1
  9
$ENDCAPS
280
    0
  9
$JOINSTYLE
280
    0
  9
$LWDISPLAY
290
    0
  9
$INSUNITS
 70
    6
  9
$HYPERLINKBASE
  1

  9
$STYLESHEET
  1

  9
$XEDIT
290
    1
  9
$CEPSNTYPE
380
    0
  9
$PSTYLEMODE
290
    1
  9
$EXTNAMES
290
    1
  9
$PSVPSCALE
 40
1
  9
$OLESTARTUP
290
    0
  9
$SORTENTS
280
  127
  9
$INDEXCTL
280
    0
  9
$HIDETEXT
280
    1
  9
$XCLIPFRAME
290
    0
  9
$HALOGAP
280
    0
  9
$OBSCOLOR
 70
  257
  9
$OBSLTYPE
280
    0
  9
$INTERSECTIONDISPLAY
280
    0
  9
$INTERSECTIONCOLOR
 70
  257
  9
$DIMASSOC
280
    1
  9
$PROJECTNAME
  1

  9
$CAMERADISPLAY
290
    0
  9
$LENSLENGTH
 40
50
  9
$CAMERAHEIGHT
 40
0
  9
$STEPSPERSEC
 40
2
  9
$STEPSIZE
 40
50
  9
$3DDWFPREC
 40
2
  9
$PSOLWIDTH
 40
5
  9
$PSOLHEIGHT
 40
80
  9
$LOFTANG1
 40
1.570796326794897
  9
$LOFTANG2
 40
1.570796326794897
  9
$LOFTMAG1
 40
0
  9
$LOFTMAG2
 40
0
  9
$LOFTPARAM
 70
    7
  9
$LOFTNORMALS
280
    1
  9
$LATITUDE
 40
1
  9
$LONGITUDE
 40
1
  9
$NORTHDIRECTION
 40
0
  9
$TIMEZONE
 70
-8000
  9
$LIGHTGLYPHDISPLAY
280
    1
  9
$TILEMODELIGHTSYNCH
280
    1
  9
$SOLIDHIST
280
    1
  9
$SHOWHIST
280
    1
  9
$DWFFRAME
280
    2
  9
$DGNFRAME
280
    0
  9
$REALWORLDSCALE
290
    1
  9
$INTERFERECOLOR
 62
    1
  9
$CSHADOW
280
    0
  9
$SHADOWPLANELOCATION
 40
0
  0
ENDSEC
  0
SECTION
  2
CLASSES
  0
ENDSEC
  0
SECTION
  2
TABLES
  0
TABLE
  2
VPORT
  5
8
330
0
100
AcDbSymbolTable
 70
    1
  0
VPORT
  5
31
330
2
100
AcDbSymbolTableRecord
100
AcDbViewportTableRecord
  2
*ACTIVE
 70
    0
 10
0
 20
0
 11
1
 21
1
 12
55.68799031524328
 22
42.84337345358666
 13
0
 23
0
 14
10
 24
10
 15
10
 25
10
 16
0
 26
0
 36
1
 17
0
 27
0
 37
0
 40
7.7702003237182
 41
1.917166866746699
 42
50
 43
0
 44
0
 50
0
 51
0
 71
    0
 72
  100
 73
    1
 74
    3
 75
    0
 76
    0
 77
    0
 78
    0
281
    0
 65
    1
110
0
120
0
130
0
111
1
121
0
131
0
112
0
122
1
132
0
 79
    0
146
0
348
10020
 60
    7
 61
    5
292
1
282
    1
141
0
142
0
 63
  250
421
3358443
  0
ENDTAB
  0
TABLE
  2
LTYPE
  5
5
330
0
100
AcDbSymbolTable
 70
    4
  0
LTYPE
  5
14
330
5
100
AcDbSymbolTableRecord
100
AcDbLinetypeTableRecord
  2
ByBlock
 70
    0
  3

 72
   65
 73
    0
 40
0
  0
LTYPE
  5
15
330
5
100
AcDbSymbolTableRecord
100
AcDbLinetypeTableRecord
  2
ByLayer
 70
    0
  3

 72
   65
 73
    0
 40
0
  0
LTYPE
  5
16
330
5
100
AcDbSymbolTableRecord
100
AcDbLinetypeTableRecord
  2
Continuous
 70
    0
  3
Solid line
 72
   65
 73
    0
 40
0
  0
LTYPE
  5
32
330
5
100
AcDbSymbolTableRecord
100
AcDbLinetypeTableRecord
  2
DOT
 70
    0
  3
Dot . . . . . . . . . . . . . . . . . . . . . .
 72
   65
 73
    2
 40
6.35
 49
0
 74
    0
 49
-6.35
 74
    0
  0
LTYPE
  5
33
330
5
100
AcDbSymbolTableRecord
100
AcDbLinetypeTableRecord
  2
DOTTINY
 70
    0
  3
Dot (.15x) .....................................
 72
   65
 73
    2
 40
0.9525
 49
0
 74
    0
 49
-0.9525
 74
    0
  0
LTYPE
  5
34
330
5
100
AcDbSymbolTableRecord
100
AcDbLinetypeTableRecord
  2
DOT2
 70
    0
  3
Dot (.5x) .....................................
 72
   65
 73
    2
 40
3.175
 49
0
 74
    0
 49
-3.175
 74
    0
  0
LTYPE
  5
35
330
5
100
AcDbSymbolTableRecord
100
AcDbLinetypeTableRecord
  2
DOTX2
 70
    0
  3
Dot (2x) .  .  .  .  .  .  .  .  .  .  .  .  .
 72
   65
 73
    2
 40
12.7
 49
0
 74
    0
 49
-12.7
 74
    0
  0
LTYPE
  5
36
330
5
100
AcDbSymbolTableRecord
100
AcDbLinetypeTableRecord
  2
DASHED
 70
    0
  3
Dashed _ _ _ _ _ _ _ _ _ _ _ _ _ _ _ _ _
 72
   65
 73
    2
 40
19.05
 49
12.7
 74
    0
 49
-6.35
 74
    0
  0
LTYPE
  5
37
330
5
100
AcDbSymbolTableRecord
100
AcDbLinetypeTableRecord
  2
DASHEDTINY
 70
    0
  3
Dashed (.15x) _ _ _ _ _ _ _ _ _ _ _ _ _ _ _ _ _
 72
   65
 73
    2
 40
2.8575
 49
1.905
 74
    0
 49
-0.9525
 74
    0
  0
LTYPE
  5
38
330
5
100
AcDbSymbolTableRecord
100
AcDbLinetypeTableRecord
  2
DASHED2
 70
    0
  3
Dashed (.5x) _ _ _ _ _ _ _ _ _ _ _ _ _ _ _ _ _
 72
   65
 73
    2
 40
9.524999999999999
 49
6.35
 74
    0
 49
-3.175
 74
    0
  0
LTYPE
  5
39
330
5
100
AcDbSymbolTableRecord
100
AcDbLinetypeTableRecord
  2
DASHEDX2
 70
    0
  3
Dashed (2x) ____  ____  ____  ____  ____  ___
 72
   65
 73
    2
 40
38.09999999999999
 49
25.4
 74
    0
 49
-12.7
 74
    0
  0
LTYPE
  5
3A
330
5
100
AcDbSymbolTableRecord
100
AcDbLinetypeTableRecord
  2
DASHDOT
 70
    0
  3
Dash dot __ . __ . __ . __ . __ . __ . __ . __
 72
   65
 73
    4
 40
25.4
 49
12.7
 74
    0
 49
-6.35
 74
    0
 49
0
 74
    0
 49
-6.35
 74
    0
  0
LTYPE
  5
3B
330
5
100
AcDbSymbolTableRecord
100
AcDbLinetypeTableRecord
  2
DASHDOTTINY
 70
    0
  3
Dash dot (.15x) _._._._._._._._._._._._._._._.
 72
   65
 73
    4
 40
3.81
 49
1.905
 74
    0
 49
-0.9525
 74
    0
 49
0
 74
    0
 49
-0.9525
 74
    0
  0
LTYPE
  5
3C
330
5
100
AcDbSymbolTableRecord
100
AcDbLinetypeTableRecord
  2
DASHDOT2
 70
    0
  3
Dash dot (.5x) _._._._._._._._._._._._._._._.
 72
   65
 73
    4
 40
12.7
 49
6.35
 74
    0
 49
-3.175
 74
    0
 49
0
 74
    0
 49
-3.175
 74
    0
  0
LTYPE
  5
3D
330
5
100
AcDbSymbolTableRecord
100
AcDbLinetypeTableRecord
  2
DASHDOTX2
 70
    0
  3
Dash dot (2x) ____  .  ____  .  ____  .  ___
 72
   65
 73
    4
 40
50.8
 49
25.4
 74
    0
 49
-12.7
 74
    0
 49
0
 74
    0
 49
-12.7
 74
    0
  0
LTYPE
  5
3E
330
5
100
AcDbSymbolTableRecord
100
AcDbLinetypeTableRecord
  2
DIVIDE
 70
    0
  3
Divide ____ . . ____ . . ____ . . ____ . . ____
 72
   65
 73
    6
 40
31.75
 49
12.7
 74
    0
 49
-6.35
 74
    0
 49
0
 74
    0
 49
-6.35
 74
    0
 49
0
 74
    0
 49
-6.35
 74
    0
  0
LTYPE
  5
3F
330
5
100
AcDbSymbolTableRecord
100
AcDbLinetypeTableRecord
  2
DIVIDETINY
 70
    0
  3
Divide (.15x) __..__..__..__..__..__..__..__.._
 72
   65
 73
    6
 40
4.7625
 49
1.905
 74
    0
 49
-0.9525
 74
    0
 49
0
 74
    0
 49
-0.9525
 74
    0
 49
0
 74
    0
 49
-0.9525
 74
    0
  0
LTYPE
  5
40
330
5
100
AcDbSymbolTableRecord
100
AcDbLinetypeTableRecord
  2
DIVIDE2
 70
    0
  3
Divide (.5x) __..__..__..__..__..__..__..__.._
 72
   65
 73
    6
 40
15.875
 49
6.35
 74
    0
 49
-3.175
 74
    0
 49
0
 74
    0
 49
-3.175
 74
    0
 49
0
 74
    0
 49
-3.175
 74
    0
  0
LTYPE
  5
41
330
5
100
AcDbSymbolTableRecord
100
AcDbLinetypeTableRecord
  2
DIVIDEX2
 70
    0
  3
Divide (2x) ________  .  .  ________  .  .  _
 72
   65
 73
    6
 40
63.5
 49
25.4
 74
    0
 49
-12.7
 74
    0
 49
0
 74
    0
 49
-12.7
 74
    0
 49
0
 74
    0
 49
-12.7
 74
    0
  0
LTYPE
  5
42
330
5
100
AcDbSymbolTableRecord
100
AcDbLinetypeTableRecord
  2
BORDER
 70
    0
  3
Border __ __ . __ __ . __ __ . __ __ . __ __ .
 72
   65
 73
    6
 40
44.45
 49
12.7
 74
    0
 49
-6.35
 74
    0
 49
12.7
 74
    0
 49
-6.35
 74
    0
 49
0
 74
    0
 49
-6.35
 74
    0
  0
LTYPE
  5
43
330
5
100
AcDbSymbolTableRecord
100
AcDbLinetypeTableRecord
  2
BORDERTINY
 70
    0
  3
Border (.15x) __.__.__.__.__.__.__.__.__.__.__.
 72
   65
 73
    6
 40
6.6675
 49
1.905
 74
    0
 49
-0.9525
 74
    0
 49
1.905
 74
    0
 49
-0.9525
 74
    0
 49
0
 74
    0
 49
-0.9525
 74
    0
  0
LTYPE
  5
44
330
5
100
AcDbSymbolTableRecord
100
AcDbLinetypeTableRecord
  2
BORDER2
 70
    0
  3
Border (.5x) __.__.__.__.__.__.__.__.__.__.__.
 72
   65
 73
    6
 40
22.225
 49
6.35
 74
    0
 49
-3.175
 74
    0
 49
6.35
 74
    0
 49
-3.175
 74
    0
 49
0
 74
    0
 49
-3.175
 74
    0
  0
LTYPE
  5
45
330
5
100
AcDbSymbolTableRecord
100
AcDbLinetypeTableRecord
  2
BORDERX2
 70
    0
  3
Border (2x) ____  ____  .  ____  ____  .  ___
 72
   65
 73
    6
 40
88.89999999999999
 49
25.4
 74
    0
 49
-12.7
 74
    0
 49
25.4
 74
    0
 49
-12.7
 74
    0
 49
0
 74
    0
 49
-12.7
 74
    0
  0
LTYPE
  5
46
330
5
100
AcDbSymbolTableRecord
100
AcDbLinetypeTableRecord
  2
CENTER
 70
    0
  3
Center ____ _ ____ _ ____ _ ____ _ ____ _ ____
 72
   65
 73
    4
 40
50.8
 49
31.75
 74
    0
 49
-6.35
 74
    0
 49
6.35
 74
    0
 49
-6.35
 74
    0
  0
LTYPE
  5
47
330
5
100
AcDbSymbolTableRecord
100
AcDbLinetypeTableRecord
  2
CENTERTINY
 70
    0
  3
Center (.15x) ___ _ ___ _ ___ _ ___ _ ___ _ ___
 72
   65
 73
    4
 40
7.619999999999999
 49
4.7625
 74
    0
 49
-0.9525
 74
    0
 49
0.9525
 74
    0
 49
-0.9525
 74
    0
  0
LTYPE
  5
48
330
5
100
AcDbSymbolTableRecord
100
AcDbLinetypeTableRecord
  2
CENTER2
 70
    0
  3
Center (.5x) ___ _ ___ _ ___ _ ___ _ ___ _ ___
 72
   65
 73
    4
 40
28.575
 49
19.05
 74
    0
 49
-3.175
 74
    0
 49
3.175
 74
    0
 49
-3.175
 74
    0
  0
LTYPE
  5
49
330
5
100
AcDbSymbolTableRecord
100
AcDbLinetypeTableRecord
  2
CENTERX2
 70
    0
  3
Center (2x) ________  __  ________  __  _____
 72
   65
 73
    4
 40
101.6
 49
63.5
 74
    0
 49
-12.7
 74
    0
 49
12.7
 74
    0
 49
-12.7
 74
    0
  0
ENDTAB
  0
TABLE
  2
LAYER
  5
2
330
0
100
AcDbSymbolTable
 70
    1
  0
LAYER
  5
10
330
2
100
AcDbSymbolTableRecord
100
AcDbLayerTableRecord
  2
0
 70
    0
 62
    7
  6
CONTINUOUS
370
    0
390
F
  0
LAYER
  5
4A
330
2
100
AcDbSymbolTableRecord
100
AcDbLayerTableRecord
  2
01 - Aberturas
 70
    0
 62
    3
  6
CONTINUOUS
370
    0
390
F
  0
LAYER
  5
4B
330
2
100
AcDbSymbolTableRecord
100
AcDbLayerTableRecord
  2
02 - Divisiones
 70
    0
 62
    7
  6
DASHED
370
    0
390
F
  0
LAYER
  5
4C
330
2
100
AcDbSymbolTableRecord
100
AcDbLayerTableRecord
  2
03 - Premarcos
 70
    0
 62
    6
  6
CONTINUOUS
370
    0
390
F
  0
LAYER
  5
4D
330
2
100
AcDbSymbolTableRecord
100
AcDbLayerTableRecord
  2
04 - Medidas
 70
    0
 62
    1
  6
CONTINUOUS
370
   40
390
F
  0
LAYER
  5
4E
330
2
100
AcDbSymbolTableRecord
100
AcDbLayerTableRecord
  2
05 - Zuncho Base
 70
    0
 62
    4
  6
CONTINUOUS
370
    0
390
F
  0
ENDTAB
  0
TABLE
  2
STYLE
  5
3
330
0
100
AcDbSymbolTable
 70
    3
  0
STYLE
  5
4F
330
2
100
AcDbSymbolTableRecord
100
AcDbTextStyleTableRecord
  2
Standard
 70
    0
 40
0
 41
1
 50
0
 71
    0
 42
1
  3
txt
  4

  0
ENDTAB
  0
TABLE
  2
VIEW
  5
6
330
0
100
AcDbSymbolTable
 70
    0
  0
ENDTAB
  0
TABLE
  2
UCS
  5
7
330
0
100
AcDbSymbolTable
 70
    0
  0
ENDTAB
  0
TABLE
  2
APPID
  5
9
330
0
100
AcDbSymbolTable
 70
    1
  0
APPID
  5
12
330
9
100
AcDbSymbolTableRecord
100
AcDbRegAppTableRecord
  2
ACAD
 70
    0
  0
APPID
  5
50
330
9
100
AcDbSymbolTableRecord
100
AcDbRegAppTableRecord
  2
LibreCad
 70
    0
  0
ENDTAB
  0
TABLE
  2
DIMSTYLE
  5
A
330
0
100
AcDbSymbolTable
 70
    1
100
AcDbDimStyleTable
 71
    1
  0
DIMSTYLE
105
51
330
A
100
AcDbSymbolTableRecord
100
AcDbDimStyleTableRecord
  2
Standard
 70
    0
 40
0.1
 41
1
 42
0.625
 43
0.38
 44
1.25
 45
0
 46
0
 47
0
 48
0
 49
1
140
1.5
141
0.09
142
0
143
25.4
144
1
145
0
146
1
147
0.625
148
0
 71
    0
 72
    0
 73
    1
 74
    1
 75
    0
 76
    0
 77
    0
 78
    0
 79
    0
170
    0
171
    2
172
    0
173
    0
174
    0
175
    0
176
    0
177
    0
178
    2
179
    0
271
    2
272
    4
273
    2
274
    2
275
    0
276
    0
277
    2
278
   44
279
    0
280
    0
281
    0
282
    0
283
    1
284
    0
285
    0
286
    0
288
    0
289
    3
340
4F
  0
ENDTAB
  0
TABLE
  2
BLOCK_RECORD
  5
1
330
0
100
AcDbSymbolTable
 70
    2
  0
BLOCK_RECORD
  5
1F
330
1
100
AcDbSymbolTableRecord
100
AcDbBlockTableRecord
  2
*Model_Space
 70
    0
280
    1
281
    0
  0
BLOCK_RECORD
  5
1E
330
1
100
AcDbSymbolTableRecord
100
AcDbBlockTableRecord
  2
*Paper_Space
 70
    0
280
    1
281
    0
  0
BLOCK_RECORD
  5
52
330
1
100
AcDbSymbolTableRecord
100
AcDbBlockTableRecord
  2
*D12
 70
    0
280
    1
281
    0
  0
BLOCK_RECORD
  5
55
330
1
100
AcDbSymbolTableRecord
100
AcDbBlockTableRecord
  2
*D19
 70
    0
280
    1
281
    0
  0
BLOCK_RECORD
  5
58
330
1
100
AcDbSymbolTableRecord
100
AcDbBlockTableRecord
  2
*D14
 70
    0
280
    1
281
    0
  0
BLOCK_RECORD
  5
5B
330
1
100
AcDbSymbolTableRecord
100
AcDbBlockTableRecord
  2
*D15
 70
    0
280
    1
281
    0
  0
BLOCK_RECORD
  5
5E
330
1
100
AcDbSymbolTableRecord
100
AcDbBlockTableRecord
  2
*D4
 70
    0
280
    1
281
    0
  0
BLOCK_RECORD
  5
61
330
1
100
AcDbSymbolTableRecord
100
AcDbBlockTableRecord
  2
*D9
 70
    0
280
    1
281
    0
  0
BLOCK_RECORD
  5
64
330
1
100
AcDbSymbolTableRecord
100
AcDbBlockTableRecord
  2
*D13
 70
    0
280
    1
281
    0
  0
BLOCK_RECORD
  5
67
330
1
100
AcDbSymbolTableRecord
100
AcDbBlockTableRecord
  2
*D3
 70
    0
280
    1
281
    0
  0
BLOCK_RECORD
  5
6A
330
1
100
AcDbSymbolTableRecord
100
AcDbBlockTableRecord
  2
*D11
 70
    0
280
    1
281
    0
  0
BLOCK_RECORD
  5
6D
330
1
100
AcDbSymbolTableRecord
100
AcDbBlockTableRecord
  2
*D10
 70
    0
280
    1
281
    0
  0
BLOCK_RECORD
  5
70
330
1
100
AcDbSymbolTableRecord
100
AcDbBlockTableRecord
  2
*D2
 70
    0
280
    1
281
    0
  0
BLOCK_RECORD
  5
73
330
1
100
AcDbSymbolTableRecord
100
AcDbBlockTableRecord
  2
*D6
 70
    0
280
    1
281
    0
  0
BLOCK_RECORD
  5
76
330
1
100
AcDbSymbolTableRecord
100
AcDbBlockTableRecord
  2
*D8
 70
    0
280
    1
281
    0
  0
BLOCK_RECORD
  5
79
330
1
100
AcDbSymbolTableRecord
100
AcDbBlockTableRecord
  2
*D17
 70
    0
280
    1
281
    0
  0
BLOCK_RECORD
  5
7C
330
1
100
AcDbSymbolTableRecord
100
AcDbBlockTableRecord
  2
*D18
 70
    0
280
    1
281
    0
  0
BLOCK_RECORD
  5
7F
330
1
100
AcDbSymbolTableRecord
100
AcDbBlockTableRecord
  2
*D16
 70
    0
280
    1
281
    0
  0
BLOCK_RECORD
  5
82
330
1
100
AcDbSymbolTableRecord
100
AcDbBlockTableRecord
  2
*D1
 70
    0
280
    1
281
    0
  0
BLOCK_RECORD
  5
85
330
1
100
AcDbSymbolTableRecord
100
AcDbBlockTableRecord
  2
*D7
 70
    0
280
    1
281
    0
  0
BLOCK_RECORD
  5
88
330
1
100
AcDbSymbolTableRecord
100
AcDbBlockTableRecord
  2
*D5
 70
    0
280
    1
281
    0
  0
ENDTAB
  0
ENDSEC
  0
SECTION
  2
BLOCKS
  0
BLOCK
  5
20
330
1F
100
AcDbEntity
  8
0
100
AcDbBlockBegin
  2
*Model_Space
 70
    0
 10
0
 20
0
 30
0
  3
*Model_Space
  1

  0
ENDBLK
  5
21
330
1F
100
AcDbEntity
  8
0
100
AcDbBlockEnd
  0
BLOCK
  5
1C
330
1B
100
AcDbEntity
  8
0
100
AcDbBlockBegin
  2
*Paper_Space
 70
    0
 10
0
 20
0
 30
0
  3
*Paper_Space
  1

  0
ENDBLK
  5
1D
330
1F
100
AcDbEntity
  8
0
100
AcDbBlockEnd
  0
BLOCK
  5
53
330
52
100
AcDbEntity
  8
0
100
AcDbBlockBegin
  2
*D12
 70
    1
 10
0
 20
0
  3
*D12
  1

  0
SOLID
  5
8B
100
AcDbEntity
  8
04 - Medidas
  6
ByBlock
 62
    0
370
   -2
100
AcDbTrace
 10
98.90000000000001
 20
80.00000000000001
 30
0
 11
98.91665138631092
 21
79.90000000000002
 31
0
 12
98.88334861368909
 22
79.90000000000002
 32
0
 13
98.88334861368909
 23
79.90000000000002
 33
0
  0
SOLID
  5
8C
100
AcDbEntity
  8
04 - Medidas
  6
ByBlock
 62
    0
370
   -2
100
AcDbTrace
 10
98.90000000000001
 20
80.50000000000001
 30
0
 11
98.88334861368909
 21
80.60000000000001
 31
0
 12
98.91665138631092
 22
80.60000000000001
 32
0
 13
98.91665138631092
 23
80.60000000000001
 33
0
  0
LINE
  5
8D
100
AcDbEntity
  8
05 - Zuncho Base
  6
ByLayer
 62
  256
370
   -1
100
AcDbLine
 10
98.90000000000001
 20
79.80000000000001
 11
98.90000000000001
 21
80.00000000000001
  0
LINE
  5
8E
100
AcDbEntity
  8
05 - Zuncho Base
  6
ByLayer
 62
  256
370
   -1
100
AcDbLine
 10
98.90000000000001
 20
80.70000000000002
 11
98.90000000000001
 21
80.50000000000001
  0
MTEXT
  5
8F
100
AcDbEntity
  8
04 - Medidas
  6
CONTINUOUS
 62
    2
370
   -2
100
AcDbMText
 10
98.90000000000001
 20
80.25000000000001
 30
0
 40
0.15
 41
0.3583333333333427
 71
    5
 72
    1
  1
0,50
  7
standard
210
0
220
0
230
1
 50
0
 73
    2
 44
1
  0
LINE
  5
90
100
AcDbEntity
  8
04 - Medidas
  6
ByBlock
 62
    0
370
   -2
100
AcDbLine
 10
99.9375
 20
80.00000000000001
 11
98.77500000000001
 21
80.00000000000001
  0
LINE
  5
91
100
AcDbEntity
  8
04 - Medidas
  6
ByBlock
 62
    0
370
   -2
100
AcDbLine
 10
99.9375
 20
80.50000000000001
 11
98.77500000000001
 21
80.50000000000001
  0
ENDBLK
  5
54
330
52
100
AcDbEntity
  8
0
100
AcDbBlockEnd
  0
BLOCK
  5
56
330
55
100
AcDbEntity
  8
0
100
AcDbBlockBegin
  2
*D19
 70
    1
 10
0
 20
0
  3
*D19
  1

  0
SOLID
  5
92
100
AcDbEntity
  8
04 - Medidas
  6
ByBlock
 62
    0
370
   -2
100
AcDbTrace
 10
98.98949317782714
 20
83.09999999999999
 30
0
 11
98.97284179151623
 21
83.19999999999999
 31
0
 12
99.00614456413805
 22
83.19999999999999
 32
0
 13
99.00614456413805
 23
83.19999999999999
 33
0
  0
SOLID
  5
93
100
AcDbEntity
  8
04 - Medidas
  6
ByBlock
 62
    0
370
   -2
100
AcDbTrace
 10
98.98949317782714
 20
84.30000000000001
 30
0
 11
99.00614456413805
 21
84.20000000000002
 31
0
 12
98.97284179151623
 22
84.20000000000002
 32
0
 13
98.97284179151623
 23
84.20000000000002
 33
0
  0
LINE
  5
94
100
AcDbEntity
  8
05 - Zuncho Base
  6
ByLayer
 62
  256
370
   -1
100
AcDbLine
 10
98.98949317782714
 20
83.09999999999999
 11
98.98949317782714
 21
83.5625
  0
LINE
  5
95
100
AcDbEntity
  8
05 - Zuncho Base
  6
ByLayer
 62
  256
370
   -1
100
AcDbLine
 10
98.98949317782714
 20
83.83750000000001
 11
98.98949317782714
 21
84.30000000000001
  0
MTEXT
  5
96
100
AcDbEntity
  8
04 - Medidas
  6
CONTINUOUS
 62
    2
370
   -2
100
AcDbMText
 10
98.98949317782714
 20
83.7
 30
0
 40
0.15
 41
0.3250000000000001
 71
    5
 72
    1
  1
1,20
  7
standard
210
0
220
0
230
1
 50
0
 73
    2
 44
1
  0
LINE
  5
97
100
AcDbEntity
  8
04 - Medidas
  6
ByBlock
 62
    0
370
   -2
100
AcDbLine
 10
99.9375
 20
83.09999999999999
 11
98.86449317782714
 21
83.09999999999999
  0
LINE
  5
98
100
AcDbEntity
  8
04 - Medidas
  6
ByBlock
 62
    0
370
   -2
100
AcDbLine
 10
99.9375
 20
84.30000000000001
 11
98.86449317782714
 21
84.30000000000001
  0
ENDBLK
  5
57
330
55
100
AcDbEntity
  8
0
100
AcDbBlockEnd
  0
BLOCK
  5
59
330
58
100
AcDbEntity
  8
0
100
AcDbBlockBegin
  2
*D14
 70
    1
 10
0
 20
0
  3
*D14
  1

  0
SOLID
  5
99
100
AcDbEntity
  8
03 - Premarcos
  6
ByBlock
 62
    0
370
   -2
100
AcDbTrace
 10
100
 20
0
 30
0
 11
99.90000000000001
 21
-0.01665138631091362
 31
0
 12
99.90000000000001
 22
0.01665138631091362
 32
0
 13
99.90000000000001
 23
0.01665138631091362
 33
0
  0
SOLID
  5
9A
100
AcDbEntity
  8
03 - Premarcos
  6
ByBlock
 62
    0
370
   -2
100
AcDbTrace
 10
100
 20
0
 30
0
 11
99.90000000000001
 21
-0.01665138631091362
 31
0
 12
99.90000000000001
 22
0.01665138631091362
 32
0
 13
99.90000000000001
 23
0.01665138631091362
 33
0
  0
LINE
  5
9B
100
AcDbEntity
  8
05 - Zuncho Base
  6
ByLayer
 62
  256
370
   -1
100
AcDbLine
 10
99.8
 20
0
 11
100
 21
0
  0
LINE
  5
9C
100
AcDbEntity
  8
05 - Zuncho Base
  6
ByLayer
 62
  256
370
   -1
100
AcDbLine
 10
100.2
 20
0
 11
100
 21
0
  0
MTEXT
  5
9D
100
AcDbEntity
  8
03 - Premarcos
  6
CONTINUOUS
 62
    2
370
   -2
100
AcDbMText
 10
5000000100.2
 20
0
 30
0
 40
0.15
 41
0.3583333333333334
 71
    5
 72
    1
  1
0,00
  7
standard
210
0
220
0
230
1
 50
0
 73
    2
 44
1
  0
LINE
  5
9E
100
AcDbEntity
  8
03 - Premarcos
  6
ByBlock
 62
    0
370
   -2
100
AcDbLine
 10
99.9375
 20
7.653789711389858e-18
 11
99.875
 21
1.530757942277972e-17
  0
LINE
  5
9F
100
AcDbEntity
  8
03 - Premarcos
  6
ByBlock
 62
    0
370
   -2
100
AcDbLine
 10
99.9375
 20
7.653789711389858e-18
 11
99.875
 21
1.530757942277972e-17
  0
ENDBLK
  5
5A
330
58
100
AcDbEntity
  8
0
100
AcDbBlockEnd
  0
BLOCK
  5
5C
330
5B
100
AcDbEntity
  8
0
100
AcDbBlockBegin
  2
*D15
 70
    1
 10
0
 20
0
  3
*D15
  1

  0
SOLID
  5
A0
100
AcDbEntity
  8
04 - Medidas
  6
ByBlock
 62
    0
370
   -2
100
AcDbTrace
 10
107.7310567715522
 20
79.9977552102204
 30
0
 11
107.7144053852413
 21
80.0977552102204
 31
0
 12
107.7477081578631
 22
80.0977552102204
 32
0
 13
107.7477081578631
 23
80.0977552102204
 33
0
  0
SOLID
  5
A1
100
AcDbEntity
  8
04 - Medidas
  6
ByBlock
 62
    0
370
   -2
100
AcDbTrace
 10
107.7310567715522
 20
82.99837080103063
 30
0
 11
107.7477081578631
 21
82.89837080103064
 31
0
 12
107.7144053852413
 22
82.89837080103064
 32
0
 13
107.7144053852413
 23
82.89837080103064
 33
0
  0
LINE
  5
A2
100
AcDbEntity
  8
05 - Zuncho Base
  6
ByLayer
 62
  256
370
   -1
100
AcDbLine
 10
107.7310567715522
 20
79.9977552102204
 11
107.7310567715522
 21
81.36056300562551
  0
LINE
  5
A3
100
AcDbEntity
  8
05 - Zuncho Base
  6
ByLayer
 62
  256
370
   -1
100
AcDbLine
 10
107.7310567715522
 20
81.63556300562551
 11
107.7310567715522
 21
82.99837080103063
  0
MTEXT
  5
A4
100
AcDbEntity
  8
04 - Medidas
  6
CONTINUOUS
 62
    2
370
   -2
100
AcDbMText
 10
107.7310567715522
 20
81.49806300562551
 30
0
 40
0.15
 41
0.3583333333333427
 71
    5
 72
    1
  1
3,00
  7
standard
210
0
220
0
230
1
 50
0
 73
    2
 44
1
  0
LINE
  5
A5
100
AcDbEntity
  8
04 - Medidas
  6
ByBlock
 62
    0
370
   -2
100
AcDbLine
 10
107.435274312948
 20
79.9977552102204
 11
107.8560567715522
 21
79.9977552102204
  0
LINE
  5
A6
100
AcDbEntity
  8
04 - Medidas
  6
ByBlock
 62
    0
370
   -2
100
AcDbLine
 10
107.435274312948
 20
82.99837080103063
 11
107.8560567715522
 21
82.99837080103063
  0
ENDBLK
  5
5D
330
5B
100
AcDbEntity
  8
0
100
AcDbBlockEnd
  0
BLOCK
  5
5F
330
5E
100
AcDbEntity
  8
0
100
AcDbBlockBegin
  2
*D4
 70
    1
 10
0
 20
0
  3
*D4
  1

  0
SOLID
  5
A7
100
AcDbEntity
  8
04 - Medidas
  6
ByBlock
 62
    0
370
   -2
100
AcDbTrace
 10
103.9313078110665
 20
79.59088752885884
 30
0
 11
103.8313078110665
 21
79.57423614254793
 31
0
 12
103.8313078110665
 22
79.60753891516976
 32
0
 13
103.8313078110665
 23
79.60753891516976
 33
0
  0
SOLID
  5
A8
100
AcDbEntity
  8
04 - Medidas
  6
ByBlock
 62
    0
370
   -2
100
AcDbTrace
 10
101.8313078110666
 20
79.59088752885884
 30
0
 11
101.9313078110666
 21
79.60753891516976
 31
0
 12
101.9313078110666
 22
79.57423614254793
 32
0
 13
101.9313078110666
 23
79.57423614254793
 33
0
  0
LINE
  5
A9
100
AcDbEntity
  8
05 - Zuncho Base
  6
ByLayer
 62
  256
370
   -1
100
AcDbLine
 10
103.9313078110665
 20
79.59088752885884
 11
103.1063078110665
 21
79.59088752885884
  0
LINE
  5
AA
100
AcDbEntity
  8
05 - Zuncho Base
  6
ByLayer
 62
  256
370
   -1
100
AcDbLine
 10
102.6563078110666
 20
79.59088752885884
 11
101.8313078110666
 21
79.59088752885884
  0
MTEXT
  5
AB
100
AcDbEntity
  8
04 - Medidas
  6
CONTINUOUS
 62
    2
370
   -2
100
AcDbMText
 10
102.8813078110665
 20
79.59088752885884
 30
0
 40
0.15
 41
0.3250000000000001
 71
    5
 72
    1
  1
2,10
  7
standard
210
0
220
0
230
1
 50
0
 73
    2
 44
1
  0
LINE
  5
AC
100
AcDbEntity
  8
04 - Medidas
  6
ByBlock
 62
    0
370
   -2
100
AcDbLine
 10
103.9313078110665
 20
79.93384851680251
 11
103.9313078110665
 21
79.46588752885884
  0
LINE
  5
AD
100
AcDbEntity
  8
04 - Medidas
  6
ByBlock
 62
    0
370
   -2
100
AcDbLine
 10
101.8313078110666
 20
79.93384851680251
 11
101.8313078110666
 21
79.46588752885884
  0
ENDBLK
  5
60
330
5E
100
AcDbEntity
  8
0
100
AcDbBlockEnd
  0
BLOCK
  5
62
330
61
100
AcDbEntity
  8
0
100
AcDbBlockBegin
  2
*D9
 70
    1
 10
0
 20
0
  3
*D9
  1

  0
SOLID
  5
AE
100
AcDbEntity
  8
04 - Medidas
  6
ByBlock
 62
    0
370
   -2
100
AcDbTrace
 10
99.40000000000001
 20
80
 30
0
 11
99.38334861368909
 21
80.09999999999999
 31
0
 12
99.41665138631092
 22
80.09999999999999
 32
0
 13
99.41665138631092
 23
80.09999999999999
 33
0
  0
SOLID
  5
AF
100
AcDbEntity
  8
04 - Medidas
  6
ByBlock
 62
    0
370
   -2
100
AcDbTrace
 10
99.40000000000001
 20
84.30000000000001
 30
0
 11
99.41665138631092
 21
84.20000000000002
 31
0
 12
99.38334861368909
 22
84.20000000000002
 32
0
 13
99.38334861368909
 23
84.20000000000002
 33
0
  0
LINE
  5
B0
100
AcDbEntity
  8
05 - Zuncho Base
  6
ByLayer
 62
  256
370
   -1
100
AcDbLine
 10
99.40000000000001
 20
80
 11
99.40000000000001
 21
82.0125
  0
LINE
  5
B1
100
AcDbEntity
  8
05 - Zuncho Base
  6
ByLayer
 62
  256
370
   -1
100
AcDbLine
 10
99.40000000000001
 20
82.28750000000001
 11
99.40000000000001
 21
84.30000000000001
  0
MTEXT
  5
B2
100
AcDbEntity
  8
04 - Medidas
  6
CONTINUOUS
 62
    2
370
   -2
100
AcDbMText
 10
99.40000000000001
 20
82.15000000000001
 30
0
 40
0.15
 41
0.3750000000000094
 71
    5
 72
    1
  1
4,30
  7
standard
210
0
220
0
230
1
 50
0
 73
    2
 44
1
  0
LINE
  5
B3
100
AcDbEntity
  8
04 - Medidas
  6
ByBlock
 62
    0
370
   -2
100
AcDbLine
 10
99.9375
 20
80
 11
99.27500000000001
 21
80
  0
LINE
  5
B4
100
AcDbEntity
  8
04 - Medidas
  6
ByBlock
 62
    0
370
   -2
100
AcDbLine
 10
99.9375
 20
84.30000000000001
 11
99.27500000000001
 21
84.30000000000001
  0
ENDBLK
  5
63
330
61
100
AcDbEntity
  8
0
100
AcDbBlockEnd
  0
BLOCK
  5
65
330
64
100
AcDbEntity
  8
0
100
AcDbBlockBegin
  2
*D13
 70
    1
 10
0
 20
0
  3
*D13
  1

  0
SOLID
  5
B5
100
AcDbEntity
  8
04 - Medidas
  6
ByBlock
 62
    0
370
   -2
100
AcDbTrace
 10
99
 20
80
 30
0
 11
98.98334861368909
 21
80.09999999999999
 31
0
 12
99.01665138631091
 22
80.09999999999999
 32
0
 13
99.01665138631091
 23
80.09999999999999
 33
0
  0
SOLID
  5
B6
100
AcDbEntity
  8
04 - Medidas
  6
ByBlock
 62
    0
370
   -2
100
AcDbTrace
 10
99
 20
82
 30
0
 11
99.01665138631091
 21
81.90000000000001
 31
0
 12
98.98334861368909
 22
81.90000000000001
 32
0
 13
98.98334861368909
 23
81.90000000000001
 33
0
  0
LINE
  5
B7
100
AcDbEntity
  8
05 - Zuncho Base
  6
ByLayer
 62
  256
370
   -1
100
AcDbLine
 10
99
 20
80
 11
99
 21
80.8625
  0
LINE
  5
B8
100
AcDbEntity
  8
05 - Zuncho Base
  6
ByLayer
 62
  256
370
   -1
100
AcDbLine
 10
99
 20
81.1375
 11
99
 21
82
  0
MTEXT
  5
B9
100
AcDbEntity
  8
04 - Medidas
  6
CONTINUOUS
 62
    2
370
   -2
100
AcDbMText
 10
99
 20
81
 30
0
 40
0.15
 41
0.3583333333333334
 71
    5
 72
    1
  1
2,00
  7
standard
210
0
220
0
230
1
 50
0
 73
    2
 44
1
  0
LINE
  5
BA
100
AcDbEntity
  8
04 - Medidas
  6
ByBlock
 62
    0
370
   -2
100
AcDbLine
 10
99.9375
 20
80
 11
98.875
 21
80
  0
LINE
  5
BB
100
AcDbEntity
  8
04 - Medidas
  6
ByBlock
 62
    0
370
   -2
100
AcDbLine
 10
99.9375
 20
82
 11
98.875
 21
82
  0
ENDBLK
  5
66
330
64
100
AcDbEntity
  8
0
100
AcDbBlockEnd
  0
BLOCK
  5
68
330
67
100
AcDbEntity
  8
0
100
AcDbBlockBegin
  2
*D3
 70
    1
 10
0
 20
0
  3
*D3
  1

  0
SOLID
  5
BC
100
AcDbEntity
  8
04 - Medidas
  6
ByBlock
 62
    0
370
   -2
100
AcDbTrace
 10
104.88
 20
79.59088752885884
 30
0
 11
104.78
 21
79.57423614254793
 31
0
 12
104.78
 22
79.60753891516976
 32
0
 13
104.78
 23
79.60753891516976
 33
0
  0
SOLID
  5
BD
100
AcDbEntity
  8
04 - Medidas
  6
ByBlock
 62
    0
370
   -2
100
AcDbTrace
 10
103.9313078110665
 20
79.59088752885884
 30
0
 11
104.0313078110665
 21
79.60753891516976
 31
0
 12
104.0313078110665
 22
79.57423614254793
 32
0
 13
104.0313078110665
 23
79.57423614254793
 33
0
  0
LINE
  5
BE
100
AcDbEntity
  8
05 - Zuncho Base
  6
ByLayer
 62
  256
370
   -1
100
AcDbLine
 10
104.88
 20
79.59088752885884
 11
104.6473205721999
 21
79.59088752885884
  0
LINE
  5
BF
100
AcDbEntity
  8
05 - Zuncho Base
  6
ByLayer
 62
  256
370
   -1
100
AcDbLine
 10
104.1639872388666
 20
79.59088752885884
 11
103.9313078110665
 21
79.59088752885884
  0
MTEXT
  5
C0
100
AcDbEntity
  8
04 - Medidas
  6
CONTINUOUS
 62
    2
370
   -2
100
AcDbMText
 10
104.4056539055333
 20
79.59088752885884
 30
0
 40
0.15
 41
0.358333333333352
 71
    5
 72
    1
  1
0,95
  7
standard
210
0
220
0
230
1
 50
0
 73
    2
 44
1
  0
LINE
  5
C1
100
AcDbEntity
  8
04 - Medidas
  6
ByBlock
 62
    0
370
   -2
100
AcDbLine
 10
104.88
 20
79.93750000000001
 11
104.88
 21
79.46588752885884
  0
LINE
  5
C2
100
AcDbEntity
  8
04 - Medidas
  6
ByBlock
 62
    0
370
   -2
100
AcDbLine
 10
103.9313078110665
 20
79.93384851680251
 11
103.9313078110665
 21
79.46588752885884
  0
ENDBLK
  5
69
330
67
100
AcDbEntity
  8
0
100
AcDbBlockEnd
  0
BLOCK
  5
6B
330
6A
100
AcDbEntity
  8
0
100
AcDbBlockBegin
  2
*D11
 70
    1
 10
0
 20
0
  3
*D11
  1

  0
SOLID
  5
C3
100
AcDbEntity
  8
04 - Medidas
  6
ByBlock
 62
    0
370
   -2
100
AcDbTrace
 10
106.13
 20
78.50000000000001
 30
0
 11
106.03
 21
78.4833486136891
 31
0
 12
106.03
 22
78.51665138631093
 32
0
 13
106.03
 23
78.51665138631093
 33
0
  0
SOLID
  5
C4
100
AcDbEntity
  8
04 - Medidas
  6
ByBlock
 62
    0
370
   -2
100
AcDbTrace
 10
106.8
 20
78.50000000000001
 30
0
 11
106.9
 21
78.51665138631093
 31
0
 12
106.9
 22
78.4833486136891
 32
0
 13
106.9
 23
78.4833486136891
 33
0
  0
LINE
  5
C5
100
AcDbEntity
  8
05 - Zuncho Base
  6
ByLayer
 62
  256
370
   -1
100
AcDbLine
 10
105.93
 20
78.50000000000001
 11
106.13
 21
78.50000000000001
  0
LINE
  5
C6
100
AcDbEntity
  8
05 - Zuncho Base
  6
ByLayer
 62
  256
370
   -1
100
AcDbLine
 10
107
 20
78.50000000000001
 11
106.8
 21
78.50000000000001
  0
MTEXT
  5
C7
100
AcDbEntity
  8
04 - Medidas
  6
CONTINUOUS
 62
    2
370
   -2
100
AcDbMText
 10
106.465
 20
78.50000000000001
 30
0
 40
0.15
 41
0.3583333333333427
 71
    5
 72
    1
  1
0,67
  7
standard
210
0
220
0
230
1
 50
0
 73
    2
 44
1
  0
LINE
  5
C8
100
AcDbEntity
  8
04 - Medidas
  6
ByBlock
 62
    0
370
   -2
100
AcDbLine
 10
106.13
 20
80.4375
 11
106.13
 21
78.37500000000001
  0
LINE
  5
C9
100
AcDbEntity
  8
04 - Medidas
  6
ByBlock
 62
    0
370
   -2
100
AcDbLine
 10
106.8
 20
80.43750000000001
 11
106.8
 21
78.37500000000001
  0
ENDBLK
  5
6C
330
6A
100
AcDbEntity
  8
0
100
AcDbBlockEnd
  0
BLOCK
  5
6E
330
6D
100
AcDbEntity
  8
0
100
AcDbBlockBegin
  2
*D10
 70
    1
 10
0
 20
0
  3
*D10
  1

  0
SOLID
  5
CA
100
AcDbEntity
  8
04 - Medidas
  6
ByBlock
 62
    0
370
   -2
100
AcDbTrace
 10
100
 20
78.50000000000001
 30
0
 11
99.90000000000001
 21
78.4833486136891
 31
0
 12
99.90000000000001
 22
78.51665138631093
 32
0
 13
99.90000000000001
 23
78.51665138631093
 33
0
  0
SOLID
  5
CB
100
AcDbEntity
  8
04 - Medidas
  6
ByBlock
 62
    0
370
   -2
100
AcDbTrace
 10
100.5
 20
78.50000000000001
 30
0
 11
100.6
 21
78.51665138631093
 31
0
 12
100.6
 22
78.4833486136891
 32
0
 13
100.6
 23
78.4833486136891
 33
0
  0
LINE
  5
CC
100
AcDbEntity
  8
05 - Zuncho Base
  6
ByLayer
 62
  256
370
   -1
100
AcDbLine
 10
99.8
 20
78.50000000000001
 11
100
 21
78.50000000000001
  0
LINE
  5
CD
100
AcDbEntity
  8
05 - Zuncho Base
  6
ByLayer
 62
  256
370
   -1
100
AcDbLine
 10
100.7
 20
78.50000000000001
 11
100.5
 21
78.50000000000001
  0
MTEXT
  5
CE
100
AcDbEntity
  8
04 - Medidas
  6
CONTINUOUS
 62
    2
370
   -2
100
AcDbMText
 10
100.25
 20
78.50000000000001
 30
0
 40
0.15
 41
0.3583333333333427
 71
    5
 72
    1
  1
0,50
  7
standard
210
0
220
0
230
1
 50
0
 73
    2
 44
1
  0
LINE
  5
CF
100
AcDbEntity
  8
04 - Medidas
  6
ByBlock
 62
    0
370
   -2
100
AcDbLine
 10
100
 20
79.93750000000001
 11
100
 21
78.37500000000001
  0
LINE
  5
D0
100
AcDbEntity
  8
04 - Medidas
  6
ByBlock
 62
    0
370
   -2
100
AcDbLine
 10
100.5
 20
79.93750000000001
 11
100.5
 21
78.37500000000001
  0
ENDBLK
  5
6F
330
6D
100
AcDbEntity
  8
0
100
AcDbBlockEnd
  0
BLOCK
  5
71
330
70
100
AcDbEntity
  8
0
100
AcDbBlockBegin
  2
*D2
 70
    1
 10
0
 20
0
  3
*D2
  1

  0
LINE
  5
D1
100
AcDbEntity
  8
04 - Medidas
  6
ByBlock
 62
    0
370
   -2
100
AcDbLine
 10
105.8603636676431
 20
79.58933966133672
 11
105.9228636676431
 21
79.58933966133672
  0
LINE
  5
D2
100
AcDbEntity
  8
04 - Medidas
  6
ByBlock
 62
    0
370
   -2
100
AcDbLine
 10
106.8620322847625
 20
79.58933966133672
 11
106.9245322847625
 21
79.58933966133672
  0
SOLID
  5
D3
100
AcDbEntity
  8
04 - Medidas
  6
ByBlock
 62
    0
370
   -2
100
AcDbTrace
 10
105.7978636676431
 20
79.58933966133672
 30
0
 11
105.8978636676431
 21
79.60599104764763
 31
0
 12
105.8978636676431
 22
79.57268827502581
 32
0
 13
105.8978636676431
 23
79.57268827502581
 33
0
  0
SOLID
  5
D4
100
AcDbEntity
  8
04 - Medidas
  6
ByBlock
 62
    0
370
   -2
100
AcDbTrace
 10
106.7995322847625
 20
79.58933966133672
 30
0
 11
106.6995322847625
 21
79.57268827502581
 31
0
 12
106.6995322847625
 22
79.60599104764763
 32
0
 13
106.6995322847625
 23
79.60599104764763
 33
0
  0
LINE
  5
D5
100
AcDbEntity
  8
05 - Zuncho Base
  6
ByLayer
 62
  256
370
   -1
100
AcDbLine
 10
105.7978636676431
 20
79.58933966133672
 11
106.0736979762028
 21
79.58933966133672
  0
LINE
  5
D6
100
AcDbEntity
  8
05 - Zuncho Base
  6
ByLayer
 62
  256
370
   -1
100
AcDbLine
 10
106.5236979762028
 20
79.58933966133672
 11
106.7995322847625
 21
79.58933966133672
  0
MTEXT
  5
D7
100
AcDbEntity
  8
04 - Medidas
  6
CONTINUOUS
 62
    2
370
   -2
100
AcDbMText
 10
106.2986979762028
 20
79.58933966133672
 30
0
 40
0.15
 41
0.3250000000000001
 71
    5
 72
    1
  1
1,00
  7
standard
210
0
220
0
230
1
 50
0
 73
    2
 44
1
  0
ENDBLK
  5
72
330
70
100
AcDbEntity
  8
0
100
AcDbBlockEnd
  0
BLOCK
  5
74
330
73
100
AcDbEntity
  8
0
100
AcDbBlockBegin
  2
*D6
 70
    1
 10
0
 20
0
  3
*D6
  1

  0
SOLID
  5
D8
100
AcDbEntity
  8
04 - Medidas
  6
ByBlock
 62
    0
370
   -2
100
AcDbTrace
 10
100
 20
79.60000000000002
 30
0
 11
100.1
 21
79.61665138631093
 31
0
 12
100.1
 22
79.58334861368911
 32
0
 13
100.1
 23
79.58334861368911
 33
0
  0
SOLID
  5
D9
100
AcDbEntity
  8
04 - Medidas
  6
ByBlock
 62
    0
370
   -2
100
AcDbTrace
 10
101.8313078110666
 20
79.60000000000002
 30
0
 11
101.7313078110666
 21
79.58334861368911
 31
0
 12
101.7313078110666
 22
79.61665138631093
 32
0
 13
101.7313078110666
 23
79.61665138631093
 33
0
  0
LINE
  5
DA
100
AcDbEntity
  8
05 - Zuncho Base
  6
ByLayer
 62
  256
370
   -1
100
AcDbLine
 10
100
 20
79.60000000000002
 11
100.6906539055333
 21
79.60000000000002
  0
LINE
  5
DB
100
AcDbEntity
  8
05 - Zuncho Base
  6
ByLayer
 62
  256
370
   -1
100
AcDbLine
 10
101.1406539055333
 20
79.60000000000002
 11
101.8313078110666
 21
79.60000000000002
  0
MTEXT
  5
DC
100
AcDbEntity
  8
04 - Medidas
  6
CONTINUOUS
 62
    2
370
   -2
100
AcDbMText
 10
100.9156539055333
 20
79.60000000000002
 30
0
 40
0.15
 41
0.3250000000000094
 71
    5
 72
    1
  1
1,83
  7
standard
210
0
220
0
230
1
 50
0
 73
    2
 44
1
  0
LINE
  5
DD
100
AcDbEntity
  8
04 - Medidas
  6
ByBlock
 62
    0
370
   -2
100
AcDbLine
 10
100
 20
79.93750000000001
 11
100
 21
79.47500000000002
  0
LINE
  5
DE
100
AcDbEntity
  8
04 - Medidas
  6
ByBlock
 62
    0
370
   -2
100
AcDbLine
 10
101.8313078110666
 20
79.93384851680251
 11
101.8313078110666
 21
79.47500000000002
  0
ENDBLK
  5
75
330
73
100
AcDbEntity
  8
0
100
AcDbBlockEnd
  0
BLOCK
  5
77
330
76
100
AcDbEntity
  8
0
100
AcDbBlockBegin
  2
*D8
 70
    1
 10
0
 20
0
  3
*D8
  1

  0
SOLID
  5
DF
100
AcDbEntity
  8
04 - Medidas
  6
ByBlock
 62
    0
370
   -2
100
AcDbTrace
 10
100
 20
78.90000000000002
 30
0
 11
100.1
 21
78.91665138631093
 31
0
 12
100.1
 22
78.88334861368911
 32
0
 13
100.1
 23
78.88334861368911
 33
0
  0
SOLID
  5
E0
100
AcDbEntity
  8
04 - Medidas
  6
ByBlock
 62
    0
370
   -2
100
AcDbTrace
 10
106.8
 20
78.90000000000002
 30
0
 11
106.7
 21
78.88334861368911
 31
0
 12
106.7
 22
78.91665138631093
 32
0
 13
106.7
 23
78.91665138631093
 33
0
  0
LINE
  5
E1
100
AcDbEntity
  8
05 - Zuncho Base
  6
ByLayer
 62
  256
370
   -1
100
AcDbLine
 10
100
 20
78.90000000000002
 11
103.1583333333333
 21
78.90000000000002
  0
LINE
  5
E2
100
AcDbEntity
  8
05 - Zuncho Base
  6
ByLayer
 62
  256
370
   -1
100
AcDbLine
 10
103.6416666666667
 20
78.90000000000002
 11
106.8
 21
78.90000000000002
  0
MTEXT
  5
E3
100
AcDbEntity
  8
04 - Medidas
  6
CONTINUOUS
 62
    2
370
   -2
100
AcDbMText
 10
103.4
 20
78.90000000000002
 30
0
 40
0.15
 41
0.3583333333333427
 71
    5
 72
    1
  1
6,80
  7
standard
210
0
220
0
230
1
 50
0
 73
    2
 44
1
  0
LINE
  5
E4
100
AcDbEntity
  8
04 - Medidas
  6
ByBlock
 62
    0
370
   -2
100
AcDbLine
 10
100
 20
79.93750000000001
 11
100
 21
78.77500000000002
  0
LINE
  5
E5
100
AcDbEntity
  8
04 - Medidas
  6
ByBlock
 62
    0
370
   -2
100
AcDbLine
 10
106.8
 20
79.93750000000001
 11
106.8
 21
78.77500000000002
  0
ENDBLK
  5
78
330
76
100
AcDbEntity
  8
0
100
AcDbBlockEnd
  0
BLOCK
  5
7A
330
79
100
AcDbEntity
  8
0
100
AcDbBlockBegin
  2
*D17
 70
    1
 10
0
 20
0
  3
*D17
  1

  0
SOLID
  5
E6
100
AcDbEntity
  8
04 - Medidas
  6
ByBlock
 62
    0
370
   -2
100
AcDbTrace
 10
107.7319487823611
 20
84.10000000000001
 30
0
 11
107.7152973960502
 21
84.2
 31
0
 12
107.748600168672
 22
84.2
 32
0
 13
107.748600168672
 23
84.2
 33
0
  0
SOLID
  5
E7
100
AcDbEntity
  8
04 - Medidas
  6
ByBlock
 62
    0
370
   -2
100
AcDbTrace
 10
107.7319487823611
 20
85.10000000000002
 30
0
 11
107.748600168672
 21
85.00000000000003
 31
0
 12
107.7152973960502
 22
85.00000000000003
 32
0
 13
107.7152973960502
 23
85.00000000000003
 33
0
  0
LINE
  5
E8
100
AcDbEntity
  8
05 - Zuncho Base
  6
ByLayer
 62
  256
370
   -1
100
AcDbLine
 10
107.7319487823611
 20
84.10000000000001
 11
107.7319487823611
 21
84.46250000000002
  0
LINE
  5
E9
100
AcDbEntity
  8
05 - Zuncho Base
  6
ByLayer
 62
  256
370
   -1
100
AcDbLine
 10
107.7319487823611
 20
84.73750000000003
 11
107.7319487823611
 21
85.10000000000002
  0
MTEXT
  5
EA
100
AcDbEntity
  8
04 - Medidas
  6
CONTINUOUS
 62
    2
370
   -2
100
AcDbMText
 10
107.7319487823611
 20
84.60000000000002
 30
0
 40
0.15
 41
0.3250000000000001
 71
    5
 72
    1
  1
1,00
  7
standard
210
0
220
0
230
1
 50
0
 73
    2
 44
1
  0
LINE
  5
EB
100
AcDbEntity
  8
04 - Medidas
  6
ByBlock
 62
    0
370
   -2
100
AcDbLine
 10
106.8625
 20
84.10000000000001
 11
107.8569487823611
 21
84.10000000000001
  0
LINE
  5
EC
100
AcDbEntity
  8
04 - Medidas
  6
ByBlock
 62
    0
370
   -2
100
AcDbLine
 10
106.8625
 20
85.10000000000002
 11
107.8569487823611
 21
85.10000000000002
  0
ENDBLK
  5
7B
330
79
100
AcDbEntity
  8
0
100
AcDbBlockEnd
  0
BLOCK
  5
7D
330
7C
100
AcDbEntity
  8
0
100
AcDbBlockBegin
  2
*D18
 70
    1
 10
0
 20
0
  3
*D18
  1

  0
SOLID
  5
ED
100
AcDbEntity
  8
04 - Medidas
  6
ByBlock
 62
    0
370
   -2
100
AcDbTrace
 10
98.99673030995011
 20
81.99670695312045
 30
0
 11
98.9800789236392
 21
82.09670695312045
 31
0
 12
99.01338169626102
 22
82.09670695312045
 32
0
 13
99.01338169626102
 23
82.09670695312045
 33
0
  0
SOLID
  5
EE
100
AcDbEntity
  8
04 - Medidas
  6
ByBlock
 62
    0
370
   -2
100
AcDbTrace
 10
98.99673030995011
 20
83.09999999999999
 30
0
 11
99.01338169626102
 21
83
 31
0
 12
98.9800789236392
 22
83
 32
0
 13
98.9800789236392
 23
83
 33
0
  0
LINE
  5
EF
100
AcDbEntity
  8
05 - Zuncho Base
  6
ByLayer
 62
  256
370
   -1
100
AcDbLine
 10
98.99673030995011
 20
81.99670695312045
 11
98.99673030995011
 21
82.41085347656022
  0
LINE
  5
F0
100
AcDbEntity
  8
05 - Zuncho Base
  6
ByLayer
 62
  256
370
   -1
100
AcDbLine
 10
98.99673030995011
 20
82.68585347656023
 11
98.99673030995011
 21
83.09999999999999
  0
MTEXT
  5
F1
100
AcDbEntity
  8
04 - Medidas
  6
CONTINUOUS
 62
    2
370
   -2
100
AcDbMText
 10
98.99673030995011
 20
82.54835347656022
 30
0
 40
0.15
 41
0.2916666666666667
 71
    5
 72
    1
  1
1,10
  7
standard
210
0
220
0
230
1
 50
0
 73
    2
 44
1
  0
LINE
  5
F2
100
AcDbEntity
  8
04 - Medidas
  6
ByBlock
 62
    0
370
   -2
100
AcDbLine
 10
99.9375
 20
81.99670695312045
 11
98.87173030995011
 21
81.99670695312045
  0
LINE
  5
F3
100
AcDbEntity
  8
04 - Medidas
  6
ByBlock
 62
    0
370
   -2
100
AcDbLine
 10
99.9375
 20
83.09999999999999
 11
98.87173030995011
 21
83.09999999999999
  0
ENDBLK
  5
7E
330
7C
100
AcDbEntity
  8
0
100
AcDbBlockEnd
  0
BLOCK
  5
80
330
7F
100
AcDbEntity
  8
0
100
AcDbBlockBegin
  2
*D16
 70
    1
 10
0
 20
0
  3
*D16
  1

  0
SOLID
  5
F4
100
AcDbEntity
  8
04 - Medidas
  6
ByBlock
 62
    0
370
   -2
100
AcDbTrace
 10
107.7319487823611
 20
83
 30
0
 11
107.7152973960502
 21
83.09999999999999
 31
0
 12
107.748600168672
 22
83.09999999999999
 32
0
 13
107.748600168672
 23
83.09999999999999
 33
0
  0
SOLID
  5
F5
100
AcDbEntity
  8
04 - Medidas
  6
ByBlock
 62
    0
370
   -2
100
AcDbTrace
 10
107.7319487823611
 20
84.10000000000001
 30
0
 11
107.748600168672
 21
84.00000000000001
 31
0
 12
107.7152973960502
 22
84.00000000000001
 32
0
 13
107.7152973960502
 23
84.00000000000001
 33
0
  0
LINE
  5
F6
100
AcDbEntity
  8
05 - Zuncho Base
  6
ByLayer
 62
  256
370
   -1
100
AcDbLine
 10
107.7319487823611
 20
83
 11
107.7319487823611
 21
83.41250000000001
  0
LINE
  5
F7
100
AcDbEntity
  8
05 - Zuncho Base
  6
ByLayer
 62
  256
370
   -1
100
AcDbLine
 10
107.7319487823611
 20
83.68750000000001
 11
107.7319487823611
 21
84.10000000000001
  0
MTEXT
  5
F8
100
AcDbEntity
  8
04 - Medidas
  6
CONTINUOUS
 62
    2
370
   -2
100
AcDbMText
 10
107.7319487823611
 20
83.55000000000001
 30
0
 40
0.15
 41
0.2916666666666667
 71
    5
 72
    1
  1
1,10
  7
standard
210
0
220
0
230
1
 50
0
 73
    2
 44
1
  0
LINE
  5
F9
100
AcDbEntity
  8
04 - Medidas
  6
ByBlock
 62
    0
370
   -2
100
AcDbLine
 10
106.8625
 20
83
 11
107.8569487823611
 21
83
  0
LINE
  5
FA
100
AcDbEntity
  8
04 - Medidas
  6
ByBlock
 62
    0
370
   -2
100
AcDbLine
 10
106.8625
 20
84.10000000000001
 11
107.8569487823611
 21
84.10000000000001
  0
ENDBLK
  5
81
330
7F
100
AcDbEntity
  8
0
100
AcDbBlockEnd
  0
BLOCK
  5
83
330
82
100
AcDbEntity
  8
0
100
AcDbBlockBegin
  2
*D1
 70
    1
 10
0
 20
0
  3
*D1
  1

  0
LINE
  5
FB
100
AcDbEntity
  8
04 - Medidas
  6
ByBlock
 62
    0
370
   -2
100
AcDbLine
 10
104.941265031124
 20
79.58933966133672
 11
105.003765031124
 21
79.58933966133672
  0
LINE
  5
FC
100
AcDbEntity
  8
04 - Medidas
  6
ByBlock
 62
    0
370
   -2
100
AcDbLine
 10
105.8617172738824
 20
79.58933966133672
 11
105.9242172738824
 21
79.58933966133672
  0
SOLID
  5
FD
100
AcDbEntity
  8
04 - Medidas
  6
ByBlock
 62
    0
370
   -2
100
AcDbTrace
 10
104.878765031124
 20
79.58933966133672
 30
0
 11
104.978765031124
 21
79.60599104764763
 31
0
 12
104.978765031124
 22
79.57268827502581
 32
0
 13
104.978765031124
 23
79.57268827502581
 33
0
  0
SOLID
  5
FE
100
AcDbEntity
  8
04 - Medidas
  6
ByBlock
 62
    0
370
   -2
100
AcDbTrace
 10
105.7992172738824
 20
79.58933966133672
 30
0
 11
105.6992172738824
 21
79.57268827502581
 31
0
 12
105.6992172738824
 22
79.60599104764763
 32
0
 13
105.6992172738824
 23
79.60599104764763
 33
0
  0
LINE
  5
FF
100
AcDbEntity
  8
05 - Zuncho Base
  6
ByLayer
 62
  256
370
   -1
100
AcDbLine
 10
104.878765031124
 20
79.58933966133672
 11
105.0973244858365
 21
79.58933966133672
  0
LINE
  5
100
100
AcDbEntity
  8
05 - Zuncho Base
  6
ByLayer
 62
  256
370
   -1
100
AcDbLine
 10
105.5806578191699
 20
79.58933966133672
 11
105.7992172738824
 21
79.58933966133672
  0
MTEXT
  5
101
100
AcDbEntity
  8
04 - Medidas
  6
CONTINUOUS
 62
    2
370
   -2
100
AcDbMText
 10
105.3389911525032
 20
79.58933966133672
 30
0
 40
0.15
 41
0.3583333333333427
 71
    5
 72
    1
  1
0,92
  7
standard
210
0
220
0
230
1
 50
0
 73
    2
 44
1
  0
ENDBLK
  5
84
330
82
100
AcDbEntity
  8
0
100
AcDbBlockEnd
  0
BLOCK
  5
86
330
85
100
AcDbEntity
  8
0
100
AcDbBlockBegin
  2
*D7
 70
    1
 10
0
 20
0
  3
*D7
  1

  0
SOLID
  5
102
100
AcDbEntity
  8
04 - Medidas
  6
ByBlock
 62
    0
370
   -2
100
AcDbTrace
 10
100.5
 20
81.50000000000001
 30
0
 11
100.6
 21
81.51665138631093
 31
0
 12
100.6
 22
81.4833486136891
 32
0
 13
100.6
 23
81.4833486136891
 33
0
  0
SOLID
  5
103
100
AcDbEntity
  8
04 - Medidas
  6
ByBlock
 62
    0
370
   -2
100
AcDbTrace
 10
101.495
 20
81.50000000000001
 30
0
 11
101.395
 21
81.4833486136891
 31
0
 12
101.395
 22
81.51665138631093
 32
0
 13
101.395
 23
81.51665138631093
 33
0
  0
LINE
  5
104
100
AcDbEntity
  8
05 - Zuncho Base
  6
ByLayer
 62
  256
370
   -1
100
AcDbLine
 10
100.5
 20
81.50000000000001
 11
100.7725
 21
81.50000000000001
  0
LINE
  5
105
100
AcDbEntity
  8
05 - Zuncho Base
  6
ByLayer
 62
  256
370
   -1
100
AcDbLine
 10
101.2225
 20
81.50000000000001
 11
101.495
 21
81.50000000000001
  0
MTEXT
  5
106
100
AcDbEntity
  8
04 - Medidas
  6
CONTINUOUS
 62
    2
370
   -2
100
AcDbMText
 10
100.9975
 20
81.50000000000001
 30
0
 40
0.15
 41
0.3250000000000001
 71
    5
 72
    1
  1
1,00
  7
standard
210
0
220
0
230
1
 50
0
 73
    2
 44
1
  0
LINE
  5
107
100
AcDbEntity
  8
04 - Medidas
  6
ByBlock
 62
    0
370
   -2
100
AcDbLine
 10
100.5
 20
81.26250000000002
 11
100.5
 21
81.62500000000001
  0
LINE
  5
108
100
AcDbEntity
  8
04 - Medidas
  6
ByBlock
 62
    0
370
   -2
100
AcDbLine
 10
101.495
 20
81.26349999999999
 11
101.495
 21
81.62500000000001
  0
ENDBLK
  5
87
330
85
100
AcDbEntity
  8
0
100
AcDbBlockEnd
  0
BLOCK
  5
89
330
88
100
AcDbEntity
  8
0
100
AcDbBlockBegin
  2
*D5
 70
    1
 10
0
 20
0
  3
*D5
  1

  0
SOLID
  5
109
100
AcDbEntity
  8
04 - Medidas
  6
ByBlock
 62
    0
370
   -2
100
AcDbTrace
 10
101.7301540291894
 20
80.5001
 30
0
 11
101.7135026428785
 21
80.6001
 31
0
 12
101.7468054155003
 22
80.6001
 32
0
 13
101.7468054155003
 23
80.6001
 33
0
  0
SOLID
  5
10A
100
AcDbEntity
  8
04 - Medidas
  6
ByBlock
 62
    0
370
   -2
100
AcDbTrace
 10
101.7301540291894
 20
81.20010000000001
 30
0
 11
101.7468054155003
 21
81.10010000000001
 31
0
 12
101.7135026428785
 22
81.10010000000001
 32
0
 13
101.7135026428785
 23
81.10010000000001
 33
0
  0
LINE
  5
10B
100
AcDbEntity
  8
05 - Zuncho Base
  6
ByLayer
 62
  256
370
   -1
100
AcDbLine
 10
101.7301540291894
 20
80.5001
 11
101.7301540291894
 21
80.71259999999999
  0
LINE
  5
10C
100
AcDbEntity
  8
05 - Zuncho Base
  6
ByLayer
 62
  256
370
   -1
100
AcDbLine
 10
101.7301540291894
 20
80.9876
 11
101.7301540291894
 21
81.20010000000001
  0
MTEXT
  5
10D
100
AcDbEntity
  8
04 - Medidas
  6
CONTINUOUS
 62
    2
370
   -2
100
AcDbMText
 10
101.7301540291894
 20
80.8501
 30
0
 40
0.15
 41
0.3583333333333334
 71
    5
 72
    1
  1
0,70
  7
standard
210
0
220
0
230
1
 50
0
 73
    2
 44
1
  0
LINE
  5
10E
100
AcDbEntity
  8
04 - Medidas
  6
ByBlock
 62
    0
370
   -2
100
AcDbLine
 10
101.5485
 20
80.5001
 11
101.8551540291894
 21
80.5001
  0
LINE
  5
10F
100
AcDbEntity
  8
04 - Medidas
  6
ByBlock
 62
    0
370
   -2
100
AcDbLine
 10
101.5485
 20
81.20010000000001
 11
101.8551540291894
 21
81.20010000000001
  0
ENDBLK
  5
8A
330
88
100
AcDbEntity
  8
0
100
AcDbBlockEnd
  0
ENDSEC
  0
SECTION
  2
ENTITIES
  0
LINE
  5
110
100
AcDbEntity
  8
0
  6
ByLayer
 62
  256
370
   -1
100
AcDbLine
 10
100
 20
80
 11
100
 21
84.28
  0
LINE
  5
111
100
AcDbEntity
  8
0
  6
ByLayer
 62
  256
370
   -1
100
AcDbLine
 10
106.8
 20
80.00000000000001
 11
106.8
 21
85.10000000000001
  0
LINE
  5
112
100
AcDbEntity
  8
0
  6
ByLayer
 62
  256
370
   -1
100
AcDbLine
 10
100
 20
84.30000000000001
 11
106.8
 21
85.10000000000002
  0
LINE
  5
113
100
AcDbEntity
  8
0
  6
ByLayer
 62
  256
370
   -1
100
AcDbLine
 10
106.13
 20
80.5
 11
106.13
 21
84.50000000000003
  0
LINE
  5
114
100
AcDbEntity
  8
0
  6
ByLayer
 62
  256
370
   -1
100
AcDbLine
 10
106.13
 20
84.50000000000003
 11
103.1
 21
84.14000000000001
  0
LINE
  5
115
100
AcDbEntity
  8
0
  6
ByLayer
 62
  256
370
   -1
100
AcDbLine
 10
100.5
 20
80.5
 11
100.5
 21
84.34
  0
LINE
  5
116
100
AcDbEntity
  8
0
  6
ByLayer
 62
  256
370
   -1
100
AcDbLine
 10
105.8
 20
80.00000000000001
 11
105.8
 21
80.50000000000001
  0
LINE
  5
117
100
AcDbEntity
  8
0
  6
ByLayer
 62
  256
370
   -1
100
AcDbLine
 10
104.88
 20
80.00000000000001
 11
104.88
 21
80.50000000000001
  0
LINE
  5
118
100
AcDbEntity
  8
0
  6
ByLayer
 62
  256
370
   -1
100
AcDbLine
 10
105.8
 20
80.50000000000001
 11
106.13
 21
80.5
  0
LINE
  5
119
100
AcDbEntity
  8
0
  6
ByLayer
 62
  256
370
   -1
100
AcDbLine
 10
100.5
 20
80.5
 11
104.88
 21
80.50000000000001
  0
LINE
  5
11A
100
AcDbEntity
  8
0
  6
ByLayer
 62
  256
370
   -1
100
AcDbLine
 10
105.8
 20
80.00000000000001
 11
106.8
 21
80
  0
LINE
  5
11B
100
AcDbEntity
  8
0
  6
ByLayer
 62
  256
370
   -1
100
AcDbLine
 10
100
 20
80
 11
104.88
 21
80.00000000000001
  0
LINE
  5
11C
100
AcDbEntity
  8
01 - Aberturas
  6
ByLayer
 62
  256
370
   -1
100
AcDbLine
 10
105.75
 20
80.30000000000001
 11
105.75
 21
81.12
  0
LINE
  5
11D
100
AcDbEntity
  8
01 - Aberturas
  6
ByLayer
 62
  256
370
   -1
100
AcDbLine
 10
105.7
 20
80.30000000000001
 11
105.7
 21
81.12
  0
LINE
  5
11E
100
AcDbEntity
  8
01 - Aberturas
  6
ByLayer
 62
  256
370
   -1
100
AcDbLine
 10
105.7
 20
81.12
 11
105.75
 21
81.12
  0
LINE
  5
11F
100
AcDbEntity
  8
01 - Aberturas
  6
ByLayer
 62
  256
370
   -1
100
AcDbLine
 10
105.7
 20
80.30000000000001
 11
105.75
 21
80.30000000000001
  0
ARC
  5
120
100
AcDbEntity
  8
01 - Aberturas
  6
ByLayer
 62
  256
370
   -1
100
AcDbCircle
 10
105.75
 20
80.30000000000001
 40
0.8199999999999932
100
AcDbArc
 50
90
 51
180
  0
LINE
  5
121
100
AcDbEntity
  8
01 - Aberturas
  6
ByLayer
 62
  256
370
   -1
100
AcDbLine
 10
104.88
 20
80.00000000000001
 11
104.88
 21
80.50000000000001
  0
LINE
  5
122
100
AcDbEntity
  8
03 - Premarcos
  6
ByLayer
 62
  256
370
   -1
100
AcDbLine
 10
104.88
 20
80.5
 11
104.88
 21
80
  0
LINE
  5
123
100
AcDbEntity
  8
03 - Premarcos
  6
ByLayer
 62
  256
370
   -1
100
AcDbLine
 10
104.93
 20
80
 11
104.93
 21
80.5
  0
LINE
  5
124
100
AcDbEntity
  8
03 - Premarcos
  6
ByLayer
 62
  256
370
   -1
100
AcDbLine
 10
104.93
 20
80.5
 11
104.88
 21
80.5
  0
LINE
  5
125
100
AcDbEntity
  8
03 - Premarcos
  6
ByLayer
 62
  256
370
   -1
100
AcDbLine
 10
104.88
 20
80
 11
104.93
 21
80
  0
LINE
  5
126
100
AcDbEntity
  8
03 - Premarcos
  6
ByLayer
 62
  256
370
   -1
100
AcDbLine
 10
105.75
 20
80
 11
105.75
 21
80.5
  0
LINE
  5
127
100
AcDbEntity
  8
03 - Premarcos
  6
ByLayer
 62
  256
370
   -1
100
AcDbLine
 10
105.8
 20
80
 11
105.75
 21
80
  0
LINE
  5
128
100
AcDbEntity
  8
03 - Premarcos
  6
ByLayer
 62
  256
370
   -1
100
AcDbLine
 10
105.8
 20
80.5
 11
105.8
 21
80
  0
LINE
  5
129
100
AcDbEntity
  8
03 - Premarcos
  6
ByLayer
 62
  256
370
   -1
100
AcDbLine
 10
105.75
 20
80.5
 11
105.8
 21
80.5
  0
LINE
  5
12A
100
AcDbEntity
  8
0
  6
ByLayer
 62
  256
370
   -1
100
AcDbLine
 10
106.13
 20
84.5
 11
106.13
 21
85.02
  0
LINE
  5
12B
100
AcDbEntity
  8
0
  6
ByLayer
 62
  256
370
   -1
100
AcDbLine
 10
103.1
 20
84.14000000000001
 11
103.1
 21
84.67
  0
LINE
  5
12C
100
AcDbEntity
  8
01 - Aberturas
  6
ByLayer
 62
  256
370
   -1
100
AcDbLine
 10
105.8
 20
80.5
 11
105.75
 21
80.5
  0
DIMENSION
  5
12D
100
AcDbEntity
  8
04 - Medidas
  6
ByLayer
 62
  256
370
   -1
100
AcDbDimension
  2
*D1
 10
105.7992172738824
 20
79.58933966133672
 30
0
 11
105.3389911525032
 21
79.58933966133672
 31
0
 70
   33
 71
    5
 72
    0
  3
Standard
 53
0
210
0
220
0
230
1
100
AcDbAlignedDimension
 13
104.878765031124
 23
79.58933966133672
 33
0
 14
105.7992172738824
 24
79.58933966133672
 34
0
  0
DIMENSION
  5
12E
100
AcDbEntity
  8
04 - Medidas
  6
ByLayer
 62
  256
370
   -1
100
AcDbDimension
  2
*D2
 10
106.7995322847625
 20
79.58933966133672
 30
0
 11
106.2986979762028
 21
79.58933966133672
 31
0
 70
   33
 71
    5
 72
    0
  3
Standard
 53
0
210
0
220
0
230
1
100
AcDbAlignedDimension
 13
105.7978636676431
 23
79.58933966133672
 33
0
 14
106.7995322847625
 24
79.58933966133672
 34
0
  0
LINE
  5
12F
100
AcDbEntity
  8
0
  6
ByLayer
 62
  256
370
   -1
100
AcDbLine
 10
103.9313078110665
 20
79.99634851680251
 11
103.9313078110665
 21
80.49634851680251
  0
LINE
  5
130
100
AcDbEntity
  8
0
  6
ByLayer
 62
  256
370
   -1
100
AcDbLine
 10
103.8813078110665
 20
79.99634851680251
 11
103.8813078110665
 21
80.49634851680251
  0
LINE
  5
131
100
AcDbEntity
  8
01 - Aberturas
  6
ByLayer
 62
  256
370
   -1
100
AcDbLine
 10
103.9313078110665
 20
79.99634851680251
 11
103.9313078110665
 21
80.49634851680251
  0
LINE
  5
132
100
AcDbEntity
  8
01 - Aberturas
  6
ByLayer
 62
  256
370
   -1
100
AcDbLine
 10
103.8813078110665
 20
79.99634851680251
 11
103.8813078110665
 21
80.49634851680251
  0
LINE
  5
133
100
AcDbEntity
  8
01 - Aberturas
  6
ByLayer
 62
  256
370
   -1
100
AcDbLine
 10
101.8813078110665
 20
79.99634851680251
 11
101.8813078110665
 21
80.49634851680251
  0
LINE
  5
134
100
AcDbEntity
  8
01 - Aberturas
  6
ByLayer
 62
  256
370
   -1
100
AcDbLine
 10
101.8313078110666
 20
79.99634851680251
 11
101.8313078110666
 21
80.49634851680251
  0
LINE
  5
135
100
AcDbEntity
  8
01 - Aberturas
  6
ByLayer
 62
  256
370
   -1
100
AcDbLine
 10
101.8813078110665
 20
80.29634851680251
 11
103.8813078110665
 21
80.29634851680251
  0
LINE
  5
136
100
AcDbEntity
  8
01 - Aberturas
  6
ByLayer
 62
  256
370
   -1
100
AcDbLine
 10
101.8813078110665
 20
80.29634851680251
 11
103.8813078110665
 21
80.29634851680251
  0
LINE
  5
137
100
AcDbEntity
  8
01 - Aberturas
  6
ByLayer
 62
  256
370
   -1
100
AcDbLine
 10
101.8813078110665
 20
80.34634851680251
 11
103.8813078110665
 21
80.34634851680251
  0
DIMENSION
  5
138
100
AcDbEntity
  8
04 - Medidas
  6
ByLayer
 62
  256
370
   -1
100
AcDbDimension
  2
*D3
 10
103.9313078110665
 20
79.59088752885884
 30
0
 11
104.4056539055333
 21
79.59088752885884
 31
0
 70
   32
 71
    5
 72
    0
  3
Standard
 53
0
210
0
220
0
230
1
100
AcDbAlignedDimension
 13
104.88
 23
80.00000000000001
 33
0
 14
103.9313078110665
 24
79.99634851680251
 34
0
100
AcDbRotatedDimension
  0
DIMENSION
  5
139
100
AcDbEntity
  8
04 - Medidas
  6
ByLayer
 62
  256
370
   -1
100
AcDbDimension
  2
*D4
 10
101.8313078110666
 20
79.59088752885884
 30
0
 11
102.8813078110665
 21
79.59088752885884
 31
0
 70
   32
 71
    5
 72
    0
  3
Standard
 53
0
210
0
220
0
230
1
100
AcDbAlignedDimension
 13
103.9313078110665
 23
79.99634851680251
 33
0
 14
101.8313078110666
 24
79.99634851680251
 34
0
100
AcDbRotatedDimension
  0
LINE
  5
13A
100
AcDbEntity
  8
04 - Medidas
  6
ByLayer
 62
  256
370
   -1
100
AcDbLine
 10
101.4860885375809
 20
80.5000850555717
 11
101.4860885375809
 21
81.20008505557171
  0
LINE
  5
13B
100
AcDbEntity
  8
02 - Divisiones
  6
ByLayer
 62
  256
370
   -1
100
AcDbLine
 10
100.495
 20
81.20099999999999
 11
101.495
 21
81.20099999999999
  0
LINE
  5
13C
100
AcDbEntity
  8
02 - Divisiones
  6
ByLayer
 62
  256
370
   -1
100
AcDbLine
 10
101.486
 20
80.5001
 11
101.486
 21
81.20010000000001
  0
LINE
  5
13D
100
AcDbEntity
  8
03 - Premarcos
  6
ByLayer
 62
  256
370
   -1
100
AcDbLine
 10
103.8813078110665
 20
80.49634851680251
 11
103.8813078110665
 21
79.99634851680251
  0
LINE
  5
13E
100
AcDbEntity
  8
03 - Premarcos
  6
ByLayer
 62
  256
370
   -1
100
AcDbLine
 10
103.9313078110665
 20
79.99634851680251
 11
103.9313078110665
 21
80.49634851680251
  0
LINE
  5
13F
100
AcDbEntity
  8
03 - Premarcos
  6
ByLayer
 62
  256
370
   -1
100
AcDbLine
 10
103.9313078110665
 20
80.49634851680251
 11
103.8813078110665
 21
80.49634851680251
  0
LINE
  5
140
100
AcDbEntity
  8
03 - Premarcos
  6
ByLayer
 62
  256
370
   -1
100
AcDbLine
 10
103.8813078110665
 20
79.99634851680251
 11
103.9313078110665
 21
79.99634851680251
  0
LINE
  5
141
100
AcDbEntity
  8
03 - Premarcos
  6
ByLayer
 62
  256
370
   -1
100
AcDbLine
 10
101.8313078110666
 20
80.49634851680251
 11
101.8313078110666
 21
79.99634851680251
  0
LINE
  5
142
100
AcDbEntity
  8
03 - Premarcos
  6
ByLayer
 62
  256
370
   -1
100
AcDbLine
 10
101.8813078110665
 20
79.99634851680251
 11
101.8813078110665
 21
80.49634851680251
  0
LINE
  5
143
100
AcDbEntity
  8
03 - Premarcos
  6
ByLayer
 62
  256
370
   -1
100
AcDbLine
 10
101.8813078110665
 20
80.49634851680251
 11
101.8313078110666
 21
80.49634851680251
  0
LINE
  5
144
100
AcDbEntity
  8
03 - Premarcos
  6
ByLayer
 62
  256
370
   -1
100
AcDbLine
 10
101.8313078110666
 20
79.99634851680251
 11
101.8813078110665
 21
79.99634851680251
  0
DIMENSION
  5
145
100
AcDbEntity
  8
04 - Medidas
  6
ByLayer
 62
  256
370
   -1
100
AcDbDimension
  2
*D5
 10
101.7301540291894
 20
81.20010000000001
 30
0
 11
101.7301540291894
 21
80.8501
 31
0
 70
   32
 71
    5
 72
    0
  3
Standard
 53
0
210
0
220
0
230
1
100
AcDbAlignedDimension
 13
101.486
 23
80.5001
 33
0
 14
101.486
 24
81.20010000000001
 34
0
 50
90
100
AcDbRotatedDimension
  0
LINE
  5
146
100
AcDbEntity
  8
01 - Aberturas
  6
ByLayer
 62
  256
370
   -1
100
AcDbLine
 10
100
 20
82
 11
100.5
 21
82
  0
LINE
  5
147
100
AcDbEntity
  8
03 - Premarcos
  6
ByLayer
 62
  256
370
   -1
100
AcDbLine
 10
100
 20
82
 11
100.5
 21
82
  0
LINE
  5
148
100
AcDbEntity
  8
03 - Premarcos
  6
ByLayer
 62
  256
370
   -1
100
AcDbLine
 10
100
 20
82.05
 11
100.5
 21
82.05
  0
DIMENSION
  5
149
100
AcDbEntity
  8
04 - Medidas
  6
ByLayer
 62
  256
370
   -1
100
AcDbDimension
  2
*D6
 10
101.8313078110666
 20
79.60000000000002
 30
0
 11
100.9156539055333
 21
79.60000000000002
 31
0
 70
   32
 71
    5
 72
    0
  3
Standard
 53
0
210
0
220
0
230
1
100
AcDbAlignedDimension
 13
100
 23
80.00000000000001
 33
0
 14
101.8313078110666
 24
79.99634851680251
 34
0
100
AcDbRotatedDimension
  0
DIMENSION
  5
14A
100
AcDbEntity
  8
04 - Medidas
  6
ByLayer
 62
  256
370
   -1
100
AcDbDimension
  2
*D7
 10
101.495
 20
81.50000000000001
 30
0
 11
100.9975
 21
81.50000000000001
 31
0
 70
   32
 71
    5
 72
    0
  3
Standard
 53
0
210
0
220
0
230
1
100
AcDbAlignedDimension
 13
100.5
 23
81.20000000000002
 33
0
 14
101.495
 24
81.20099999999999
 34
0
100
AcDbRotatedDimension
  0
DIMENSION
  5
14B
100
AcDbEntity
  8
04 - Medidas
  6
ByLayer
 62
  256
370
   -1
100
AcDbDimension
  2
*D8
 10
106.8
 20
78.90000000000002
 30
0
 11
103.4
 21
78.90000000000002
 31
0
 70
   32
 71
    5
 72
    0
  3
Standard
 53
0
210
0
220
0
230
1
100
AcDbAlignedDimension
 13
100
 23
80.00000000000001
 33
0
 14
106.8
 24
80.00000000000001
 34
0
100
AcDbRotatedDimension
  0
DIMENSION
  5
14C
100
AcDbEntity
  8
04 - Medidas
  6
ByLayer
 62
  256
370
   -1
100
AcDbDimension
  2
*D9
 10
99.40000000000001
 20
84.30000000000001
 30
0
 11
99.40000000000001
 21
82.15000000000001
 31
0
 70
   32
 71
    5
 72
    0
  3
Standard
 53
0
210
0
220
0
230
1
100
AcDbAlignedDimension
 13
100
 23
80
 33
0
 14
100
 24
84.30000000000001
 34
0
 50
90
100
AcDbRotatedDimension
  0
DIMENSION
  5
14D
100
AcDbEntity
  8
04 - Medidas
  6
ByLayer
 62
  256
370
   -1
100
AcDbDimension
  2
*D10
 10
100.5
 20
78.50000000000001
 30
0
 11
100.25
 21
78.50000000000001
 31
0
 70
   32
 71
    5
 72
    0
  3
Standard
 53
0
210
0
220
0
230
1
100
AcDbAlignedDimension
 13
100
 23
80.00000000000001
 33
0
 14
100.5
 24
80.00000000000001
 34
0
100
AcDbRotatedDimension
  0
DIMENSION
  5
14E
100
AcDbEntity
  8
04 - Medidas
  6
ByLayer
 62
  256
370
   -1
100
AcDbDimension
  2
*D11
 10
106.8
 20
78.50000000000001
 30
0
 11
106.465
 21
78.50000000000001
 31
0
 70
   32
 71
    5
 72
    0
  3
Standard
 53
0
210
0
220
0
230
1
100
AcDbAlignedDimension
 13
106.13
 23
80.5
 33
0
 14
106.8
 24
80.50000000000001
 34
0
100
AcDbRotatedDimension
  0
DIMENSION
  5
14F
100
AcDbEntity
  8
04 - Medidas
  6
ByLayer
 62
  256
370
   -1
100
AcDbDimension
  2
*D12
 10
98.90000000000001
 20
80.50000000000001
 30
0
 11
98.90000000000001
 21
80.25000000000001
 31
0
 70
   32
 71
    5
 72
    0
  3
Standard
 53
0
210
0
220
0
230
1
100
AcDbAlignedDimension
 13
100
 23
80.00000000000001
 33
0
 14
100
 24
80.50000000000001
 34
0
 50
90
100
AcDbRotatedDimension
  0
DIMENSION
  5
150
100
AcDbEntity
  8
04 - Medidas
  6
ByLayer
 62
  256
370
   -1
100
AcDbDimension
  2
*D13
 10
99
 20
82
 30
0
 11
99
 21
81
 31
0
 70
   32
 71
    5
 72
    0
  3
Standard
 53
0
210
0
220
0
230
1
100
AcDbAlignedDimension
 13
100
 23
80
 33
0
 14
100
 24
82
 34
0
 50
90
100
AcDbRotatedDimension
  0
LINE
  5
151
100
AcDbEntity
  8
01 - Aberturas
  6
ByLayer
 62
  256
370
   -1
100
AcDbLine
 10
100
 20
83.09999999999999
 11
100.5
 21
83.09999999999999
  0
LINE
  5
152
100
AcDbEntity
  8
03 - Premarcos
  6
ByLayer
 62
  256
370
   -1
100
AcDbLine
 10
100
 20
81
 11
100.5
 21
81
  0
LINE
  5
153
100
AcDbEntity
  8
03 - Premarcos
  6
ByLayer
 62
  256
370
   -1
100
AcDbLine
 10
100
 20
83.05
 11
100.5
 21
83.05
  0
DIMENSION
  5
154
100
AcDbEntity
  8
03 - Premarcos
  6
ByLayer
 62
  256
370
   -1
100
AcDbDimension
  2
*D14
 10
100
 20
0
 30
0
 11
5000000100.2
 21
0
 31
0
 70
   32
 71
    5
 72
    0
  3
Standard
 53
0
210
0
220
0
230
1
100
AcDbAlignedDimension
 13
100
 23
0
 33
0
 14
100
 24
0
 34
0
 50
90
100
AcDbRotatedDimension
  0
DIMENSION
  5
155
100
AcDbEntity
  8
04 - Medidas
  6
ByLayer
 62
  256
370
   -1
100
AcDbDimension
  2
*D15
 10
107.7310567715522
 20
82.99837080103063
 30
0
 11
107.7310567715522
 21
81.49806300562551
 31
0
 70
   32
 71
    5
 72
    0
  3
Standard
 53
0
210
0
220
0
230
1
100
AcDbAlignedDimension
 13
107.372774312948
 23
79.9977552102204
 33
0
 14
107.372774312948
 24
82.99837080103063
 34
0
 50
90
100
AcDbRotatedDimension
  0
LINE
  5
156
100
AcDbEntity
  8
04 - Medidas
  6
ByLayer
 62
  256
370
   -1
100
AcDbLine
 10
106.13
 20
84.10000000000001
 11
106.8
 21
84.09999999999999
  0
LINE
  5
157
100
AcDbEntity
  8
04 - Medidas
  6
ByLayer
 62
  256
370
   -1
100
AcDbLine
 10
106.13
 20
84.10000000000001
 11
106.8
 21
84.09999999999999
  0
LINE
  5
158
100
AcDbEntity
  8
04 - Medidas
  6
ByLayer
 62
  256
370
   -1
100
AcDbLine
 10
106.13
 20
84.10000000000001
 11
106.8
 21
84.09999999999999
  0
LINE
  5
159
100
AcDbEntity
  8
04 - Medidas
  6
ByLayer
 62
  256
370
   -1
100
AcDbLine
 10
106.13
 20
84.10000000000001
 11
106.8
 21
84.09999999999999
  0
LINE
  5
15A
100
AcDbEntity
  8
04 - Medidas
  6
ByLayer
 62
  256
370
   -1
100
AcDbLine
 10
106.13
 20
84.10000000000001
 11
106.8
 21
84.09999999999999
  0
LINE
  5
15B
100
AcDbEntity
  8
04 - Medidas
  6
ByLayer
 62
  256
370
   -1
100
AcDbLine
 10
106.13
 20
84.10000000000001
 11
106.8
 21
84.09999999999999
  0
LINE
  5
15C
100
AcDbEntity
  8
04 - Medidas
  6
ByLayer
 62
  256
370
   -1
100
AcDbLine
 10
106.13
 20
84.10000000000001
 11
106.8
 21
84.09999999999999
  0
LINE
  5
15D
100
AcDbEntity
  8
04 - Medidas
  6
ByLayer
 62
  256
370
   -1
100
AcDbLine
 10
106.13
 20
84.10000000000001
 11
106.8
 21
84.09999999999999
  0
LINE
  5
15E
100
AcDbEntity
  8
04 - Medidas
  6
ByLayer
 62
  256
370
   -1
100
AcDbLine
 10
106.13
 20
84.10000000000001
 11
106.8
 21
84.09999999999999
  0
LINE
  5
15F
100
AcDbEntity
  8
04 - Medidas
  6
ByLayer
 62
  256
370
   -1
100
AcDbLine
 10
106.13
 20
84.10000000000001
 11
106.8
 21
84.09999999999999
  0
LINE
  5
160
100
AcDbEntity
  8
01 - Aberturas
  6
ByLayer
 62
  256
370
   -1
100
AcDbLine
 10
106.13
 20
84.10000000000001
 11
106.8
 21
84.09999999999999
  0
LINE
  5
161
100
AcDbEntity
  8
01 - Aberturas
  6
ByLayer
 62
  256
370
   -1
100
AcDbLine
 10
106.13
 20
83.00000000000001
 11
106.8
 21
83
  0
LINE
  5
162
100
AcDbEntity
  8
03 - Premarcos
  6
ByLayer
 62
  256
370
   -1
100
AcDbLine
 10
106.13
 20
83.00000000000001
 11
106.8
 21
83.00000000000001
  0
LINE
  5
163
100
AcDbEntity
  8
03 - Premarcos
  6
ByLayer
 62
  256
370
   -1
100
AcDbLine
 10
106.13
 20
83.05000000000001
 11
106.8
 21
83.05000000000001
  0
LINE
  5
164
100
AcDbEntity
  8
03 - Premarcos
  6
ByLayer
 62
  256
370
   -1
100
AcDbLine
 10
106.8
 20
84.10000000000001
 11
106.13
 21
84.10000000000001
  0
LINE
  5
165
100
AcDbEntity
  8
03 - Premarcos
  6
ByLayer
 62
  256
370
   -1
100
AcDbLine
 10
106.13
 20
84.05000000000001
 11
106.8
 21
84.05
  0
DIMENSION
  5
166
100
AcDbEntity
  8
04 - Medidas
  6
ByLayer
 62
  256
370
   -1
100
AcDbDimension
  2
*D16
 10
107.7319487823611
 20
84.10000000000001
 30
0
 11
107.7319487823611
 21
83.55000000000001
 31
0
 70
   32
 71
    5
  3
Standard
 53
0
210
0
220
0
230
1
100
AcDbAlignedDimension
 13
106.8
 23
83
 33
0
 14
106.8
 24
84.10000000000001
 34
0
 50
90
100
AcDbRotatedDimension
  0
DIMENSION
  5
167
100
AcDbEntity
  8
04 - Medidas
  6
ByLayer
 62
  256
370
   -1
100
AcDbDimension
  2
*D17
 10
107.7319487823611
 20
85.10000000000002
 30
0
 11
107.7319487823611
 21
84.60000000000002
 31
0
 70
   32
 71
    5
  3
Standard
 53
0
210
0
220
0
230
1
100
AcDbAlignedDimension
 13
106.8
 23
84.10000000000001
 33
0
 14
106.8
 24
85.10000000000002
 34
0
 50
90
100
AcDbRotatedDimension
  0
DIMENSION
  5
168
100
AcDbEntity
  8
04 - Medidas
  6
ByLayer
 62
  256
370
   -1
100
AcDbDimension
  2
*D18
 10
98.99673030995011
 20
83.09999999999999
 30
0
 11
98.99673030995011
 21
82.54835347656022
 31
0
 70
   32
 71
    5
  3
Standard
 53
0
210
0
220
0
230
1
100
AcDbAlignedDimension
 13
100
 23
81.99670695312045
 33
0
 14
100
 24
83.09999999999999
 34
0
 50
90
100
AcDbRotatedDimension
  0
DIMENSION
  5
169
100
AcDbEntity
  8
04 - Medidas
  6
ByLayer
 62
  256
370
   -1
100
AcDbDimension
  2
*D19
 10
98.98949317782714
 20
84.30000000000001
 30
0
 11
98.98949317782714
 21
83.7
 31
0
 70
   32
 71
    5
  3
Standard
 53
0
210
0
220
0
230
1
100
AcDbAlignedDimension
 13
100
 23
83.09999999999999
 33
0
 14
100
 24
84.30000000000001
 34
0
 50
90
100
AcDbRotatedDimension
  0
LINE
  5
16A
100
AcDbEntity
  8
05 - Zuncho Base
  6
ByLayer
 62
  256
370
   -1
100
AcDbLine
 10
100
 20
80.00000000000001
 11
100.5
 21
80.00000000000001
  0
LINE
  5
16B
100
AcDbEntity
  8
05 - Zuncho Base
  6
ByLayer
 62
  256
370
   -1
100
AcDbLine
 10
100
 20
80.06999999999999
 11
104.88
 21
80.07000000000001
  0
LINE
  5
16C
100
AcDbEntity
  8
05 - Zuncho Base
  6
ByLayer
 62
  256
370
   -1
100
AcDbLine
 10
100.5
 20
80.43000000000001
 11
104.88
 21
80.43000000000002
  0
LINE
  5
16D
100
AcDbEntity
  8
05 - Zuncho Base
  6
ByLayer
 62
  256
370
   -1
100
AcDbLine
 10
105.8
 20
80.07000000000001
 11
106.8
 21
80.06999999999999
  0
LINE
  5
16E
100
AcDbEntity
  8
05 - Zuncho Base
  6
ByLayer
 62
  256
370
   -1
100
AcDbLine
 10
105.8
 20
80.43000000000002
 11
106.13
 21
80.43000000000001
  0
LINE
  5
16F
100
AcDbEntity
  8
05 - Zuncho Base
  6
ByLayer
 62
  256
370
   -1
100
AcDbLine
 10
100
 20
80.00000000000001
 11
100
 21
80.50000000000001
  0
LINE
  5
170
100
AcDbEntity
  8
05 - Zuncho Base
  6
ByLayer
 62
  256
370
   -1
100
AcDbLine
 10
100.07
 20
80
 11
100.07
 21
84.28
  0
LINE
  5
171
100
AcDbEntity
  8
05 - Zuncho Base
  6
ByLayer
 62
  256
370
   -1
100
AcDbLine
 10
100.43
 20
80.5
 11
100.43
 21
84.34
  0
LINE
  5
172
100
AcDbEntity
  8
05 - Zuncho Base
  6
ByLayer
 62
  256
370
   -1
100
AcDbLine
 10
106.73
 20
80.00000000000001
 11
106.73
 21
85.10000000000001
  0
LINE
  5
173
100
AcDbEntity
  8
05 - Zuncho Base
  6
ByLayer
 62
  256
370
   -1
100
AcDbLine
 10
106.2
 20
80.5
 11
106.2
 21
84.50000000000003
  0
LINE
  5
174
100
AcDbEntity
  8
05 - Zuncho Base
  6
ByLayer
 62
  256
370
   -1
100
AcDbLine
 10
106.2
 20
84.5
 11
106.2
 21
85.02
  0
LINE
  5
175
100
AcDbEntity
  8
05 - Zuncho Base
  6
ByLayer
 62
  256
370
   -1
100
AcDbLine
 10
106.13
 20
80.50000000000001
 11
106.13
 21
81.00000000000001
  0
LINE
  5
176
100
AcDbEntity
  8
05 - Zuncho Base
  6
ByLayer
 62
  256
370
   -1
100
AcDbLine
 10
104.81
 20
80.00000000000001
 11
104.81
 21
80.50000000000001
  0
LINE
  5
177
100
AcDbEntity
  8
05 - Zuncho Base
  6
ByLayer
 62
  256
370
   -1
100
AcDbLine
 10
105.87
 20
80.00000000000001
 11
105.87
 21
80.50000000000001
  0
LINE
  5
178
100
AcDbEntity
  8
05 - Zuncho Base
  6
ByLayer
 62
  256
370
   -1
100
AcDbLine
 10
104.31
 20
80.00000000000001
 11
104.31
 21
80.50000000000001
  0
LINE
  5
179
100
AcDbEntity
  8
05 - Zuncho Base
  6
ByLayer
 62
  256
370
   -1
100
AcDbLine
 10
104.24
 20
80.00000000000001
 11
104.24
 21
80.50000000000001
  0
LINE
  5
17A
100
AcDbEntity
  8
05 - Zuncho Base
  6
ByLayer
 62
  256
370
   -1
100
AcDbLine
 10
103.74
 20
80.00000000000001
 11
103.74
 21
80.50000000000001
  0
LINE
  5
17B
100
AcDbEntity
  8
05 - Zuncho Base
  6
ByLayer
 62
  256
370
   -1
100
AcDbLine
 10
103.67
 20
80.00000000000001
 11
103.67
 21
80.50000000000001
  0
LINE
  5
17C
100
AcDbEntity
  8
05 - Zuncho Base
  6
ByLayer
 62
  256
370
   -1
100
AcDbLine
 10
103.17
 20
80.00000000000001
 11
103.17
 21
80.50000000000001
  0
LINE
  5
17D
100
AcDbEntity
  8
05 - Zuncho Base
  6
ByLayer
 62
  256
370
   -1
100
AcDbLine
 10
103.1
 20
80.00000000000001
 11
103.1
 21
80.50000000000001
  0
LINE
  5
17E
100
AcDbEntity
  8
05 - Zuncho Base
  6
ByLayer
 62
  256
370
   -1
100
AcDbLine
 10
102.6
 20
80.00000000000001
 11
102.6
 21
80.50000000000001
  0
LINE
  5
17F
100
AcDbEntity
  8
05 - Zuncho Base
  6
ByLayer
 62
  256
370
   -1
100
AcDbLine
 10
102.53
 20
80.00000000000001
 11
102.53
 21
80.50000000000001
  0
LINE
  5
180
100
AcDbEntity
  8
05 - Zuncho Base
  6
ByLayer
 62
  256
370
   -1
100
AcDbLine
 10
102.03
 20
80.00000000000001
 11
102.03
 21
80.50000000000001
  0
LINE
  5
181
100
AcDbEntity
  8
05 - Zuncho Base
  6
ByLayer
 62
  256
370
   -1
100
AcDbLine
 10
101.96
 20
80.00000000000001
 11
101.96
 21
80.50000000000001
  0
LINE
  5
182
100
AcDbEntity
  8
05 - Zuncho Base
  6
ByLayer
 62
  256
370
   -1
100
AcDbLine
 10
101.46
 20
80.00000000000001
 11
101.46
 21
80.50000000000001
  0
LINE
  5
183
100
AcDbEntity
  8
05 - Zuncho Base
  6
ByLayer
 62
  256
370
   -1
100
AcDbLine
 10
101.39
 20
80.00000000000001
 11
101.39
 21
80.50000000000001
  0
LINE
  5
184
100
AcDbEntity
  8
05 - Zuncho Base
  6
ByLayer
 62
  256
370
   -1
100
AcDbLine
 10
100.89
 20
80.00000000000001
 11
100.89
 21
80.50000000000001
  0
LINE
  5
185
100
AcDbEntity
  8
05 - Zuncho Base
  6
ByLayer
 62
  256
370
   -1
100
AcDbLine
 10
100.8200000000001
 20
80.00000000000001
 11
100.8200000000001
 21
80.50000000000001
  0
LINE
  5
186
100
AcDbEntity
  8
05 - Zuncho Base
  6
ByLayer
 62
  256
370
   -1
100
AcDbLine
 10
100.5
 20
80.00000000000001
 11
100.5
 21
80.50000000000001
  0
LINE
  5
187
100
AcDbEntity
  8
05 - Zuncho Base
  6
ByLayer
 62
  256
370
   -1
100
AcDbLine
 10
100.43
 20
80.00000000000001
 11
100.43
 21
80.50000000000001
  0
LINE
  5
188
100
AcDbEntity
  8
05 - Zuncho Base
  6
ByLayer
 62
  256
370
   -1
100
AcDbLine
 10
106.37
 20
80.00000000000001
 11
106.37
 21
80.50000000000001
  0
LINE
  5
189
100
AcDbEntity
  8
05 - Zuncho Base
  6
ByLayer
 62
  256
370
   -1
100
AcDbLine
 10
106.3
 20
80.00000000000001
 11
106.3
 21
80.50000000000001
  0
LINE
  5
18A
100
AcDbEntity
  8
05 - Zuncho Base
  6
ByLayer
 62
  256
370
   -1
100
AcDbLine
 10
100
 20
80.50000000000001
 11
100.5
 21
80.50000000000001
  0
LINE
  5
18B
100
AcDbEntity
  8
05 - Zuncho Base
  6
ByLayer
 62
  256
370
   -1
100
AcDbLine
 10
100
 20
80.43000000000002
 11
100.5
 21
80.43000000000002
  0
LINE
  5
18C
100
AcDbEntity
  8
05 - Zuncho Base
  6
ByLayer
 62
  256
370
   -1
100
AcDbLine
 10
100
 20
81.00000000000001
 11
100.5
 21
81.00000000000001
  0
LINE
  5
18D
100
AcDbEntity
  8
05 - Zuncho Base
  6
ByLayer
 62
  256
370
   -1
100
AcDbLine
 10
100
 20
81.07000000000001
 11
100.5
 21
81.07000000000001
  0
LINE
  5
18E
100
AcDbEntity
  8
05 - Zuncho Base
  6
ByLayer
 62
  256
370
   -1
100
AcDbLine
 10
100
 20
81.57000000000001
 11
100.5
 21
81.57000000000001
  0
LINE
  5
18F
100
AcDbEntity
  8
05 - Zuncho Base
  6
ByLayer
 62
  256
370
   -1
100
AcDbLine
 10
100
 20
81.64
 11
100.5
 21
81.64
  0
LINE
  5
190
100
AcDbEntity
  8
05 - Zuncho Base
  6
ByLayer
 62
  256
370
   -1
100
AcDbLine
 10
100
 20
82.14
 11
100.5
 21
82.14
  0
LINE
  5
191
100
AcDbEntity
  8
05 - Zuncho Base
  6
ByLayer
 62
  256
370
   -1
100
AcDbLine
 10
100
 20
82.20999999999999
 11
100.5
 21
82.20999999999999
  0
LINE
  5
192
100
AcDbEntity
  8
05 - Zuncho Base
  6
ByLayer
 62
  256
370
   -1
100
AcDbLine
 10
100
 20
82.70999999999999
 11
100.5
 21
82.70999999999999
  0
LINE
  5
193
100
AcDbEntity
  8
05 - Zuncho Base
  6
ByLayer
 62
  256
370
   -1
100
AcDbLine
 10
100
 20
82.77999999999999
 11
100.5
 21
82.77999999999999
  0
LINE
  5
194
100
AcDbEntity
  8
05 - Zuncho Base
  6
ByLayer
 62
  256
370
   -1
100
AcDbLine
 10
100
 20
83.27999999999999
 11
100.5
 21
83.27999999999999
  0
LINE
  5
195
100
AcDbEntity
  8
05 - Zuncho Base
  6
ByLayer
 62
  256
370
   -1
100
AcDbLine
 10
100
 20
83.34999999999998
 11
100.5
 21
83.34999999999998
  0
LINE
  5
196
100
AcDbEntity
  8
05 - Zuncho Base
  6
ByLayer
 62
  256
370
   -1
100
AcDbLine
 10
100
 20
83.84999999999998
 11
100.5
 21
83.84999999999998
  0
LINE
  5
197
100
AcDbEntity
  8
05 - Zuncho Base
  6
ByLayer
 62
  256
370
   -1
100
AcDbLine
 10
100
 20
83.91999999999997
 11
100.5
 21
83.91999999999997
  0
LINE
  5
198
100
AcDbEntity
  8
05 - Zuncho Base
  6
ByLayer
 62
  256
370
   -1
100
AcDbLine
 10
106.13
 20
80.43000000000002
 11
106.63
 21
80.43000000000002
  0
LINE
  5
199
100
AcDbEntity
  8
05 - Zuncho Base
  6
ByLayer
 62
  256
370
   -1
100
AcDbLine
 10
106.13
 20
81.00000000000001
 11
106.7992271943543
 21
81.00000000000001
  0
LINE
  5
19A
100
AcDbEntity
  8
05 - Zuncho Base
  6
ByLayer
 62
  256
370
   -1
100
AcDbLine
 10
106.13
 20
81.07000000000001
 11
106.7992271943543
 21
81.07000000000001
  0
LINE
  5
19B
100
AcDbEntity
  8
05 - Zuncho Base
  6
ByLayer
 62
  256
370
   -1
100
AcDbLine
 10
106.13
 20
81.57000000000001
 11
106.7992271943543
 21
81.57000000000001
  0
LINE
  5
19C
100
AcDbEntity
  8
05 - Zuncho Base
  6
ByLayer
 62
  256
370
   -1
100
AcDbLine
 10
106.13
 20
81.64
 11
106.7992271943543
 21
81.64
  0
LINE
  5
19D
100
AcDbEntity
  8
05 - Zuncho Base
  6
ByLayer
 62
  256
370
   -1
100
AcDbLine
 10
106.13
 20
82.14
 11
106.7992271943543
 21
82.14
  0
LINE
  5
19E
100
AcDbEntity
  8
05 - Zuncho Base
  6
ByLayer
 62
  256
370
   -1
100
AcDbLine
 10
106.13
 20
82.20999999999999
 11
106.7992271943543
 21
82.20999999999999
  0
LINE
  5
19F
100
AcDbEntity
  8
05 - Zuncho Base
  6
ByLayer
 62
  256
370
   -1
100
AcDbLine
 10
106.13
 20
82.70999999999999
 11
106.7992271943543
 21
82.70999999999999
  0
LINE
  5
1A0
100
AcDbEntity
  8
05 - Zuncho Base
  6
ByLayer
 62
  256
370
   -1
100
AcDbLine
 10
106.13
 20
82.77999999999999
 11
106.7992271943543
 21
82.77999999999999
  0
LINE
  5
1A1
100
AcDbEntity
  8
05 - Zuncho Base
  6
ByLayer
 62
  256
370
   -1
100
AcDbLine
 10
106.13
 20
83.27999999999999
 11
106.7992271943543
 21
83.27999999999999
  0
LINE
  5
1A2
100
AcDbEntity
  8
05 - Zuncho Base
  6
ByLayer
 62
  256
370
   -1
100
AcDbLine
 10
106.13
 20
83.34999999999998
 11
106.7992271943543
 21
83.34999999999998
  0
LINE
  5
1A3
100
AcDbEntity
  8
05 - Zuncho Base
  6
ByLayer
 62
  256
370
   -1
100
AcDbLine
 10
106.13
 20
83.84999999999998
 11
106.7992271943543
 21
83.84999999999998
  0
LINE
  5
1A4
100
AcDbEntity
  8
05 - Zuncho Base
  6
ByLayer
 62
  256
370
   -1
100
AcDbLine
 10
106.13
 20
83.91999999999997
 11
106.7992271943543
 21
83.91999999999997
  0
LINE
  5
1A5
100
AcDbEntity
  8
05 - Zuncho Base
  6
ByLayer
 62
  256
370
   -1
100
AcDbLine
 10
106.13
 20
84.41999999999997
 11
106.7992271943543
 21
84.41999999999997
  0
LINE
  5
1A6
100
AcDbEntity
  8
05 - Zuncho Base
  6
ByLayer
 62
  256
370
   -1
100
AcDbLine
 10
106.13
 20
84.48999999999997
 11
106.7992271943543
 21
84.48999999999997
  0
LINE
  5
1A7
100
AcDbEntity
  8
05 - Zuncho Base
  6
ByLayer
 62
  256
370
   -1
100
AcDbLine
 10
106.63
 20
80.43000000000002
 11
106.7992271943543
 21
80.43000000000002
  0
LINE
  5
1A8
100
AcDbEntity
  8
05 - Zuncho Base
  6
ByLayer
 62
  256
370
   -1
100
AcDbLine
 10
106.803858958913
 20
80.50000000000001
 11
106.803858958913
 21
80.50000000000001
  0
LINE
  5
1A9
100
AcDbEntity
  8
05 - Zuncho Base
  6
ByLayer
 62
  256
370
   -1
100
AcDbLine
 10
106.803858958913
 20
80.50000000000001
 11
106.803858958913
 21
80.50000000000001
  0
LINE
  5
1AA
100
AcDbEntity
  8
05 - Zuncho Base
  6
ByLayer
 62
  256
370
   -1
100
AcDbLine
 10
106.63
 20
80.50000000000001
 11
106.803858958913
 21
80.50000000000001
  0
LINE
  5
1AB
100
AcDbEntity
  8
05 - Zuncho Base
  6
ByLayer
 62
  256
370
   -1
100
AcDbLine
 10
100.5
 20
80.50000000000001
 11
104.88
 21
80.50000000000001
  0
LINE
  5
1AC
100
AcDbEntity
  8
05 - Zuncho Base
  6
ByLayer
 62
  256
370
   -1
100
AcDbLine
 10
106.13
 20
81.00000000000001
 11
106.13
 21
85.01931555990539
  0
LINE
  5
1AD
100
AcDbEntity
  8
05 - Zuncho Base
  6
ByLayer
 62
  256
370
   -1
100
AcDbLine
 10
106.8
 20
80.00000000000001
 11
106.8
 21
85.10000000000001
  0
LINE
  5
1AE
100
AcDbEntity
  8
05 - Zuncho Base
  6
ByLayer
 62
  256
370
   -1
100
AcDbLine
 10
105.8
 20
80.00000000000001
 11
106.73
 21
80.00000000000001
  0
LINE
  5
1AF
100
AcDbEntity
  8
05 - Zuncho Base
  6
ByLayer
 62
  256
370
   -1
100
AcDbLine
 10
105.7995976928957
 20
80.50000000000001
 11
106.63
 21
80.50000000000001
  0
LINE
  5
1B0
100
AcDbEntity
  8
05 - Zuncho Base
  6
ByLayer
 62
  256
370
   -1
100
AcDbLine
 10
105.8
 20
80.00000000000001
 11
105.8
 21
80.50000000000001
  0
LINE
  5
1B1
100
AcDbEntity
  8
05 - Zuncho Base
  6
ByLayer
 62
  256
370
   -1
100
AcDbLine
 10
100
 20
80
 11
104.88
 21
80.00000000000001
  0
LINE
  5
1B2
100
AcDbEntity
  8
05 - Zuncho Base
  6
ByLayer
 62
  256
370
   -1
100
AcDbLine
 10
104.88
 20
80.00000000000001
 11
104.88
 21
80.50000000000001
  0
LINE
  5
1B3
100
AcDbEntity
  8
05 - Zuncho Base
  6
ByLayer
 62
  256
370
   -1
100
AcDbLine
 10
100.5
 20
80.5
 11
100.5
 21
84.34
  0
LINE
  5
1B4
100
AcDbEntity
  8
05 - Zuncho Base
  6
ByLayer
 62
  256
370
   -1
100
AcDbLine
 10
100
 20
80
 11
100
 21
84.28
  0
LINE
  5
1B5
100
AcDbEntity
  8
05 - Zuncho Base
  6
ByLayer
 62
  256
370
   -1
100
AcDbLine
 10
106.63
 20
80.57000000000001
 11
106.803858958913
 21
80.57000000000001
  0
LINE
  5
1B6
100
AcDbEntity
  8
05 - Zuncho Base
  6
ByLayer
 62
  256
370
   -1
100
AcDbLine
 10
100
 20
80.57000000000001
 11
100.5
 21
80.57000000000001
  0
LINE
  5
1B7
100
AcDbEntity
  8
05 - Zuncho Base
  6
ByLayer
 62
  256
370
   -1
100
AcDbLine
 10
105.7995976928957
 20
80.57000000000001
 11
106.63
 21
80.57000000000001
  0
ENDSEC
  0
SECTION
  2
OBJECTS
  0
DICTIONARY
  5
C
330
0
100
AcDbDictionary
281
    1
  3
ACAD_GROUP
350
D
  0
DICTIONARY
  5
D
330
C
100
AcDbDictionary
281
    1
  0
PLOTSETTINGS
  5
1B8
100
AcDbPlotSettings
  6
1x1
 40
0
 41
0
 42
0
 43
0
  0
ENDSEC
  0
EOF
