999
dxfrw 0.6.3
  0
SECTION
  2
HEADER
  9
$ACADVER
  1
AC1021
  9
$DWGCODEPAGE
  3
ANSI_1252
  9
$INSBASE
 10
0
 20
0
 30
0
  9
$EXTMIN
 10
-0.5000000000000002
 20
-0.5262333322206272
 30
0
  9
$EXTMAX
 10
178.0926601476657
 20
43.08384915009403
 30
0
  9
$LIMMIN
 10
0
 20
0
  9
$LIMMAX
 10
420
 20
297
  9
$ORTHOMODE
 70
    0
  9
$REGENMODE
 70
    1
  9
$FILLMODE
 70
    1
  9
$QTEXTMODE
 70
    0
  9
$MIRRTEXT
 70
    0
  9
$LTSCALE
 40
1
  9
$ATTMODE
 70
    0
  9
$TEXTSIZE
 40
2.5
  9
$TRACEWID
 40
15.68
  9
$TEXTSTYLE
  7
STANDARD
  9
$CLAYER
  8
0
  9
$CELTYPE
  6
BYLAYER
  9
$CECOLOR
 62
  256
  9
$CELTSCALE
 40
1
  9
$DISPSILH
 70
    0
  9
$DIMSCALE
 40
0.1
  9
$DIMASZ
 40
2.5
  9
$DIMEXO
 40
0.625
  9
$DIMDLI
 40
3.75
  9
$DIMRND
 40
0
  9
$DIMDLE
 40
0
  9
$DIMEXE
 40
0.2
  9
$DIMTP
 40
0
  9
$DIMTM
 40
0
  9
$DIMTXT
 40
1
  9
$DIMCEN
 40
2.5
  9
$DIMTSZ
 40
0
  9
$DIMTOL
 70
    0
  9
$DIMLIM
 70
    0
  9
$DIMTIH
 70
    0
  9
$DIMTOH
 70
    0
  9
$DIMSE1
 70
    0
  9
$DIMSE2
 70
    0
  9
$DIMTAD
 70
    1
  9
$DIMZIN
 70
    1
  9
$DIMBLK
  1

  9
$DIMASO
 70
    1
  9
$DIMSHO
 70
    1
  9
$DIMPOST
  1

  9
$DIMAPOST
  1

  9
$DIMALT
 70
    0
  9
$DIMALTD
 70
    3
  9
$DIMALTF
 40
0.03937
  9
$DIMLFAC
 40
1
  9
$DIMTOFL
 70
    1
  9
$DIMTVP
 40
0
  9
$DIMTIX
 70
    0
  9
$DIMSOXD
 70
    0
  9
$DIMSAH
 70
    0
  9
$DIMBLK1
  1

  9
$DIMBLK2
  1

  9
$DIMSTYLE
  2
STANDARD
  9
$DIMCLRD
 70
    0
  9
$DIMCLRE
 70
    0
  9
$DIMCLRT
 70
    0
  9
$DIMTFAC
 40
1
  9
$DIMGAP
 40
0.625
  9
$DIMJUST
 70
    0
  9
$DIMSD1
 70
    0
  9
$DIMSD2
 70
    0
  9
$DIMTOLJ
 70
    0
  9
$DIMTZIN
 70
    8
  9
$DIMALTZ
 70
    0
  9
$DIMALTTZ
 70
    0
  9
$DIMUPT
 70
    0
  9
$DIMDEC
 70
    2
  9
$DIMTDEC
 70
    2
  9
$DIMALTU
 70
    2
  9
$DIMALTTD
 70
    3
  9
$DIMTXSTY
  7
standard
  9
$DIMAUNIT
 70
    0
  9
$DIMADEC
 70
    2
  9
$DIMALTRND
 40
0
  9
$DIMAZIN
 70
    0
  9
$DIMDSEP
 70
    0
  9
$DIMATFIT
 70
    3
  9
$DIMFRAC
 70
    0
  9
$DIMLDRBLK
  1
STANDARD
  9
$DIMLUNIT
 70
    2
  9
$DIMLWD
 70
   -2
  9
$DIMLWE
 70
   17
  9
$DIMTMOVE
 70
    0
  9
$DIMFXL
 40
1
  9
$DIMFXLON
 70
    0
  9
$DIMJOGANG
 40
0.7854
  9
$DIMTFILL
 70
    0
  9
$DIMTFILLCLR
 70
    0
  9
$DIMARCSYM
 70
    0
  9
$DIMLTYPE
  6

  9
$DIMLTEX1
  6

  9
$DIMLTEX2
  6

  9
$LUNITS
 70
    2
  9
$LUPREC
 70
    2
  9
$SKETCHINC
 40
1
  9
$FILLETRAD
 40
0
  9
$AUNITS
 70
    0
  9
$AUPREC
 70
    2
  9
$MENU
  1
.
  9
$ELEVATION
 40
0
  9
$PELEVATION
 40
0
  9
$THICKNESS
 40
0
  9
$LIMCHECK
 70
    0
  9
$CHAMFERA
 40
0
  9
$CHAMFERB
 40
0
  9
$CHAMFERC
 40
0
  9
$CHAMFERD
 40
0
  9
$SKPOLY
 70
    0
  9
$USRTIMER
 70
    1
  9
$ANGBASE
 50
0
  9
$ANGDIR
 70
    0
  9
$PDMODE
 70
   96
  9
$PDSIZE
 40
-2
  9
$PLINEWID
 40
0
  9
$SPLFRAME
 70
    0
  9
$SPLINETYPE
 70
    2
  9
$SPLINESEGS
 70
    8
  9
$HANDSEED
  5
20000
  9
$SURFTAB1
 70
    6
  9
$SURFTAB2
 70
    6
  9
$SURFTYPE
 70
    6
  9
$SURFU
 70
    6
  9
$SURFV
 70
    6
  9
$UCSBASE
  2

  9
$UCSNAME
  2

  9
$UCSORG
 10
0
 20
0
 30
0
  9
$UCSXDIR
 10
1
 20
0
 30
0
  9
$UCSYDIR
 10
0
 20
1
 30
0
  9
$UCSORTHOREF
  2

  9
$UCSORTHOVIEW
 70
    0
  9
$UCSORGTOP
 10
0
 20
0
 30
0
  9
$UCSORGBOTTOM
 10
0
 20
0
 30
0
  9
$UCSORGLEFT
 10
0
 20
0
 30
0
  9
$UCSORGRIGHT
 10
0
 20
0
 30
0
  9
$UCSORGFRONT
 10
0
 20
0
 30
0
  9
$UCSORGBACK
 10
0
 20
0
 30
0
  9
$PUCSBASE
  2

  9
$PUCSNAME
  2

  9
$PUCSORG
 10
0
 20
0
 30
0
  9
$PUCSXDIR
 10
1
 20
0
 30
0
  9
$PUCSYDIR
 10
0
 20
1
 30
0
  9
$PUCSORTHOREF
  2

  9
$PUCSORTHOVIEW
 70
    0
  9
$PUCSORGTOP
 10
0
 20
0
 30
0
  9
$PUCSORGBOTTOM
 10
0
 20
0
 30
0
  9
$PUCSORGLEFT
 10
0
 20
0
 30
0
  9
$PUCSORGRIGHT
 10
0
 20
0
 30
0
  9
$PUCSORGFRONT
 10
0
 20
0
 30
0
  9
$PUCSORGBACK
 10
0
 20
0
 30
0
  9
$USERI1
 70
    0
  9
$USERI2
 70
    0
  9
$USERI3
 70
    0
  9
$USERI4
 70
    0
  9
$USERI5
 70
    0
  9
$USERR1
 40
0
  9
$USERR2
 40
0
  9
$USERR3
 40
0
  9
$USERR4
 40
0
  9
$USERR5
 40
0
  9
$WORLDVIEW
 70
    1
  9
$SHADEDGE
 70
    3
  9
$SHADEDIF
 70
   70
  9
$TILEMODE
 70
    1
  9
$MAXACTVP
 70
   64
  9
$PINSBASE
 10
0.08315011371532059
 20
6.961329405290902
 30
0
  9
$PLIMCHECK
 70
    0
  9
$PEXTMIN
 10
0
 20
0
 30
0
  9
$PEXTMAX
 10
0
 20
0
 30
0
  9
$GRIDMODE
 70
    1
  9
$SNAPSTYLE
 70
    0
  9
$GRIDUNIT
 10
0
 20
0
  9
$PLIMMIN
 10
0
 20
0
  9
$PLIMMAX
 10
0.297
 20
0.21
  9
$UNITMODE
 70
    0
  9
$VISRETAIN
 70
    1
  9
$PLINEGEN
 70
    0
  9
$PSLTSCALE
 70
    1
  9
$TREEDEPTH
 70
 3020
  9
$CMLSTYLE
  2
Standard
  9
$CMLJUST
 70
    0
  9
$CMLSCALE
 40
20
  9
$PROXYGRAPHICS
 70
    1
  9
$MEASUREMENT
 70
    1
  9
$CELWEIGHT
370
   -1
  9
$ENDCAPS
280
    0
  9
$JOINSTYLE
280
    0
  9
$LWDISPLAY
290
    0
  9
$INSUNITS
 70
    6
  9
$HYPERLINKBASE
  1

  9
$STYLESHEET
  1

  9
$XEDIT
290
    1
  9
$CEPSNTYPE
380
    0
  9
$PSTYLEMODE
290
    1
  9
$EXTNAMES
290
    1
  9
$PSVPSCALE
 40
0.1663002274306411
  9
$OLESTARTUP
290
    0
  9
$SORTENTS
280
  127
  9
$INDEXCTL
280
    0
  9
$HIDETEXT
280
    1
  9
$XCLIPFRAME
290
    0
  9
$HALOGAP
280
    0
  9
$OBSCOLOR
 70
  257
  9
$OBSLTYPE
280
    0
  9
$INTERSECTIONDISPLAY
280
    0
  9
$INTERSECTIONCOLOR
 70
  257
  9
$DIMASSOC
280
    1
  9
$PROJECTNAME
  1

  9
$CAMERADISPLAY
290
    0
  9
$LENSLENGTH
 40
50
  9
$CAMERAHEIGHT
 40
0
  9
$STEPSPERSEC
 40
2
  9
$STEPSIZE
 40
50
  9
$3DDWFPREC
 40
2
  9
$PSOLWIDTH
 40
5
  9
$PSOLHEIGHT
 40
80
  9
$LOFTANG1
 40
1.570796326794897
  9
$LOFTANG2
 40
1.570796326794897
  9
$LOFTMAG1
 40
0
  9
$LOFTMAG2
 40
0
  9
$LOFTPARAM
 70
    7
  9
$LOFTNORMALS
280
    1
  9
$LATITUDE
 40
1
  9
$LONGITUDE
 40
1
  9
$NORTHDIRECTION
 40
0
  9
$TIMEZONE
 70
-8000
  9
$LIGHTGLYPHDISPLAY
280
    1
  9
$TILEMODELIGHTSYNCH
280
    1
  9
$SOLIDHIST
280
    1
  9
$SHOWHIST
280
    1
  9
$DWFFRAME
280
    2
  9
$DGNFRAME
280
    0
  9
$REALWORLDSCALE
290
    1
  9
$INTERFERECOLOR
 62
    1
  9
$CSHADOW
280
    0
  9
$SHADOWPLANELOCATION
 40
0
  0
ENDSEC
  0
SECTION
  2
CLASSES
  0
ENDSEC
  0
SECTION
  2
TABLES
  0
TABLE
  2
VPORT
  5
8
330
0
100
AcDbSymbolTable
 70
    1
  0
VPORT
  5
31
330
2
100
AcDbSymbolTableRecord
100
AcDbViewportTableRecord
  2
*ACTIVE
 70
    0
 10
0
 20
0
 11
1
 21
1
 12
4.863546990106133
 22
2.816351092513536
 13
0
 23
0
 14
10
 24
10
 15
10
 25
10
 16
0
 26
0
 36
1
 17
0
 27
0
 37
0
 40
7.132166352903243
 41
1.666666666666667
 42
50
 43
0
 44
0
 50
0
 51
0
 71
    0
 72
  100
 73
    1
 74
    3
 75
    0
 76
    1
 77
    0
 78
    0
281
    0
 65
    1
110
0
120
0
130
0
111
1
121
0
131
0
112
0
122
1
132
0
 79
    0
146
0
348
10020
 60
    7
 61
    5
292
1
282
    1
141
0
142
0
 63
  250
421
3358443
  0
ENDTAB
  0
TABLE
  2
LTYPE
  5
5
330
0
100
AcDbSymbolTable
 70
    4
  0
LTYPE
  5
14
330
5
100
AcDbSymbolTableRecord
100
AcDbLinetypeTableRecord
  2
ByBlock
 70
    0
  3

 72
   65
 73
    0
 40
0
  0
LTYPE
  5
15
330
5
100
AcDbSymbolTableRecord
100
AcDbLinetypeTableRecord
  2
ByLayer
 70
    0
  3

 72
   65
 73
    0
 40
0
  0
LTYPE
  5
16
330
5
100
AcDbSymbolTableRecord
100
AcDbLinetypeTableRecord
  2
Continuous
 70
    0
  3
Solid line
 72
   65
 73
    0
 40
0
  0
LTYPE
  5
32
330
5
100
AcDbSymbolTableRecord
100
AcDbLinetypeTableRecord
  2
DOT
 70
    0
  3
Dot . . . . . . . . . . . . . . . . . . . . . .
 72
   65
 73
    2
 40
6.35
 49
0
 74
    0
 49
-6.35
 74
    0
  0
LTYPE
  5
33
330
5
100
AcDbSymbolTableRecord
100
AcDbLinetypeTableRecord
  2
DOTTINY
 70
    0
  3
Dot (.15x) .....................................
 72
   65
 73
    2
 40
0.9525
 49
0
 74
    0
 49
-0.9525
 74
    0
  0
LTYPE
  5
34
330
5
100
AcDbSymbolTableRecord
100
AcDbLinetypeTableRecord
  2
DOT2
 70
    0
  3
Dot (.5x) .....................................
 72
   65
 73
    2
 40
3.175
 49
0
 74
    0
 49
-3.175
 74
    0
  0
LTYPE
  5
35
330
5
100
AcDbSymbolTableRecord
100
AcDbLinetypeTableRecord
  2
DOTX2
 70
    0
  3
Dot (2x) .  .  .  .  .  .  .  .  .  .  .  .  .
 72
   65
 73
    2
 40
12.7
 49
0
 74
    0
 49
-12.7
 74
    0
  0
LTYPE
  5
36
330
5
100
AcDbSymbolTableRecord
100
AcDbLinetypeTableRecord
  2
DASHED
 70
    0
  3
Dashed _ _ _ _ _ _ _ _ _ _ _ _ _ _ _ _ _
 72
   65
 73
    2
 40
19.05
 49
12.7
 74
    0
 49
-6.35
 74
    0
  0
LTYPE
  5
37
330
5
100
AcDbSymbolTableRecord
100
AcDbLinetypeTableRecord
  2
DASHEDTINY
 70
    0
  3
Dashed (.15x) _ _ _ _ _ _ _ _ _ _ _ _ _ _ _ _ _
 72
   65
 73
    2
 40
2.8575
 49
1.905
 74
    0
 49
-0.9525
 74
    0
  0
LTYPE
  5
38
330
5
100
AcDbSymbolTableRecord
100
AcDbLinetypeTableRecord
  2
DASHED2
 70
    0
  3
Dashed (.5x) _ _ _ _ _ _ _ _ _ _ _ _ _ _ _ _ _
 72
   65
 73
    2
 40
9.524999999999999
 49
6.35
 74
    0
 49
-3.175
 74
    0
  0
LTYPE
  5
39
330
5
100
AcDbSymbolTableRecord
100
AcDbLinetypeTableRecord
  2
DASHEDX2
 70
    0
  3
Dashed (2x) ____  ____  ____  ____  ____  ___
 72
   65
 73
    2
 40
38.09999999999999
 49
25.4
 74
    0
 49
-12.7
 74
    0
  0
LTYPE
  5
3A
330
5
100
AcDbSymbolTableRecord
100
AcDbLinetypeTableRecord
  2
DASHDOT
 70
    0
  3
Dash dot __ . __ . __ . __ . __ . __ . __ . __
 72
   65
 73
    4
 40
25.4
 49
12.7
 74
    0
 49
-6.35
 74
    0
 49
0
 74
    0
 49
-6.35
 74
    0
  0
LTYPE
  5
3B
330
5
100
AcDbSymbolTableRecord
100
AcDbLinetypeTableRecord
  2
DASHDOTTINY
 70
    0
  3
Dash dot (.15x) _._._._._._._._._._._._._._._.
 72
   65
 73
    4
 40
3.81
 49
1.905
 74
    0
 49
-0.9525
 74
    0
 49
0
 74
    0
 49
-0.9525
 74
    0
  0
LTYPE
  5
3C
330
5
100
AcDbSymbolTableRecord
100
AcDbLinetypeTableRecord
  2
DASHDOT2
 70
    0
  3
Dash dot (.5x) _._._._._._._._._._._._._._._.
 72
   65
 73
    4
 40
12.7
 49
6.35
 74
    0
 49
-3.175
 74
    0
 49
0
 74
    0
 49
-3.175
 74
    0
  0
LTYPE
  5
3D
330
5
100
AcDbSymbolTableRecord
100
AcDbLinetypeTableRecord
  2
DASHDOTX2
 70
    0
  3
Dash dot (2x) ____  .  ____  .  ____  .  ___
 72
   65
 73
    4
 40
50.8
 49
25.4
 74
    0
 49
-12.7
 74
    0
 49
0
 74
    0
 49
-12.7
 74
    0
  0
LTYPE
  5
3E
330
5
100
AcDbSymbolTableRecord
100
AcDbLinetypeTableRecord
  2
DIVIDE
 70
    0
  3
Divide ____ . . ____ . . ____ . . ____ . . ____
 72
   65
 73
    6
 40
31.75
 49
12.7
 74
    0
 49
-6.35
 74
    0
 49
0
 74
    0
 49
-6.35
 74
    0
 49
0
 74
    0
 49
-6.35
 74
    0
  0
LTYPE
  5
3F
330
5
100
AcDbSymbolTableRecord
100
AcDbLinetypeTableRecord
  2
DIVIDETINY
 70
    0
  3
Divide (.15x) __..__..__..__..__..__..__..__.._
 72
   65
 73
    6
 40
4.7625
 49
1.905
 74
    0
 49
-0.9525
 74
    0
 49
0
 74
    0
 49
-0.9525
 74
    0
 49
0
 74
    0
 49
-0.9525
 74
    0
  0
LTYPE
  5
40
330
5
100
AcDbSymbolTableRecord
100
AcDbLinetypeTableRecord
  2
DIVIDE2
 70
    0
  3
Divide (.5x) __..__..__..__..__..__..__..__.._
 72
   65
 73
    6
 40
15.875
 49
6.35
 74
    0
 49
-3.175
 74
    0
 49
0
 74
    0
 49
-3.175
 74
    0
 49
0
 74
    0
 49
-3.175
 74
    0
  0
LTYPE
  5
41
330
5
100
AcDbSymbolTableRecord
100
AcDbLinetypeTableRecord
  2
DIVIDEX2
 70
    0
  3
Divide (2x) ________  .  .  ________  .  .  _
 72
   65
 73
    6
 40
63.5
 49
25.4
 74
    0
 49
-12.7
 74
    0
 49
0
 74
    0
 49
-12.7
 74
    0
 49
0
 74
    0
 49
-12.7
 74
    0
  0
LTYPE
  5
42
330
5
100
AcDbSymbolTableRecord
100
AcDbLinetypeTableRecord
  2
BORDER
 70
    0
  3
Border __ __ . __ __ . __ __ . __ __ . __ __ .
 72
   65
 73
    6
 40
44.45
 49
12.7
 74
    0
 49
-6.35
 74
    0
 49
12.7
 74
    0
 49
-6.35
 74
    0
 49
0
 74
    0
 49
-6.35
 74
    0
  0
LTYPE
  5
43
330
5
100
AcDbSymbolTableRecord
100
AcDbLinetypeTableRecord
  2
BORDERTINY
 70
    0
  3
Border (.15x) __.__.__.__.__.__.__.__.__.__.__.
 72
   65
 73
    6
 40
6.6675
 49
1.905
 74
    0
 49
-0.9525
 74
    0
 49
1.905
 74
    0
 49
-0.9525
 74
    0
 49
0
 74
    0
 49
-0.9525
 74
    0
  0
LTYPE
  5
44
330
5
100
AcDbSymbolTableRecord
100
AcDbLinetypeTableRecord
  2
BORDER2
 70
    0
  3
Border (.5x) __.__.__.__.__.__.__.__.__.__.__.
 72
   65
 73
    6
 40
22.225
 49
6.35
 74
    0
 49
-3.175
 74
    0
 49
6.35
 74
    0
 49
-3.175
 74
    0
 49
0
 74
    0
 49
-3.175
 74
    0
  0
LTYPE
  5
45
330
5
100
AcDbSymbolTableRecord
100
AcDbLinetypeTableRecord
  2
BORDERX2
 70
    0
  3
Border (2x) ____  ____  .  ____  ____  .  ___
 72
   65
 73
    6
 40
88.89999999999999
 49
25.4
 74
    0
 49
-12.7
 74
    0
 49
25.4
 74
    0
 49
-12.7
 74
    0
 49
0
 74
    0
 49
-12.7
 74
    0
  0
LTYPE
  5
46
330
5
100
AcDbSymbolTableRecord
100
AcDbLinetypeTableRecord
  2
CENTER
 70
    0
  3
Center ____ _ ____ _ ____ _ ____ _ ____ _ ____
 72
   65
 73
    4
 40
50.8
 49
31.75
 74
    0
 49
-6.35
 74
    0
 49
6.35
 74
    0
 49
-6.35
 74
    0
  0
LTYPE
  5
47
330
5
100
AcDbSymbolTableRecord
100
AcDbLinetypeTableRecord
  2
CENTERTINY
 70
    0
  3
Center (.15x) ___ _ ___ _ ___ _ ___ _ ___ _ ___
 72
   65
 73
    4
 40
7.619999999999999
 49
4.7625
 74
    0
 49
-0.9525
 74
    0
 49
0.9525
 74
    0
 49
-0.9525
 74
    0
  0
LTYPE
  5
48
330
5
100
AcDbSymbolTableRecord
100
AcDbLinetypeTableRecord
  2
CENTER2
 70
    0
  3
Center (.5x) ___ _ ___ _ ___ _ ___ _ ___ _ ___
 72
   65
 73
    4
 40
28.575
 49
19.05
 74
    0
 49
-3.175
 74
    0
 49
3.175
 74
    0
 49
-3.175
 74
    0
  0
LTYPE
  5
49
330
5
100
AcDbSymbolTableRecord
100
AcDbLinetypeTableRecord
  2
CENTERX2
 70
    0
  3
Center (2x) ________  __  ________  __  _____
 72
   65
 73
    4
 40
101.6
 49
63.5
 74
    0
 49
-12.7
 74
    0
 49
12.7
 74
    0
 49
-12.7
 74
    0
  0
ENDTAB
  0
TABLE
  2
LAYER
  5
2
330
0
100
AcDbSymbolTable
 70
    1
  0
LAYER
  5
10
330
2
100
AcDbSymbolTableRecord
100
AcDbLayerTableRecord
  2
0
 70
    0
 62
    7
  6
CONTINUOUS
370
   25
390
F
  0
LAYER
  5
4A
330
2
100
AcDbSymbolTableRecord
100
AcDbLayerTableRecord
  2
Bemaßung
 70
    0
 62
    5
  6
CONTINUOUS
370
    0
390
F
  0
ENDTAB
  0
TABLE
  2
STYLE
  5
3
330
0
100
AcDbSymbolTable
 70
    3
  0
STYLE
  5
4B
330
2
100
AcDbSymbolTableRecord
100
AcDbTextStyleTableRecord
  2
Standard
 70
    0
 40
0
 41
1
 50
0
 71
    0
 42
1
  3
txt
  4

  0
ENDTAB
  0
TABLE
  2
VIEW
  5
6
330
0
100
AcDbSymbolTable
 70
    0
  0
ENDTAB
  0
TABLE
  2
UCS
  5
7
330
0
100
AcDbSymbolTable
 70
    0
  0
ENDTAB
  0
TABLE
  2
APPID
  5
9
330
0
100
AcDbSymbolTable
 70
    1
  0
APPID
  5
12
330
9
100
AcDbSymbolTableRecord
100
AcDbRegAppTableRecord
  2
ACAD
 70
    0
  0
APPID
  5
4C
330
9
100
AcDbSymbolTableRecord
100
AcDbRegAppTableRecord
  2
LibreCad
 70
    0
  0
ENDTAB
  0
TABLE
  2
DIMSTYLE
  5
A
330
0
100
AcDbSymbolTable
 70
    1
100
AcDbDimStyleTable
 71
    1
  0
DIMSTYLE
105
4D
330
A
100
AcDbSymbolTableRecord
100
AcDbDimStyleTableRecord
  2
Standard
 70
    0
 40
0.1
 41
2.5
 42
0.625
 43
0.38
 44
0.2
 45
0
 46
0
 47
0
 48
0
 49
1
140
1
141
0.09
142
0
143
25.4
144
1
145
0
146
1
147
0.625
148
0
 71
    0
 72
    0
 73
    0
 74
    1
 75
    0
 76
    0
 77
    0
 78
    1
 79
    0
170
    0
171
    2
172
    0
173
    0
174
    0
175
    0
176
    0
177
    0
178
    0
179
    2
271
    2
272
    4
273
    2
274
    2
275
    0
276
    0
277
    2
278
    0
279
    0
280
    0
281
    0
282
    0
283
    1
284
    0
285
    0
286
    0
288
    0
289
    3
340
4B
  0
ENDTAB
  0
TABLE
  2
BLOCK_RECORD
  5
1
330
0
100
AcDbSymbolTable
 70
    2
  0
BLOCK_RECORD
  5
1F
330
1
100
AcDbSymbolTableRecord
100
AcDbBlockTableRecord
  2
*Model_Space
 70
    0
280
    1
281
    0
  0
BLOCK_RECORD
  5
1E
330
1
100
AcDbSymbolTableRecord
100
AcDbBlockTableRecord
  2
*Paper_Space
 70
    0
280
    1
281
    0
  0
BLOCK_RECORD
  5
4E
330
1
100
AcDbSymbolTableRecord
100
AcDbBlockTableRecord
  2
*D9
 70
    0
280
    1
281
    0
  0
BLOCK_RECORD
  5
51
330
1
100
AcDbSymbolTableRecord
100
AcDbBlockTableRecord
  2
*D8
 70
    0
280
    1
281
    0
  0
BLOCK_RECORD
  5
54
330
1
100
AcDbSymbolTableRecord
100
AcDbBlockTableRecord
  2
*D4
 70
    0
280
    1
281
    0
  0
BLOCK_RECORD
  5
57
330
1
100
AcDbSymbolTableRecord
100
AcDbBlockTableRecord
  2
*D1
 70
    0
280
    1
281
    0
  0
BLOCK_RECORD
  5
5A
330
1
100
AcDbSymbolTableRecord
100
AcDbBlockTableRecord
  2
*D2
 70
    0
280
    1
281
    0
  0
BLOCK_RECORD
  5
5D
330
1
100
AcDbSymbolTableRecord
100
AcDbBlockTableRecord
  2
*D3
 70
    0
280
    1
281
    0
  0
BLOCK_RECORD
  5
60
330
1
100
AcDbSymbolTableRecord
100
AcDbBlockTableRecord
  2
*D5
 70
    0
280
    1
281
    0
  0
BLOCK_RECORD
  5
63
330
1
100
AcDbSymbolTableRecord
100
AcDbBlockTableRecord
  2
*D6
 70
    0
280
    1
281
    0
  0
BLOCK_RECORD
  5
66
330
1
100
AcDbSymbolTableRecord
100
AcDbBlockTableRecord
  2
*D7
 70
    0
280
    1
281
    0
  0
BLOCK_RECORD
  5
69
330
1
100
AcDbSymbolTableRecord
100
AcDbBlockTableRecord
  2
Pla1
 70
    0
280
    1
281
    0
  0
BLOCK_RECORD
  5
6C
330
1
100
AcDbSymbolTableRecord
100
AcDbBlockTableRecord
  2
Reihe
 70
    0
280
    1
281
    0
  0
BLOCK_RECORD
  5
6F
330
1
100
AcDbSymbolTableRecord
100
AcDbBlockTableRecord
  2
Reihe1
 70
    0
280
    1
281
    0
  0
BLOCK_RECORD
  5
72
330
1
100
AcDbSymbolTableRecord
100
AcDbBlockTableRecord
  2
Platten_vorn
 70
    0
280
    1
281
    0
  0
ENDTAB
  0
ENDSEC
  0
SECTION
  2
BLOCKS
  0
BLOCK
  5
20
330
1F
100
AcDbEntity
  8
0
100
AcDbBlockBegin
  2
*Model_Space
 70
    0
 10
0
 20
0
 30
0
  3
*Model_Space
  1

  0
ENDBLK
  5
21
330
1F
100
AcDbEntity
  8
0
100
AcDbBlockEnd
  0
BLOCK
  5
1C
330
1B
100
AcDbEntity
  8
0
100
AcDbBlockBegin
  2
*Paper_Space
 70
    0
 10
0
 20
0
 30
0
  3
*Paper_Space
  1

  0
ENDBLK
  5
1D
330
1F
100
AcDbEntity
  8
0
100
AcDbBlockEnd
  0
BLOCK
  5
4F
330
4E
100
AcDbEntity
  8
0
100
AcDbBlockBegin
  2
*D9
 70
    1
 10
0
 20
0
  3
*D9
  1

  0
LINE
  5
75
100
AcDbEntity
  8
Bemaßung
  6
ByBlock
 62
    0
370
   -2
100
AcDbLine
 10
7.896575660123225
 20
-0.5
 11
7.896575660123225
 21
0.6164401962317938
  0
MTEXT
  5
76
100
AcDbEntity
  8
Bemaßung
  6
CONTINUOUS
 62
    0
370
   -2
100
AcDbMText
 10
7.784075660123225
 20
0.2844957517873493
 30
0
 40
0.1
 41
0.2111111111111111
 71
    5
 72
    1
  1
0.12
  7
standard
210
0
220
0
230
1
 50
90
 73
    2
 44
1
  0
SOLID
  5
77
100
AcDbEntity
  8
Bemaßung
  6
ByBlock
 62
    0
370
   -2
100
AcDbTrace
 10
7.896575660123225
 20
-4.163336342344337e-17
 30
0
 11
7.938204125900509
 21
-0.2500000000000001
 31
0
 12
7.854947194345941
 22
-0.2500000000000001
 32
0
 13
7.854947194345941
 23
-0.2500000000000001
 33
0
  0
SOLID
  5
78
100
AcDbEntity
  8
Bemaßung
  6
ByBlock
 62
    0
370
   -2
100
AcDbTrace
 10
7.896575660123225
 20
0.1164401962317937
 30
0
 11
7.854947194345941
 21
0.3664401962317937
 31
0
 12
7.938204125900509
 22
0.3664401962317937
 32
0
 13
7.938204125900509
 23
0.3664401962317937
 33
0
  0
LINE
  5
79
100
AcDbEntity
  8
Bemaßung
  6
ByBlock
 62
    0
370
   15
100
AcDbLine
 10
7.0125
 20
6.938893903907228e-18
 11
7.916575660123224
 21
-4.163336342344337e-17
  0
LINE
  5
7A
100
AcDbEntity
  8
Bemaßung
  6
ByBlock
 62
    0
370
   15
100
AcDbLine
 10
7.0125
 20
0.1164401962317938
 11
7.916575660123224
 21
0.1164401962317937
  0
ENDBLK
  5
50
330
4E
100
AcDbEntity
  8
0
100
AcDbBlockEnd
  0
BLOCK
  5
52
330
51
100
AcDbEntity
  8
0
100
AcDbBlockBegin
  2
*D8
 70
    1
 10
0
 20
0
  3
*D8
  1

  0
LINE
  5
7B
100
AcDbEntity
  8
Bemaßung
  6
ByBlock
 62
    0
370
   -2
100
AcDbLine
 10
0.8500000000000014
 20
-0.2835598037682061
 11
-0.5000000000000002
 21
-0.2835598037682061
  0
MTEXT
  5
7C
100
AcDbEntity
  8
Bemaßung
  6
CONTINUOUS
 62
    0
370
   -2
100
AcDbMText
 10
0.1750000000000006
 20
-0.1710598037682061
 30
0
 40
0.1
 41
0.2333333333333458
 71
    5
 72
    1
  1
0.35
  7
standard
210
0
220
0
230
1
 50
0
 73
    2
 44
1
  0
SOLID
  5
7D
100
AcDbEntity
  8
Bemaßung
  6
ByBlock
 62
    0
370
   -2
100
AcDbTrace
 10
0.3500000000000014
 20
-0.2835598037682061
 30
0
 11
0.6000000000000014
 21
-0.2419313379909221
 31
0
 12
0.6000000000000014
 22
-0.3251882695454902
 32
0
 13
0.6000000000000014
 23
-0.3251882695454902
 33
0
  0
SOLID
  5
7E
100
AcDbEntity
  8
Bemaßung
  6
ByBlock
 62
    0
370
   -2
100
AcDbTrace
 10
-1.942890293094024e-16
 20
-0.2835598037682061
 30
0
 11
-0.2500000000000002
 21
-0.3251882695454901
 31
0
 12
-0.2500000000000002
 22
-0.2419313379909221
 32
0
 13
-0.2500000000000002
 23
-0.2419313379909221
 33
0
  0
LINE
  5
7F
100
AcDbEntity
  8
Bemaßung
  6
ByBlock
 62
    0
370
   15
100
AcDbLine
 10
0.3500000000000014
 20
-0.06249999999999997
 11
0.3500000000000014
 21
-0.3035598037682061
  0
LINE
  5
80
100
AcDbEntity
  8
Bemaßung
  6
ByBlock
 62
    0
370
   15
100
AcDbLine
 10
-2.057697138764872e-16
 20
-0.06249999999999997
 11
-1.979628483708695e-16
 21
-0.3035598037682061
  0
ENDBLK
  5
53
330
51
100
AcDbEntity
  8
0
100
AcDbBlockEnd
  0
BLOCK
  5
55
330
54
100
AcDbEntity
  8
0
100
AcDbBlockBegin
  2
*D4
 70
    1
 10
0
 20
0
  3
*D4
  1

  0
LINE
  5
81
100
AcDbEntity
  8
Bemaßung
  6
ByBlock
 62
    0
370
   15
100
AcDbLine
 10
-0.06249999999999972
 20
3.830000000000001
 11
-0.2578969344358225
 21
3.830000000000001
  0
LINE
  5
82
100
AcDbEntity
  8
Bemaßung
  6
ByBlock
 62
    0
370
   15
100
AcDbLine
 10
-0.06250000000000019
 20
7.653789711389858e-18
 11
-0.257896934435823
 21
3.158222245414217e-17
  0
LINE
  5
83
100
AcDbEntity
  8
Bemaßung
  6
ByBlock
 62
    0
370
   -2
100
AcDbLine
 10
-0.2378969344358225
 20
3.830000000000001
 11
-0.237896934435823
 21
2.913300974649741e-17
  0
MTEXT
  5
84
100
AcDbEntity
  8
Bemaßung
  6
CONTINUOUS
 62
    0
370
   -2
100
AcDbMText
 10
-0.3503969344358228
 20
1.915
 30
0
 40
0.1
 41
0.2333333333333458
 71
    5
 72
    1
  1
3.83
  7
standard
210
0
220
0
230
1
 50
90
 73
    2
 44
1
  0
SOLID
  5
85
100
AcDbEntity
  8
Bemaßung
  6
ByBlock
 62
    0
370
   -2
100
AcDbTrace
 10
-0.2378969344358225
 20
3.830000000000001
 30
0
 11
-0.1962684686585385
 21
3.580000000000001
 31
0
 12
-0.2795254002131066
 22
3.580000000000001
 32
0
 13
-0.2795254002131066
 23
3.580000000000001
 33
0
  0
SOLID
  5
86
100
AcDbEntity
  8
Bemaßung
  6
ByBlock
 62
    0
370
   -2
100
AcDbTrace
 10
-0.237896934435823
 20
2.913300974649741e-17
 30
0
 11
-0.279525400213107
 21
0.2500000000000001
 31
0
 12
-0.1962684686585389
 22
0.2500000000000001
 32
0
 13
-0.1962684686585389
 23
0.2500000000000001
 33
0
  0
ENDBLK
  5
56
330
54
100
AcDbEntity
  8
0
100
AcDbBlockEnd
  0
BLOCK
  5
58
330
57
100
AcDbEntity
  8
0
100
AcDbBlockBegin
  2
*D1
 70
    1
 10
0
 20
0
  3
*D1
  1

  0
LINE
  5
87
100
AcDbEntity
  8
Bemaßung
  6
ByBlock
 62
    0
370
   15
100
AcDbLine
 10
0.4000000000000004
 20
4.182500000000001
 11
0.4000000000000004
 21
4.46074277613536
  0
LINE
  5
88
100
AcDbEntity
  8
Bemaßung
  6
ByBlock
 62
    0
370
   15
100
AcDbLine
 10
6.56
 20
4.1825
 11
6.56
 21
4.460742776135359
  0
LINE
  5
89
100
AcDbEntity
  8
Bemaßung
  6
ByBlock
 62
    0
370
   -2
100
AcDbLine
 10
0.4000000000000004
 20
4.440742776135361
 11
6.56
 21
4.44074277613536
  0
MTEXT
  5
8A
100
AcDbEntity
  8
Bemaßung
  6
CONTINUOUS
 62
    0
370
   -2
100
AcDbMText
 10
3.48
 20
4.55324277613536
 30
0
 40
0.1
 41
0.2111111111111235
 71
    5
 72
    1
  1
6.16
  7
standard
210
0
220
0
230
1
 50
0
 73
    2
 44
1
  0
SOLID
  5
8B
100
AcDbEntity
  8
Bemaßung
  6
ByBlock
 62
    0
370
   -2
100
AcDbTrace
 10
0.4000000000000004
 20
4.440742776135361
 30
0
 11
0.6500000000000004
 21
4.482371241912644
 31
0
 12
0.6500000000000004
 22
4.399114310358076
 32
0
 13
0.6500000000000004
 23
4.399114310358076
 33
0
  0
SOLID
  5
8C
100
AcDbEntity
  8
Bemaßung
  6
ByBlock
 62
    0
370
   -2
100
AcDbTrace
 10
6.56
 20
4.44074277613536
 30
0
 11
6.31
 21
4.399114310358076
 31
0
 12
6.31
 22
4.482371241912643
 32
0
 13
6.31
 23
4.482371241912643
 33
0
  0
ENDBLK
  5
59
330
57
100
AcDbEntity
  8
0
100
AcDbBlockEnd
  0
BLOCK
  5
5B
330
5A
100
AcDbEntity
  8
0
100
AcDbBlockBegin
  2
*D2
 70
    1
 10
0
 20
0
  3
*D2
  1

  0
LINE
  5
8D
100
AcDbEntity
  8
Bemaßung
  6
ByBlock
 62
    0
370
   15
100
AcDbLine
 10
7.0125
 20
3.83
 11
7.430048957797297
 21
3.83
  0
LINE
  5
8E
100
AcDbEntity
  8
Bemaßung
  6
ByBlock
 62
    0
370
   15
100
AcDbLine
 10
7.0125
 20
0
 11
7.430048957797297
 21
0
  0
LINE
  5
8F
100
AcDbEntity
  8
Bemaßung
  6
ByBlock
 62
    0
370
   -2
100
AcDbLine
 10
7.410048957797297
 20
3.83
 11
7.410048957797297
 21
0
  0
MTEXT
  5
90
100
AcDbEntity
  8
Bemaßung
  6
CONTINUOUS
 62
    0
370
   -2
100
AcDbMText
 10
7.297548957797297
 20
1.915
 30
0
 40
0.1
 41
0.2333333333333458
 71
    5
 72
    1
  1
3.83
  7
standard
210
0
220
0
230
1
 50
90
 73
    2
 44
1
  0
SOLID
  5
91
100
AcDbEntity
  8
Bemaßung
  6
ByBlock
 62
    0
370
   -2
100
AcDbTrace
 10
7.410048957797297
 20
3.83
 30
0
 11
7.451677423574581
 21
3.58
 31
0
 12
7.368420492020014
 22
3.58
 32
0
 13
7.368420492020014
 23
3.58
 33
0
  0
SOLID
  5
92
100
AcDbEntity
  8
Bemaßung
  6
ByBlock
 62
    0
370
   -2
100
AcDbTrace
 10
7.410048957797297
 20
0
 30
0
 11
7.368420492020014
 21
0.25
 31
0
 12
7.451677423574582
 22
0.25
 32
0
 13
7.451677423574582
 23
0.25
 33
0
  0
ENDBLK
  5
5C
330
5A
100
AcDbEntity
  8
0
100
AcDbBlockEnd
  0
BLOCK
  5
5E
330
5D
100
AcDbEntity
  8
0
100
AcDbBlockBegin
  2
*D3
 70
    1
 10
0
 20
0
  3
*D3
  1

  0
LINE
  5
93
100
AcDbEntity
  8
Bemaßung
  6
ByBlock
 62
    0
370
   15
100
AcDbLine
 10
-2.057697138764872e-16
 20
-0.06249999999999997
 11
-2.869803781518339e-16
 21
-0.5046048664433431
  0
LINE
  5
94
100
AcDbEntity
  8
Bemaßung
  6
ByBlock
 62
    0
370
   15
100
AcDbLine
 10
6.95
 20
-0.0625
 11
6.95
 21
-0.5046048664433431
  0
LINE
  5
95
100
AcDbEntity
  8
Bemaßung
  6
ByBlock
 62
    0
370
   -2
100
AcDbLine
 10
-2.833065590903667e-16
 20
-0.4846048664433431
 11
6.95
 21
-0.4846048664433431
  0
MTEXT
  5
96
100
AcDbEntity
  8
Bemaßung
  6
CONTINUOUS
 62
    0
370
   -2
100
AcDbMText
 10
3.475
 20
-0.3721048664433431
 30
0
 40
0.1
 41
0.2333333333333519
 71
    5
 72
    1
  1
6.95
  7
standard
210
0
220
0
230
1
 50
0
 73
    2
 44
1
  0
SOLID
  5
97
100
AcDbEntity
  8
Bemaßung
  6
ByBlock
 62
    0
370
   -2
100
AcDbTrace
 10
-2.833065590903667e-16
 20
-0.4846048664433431
 30
0
 11
0.2499999999999997
 21
-0.4429764006660591
 31
0
 12
0.2499999999999997
 22
-0.5262333322206272
 32
0
 13
0.2499999999999997
 23
-0.5262333322206272
 33
0
  0
SOLID
  5
98
100
AcDbEntity
  8
Bemaßung
  6
ByBlock
 62
    0
370
   -2
100
AcDbTrace
 10
6.95
 20
-0.4846048664433431
 30
0
 11
6.7
 21
-0.5262333322206272
 31
0
 12
6.7
 22
-0.4429764006660591
 32
0
 13
6.7
 23
-0.4429764006660591
 33
0
  0
ENDBLK
  5
5F
330
5D
100
AcDbEntity
  8
0
100
AcDbBlockEnd
  0
BLOCK
  5
61
330
60
100
AcDbEntity
  8
0
100
AcDbBlockBegin
  2
*D5
 70
    1
 10
0
 20
0
  3
*D5
  1

  0
LINE
  5
99
100
AcDbEntity
  8
Bemaßung
  6
ByBlock
 62
    0
370
   15
100
AcDbLine
 10
6.56
 20
3.8925
 11
6.56
 21
4.0290038951222
  0
LINE
  5
9A
100
AcDbEntity
  8
Bemaßung
  6
ByBlock
 62
    0
370
   15
100
AcDbLine
 10
6.95
 20
3.8925
 11
6.95
 21
4.0290038951222
  0
LINE
  5
9B
100
AcDbEntity
  8
Bemaßung
  6
ByBlock
 62
    0
370
   -2
100
AcDbLine
 10
6.06
 20
4.0090038951222
 11
7.45
 21
4.0090038951222
  0
MTEXT
  5
9C
100
AcDbEntity
  8
Bemaßung
  6
CONTINUOUS
 62
    0
370
   -2
100
AcDbMText
 10
6.755
 20
4.1215038951222
 30
0
 40
0.1
 41
0.2333333333333396
 71
    5
 72
    1
  1
0.39
  7
standard
210
0
220
0
230
1
 50
0
 73
    2
 44
1
  0
SOLID
  5
9D
100
AcDbEntity
  8
Bemaßung
  6
ByBlock
 62
    0
370
   -2
100
AcDbTrace
 10
6.56
 20
4.0090038951222
 30
0
 11
6.31
 21
3.967375429344916
 31
0
 12
6.31
 22
4.050632360899484
 32
0
 13
6.31
 23
4.050632360899484
 33
0
  0
SOLID
  5
9E
100
AcDbEntity
  8
Bemaßung
  6
ByBlock
 62
    0
370
   -2
100
AcDbTrace
 10
6.95
 20
4.0090038951222
 30
0
 11
7.2
 21
4.050632360899484
 31
0
 12
7.2
 22
3.967375429344916
 32
0
 13
7.2
 23
3.967375429344916
 33
0
  0
ENDBLK
  5
62
330
60
100
AcDbEntity
  8
0
100
AcDbBlockEnd
  0
BLOCK
  5
64
330
63
100
AcDbEntity
  8
0
100
AcDbBlockBegin
  2
*D6
 70
    1
 10
0
 20
0
  3
*D6
  1

  0
LINE
  5
9F
100
AcDbEntity
  8
Bemaßung
  6
ByBlock
 62
    0
370
   15
100
AcDbLine
 10
0.4000000000000002
 20
3.892500000000001
 11
0.4000000000000002
 21
4.011381899978806
  0
LINE
  5
A0
100
AcDbEntity
  8
Bemaßung
  6
ByBlock
 62
    0
370
   15
100
AcDbLine
 10
2.397492875885406e-16
 20
3.892500000000001
 11
1.67837210551374e-16
 21
4.011381899978806
  0
LINE
  5
A1
100
AcDbEntity
  8
Bemaßung
  6
ByBlock
 62
    0
370
   -2
100
AcDbLine
 10
0.9000000000000001
 20
3.991381899978806
 11
-0.4999999999999998
 21
3.991381899978806
  0
MTEXT
  5
A2
100
AcDbEntity
  8
Bemaßung
  6
CONTINUOUS
 62
    0
370
   -2
100
AcDbMText
 10
0.2000000000000002
 20
4.103881899978806
 30
0
 40
0.1
 41
0.2444444444444445
 71
    5
 72
    1
  1
0.40
  7
standard
210
0
220
0
230
1
 50
0
 73
    2
 44
1
  0
SOLID
  5
A3
100
AcDbEntity
  8
Bemaßung
  6
ByBlock
 62
    0
370
   -2
100
AcDbTrace
 10
0.4000000000000002
 20
3.991381899978806
 30
0
 11
0.6500000000000001
 21
4.03301036575609
 31
0
 12
0.6500000000000001
 22
3.949753434201522
 32
0
 13
0.6500000000000001
 23
3.949753434201522
 33
0
  0
SOLID
  5
A4
100
AcDbEntity
  8
Bemaßung
  6
ByBlock
 62
    0
370
   -2
100
AcDbTrace
 10
1.799352804930535e-16
 20
3.991381899978806
 30
0
 11
-0.2499999999999998
 21
3.949753434201522
 31
0
 12
-0.2499999999999998
 22
4.03301036575609
 32
0
 13
-0.2499999999999998
 23
4.03301036575609
 33
0
  0
ENDBLK
  5
65
330
63
100
AcDbEntity
  8
0
100
AcDbBlockEnd
  0
BLOCK
  5
67
330
66
100
AcDbEntity
  8
0
100
AcDbBlockBegin
  2
*D7
 70
    1
 10
0
 20
0
  3
*D7
  1

  0
LINE
  5
A5
100
AcDbEntity
  8
Bemaßung
  6
ByBlock
 62
    0
370
   -2
100
AcDbLine
 10
6.1
 20
-0.2835598037682061
 11
7.45
 21
-0.2835598037682062
  0
MTEXT
  5
A6
100
AcDbEntity
  8
Bemaßung
  6
CONTINUOUS
 62
    0
370
   -2
100
AcDbMText
 10
6.775
 20
-0.1710598037682061
 30
0
 40
0.1
 41
0.2333333333333458
 71
    5
 72
    1
  1
0.35
  7
standard
210
0
220
0
230
1
 50
0
 73
    2
 44
1
  0
SOLID
  5
A7
100
AcDbEntity
  8
Bemaßung
  6
ByBlock
 62
    0
370
   -2
100
AcDbTrace
 10
6.6
 20
-0.2835598037682061
 30
0
 11
6.35
 21
-0.3251882695454901
 31
0
 12
6.35
 22
-0.2419313379909221
 32
0
 13
6.35
 23
-0.2419313379909221
 33
0
  0
SOLID
  5
A8
100
AcDbEntity
  8
Bemaßung
  6
ByBlock
 62
    0
370
   -2
100
AcDbTrace
 10
6.95
 20
-0.2835598037682061
 30
0
 11
7.2
 21
-0.2419313379909221
 31
0
 12
7.2
 22
-0.3251882695454902
 32
0
 13
7.2
 23
-0.3251882695454902
 33
0
  0
LINE
  5
A9
100
AcDbEntity
  8
Bemaßung
  6
ByBlock
 62
    0
370
   15
100
AcDbLine
 10
6.6
 20
0.0539401962317938
 11
6.6
 21
-0.3035598037682061
  0
LINE
  5
AA
100
AcDbEntity
  8
Bemaßung
  6
ByBlock
 62
    0
370
   15
100
AcDbLine
 10
6.95
 20
0.0539401962317938
 11
6.95
 21
-0.3035598037682061
  0
ENDBLK
  5
68
330
66
100
AcDbEntity
  8
0
100
AcDbBlockEnd
  0
BLOCK
  5
6A
330
69
100
AcDbEntity
  8
0
100
AcDbBlockBegin
  2
Pla1
 70
    0
 10
0
 20
0
  3
Pla1
  1

  0
LWPOLYLINE
  5
AB
100
AcDbEntity
  8
0
  6
ByLayer
 62
  256
370
   -1
100
AcDbPolyline
 90
    4
 70
    1
 43
0
 10
0
 20
0
 10
0.6000000000000001
 20
0
 10
0.6000000000000001
 20
0.3999999999999999
 10
0
 20
0.3999999999999999
  0
ENDBLK
  5
6B
330
69
100
AcDbEntity
  8
0
100
AcDbBlockEnd
  0
BLOCK
  5
6D
330
6C
100
AcDbEntity
  8
0
100
AcDbBlockBegin
  2
Reihe
 70
    0
 10
0
 20
0
  3
Reihe
  1

  0
LINE
  5
AC
100
AcDbEntity
  8
0
  6
ByLayer
 62
  256
370
   -1
100
AcDbLine
 10
-2.875
 20
0.3999999999999999
 11
-2.875
 21
-1.627395260916371e-17
  0
LINE
  5
AD
100
AcDbEntity
  8
0
  6
ByLayer
 62
  256
370
   -1
100
AcDbLine
 10
-3.05
 20
-1.627395260916371e-17
 11
-2.875
 21
-1.627395260916371e-17
  0
LINE
  5
AE
100
AcDbEntity
  8
0
  6
ByLayer
 62
  256
370
   -1
100
AcDbLine
 10
-2.875
 20
-1.627395260916371e-17
 11
-2.875
 21
0.3999999999999999
  0
INSERT
  5
AF
100
AcDbEntity
  8
0
  6
ByLayer
 62
  256
370
   -1
100
AcDbBlockReference
  2
Pla1
 10
-3
 20
-1.627395260916371e-17
 30
0
 41
1
 42
1
 43
0
 50
0
 70
    1
 71
    1
 44
0
 45
0
  0
LINE
  5
B0
100
AcDbEntity
  8
0
  6
ByLayer
 62
  256
370
   -1
100
AcDbLine
 10
-3
 20
-1.627395260916371e-17
 11
-2.825
 21
-1.627395260916371e-17
  0
LINE
  5
B1
100
AcDbEntity
  8
0
  6
ByLayer
 62
  256
370
   -1
100
AcDbLine
 10
-2.875
 20
-1.627395260916371e-17
 11
-2.875
 21
0.3999999999999999
  0
INSERT
  5
B2
100
AcDbEntity
  8
0
  6
ByLayer
 62
  256
370
   -1
100
AcDbBlockReference
  2
Pla1
 10
-2.4
 20
9.584659205397031e-18
 30
0
 41
1
 42
1
 43
0
 50
0
 70
    1
 71
    1
 44
1
 45
1
  0
INSERT
  5
B3
100
AcDbEntity
  8
0
  6
ByLayer
 62
  256
370
   -1
100
AcDbBlockReference
  2
Pla1
 10
-1.8
 20
7.188494404047772e-18
 30
0
 41
1
 42
1
 43
0
 50
0
 70
    1
 71
    1
 44
1
 45
1
  0
INSERT
  5
B4
100
AcDbEntity
  8
0
  6
ByLayer
 62
  256
370
   -1
100
AcDbBlockReference
  2
Pla1
 10
-1.2
 20
4.792329602698522e-18
 30
0
 41
1
 42
1
 43
0
 50
0
 70
    1
 71
    1
 44
1
 45
1
  0
INSERT
  5
B5
100
AcDbEntity
  8
0
  6
ByLayer
 62
  256
370
   -1
100
AcDbBlockReference
  2
Pla1
 10
-0.6000000000000001
 20
2.396164801349259e-18
 30
0
 41
1
 42
1
 43
0
 50
0
 70
    1
 71
    1
 44
1
 45
1
  0
INSERT
  5
B6
100
AcDbEntity
  8
0
  6
ByLayer
 62
  256
370
   -1
100
AcDbBlockReference
  2
Pla1
 10
0
 20
0
 30
0
 41
1
 42
1
 43
0
 50
0
 70
    1
 71
    1
 44
1
 45
1
  0
INSERT
  5
B7
100
AcDbEntity
  8
0
  6
ByLayer
 62
  256
370
   -1
100
AcDbBlockReference
  2
Pla1
 10
0.6000000000000001
 20
-2.396164801349259e-18
 30
0
 41
1
 42
1
 43
0
 50
0
 70
    1
 71
    1
 44
1
 45
1
  0
INSERT
  5
B8
100
AcDbEntity
  8
0
  6
ByLayer
 62
  256
370
   -1
100
AcDbBlockReference
  2
Pla1
 10
1.2
 20
-4.79232960269852e-18
 30
0
 41
1
 42
1
 43
0
 50
0
 70
    1
 71
    1
 44
1
 45
1
  0
INSERT
  5
B9
100
AcDbEntity
  8
0
  6
ByLayer
 62
  256
370
   -1
100
AcDbBlockReference
  2
Pla1
 10
1.8
 20
-7.188494404047775e-18
 30
0
 41
1
 42
1
 43
0
 50
0
 70
    1
 71
    1
 44
1
 45
1
  0
INSERT
  5
BA
100
AcDbEntity
  8
0
  6
ByLayer
 62
  256
370
   -1
100
AcDbBlockReference
  2
Pla1
 10
2.4
 20
-9.584659205397034e-18
 30
0
 41
1
 42
1
 43
0
 50
0
 70
    1
 71
    1
 44
1
 45
1
  0
INSERT
  5
BB
100
AcDbEntity
  8
0
  6
ByLayer
 62
  256
370
   -1
100
AcDbBlockReference
  2
Pla1
 10
3.000000000000001
 20
-1.198082400674629e-17
 30
0
 41
1
 42
1
 43
0
 50
0
 70
    1
 71
    1
 44
1
 45
1
  0
INSERT
  5
BC
100
AcDbEntity
  8
0
  6
ByLayer
 62
  256
370
   -1
100
AcDbBlockReference
  2
Pla1
 10
3.600000000000001
 20
-1.437698880809555e-17
 30
0
 41
1
 42
1
 43
0
 50
0
 70
    1
 71
    1
 44
1
 45
1
  0
ENDBLK
  5
6E
330
6C
100
AcDbEntity
  8
0
100
AcDbBlockEnd
  0
BLOCK
  5
70
330
6F
100
AcDbEntity
  8
0
100
AcDbBlockBegin
  2
Reihe1
 70
    0
 10
0
 20
0
  3
Reihe1
  1

  0
LINE
  5
BD
100
AcDbEntity
  8
0
  6
ByLayer
 62
  256
370
   -1
100
AcDbLine
 10
-2.890007203516706
 20
-0.4053058882980746
 11
4.059992796483295
 21
-0.4053058882980746
  0
INSERT
  5
BE
100
AcDbEntity
  8
0
  6
ByLayer
 62
  256
370
   -1
100
AcDbBlockReference
  2
Reihe
 10
-0.01500720351670504
 20
-0.4053058882980746
 30
0
 41
1
 42
1
 43
0
 50
0
 70
    1
 71
    1
 44
0
 45
0
  0
ENDBLK
  5
71
330
6F
100
AcDbEntity
  8
0
100
AcDbBlockEnd
  0
BLOCK
  5
73
330
72
100
AcDbEntity
  8
0
100
AcDbBlockBegin
  2
Platten_vorn
 70
    0
 10
0
 20
0
  3
Platten_vorn
  1

  0
LWPOLYLINE
  5
BF
100
AcDbEntity
  8
0
  6
ByLayer
 62
  256
370
   -1
100
AcDbPolyline
 90
    4
 70
    1
 43
0
 10
-3.000000000000001
 20
-0.3999999999999999
 10
-2.400000000000001
 20
-0.3999999999999999
 10
-2.400000000000001
 20
0
 10
-3.000000000000001
 20
0
  0
LWPOLYLINE
  5
C0
100
AcDbEntity
  8
0
  6
ByLayer
 62
  256
370
   -1
100
AcDbPolyline
 90
    4
 70
    1
 43
0
 10
-3.000000000000001
 20
-0.3999999999999999
 10
-2.400000000000001
 20
-0.3999999999999999
 10
-2.400000000000001
 20
0
 10
-3.000000000000001
 20
0
  0
LWPOLYLINE
  5
C1
100
AcDbEntity
  8
0
  6
ByLayer
 62
  256
370
   -1
100
AcDbPolyline
 90
    4
 70
    1
 43
0
 10
-2.400000000000001
 20
-0.3999999999999999
 10
-1.800000000000001
 20
-0.3999999999999999
 10
-1.800000000000001
 20
0
 10
-2.400000000000001
 20
0
  0
LWPOLYLINE
  5
C2
100
AcDbEntity
  8
0
  6
ByLayer
 62
  256
370
   -1
100
AcDbPolyline
 90
    4
 70
    1
 43
0
 10
-2.400000000000001
 20
-0.3999999999999999
 10
-1.800000000000001
 20
-0.3999999999999999
 10
-1.800000000000001
 20
0
 10
-2.400000000000001
 20
0
  0
LWPOLYLINE
  5
C3
100
AcDbEntity
  8
0
  6
ByLayer
 62
  256
370
   -1
100
AcDbPolyline
 90
    4
 70
    1
 43
0
 10
-3.000000000000001
 20
-0.3999999999999999
 10
-2.400000000000001
 20
-0.3999999999999999
 10
-2.400000000000001
 20
0
 10
-3.000000000000001
 20
0
  0
LWPOLYLINE
  5
C4
100
AcDbEntity
  8
0
  6
ByLayer
 62
  256
370
   -1
100
AcDbPolyline
 90
    4
 70
    1
 43
0
 10
-2.400000000000001
 20
-0.3999999999999999
 10
-1.800000000000001
 20
-0.3999999999999999
 10
-1.800000000000001
 20
0
 10
-2.400000000000001
 20
0
  0
LWPOLYLINE
  5
C5
100
AcDbEntity
  8
0
  6
ByLayer
 62
  256
370
   -1
100
AcDbPolyline
 90
    4
 70
    1
 43
0
 10
-3.000000000000001
 20
-0.3999999999999999
 10
-2.400000000000001
 20
-0.3999999999999999
 10
-2.400000000000001
 20
0
 10
-3.000000000000001
 20
0
  0
LWPOLYLINE
  5
C6
100
AcDbEntity
  8
0
  6
ByLayer
 62
  256
370
   -1
100
AcDbPolyline
 90
    4
 70
    1
 43
0
 10
-3.000000000000001
 20
-0.3999999999999999
 10
-2.400000000000001
 20
-0.3999999999999999
 10
-2.400000000000001
 20
0
 10
-3.000000000000001
 20
0
  0
LWPOLYLINE
  5
C7
100
AcDbEntity
  8
0
  6
ByLayer
 62
  256
370
   -1
100
AcDbPolyline
 90
    4
 70
    1
 43
0
 10
-2.400000000000001
 20
-0.3999999999999999
 10
-1.800000000000001
 20
-0.3999999999999999
 10
-1.800000000000001
 20
0
 10
-2.400000000000001
 20
0
  0
LWPOLYLINE
  5
C8
100
AcDbEntity
  8
0
  6
ByLayer
 62
  256
370
   -1
100
AcDbPolyline
 90
    4
 70
    1
 43
0
 10
-2.400000000000001
 20
-0.3999999999999999
 10
-1.800000000000001
 20
-0.3999999999999999
 10
-1.800000000000001
 20
0
 10
-2.400000000000001
 20
0
  0
LWPOLYLINE
  5
C9
100
AcDbEntity
  8
0
  6
ByLayer
 62
  256
370
   -1
100
AcDbPolyline
 90
    4
 70
    1
 43
0
 10
-3.000000000000001
 20
-0.3999999999999999
 10
-2.400000000000001
 20
-0.3999999999999999
 10
-2.400000000000001
 20
0
 10
-3.000000000000001
 20
0
  0
LWPOLYLINE
  5
CA
100
AcDbEntity
  8
0
  6
ByLayer
 62
  256
370
   -1
100
AcDbPolyline
 90
    4
 70
    1
 43
0
 10
-2.400000000000001
 20
-0.3999999999999999
 10
-1.800000000000001
 20
-0.3999999999999999
 10
-1.800000000000001
 20
0
 10
-2.400000000000001
 20
0
  0
LWPOLYLINE
  5
CB
100
AcDbEntity
  8
0
  6
ByLayer
 62
  256
370
   -1
100
AcDbPolyline
 90
    4
 70
    1
 43
0
 10
-3.000000000000001
 20
-0.3999999999999999
 10
-2.400000000000001
 20
-0.3999999999999999
 10
-2.400000000000001
 20
0
 10
-3.000000000000001
 20
0
  0
LWPOLYLINE
  5
CC
100
AcDbEntity
  8
0
  6
ByLayer
 62
  256
370
   -1
100
AcDbPolyline
 90
    4
 70
    1
 43
0
 10
-3.000000000000001
 20
-0.3999999999999999
 10
-2.400000000000001
 20
-0.3999999999999999
 10
-2.400000000000001
 20
0
 10
-3.000000000000001
 20
0
  0
LWPOLYLINE
  5
CD
100
AcDbEntity
  8
0
  6
ByLayer
 62
  256
370
   -1
100
AcDbPolyline
 90
    4
 70
    1
 43
0
 10
-2.400000000000001
 20
-0.3999999999999999
 10
-1.800000000000001
 20
-0.3999999999999999
 10
-1.800000000000001
 20
0
 10
-2.400000000000001
 20
0
  0
LWPOLYLINE
  5
CE
100
AcDbEntity
  8
0
  6
ByLayer
 62
  256
370
   -1
100
AcDbPolyline
 90
    4
 70
    1
 43
0
 10
-2.400000000000001
 20
-0.3999999999999999
 10
-1.800000000000001
 20
-0.3999999999999999
 10
-1.800000000000001
 20
0
 10
-2.400000000000001
 20
0
  0
LWPOLYLINE
  5
CF
100
AcDbEntity
  8
0
  6
ByLayer
 62
  256
370
   -1
100
AcDbPolyline
 90
    4
 70
    1
 43
0
 10
-3.000000000000001
 20
-0.3999999999999999
 10
-2.400000000000001
 20
-0.3999999999999999
 10
-2.400000000000001
 20
0
 10
-3.000000000000001
 20
0
  0
LWPOLYLINE
  5
D0
100
AcDbEntity
  8
0
  6
ByLayer
 62
  256
370
   -1
100
AcDbPolyline
 90
    4
 70
    1
 43
0
 10
-2.400000000000001
 20
-0.3999999999999999
 10
-1.800000000000001
 20
-0.3999999999999999
 10
-1.800000000000001
 20
0
 10
-2.400000000000001
 20
0
  0
LWPOLYLINE
  5
D1
100
AcDbEntity
  8
0
  6
ByLayer
 62
  256
370
   -1
100
AcDbPolyline
 90
    4
 70
    1
 43
0
 10
-3.000000000000001
 20
-0.3999999999999999
 10
-2.400000000000001
 20
-0.3999999999999999
 10
-2.400000000000001
 20
0
 10
-3.000000000000001
 20
0
  0
LWPOLYLINE
  5
D2
100
AcDbEntity
  8
0
  6
ByLayer
 62
  256
370
   -1
100
AcDbPolyline
 90
    4
 70
    1
 43
0
 10
-3.000000000000001
 20
-0.3999999999999999
 10
-2.400000000000001
 20
-0.3999999999999999
 10
-2.400000000000001
 20
0
 10
-3.000000000000001
 20
0
  0
LWPOLYLINE
  5
D3
100
AcDbEntity
  8
0
  6
ByLayer
 62
  256
370
   -1
100
AcDbPolyline
 90
    4
 70
    1
 43
0
 10
-2.400000000000001
 20
-0.3999999999999999
 10
-1.800000000000001
 20
-0.3999999999999999
 10
-1.800000000000001
 20
0
 10
-2.400000000000001
 20
0
  0
LWPOLYLINE
  5
D4
100
AcDbEntity
  8
0
  6
ByLayer
 62
  256
370
   -1
100
AcDbPolyline
 90
    4
 70
    1
 43
0
 10
-2.400000000000001
 20
-0.3999999999999999
 10
-1.800000000000001
 20
-0.3999999999999999
 10
-1.800000000000001
 20
0
 10
-2.400000000000001
 20
0
  0
LWPOLYLINE
  5
D5
100
AcDbEntity
  8
0
  6
ByLayer
 62
  256
370
   -1
100
AcDbPolyline
 90
    4
 70
    1
 43
0
 10
-3.000000000000001
 20
-0.3999999999999999
 10
-2.400000000000001
 20
-0.3999999999999999
 10
-2.400000000000001
 20
0
 10
-3.000000000000001
 20
0
  0
LWPOLYLINE
  5
D6
100
AcDbEntity
  8
0
  6
ByLayer
 62
  256
370
   -1
100
AcDbPolyline
 90
    4
 70
    1
 43
0
 10
-2.400000000000001
 20
-0.3999999999999999
 10
-1.800000000000001
 20
-0.3999999999999999
 10
-1.800000000000001
 20
0
 10
-2.400000000000001
 20
0
  0
LWPOLYLINE
  5
D7
100
AcDbEntity
  8
0
  6
ByLayer
 62
  256
370
   -1
100
AcDbPolyline
 90
    4
 70
    1
 43
0
 10
-2.400000000000001
 20
-0.3999999999999999
 10
-1.800000000000001
 20
-0.3999999999999999
 10
-1.800000000000001
 20
0
 10
-2.400000000000001
 20
0
  0
LWPOLYLINE
  5
D8
100
AcDbEntity
  8
0
  6
ByLayer
 62
  256
370
   -1
100
AcDbPolyline
 90
    4
 70
    1
 43
0
 10
-2.400000000000001
 20
-0.3999999999999999
 10
-1.800000000000001
 20
-0.3999999999999999
 10
-1.800000000000001
 20
0
 10
-2.400000000000001
 20
0
  0
LWPOLYLINE
  5
D9
100
AcDbEntity
  8
0
  6
ByLayer
 62
  256
370
   -1
100
AcDbPolyline
 90
    4
 70
    1
 43
0
 10
-2.400000000000001
 20
-0.3999999999999999
 10
-1.800000000000001
 20
-0.3999999999999999
 10
-1.800000000000001
 20
0
 10
-2.400000000000001
 20
0
  0
LWPOLYLINE
  5
DA
100
AcDbEntity
  8
0
  6
ByLayer
 62
  256
370
   -1
100
AcDbPolyline
 90
    4
 70
    1
 43
0
 10
-1.800000000000001
 20
-0.3999999999999999
 10
-1.200000000000001
 20
-0.3999999999999999
 10
-1.200000000000001
 20
0
 10
-1.800000000000001
 20
0
  0
LWPOLYLINE
  5
DB
100
AcDbEntity
  8
0
  6
ByLayer
 62
  256
370
   -1
100
AcDbPolyline
 90
    4
 70
    1
 43
0
 10
-1.800000000000001
 20
-0.3999999999999999
 10
-1.200000000000001
 20
-0.3999999999999999
 10
-1.200000000000001
 20
0
 10
-1.800000000000001
 20
0
  0
LWPOLYLINE
  5
DC
100
AcDbEntity
  8
0
  6
ByLayer
 62
  256
370
   -1
100
AcDbPolyline
 90
    4
 70
    1
 43
0
 10
-1.800000000000001
 20
-0.3999999999999999
 10
-1.200000000000001
 20
-0.3999999999999999
 10
-1.200000000000001
 20
0
 10
-1.800000000000001
 20
0
  0
LWPOLYLINE
  5
DD
100
AcDbEntity
  8
0
  6
ByLayer
 62
  256
370
   -1
100
AcDbPolyline
 90
    4
 70
    1
 43
0
 10
-1.800000000000001
 20
-0.3999999999999999
 10
-1.200000000000001
 20
-0.3999999999999999
 10
-1.200000000000001
 20
0
 10
-1.800000000000001
 20
0
  0
LWPOLYLINE
  5
DE
100
AcDbEntity
  8
0
  6
ByLayer
 62
  256
370
   -1
100
AcDbPolyline
 90
    4
 70
    1
 43
0
 10
-1.200000000000001
 20
-0.3999999999999999
 10
-0.6000000000000001
 20
-0.3999999999999999
 10
-0.6000000000000001
 20
0
 10
-1.200000000000001
 20
0
  0
LWPOLYLINE
  5
DF
100
AcDbEntity
  8
0
  6
ByLayer
 62
  256
370
   -1
100
AcDbPolyline
 90
    4
 70
    1
 43
0
 10
-1.200000000000001
 20
-0.3999999999999999
 10
-0.6000000000000001
 20
-0.3999999999999999
 10
-0.6000000000000001
 20
0
 10
-1.200000000000001
 20
0
  0
LWPOLYLINE
  5
E0
100
AcDbEntity
  8
0
  6
ByLayer
 62
  256
370
   -1
100
AcDbPolyline
 90
    4
 70
    1
 43
0
 10
-1.200000000000001
 20
-0.3999999999999999
 10
-0.6000000000000001
 20
-0.3999999999999999
 10
-0.6000000000000001
 20
0
 10
-1.200000000000001
 20
0
  0
LWPOLYLINE
  5
E1
100
AcDbEntity
  8
0
  6
ByLayer
 62
  256
370
   -1
100
AcDbPolyline
 90
    4
 70
    1
 43
0
 10
-1.200000000000001
 20
-0.3999999999999999
 10
-0.6000000000000001
 20
-0.3999999999999999
 10
-0.6000000000000001
 20
0
 10
-1.200000000000001
 20
0
  0
LWPOLYLINE
  5
E2
100
AcDbEntity
  8
0
  6
ByLayer
 62
  256
370
   -1
100
AcDbPolyline
 90
    4
 70
    1
 43
0
 10
-1.800000000000001
 20
-0.3999999999999999
 10
-1.200000000000001
 20
-0.3999999999999999
 10
-1.200000000000001
 20
0
 10
-1.800000000000001
 20
0
  0
LWPOLYLINE
  5
E3
100
AcDbEntity
  8
0
  6
ByLayer
 62
  256
370
   -1
100
AcDbPolyline
 90
    4
 70
    1
 43
0
 10
-1.800000000000001
 20
-0.3999999999999999
 10
-1.200000000000001
 20
-0.3999999999999999
 10
-1.200000000000001
 20
0
 10
-1.800000000000001
 20
0
  0
LWPOLYLINE
  5
E4
100
AcDbEntity
  8
0
  6
ByLayer
 62
  256
370
   -1
100
AcDbPolyline
 90
    4
 70
    1
 43
0
 10
-1.200000000000001
 20
-0.3999999999999999
 10
-0.6000000000000001
 20
-0.3999999999999999
 10
-0.6000000000000001
 20
0
 10
-1.200000000000001
 20
0
  0
LWPOLYLINE
  5
E5
100
AcDbEntity
  8
0
  6
ByLayer
 62
  256
370
   -1
100
AcDbPolyline
 90
    4
 70
    1
 43
0
 10
-1.800000000000001
 20
-0.3999999999999999
 10
-1.200000000000001
 20
-0.3999999999999999
 10
-1.200000000000001
 20
0
 10
-1.800000000000001
 20
0
  0
LWPOLYLINE
  5
E6
100
AcDbEntity
  8
0
  6
ByLayer
 62
  256
370
   -1
100
AcDbPolyline
 90
    4
 70
    1
 43
0
 10
-1.200000000000001
 20
-0.3999999999999999
 10
-0.6000000000000001
 20
-0.3999999999999999
 10
-0.6000000000000001
 20
0
 10
-1.200000000000001
 20
0
  0
LWPOLYLINE
  5
E7
100
AcDbEntity
  8
0
  6
ByLayer
 62
  256
370
   -1
100
AcDbPolyline
 90
    4
 70
    1
 43
0
 10
-1.200000000000001
 20
-0.3999999999999999
 10
-0.6000000000000001
 20
-0.3999999999999999
 10
-0.6000000000000001
 20
0
 10
-1.200000000000001
 20
0
  0
LWPOLYLINE
  5
E8
100
AcDbEntity
  8
0
  6
ByLayer
 62
  256
370
   -1
100
AcDbPolyline
 90
    4
 70
    1
 43
0
 10
-0.6000000000000001
 20
-0.3999999999999999
 10
0
 20
-0.3999999999999999
 10
0
 20
0
 10
-0.6000000000000001
 20
0
  0
LWPOLYLINE
  5
E9
100
AcDbEntity
  8
0
  6
ByLayer
 62
  256
370
   -1
100
AcDbPolyline
 90
    4
 70
    1
 43
0
 10
0
 20
-0.3999999999999999
 10
0.6000000000000001
 20
-0.3999999999999999
 10
0.6000000000000001
 20
0
 10
0
 20
0
  0
LWPOLYLINE
  5
EA
100
AcDbEntity
  8
0
  6
ByLayer
 62
  256
370
   -1
100
AcDbPolyline
 90
    4
 70
    1
 43
0
 10
0
 20
-0.3999999999999999
 10
0.6000000000000001
 20
-0.3999999999999999
 10
0.6000000000000001
 20
0
 10
0
 20
0
  0
LWPOLYLINE
  5
EB
100
AcDbEntity
  8
0
  6
ByLayer
 62
  256
370
   -1
100
AcDbPolyline
 90
    4
 70
    1
 43
0
 10
0
 20
-0.3999999999999999
 10
0.6000000000000001
 20
-0.3999999999999999
 10
0.6000000000000001
 20
0
 10
0
 20
0
  0
LWPOLYLINE
  5
EC
100
AcDbEntity
  8
0
  6
ByLayer
 62
  256
370
   -1
100
AcDbPolyline
 90
    4
 70
    1
 43
0
 10
0
 20
-0.3999999999999999
 10
0.6000000000000001
 20
-0.3999999999999999
 10
0.6000000000000001
 20
0
 10
0
 20
0
  0
LWPOLYLINE
  5
ED
100
AcDbEntity
  8
0
  6
ByLayer
 62
  256
370
   -1
100
AcDbPolyline
 90
    4
 70
    1
 43
0
 10
0
 20
-0.3999999999999999
 10
0.6000000000000001
 20
-0.3999999999999999
 10
0.6000000000000001
 20
0
 10
0
 20
0
  0
LWPOLYLINE
  5
EE
100
AcDbEntity
  8
0
  6
ByLayer
 62
  256
370
   -1
100
AcDbPolyline
 90
    4
 70
    1
 43
0
 10
0.6000000000000001
 20
-0.3999999999999999
 10
1.2
 20
-0.3999999999999999
 10
1.2
 20
0
 10
0.6000000000000001
 20
0
  0
LWPOLYLINE
  5
EF
100
AcDbEntity
  8
0
  6
ByLayer
 62
  256
370
   -1
100
AcDbPolyline
 90
    4
 70
    1
 43
0
 10
0.6000000000000001
 20
-0.3999999999999999
 10
1.2
 20
-0.3999999999999999
 10
1.2
 20
0
 10
0.6000000000000001
 20
0
  0
LWPOLYLINE
  5
F0
100
AcDbEntity
  8
0
  6
ByLayer
 62
  256
370
   -1
100
AcDbPolyline
 90
    4
 70
    1
 43
0
 10
0.6000000000000001
 20
-0.3999999999999999
 10
1.2
 20
-0.3999999999999999
 10
1.2
 20
0
 10
0.6000000000000001
 20
0
  0
LWPOLYLINE
  5
F1
100
AcDbEntity
  8
0
  6
ByLayer
 62
  256
370
   -1
100
AcDbPolyline
 90
    4
 70
    1
 43
0
 10
1.2
 20
-0.3999999999999999
 10
1.800000000000001
 20
-0.3999999999999999
 10
1.800000000000001
 20
0
 10
1.2
 20
0
  0
LWPOLYLINE
  5
F2
100
AcDbEntity
  8
0
  6
ByLayer
 62
  256
370
   -1
100
AcDbPolyline
 90
    4
 70
    1
 43
0
 10
1.2
 20
-0.3999999999999999
 10
1.800000000000001
 20
-0.3999999999999999
 10
1.800000000000001
 20
0
 10
1.2
 20
0
  0
LWPOLYLINE
  5
F3
100
AcDbEntity
  8
0
  6
ByLayer
 62
  256
370
   -1
100
AcDbPolyline
 90
    4
 70
    1
 43
0
 10
1.2
 20
-0.3999999999999999
 10
1.800000000000001
 20
-0.3999999999999999
 10
1.800000000000001
 20
0
 10
1.2
 20
0
  0
LWPOLYLINE
  5
F4
100
AcDbEntity
  8
0
  6
ByLayer
 62
  256
370
   -1
100
AcDbPolyline
 90
    4
 70
    1
 43
0
 10
1.2
 20
-0.3999999999999999
 10
1.800000000000001
 20
-0.3999999999999999
 10
1.800000000000001
 20
0
 10
1.2
 20
0
  0
LWPOLYLINE
  5
F5
100
AcDbEntity
  8
0
  6
ByLayer
 62
  256
370
   -1
100
AcDbPolyline
 90
    4
 70
    1
 43
0
 10
1.800000000000001
 20
-0.3999999999999999
 10
2.400000000000001
 20
-0.3999999999999999
 10
2.400000000000001
 20
0
 10
1.800000000000001
 20
0
  0
LWPOLYLINE
  5
F6
100
AcDbEntity
  8
0
  6
ByLayer
 62
  256
370
   -1
100
AcDbPolyline
 90
    4
 70
    1
 43
0
 10
2.400000000000001
 20
0
 10
2.400000000000001
 20
-0.3999999999999999
 10
2.400000000000001
 20
0
 10
1.800000000000001
 20
0
  0
LWPOLYLINE
  5
F7
100
AcDbEntity
  8
0
  6
ByLayer
 62
  256
370
   -1
100
AcDbPolyline
 90
    4
 70
    1
 43
0
 10
3.000000000000002
 20
-0.3999999999999999
 10
2.400000000000001
 20
-0.3999999999999999
 10
2.400000000000001
 20
0
 10
3.000000000000002
 20
0
  0
LWPOLYLINE
  5
F8
100
AcDbEntity
  8
0
  6
ByLayer
 62
  256
370
   -1
100
AcDbPolyline
 90
    4
 70
    1
 43
0
 10
2.400000000000001
 20
0
 10
2.400000000000001
 20
-0.3999999999999999
 10
2.400000000000001
 20
0
 10
3.000000000000002
 20
0
  0
LWPOLYLINE
  5
F9
100
AcDbEntity
  8
0
  6
ByLayer
 62
  256
370
   -1
100
AcDbPolyline
 90
    4
 70
    1
 43
0
 10
3.000000000000002
 20
-0.3999999999999999
 10
3.600000000000002
 20
-0.3999999999999999
 10
3.600000000000002
 20
0
 10
3.000000000000002
 20
0
  0
LWPOLYLINE
  5
FA
100
AcDbEntity
  8
0
  6
ByLayer
 62
  256
370
   -1
100
AcDbPolyline
 90
    4
 70
    1
 43
0
 10
3.600000000000002
 20
0
 10
3.600000000000002
 20
-0.3999999999999999
 10
3.600000000000002
 20
0
 10
3.000000000000002
 20
0
  0
LWPOLYLINE
  5
FB
100
AcDbEntity
  8
0
  6
ByLayer
 62
  256
370
   -1
100
AcDbPolyline
 90
    4
 70
    1
 43
0
 10
4.200000000000003
 20
-0.3999999999999999
 10
3.600000000000002
 20
-0.3999999999999999
 10
3.600000000000002
 20
0
 10
4.200000000000003
 20
0
  0
LWPOLYLINE
  5
FC
100
AcDbEntity
  8
0
  6
ByLayer
 62
  256
370
   -1
100
AcDbPolyline
 90
    4
 70
    1
 43
0
 10
3.600000000000002
 20
0
 10
3.600000000000002
 20
-0.3999999999999999
 10
3.600000000000002
 20
0
 10
4.200000000000003
 20
0
  0
ENDBLK
  5
74
330
72
100
AcDbEntity
  8
0
100
AcDbBlockEnd
  0
ENDSEC
  0
SECTION
  2
ENTITIES
  0
LINE
  5
FD
100
AcDbEntity
  8
0
  6
ByLayer
 62
  256
370
   -1
100
AcDbLine
 10
6.95
 20
0
 11
6.95
 21
3.83
  0
LINE
  5
FE
100
AcDbEntity
  8
0
  6
ByLayer
 62
  256
370
   -1
100
AcDbLine
 10
6.95
 20
3.83
 11
6.56
 21
3.83
  0
LINE
  5
FF
100
AcDbEntity
  8
0
  6
ByLayer
 62
  256
370
   -1
100
AcDbLine
 10
6.56
 20
3.83
 11
6.56
 21
4.12
  0
LINE
  5
100
100
AcDbEntity
  8
0
  6
ByLayer
 62
  256
370
   -1
100
AcDbLine
 10
0.4000000000000004
 20
4.120000000000001
 11
0.4000000000000003
 21
3.830000000000001
  0
LINE
  5
101
100
AcDbEntity
  8
0
  6
ByLayer
 62
  256
370
   -1
100
AcDbLine
 10
0.4000000000000003
 20
3.830000000000001
 11
2.775557561562891e-16
 21
3.830000000000001
  0
LINE
  5
102
100
AcDbEntity
  8
0
  6
ByLayer
 62
  256
370
   -1
100
AcDbLine
 10
2.775557561562891e-16
 20
3.830000000000001
 11
-1.942890293094024e-16
 21
2.775557561562891e-17
  0
DIMENSION
  5
103
100
AcDbEntity
  8
Bemaßung
  6
ByLayer
 62
  256
370
   -1
100
AcDbDimension
  2
*D1
 10
6.56
 20
4.44074277613536
 30
0
 11
3.48
 21
4.55324277613536
 31
0
 70
   33
 71
    5
  3
Standard
 53
0
210
0
220
0
230
1
100
AcDbAlignedDimension
 13
0.4000000000000004
 23
4.120000000000001
 33
0
 14
6.56
 24
4.12
 34
0
  0
DIMENSION
  5
104
100
AcDbEntity
  8
Bemaßung
  6
ByLayer
 62
  256
370
   -1
100
AcDbDimension
  2
*D2
 10
7.410048957797297
 20
-1.126757753575865e-16
 30
0
 11
7.297548957797297
 21
1.915
 31
0
 70
   33
 71
    5
  3
Standard
 53
0
210
0
220
0
230
1
100
AcDbAlignedDimension
 13
6.95
 23
3.83
 33
0
 14
6.95
 24
0
 34
0
  0
DIMENSION
  5
105
100
AcDbEntity
  8
Bemaßung
  6
ByLayer
 62
  256
370
   -1
100
AcDbDimension
  2
*D3
 10
6.95
 20
-0.4846048664433431
 30
0
 11
3.475
 21
-0.3721048664433431
 31
0
 70
   33
 71
    5
 72
    0
  3
Standard
 53
0
210
0
220
0
230
1
100
AcDbAlignedDimension
 13
-1.942890293094024e-16
 23
2.775557561562891e-17
 33
0
 14
6.95
 24
0
 34
0
  0
DIMENSION
  5
106
100
AcDbEntity
  8
Bemaßung
  6
ByLayer
 62
  256
370
   -1
100
AcDbDimension
  2
*D4
 10
-0.237896934435823
 20
5.826601949299483e-17
 30
0
 11
-0.3503969344358228
 21
1.915
 31
0
 70
   33
 71
    5
 72
    0
  3
Standard
 53
0
210
0
220
0
230
1
100
AcDbAlignedDimension
 13
2.775557561562891e-16
 23
3.830000000000001
 33
0
 14
-1.942890293094024e-16
 24
0
 34
0
  0
DIMENSION
  5
107
100
AcDbEntity
  8
Bemaßung
  6
ByLayer
 62
  256
370
   -1
100
AcDbDimension
  2
*D5
 10
6.95
 20
4.0090038951222
 30
0
 11
6.755
 21
4.1215038951222
 31
0
 70
   33
 71
    5
 72
    0
  3
Standard
 53
0
210
0
220
0
230
1
100
AcDbAlignedDimension
 13
6.56
 23
3.83
 33
0
 14
6.95
 24
3.83
 34
0
  0
DIMENSION
  5
108
100
AcDbEntity
  8
Bemaßung
  6
ByLayer
 62
  256
370
   -1
100
AcDbDimension
  2
*D6
 10
1.96177848709669e-16
 20
3.991381899978806
 30
0
 11
0.2000000000000002
 21
4.103881899978806
 31
0
 70
   33
 71
    5
 72
    0
  3
Standard
 53
0
210
0
220
0
230
1
100
AcDbAlignedDimension
 13
0.4000000000000003
 23
3.830000000000001
 33
0
 14
2.775557561562891e-16
 24
3.830000000000001
 34
0
  0
LINE
  5
109
100
AcDbEntity
  8
0
  6
ByLayer
 62
  256
370
   -1
100
AcDbLine
 10
178.0926601476657
 20
3.083849150094023
 11
178.0926601476657
 21
43.08384915009403
  0
LINE
  5
10A
100
AcDbEntity
  8
0
  6
ByLayer
 62
  256
370
   -1
100
AcDbLine
 10
4.302114220422482e-16
 20
0.7999999999999998
 11
4.302114220422482e-16
 21
0.3999999999999999
  0
LINE
  5
10B
100
AcDbEntity
  8
0
  6
ByLayer
 62
  256
370
   -1
100
AcDbLine
 10
4.302114220422482e-16
 20
0.3999999999999999
 11
4.302114220422482e-16
 21
0.7999999999999998
  0
LINE
  5
10C
100
AcDbEntity
  8
0
  6
ByLayer
 62
  256
370
   -1
100
AcDbLine
 10
4.302114220422482e-16
 20
0.3999999999999999
 11
4.302114220422482e-16
 21
0.7999999999999998
  0
LINE
  5
10D
100
AcDbEntity
  8
0
  6
ByLayer
 62
  256
370
   -1
100
AcDbLine
 10
4.302114220422482e-16
 20
2.799999999999999
 11
4.302114220422482e-16
 21
2.399999999999999
  0
LINE
  5
10E
100
AcDbEntity
  8
0
  6
ByLayer
 62
  256
370
   -1
100
AcDbLine
 10
4.302114220422482e-16
 20
2.399999999999999
 11
4.302114220422482e-16
 21
2.799999999999999
  0
LINE
  5
10F
100
AcDbEntity
  8
0
  6
ByLayer
 62
  256
370
   -1
100
AcDbLine
 10
4.302114220422482e-16
 20
2.399999999999999
 11
4.302114220422482e-16
 21
2.799999999999999
  0
LINE
  5
110
100
AcDbEntity
  8
0
  6
ByLayer
 62
  256
370
   -1
100
AcDbLine
 10
4.302114220422482e-16
 20
3.199999999999999
 11
4.302114220422482e-16
 21
2.799999999999999
  0
LINE
  5
111
100
AcDbEntity
  8
0
  6
ByLayer
 62
  256
370
   -1
100
AcDbLine
 10
4.302114220422482e-16
 20
2.799999999999999
 11
4.302114220422482e-16
 21
3.199999999999999
  0
LINE
  5
112
100
AcDbEntity
  8
0
  6
ByLayer
 62
  256
370
   -1
100
AcDbLine
 10
4.302114220422482e-16
 20
2.799999999999999
 11
4.302114220422482e-16
 21
3.199999999999999
  0
LINE
  5
113
100
AcDbEntity
  8
0
  6
ByLayer
 62
  256
370
   -1
100
AcDbLine
 10
4.302114220422482e-16
 20
3.599999999999999
 11
4.302114220422482e-16
 21
3.199999999999999
  0
LINE
  5
114
100
AcDbEntity
  8
0
  6
ByLayer
 62
  256
370
   -1
100
AcDbLine
 10
4.302114220422482e-16
 20
3.199999999999999
 11
4.302114220422482e-16
 21
3.599999999999999
  0
LINE
  5
115
100
AcDbEntity
  8
0
  6
ByLayer
 62
  256
370
   -1
100
AcDbLine
 10
-1.942890293094024e-16
 20
2.775557561562891e-17
 11
6.95
 21
0
  0
LINE
  5
116
100
AcDbEntity
  8
0
  6
ByLayer
 62
  256
370
   -1
100
AcDbLine
 10
0.4000000000000004
 20
4.120000000000001
 11
6.56
 21
4.12
  0
INSERT
  5
117
100
AcDbEntity
  8
0
  6
ByLayer
 62
  256
370
   -1
100
AcDbBlockReference
  2
Pla1
 10
1
 20
3.720000000000001
 30
0
 41
1
 42
1
 43
0
 50
0
 70
    1
 71
    1
 44
1
 45
1
  0
INSERT
  5
118
100
AcDbEntity
  8
0
  6
ByLayer
 62
  256
370
   -1
100
AcDbBlockReference
  2
Pla1
 10
1
 20
3.720000000000001
 30
0
 41
1
 42
1
 43
0
 50
0
 70
    1
 71
    1
 44
1
 45
1
  0
INSERT
  5
119
100
AcDbEntity
  8
0
  6
ByLayer
 62
  256
370
   -1
100
AcDbBlockReference
  2
Pla1
 10
0.4000000000000004
 20
3.720000000000001
 30
0
 41
1
 42
1
 43
0
 50
0
 70
    1
 71
    1
 44
1
 45
1
  0
INSERT
  5
11A
100
AcDbEntity
  8
0
  6
ByLayer
 62
  256
370
   -1
100
AcDbBlockReference
  2
Pla1
 10
1.600000000000001
 20
3.720000000000001
 30
0
 41
1
 42
1
 43
0
 50
0
 70
    1
 71
    1
 44
1
 45
1
  0
INSERT
  5
11B
100
AcDbEntity
  8
0
  6
ByLayer
 62
  256
370
   -1
100
AcDbBlockReference
  2
Pla1
 10
1.600000000000001
 20
3.720000000000001
 30
0
 41
1
 42
1
 43
0
 50
0
 70
    1
 71
    1
 44
1
 45
1
  0
INSERT
  5
11C
100
AcDbEntity
  8
0
  6
ByLayer
 62
  256
370
   -1
100
AcDbBlockReference
  2
Pla1
 10
2.800000000000001
 20
3.720000000000001
 30
0
 41
1
 42
1
 43
0
 50
0
 70
    1
 71
    1
 44
1
 45
1
  0
INSERT
  5
11D
100
AcDbEntity
  8
0
  6
ByLayer
 62
  256
370
   -1
100
AcDbBlockReference
  2
Pla1
 10
3.400000000000001
 20
3.720000000000001
 30
0
 41
1
 42
1
 43
0
 50
0
 70
    1
 71
    1
 44
1
 45
1
  0
INSERT
  5
11E
100
AcDbEntity
  8
0
  6
ByLayer
 62
  256
370
   -1
100
AcDbBlockReference
  2
Pla1
 10
4.000000000000001
 20
3.720000000000001
 30
0
 41
1
 42
1
 43
0
 50
0
 70
    1
 71
    1
 44
1
 45
1
  0
INSERT
  5
11F
100
AcDbEntity
  8
0
  6
ByLayer
 62
  256
370
   -1
100
AcDbBlockReference
  2
Pla1
 10
4.600000000000001
 20
3.720000000000001
 30
0
 41
1
 42
1
 43
0
 50
0
 70
    1
 71
    1
 44
1
 45
1
  0
INSERT
  5
120
100
AcDbEntity
  8
0
  6
ByLayer
 62
  256
370
   -1
100
AcDbBlockReference
  2
Pla1
 10
5.200000000000001
 20
3.720000000000001
 30
0
 41
1
 42
1
 43
0
 50
0
 70
    1
 71
    1
 44
1
 45
1
  0
INSERT
  5
121
100
AcDbEntity
  8
0
  6
ByLayer
 62
  256
370
   -1
100
AcDbBlockReference
  2
Pla1
 10
5.800000000000001
 20
3.720000000000001
 30
0
 41
1
 42
1
 43
0
 50
0
 70
    1
 71
    1
 44
1
 45
1
  0
INSERT
  5
122
100
AcDbEntity
  8
0
  6
ByLayer
 62
  256
370
   -1
100
AcDbBlockReference
  2
Pla1
 10
2.200000000000001
 20
3.720000000000001
 30
0
 41
1
 42
1
 43
0
 50
0
 70
    1
 71
    1
 44
1
 45
1
  0
INSERT
  5
123
100
AcDbEntity
  8
0
  6
ByLayer
 62
  256
370
   -1
100
AcDbBlockReference
  2
Pla1
 10
5.752729249193734
 20
2.916440196231797
 30
0
 41
1
 42
1
 43
0
 50
0
 70
    1
 71
    1
 44
1
 45
1
  0
INSERT
  5
124
100
AcDbEntity
  8
0
  6
ByLayer
 62
  256
370
   -1
100
AcDbBlockReference
  2
Pla1
 10
5.152729249193733
 20
2.916440196231797
 30
0
 41
1
 42
1
 43
0
 50
0
 70
    1
 71
    1
 44
1
 45
1
  0
INSERT
  5
125
100
AcDbEntity
  8
0
  6
ByLayer
 62
  256
370
   -1
100
AcDbBlockReference
  2
Pla1
 10
3.952729249193732
 20
2.916440196231797
 30
0
 41
1
 42
1
 43
0
 50
0
 70
    1
 71
    1
 44
1
 45
1
  0
INSERT
  5
126
100
AcDbEntity
  8
0
  6
ByLayer
 62
  256
370
   -1
100
AcDbBlockReference
  2
Pla1
 10
3.352729249193731
 20
2.916440196231797
 30
0
 41
1
 42
1
 43
0
 50
0
 70
    1
 71
    1
 44
1
 45
1
  0
INSERT
  5
127
100
AcDbEntity
  8
0
  6
ByLayer
 62
  256
370
   -1
100
AcDbBlockReference
  2
Pla1
 10
2.752729249193731
 20
2.916440196231797
 30
0
 41
1
 42
1
 43
0
 50
0
 70
    1
 71
    1
 44
1
 45
1
  0
INSERT
  5
128
100
AcDbEntity
  8
0
  6
ByLayer
 62
  256
370
   -1
100
AcDbBlockReference
  2
Pla1
 10
2.15272924919373
 20
2.916440196231797
 30
0
 41
1
 42
1
 43
0
 50
0
 70
    1
 71
    1
 44
1
 45
1
  0
INSERT
  5
129
100
AcDbEntity
  8
0
  6
ByLayer
 62
  256
370
   -1
100
AcDbBlockReference
  2
Pla1
 10
0.9527292491937294
 20
2.916440196231797
 30
0
 41
1
 42
1
 43
0
 50
0
 70
    1
 71
    1
 44
1
 45
1
  0
INSERT
  5
12A
100
AcDbEntity
  8
0
  6
ByLayer
 62
  256
370
   -1
100
AcDbBlockReference
  2
Pla1
 10
0
 20
2.516440196231797
 30
0
 41
1
 42
1
 43
0
 50
0
 70
    1
 71
    1
 44
1
 45
1
  0
INSERT
  5
12B
100
AcDbEntity
  8
0
  6
ByLayer
 62
  256
370
   -1
100
AcDbBlockReference
  2
Pla1
 10
0.6000000000000005
 20
2.516440196231797
 30
0
 41
1
 42
1
 43
0
 50
0
 70
    1
 71
    1
 44
1
 45
1
  0
INSERT
  5
12C
100
AcDbEntity
  8
0
  6
ByLayer
 62
  256
370
   -1
100
AcDbBlockReference
  2
Pla1
 10
1.2
 20
2.516440196231797
 30
0
 41
1
 42
1
 43
0
 50
0
 70
    1
 71
    1
 44
1
 45
1
  0
INSERT
  5
12D
100
AcDbEntity
  8
0
  6
ByLayer
 62
  256
370
   -1
100
AcDbBlockReference
  2
Pla1
 10
1.8
 20
2.516440196231797
 30
0
 41
1
 42
1
 43
0
 50
0
 70
    1
 71
    1
 44
1
 45
1
  0
INSERT
  5
12E
100
AcDbEntity
  8
0
  6
ByLayer
 62
  256
370
   -1
100
AcDbBlockReference
  2
Pla1
 10
2.4
 20
2.516440196231797
 30
0
 41
1
 42
1
 43
0
 50
0
 70
    1
 71
    1
 44
1
 45
1
  0
INSERT
  5
12F
100
AcDbEntity
  8
0
  6
ByLayer
 62
  256
370
   -1
100
AcDbBlockReference
  2
Pla1
 10
3
 20
2.516440196231797
 30
0
 41
1
 42
1
 43
0
 50
0
 70
    1
 71
    1
 44
1
 45
1
  0
INSERT
  5
130
100
AcDbEntity
  8
0
  6
ByLayer
 62
  256
370
   -1
100
AcDbBlockReference
  2
Pla1
 10
3.6
 20
2.516440196231797
 30
0
 41
1
 42
1
 43
0
 50
0
 70
    1
 71
    1
 44
1
 45
1
  0
INSERT
  5
131
100
AcDbEntity
  8
0
  6
ByLayer
 62
  256
370
   -1
100
AcDbBlockReference
  2
Pla1
 10
4.2
 20
2.516440196231797
 30
0
 41
1
 42
1
 43
0
 50
0
 70
    1
 71
    1
 44
1
 45
1
  0
INSERT
  5
132
100
AcDbEntity
  8
0
  6
ByLayer
 62
  256
370
   -1
100
AcDbBlockReference
  2
Pla1
 10
4.800000000000001
 20
2.516440196231797
 30
0
 41
1
 42
1
 43
0
 50
0
 70
    1
 71
    1
 44
1
 45
1
  0
INSERT
  5
133
100
AcDbEntity
  8
0
  6
ByLayer
 62
  256
370
   -1
100
AcDbBlockReference
  2
Pla1
 10
5.4
 20
2.516440196231797
 30
0
 41
1
 42
1
 43
0
 50
0
 70
    1
 71
    1
 44
1
 45
1
  0
INSERT
  5
134
100
AcDbEntity
  8
0
  6
ByLayer
 62
  256
370
   -1
100
AcDbBlockReference
  2
Pla1
 10
6
 20
2.516440196231797
 30
0
 41
1
 42
1
 43
0
 50
0
 70
    1
 71
    1
 44
1
 45
1
  0
INSERT
  5
135
100
AcDbEntity
  8
0
  6
ByLayer
 62
  256
370
   -1
100
AcDbBlockReference
  2
Pla1
 10
6.350000000000001
 20
2.116440196231797
 30
0
 41
1
 42
1
 43
0
 50
0
 70
    1
 71
    1
 44
1
 45
1
  0
INSERT
  5
136
100
AcDbEntity
  8
0
  6
ByLayer
 62
  256
370
   -1
100
AcDbBlockReference
  2
Pla1
 10
5.75
 20
2.116440196231797
 30
0
 41
1
 42
1
 43
0
 50
0
 70
    1
 71
    1
 44
1
 45
1
  0
INSERT
  5
137
100
AcDbEntity
  8
0
  6
ByLayer
 62
  256
370
   -1
100
AcDbBlockReference
  2
Pla1
 10
5.149999999999999
 20
2.116440196231797
 30
0
 41
1
 42
1
 43
0
 50
0
 70
    1
 71
    1
 44
1
 45
1
  0
INSERT
  5
138
100
AcDbEntity
  8
0
  6
ByLayer
 62
  256
370
   -1
100
AcDbBlockReference
  2
Pla1
 10
4.549999999999999
 20
2.116440196231797
 30
0
 41
1
 42
1
 43
0
 50
0
 70
    1
 71
    1
 44
1
 45
1
  0
INSERT
  5
139
100
AcDbEntity
  8
0
  6
ByLayer
 62
  256
370
   -1
100
AcDbBlockReference
  2
Pla1
 10
3.949999999999998
 20
2.116440196231797
 30
0
 41
1
 42
1
 43
0
 50
0
 70
    1
 71
    1
 44
1
 45
1
  0
INSERT
  5
13A
100
AcDbEntity
  8
0
  6
ByLayer
 62
  256
370
   -1
100
AcDbBlockReference
  2
Pla1
 10
3.349999999999998
 20
2.116440196231797
 30
0
 41
1
 42
1
 43
0
 50
0
 70
    1
 71
    1
 44
1
 45
1
  0
INSERT
  5
13B
100
AcDbEntity
  8
0
  6
ByLayer
 62
  256
370
   -1
100
AcDbBlockReference
  2
Pla1
 10
2.749999999999999
 20
2.116440196231797
 30
0
 41
1
 42
1
 43
0
 50
0
 70
    1
 71
    1
 44
1
 45
1
  0
INSERT
  5
13C
100
AcDbEntity
  8
0
  6
ByLayer
 62
  256
370
   -1
100
AcDbBlockReference
  2
Pla1
 10
2.149999999999999
 20
2.116440196231797
 30
0
 41
1
 42
1
 43
0
 50
0
 70
    1
 71
    1
 44
1
 45
1
  0
INSERT
  5
13D
100
AcDbEntity
  8
0
  6
ByLayer
 62
  256
370
   -1
100
AcDbBlockReference
  2
Pla1
 10
0.9499999999999988
 20
2.116440196231797
 30
0
 41
1
 42
1
 43
0
 50
0
 70
    1
 71
    1
 44
1
 45
1
  0
INSERT
  5
13E
100
AcDbEntity
  8
0
  6
ByLayer
 62
  256
370
   -1
100
AcDbBlockReference
  2
Pla1
 10
1.549999999999999
 20
2.116440196231797
 30
0
 41
1
 42
1
 43
0
 50
0
 70
    1
 71
    1
 44
1
 45
1
  0
INSERT
  5
13F
100
AcDbEntity
  8
0
  6
ByLayer
 62
  256
370
   -1
100
AcDbBlockReference
  2
Pla1
 10
0.3499999999999992
 20
2.116440196231797
 30
0
 41
1
 42
1
 43
0
 50
0
 70
    1
 71
    1
 44
1
 45
1
  0
INSERT
  5
140
100
AcDbEntity
  8
0
  6
ByLayer
 62
  256
370
   -1
100
AcDbBlockReference
  2
Pla1
 10
0
 20
1.716440196231796
 30
0
 41
1
 42
1
 43
0
 50
0
 70
    1
 71
    1
 44
1
 45
1
  0
INSERT
  5
141
100
AcDbEntity
  8
0
  6
ByLayer
 62
  256
370
   -1
100
AcDbBlockReference
  2
Pla1
 10
0.6000000000000001
 20
1.716440196231796
 30
0
 41
1
 42
1
 43
0
 50
0
 70
    1
 71
    1
 44
1
 45
1
  0
INSERT
  5
142
100
AcDbEntity
  8
0
  6
ByLayer
 62
  256
370
   -1
100
AcDbBlockReference
  2
Pla1
 10
1.2
 20
1.716440196231797
 30
0
 41
1
 42
1
 43
0
 50
0
 70
    1
 71
    1
 44
1
 45
1
  0
INSERT
  5
143
100
AcDbEntity
  8
0
  6
ByLayer
 62
  256
370
   -1
100
AcDbBlockReference
  2
Pla1
 10
1.8
 20
1.716440196231797
 30
0
 41
1
 42
1
 43
0
 50
0
 70
    1
 71
    1
 44
1
 45
1
  0
INSERT
  5
144
100
AcDbEntity
  8
0
  6
ByLayer
 62
  256
370
   -1
100
AcDbBlockReference
  2
Pla1
 10
2.4
 20
1.716440196231797
 30
0
 41
1
 42
1
 43
0
 50
0
 70
    1
 71
    1
 44
1
 45
1
  0
INSERT
  5
145
100
AcDbEntity
  8
0
  6
ByLayer
 62
  256
370
   -1
100
AcDbBlockReference
  2
Pla1
 10
3
 20
1.716440196231797
 30
0
 41
1
 42
1
 43
0
 50
0
 70
    1
 71
    1
 44
1
 45
1
  0
INSERT
  5
146
100
AcDbEntity
  8
0
  6
ByLayer
 62
  256
370
   -1
100
AcDbBlockReference
  2
Pla1
 10
3.600000000000001
 20
1.716440196231796
 30
0
 41
1
 42
1
 43
0
 50
0
 70
    1
 71
    1
 44
1
 45
1
  0
INSERT
  5
147
100
AcDbEntity
  8
0
  6
ByLayer
 62
  256
370
   -1
100
AcDbBlockReference
  2
Pla1
 10
4.200000000000001
 20
1.716440196231797
 30
0
 41
1
 42
1
 43
0
 50
0
 70
    1
 71
    1
 44
1
 45
1
  0
INSERT
  5
148
100
AcDbEntity
  8
0
  6
ByLayer
 62
  256
370
   -1
100
AcDbBlockReference
  2
Pla1
 10
4.800000000000001
 20
1.716440196231797
 30
0
 41
1
 42
1
 43
0
 50
0
 70
    1
 71
    1
 44
1
 45
1
  0
INSERT
  5
149
100
AcDbEntity
  8
0
  6
ByLayer
 62
  256
370
   -1
100
AcDbBlockReference
  2
Pla1
 10
5.4
 20
1.716440196231796
 30
0
 41
1
 42
1
 43
0
 50
0
 70
    1
 71
    1
 44
1
 45
1
  0
INSERT
  5
14A
100
AcDbEntity
  8
0
  6
ByLayer
 62
  256
370
   -1
100
AcDbBlockReference
  2
Pla1
 10
6
 20
1.716440196231796
 30
0
 41
1
 42
1
 43
0
 50
0
 70
    1
 71
    1
 44
1
 45
1
  0
INSERT
  5
14B
100
AcDbEntity
  8
0
  6
ByLayer
 62
  256
370
   -1
100
AcDbBlockReference
  2
Pla1
 10
3.95
 20
1.316440196231795
 30
0
 41
1
 42
1
 43
0
 50
0
 70
    1
 71
    1
 44
1
 45
1
  0
INSERT
  5
14C
100
AcDbEntity
  8
0
  6
ByLayer
 62
  256
370
   -1
100
AcDbBlockReference
  2
Pla1
 10
5.15
 20
1.316440196231794
 30
0
 41
1
 42
1
 43
0
 50
0
 70
    1
 71
    1
 44
1
 45
1
  0
INSERT
  5
14D
100
AcDbEntity
  8
0
  6
ByLayer
 62
  256
370
   -1
100
AcDbBlockReference
  2
Pla1
 10
4.55
 20
1.316440196231794
 30
0
 41
1
 42
1
 43
0
 50
0
 70
    1
 71
    1
 44
1
 45
1
  0
INSERT
  5
14E
100
AcDbEntity
  8
0
  6
ByLayer
 62
  256
370
   -1
100
AcDbBlockReference
  2
Pla1
 10
6.35
 20
1.316440196231796
 30
0
 41
1
 42
1
 43
0
 50
0
 70
    1
 71
    1
 44
1
 45
1
  0
INSERT
  5
14F
100
AcDbEntity
  8
0
  6
ByLayer
 62
  256
370
   -1
100
AcDbBlockReference
  2
Pla1
 10
5.75
 20
1.316440196231796
 30
0
 41
1
 42
1
 43
0
 50
0
 70
    1
 71
    1
 44
1
 45
1
  0
INSERT
  5
150
100
AcDbEntity
  8
0
  6
ByLayer
 62
  256
370
   -1
100
AcDbBlockReference
  2
Pla1
 10
3.35
 20
1.316440196231796
 30
0
 41
1
 42
1
 43
0
 50
0
 70
    1
 71
    1
 44
1
 45
1
  0
INSERT
  5
151
100
AcDbEntity
  8
0
  6
ByLayer
 62
  256
370
   -1
100
AcDbBlockReference
  2
Pla1
 10
2.75
 20
1.316440196231796
 30
0
 41
1
 42
1
 43
0
 50
0
 70
    1
 71
    1
 44
1
 45
1
  0
INSERT
  5
152
100
AcDbEntity
  8
0
  6
ByLayer
 62
  256
370
   -1
100
AcDbBlockReference
  2
Pla1
 10
2.15
 20
1.316440196231797
 30
0
 41
1
 42
1
 43
0
 50
0
 70
    1
 71
    1
 44
1
 45
1
  0
INSERT
  5
153
100
AcDbEntity
  8
0
  6
ByLayer
 62
  256
370
   -1
100
AcDbBlockReference
  2
Pla1
 10
1.55
 20
1.316440196231797
 30
0
 41
1
 42
1
 43
0
 50
0
 70
    1
 71
    1
 44
1
 45
1
  0
INSERT
  5
154
100
AcDbEntity
  8
0
  6
ByLayer
 62
  256
370
   -1
100
AcDbBlockReference
  2
Pla1
 10
0.9500000000000006
 20
1.316440196231797
 30
0
 41
1
 42
1
 43
0
 50
0
 70
    1
 71
    1
 44
1
 45
1
  0
INSERT
  5
155
100
AcDbEntity
  8
0
  6
ByLayer
 62
  256
370
   -1
100
AcDbBlockReference
  2
Pla1
 10
0.3500000000000005
 20
1.316440196231797
 30
0
 41
1
 42
1
 43
0
 50
0
 70
    1
 71
    1
 44
1
 45
1
  0
INSERT
  5
156
100
AcDbEntity
  8
0
  6
ByLayer
 62
  256
370
   -1
100
AcDbBlockReference
  2
Pla1
 10
0.6000000000000001
 20
0.9164401962317954
 30
0
 41
1
 42
1
 43
0
 50
0
 70
    1
 71
    1
 44
1
 45
1
  0
INSERT
  5
157
100
AcDbEntity
  8
0
  6
ByLayer
 62
  256
370
   -1
100
AcDbBlockReference
  2
Pla1
 10
0
 20
0.9164401962317954
 30
0
 41
1
 42
1
 43
0
 50
0
 70
    1
 71
    1
 44
1
 45
1
  0
INSERT
  5
158
100
AcDbEntity
  8
0
  6
ByLayer
 62
  256
370
   -1
100
AcDbBlockReference
  2
Pla1
 10
1.8
 20
0.9164401962317963
 30
0
 41
1
 42
1
 43
0
 50
0
 70
    1
 71
    1
 44
1
 45
1
  0
INSERT
  5
159
100
AcDbEntity
  8
0
  6
ByLayer
 62
  256
370
   -1
100
AcDbBlockReference
  2
Pla1
 10
1.2
 20
0.9164401962317963
 30
0
 41
1
 42
1
 43
0
 50
0
 70
    1
 71
    1
 44
1
 45
1
  0
INSERT
  5
15A
100
AcDbEntity
  8
0
  6
ByLayer
 62
  256
370
   -1
100
AcDbBlockReference
  2
Pla1
 10
3
 20
0.9164401962317963
 30
0
 41
1
 42
1
 43
0
 50
0
 70
    1
 71
    1
 44
1
 45
1
  0
INSERT
  5
15B
100
AcDbEntity
  8
0
  6
ByLayer
 62
  256
370
   -1
100
AcDbBlockReference
  2
Pla1
 10
2.4
 20
0.9164401962317963
 30
0
 41
1
 42
1
 43
0
 50
0
 70
    1
 71
    1
 44
1
 45
1
  0
INSERT
  5
15C
100
AcDbEntity
  8
0
  6
ByLayer
 62
  256
370
   -1
100
AcDbBlockReference
  2
Pla1
 10
4.200000000000001
 20
0.9164401962317954
 30
0
 41
1
 42
1
 43
0
 50
0
 70
    1
 71
    1
 44
1
 45
1
  0
INSERT
  5
15D
100
AcDbEntity
  8
0
  6
ByLayer
 62
  256
370
   -1
100
AcDbBlockReference
  2
Pla1
 10
3.600000000000001
 20
0.9164401962317954
 30
0
 41
1
 42
1
 43
0
 50
0
 70
    1
 71
    1
 44
1
 45
1
  0
INSERT
  5
15E
100
AcDbEntity
  8
0
  6
ByLayer
 62
  256
370
   -1
100
AcDbBlockReference
  2
Pla1
 10
5.4
 20
0.9164401962317941
 30
0
 41
1
 42
1
 43
0
 50
0
 70
    1
 71
    1
 44
1
 45
1
  0
INSERT
  5
15F
100
AcDbEntity
  8
0
  6
ByLayer
 62
  256
370
   -1
100
AcDbBlockReference
  2
Pla1
 10
4.800000000000001
 20
0.9164401962317941
 30
0
 41
1
 42
1
 43
0
 50
0
 70
    1
 71
    1
 44
1
 45
1
  0
INSERT
  5
160
100
AcDbEntity
  8
0
  6
ByLayer
 62
  256
370
   -1
100
AcDbBlockReference
  2
Pla1
 10
6
 20
0.9164401962317954
 30
0
 41
1
 42
1
 43
0
 50
0
 70
    1
 71
    1
 44
1
 45
1
  0
INSERT
  5
161
100
AcDbEntity
  8
0
  6
ByLayer
 62
  256
370
   -1
100
AcDbBlockReference
  2
Pla1
 10
6.350000000000001
 20
0.516440196231795
 30
0
 41
1
 42
1
 43
0
 50
0
 70
    1
 71
    1
 44
1
 45
1
  0
INSERT
  5
162
100
AcDbEntity
  8
0
  6
ByLayer
 62
  256
370
   -1
100
AcDbBlockReference
  2
Pla1
 10
5.75
 20
0.516440196231795
 30
0
 41
1
 42
1
 43
0
 50
0
 70
    1
 71
    1
 44
1
 45
1
  0
INSERT
  5
163
100
AcDbEntity
  8
0
  6
ByLayer
 62
  256
370
   -1
100
AcDbBlockReference
  2
Pla1
 10
5.15
 20
0.5164401962317937
 30
0
 41
1
 42
1
 43
0
 50
0
 70
    1
 71
    1
 44
1
 45
1
  0
INSERT
  5
164
100
AcDbEntity
  8
0
  6
ByLayer
 62
  256
370
   -1
100
AcDbBlockReference
  2
Pla1
 10
4.550000000000001
 20
0.5164401962317937
 30
0
 41
1
 42
1
 43
0
 50
0
 70
    1
 71
    1
 44
1
 45
1
  0
INSERT
  5
165
100
AcDbEntity
  8
0
  6
ByLayer
 62
  256
370
   -1
100
AcDbBlockReference
  2
Pla1
 10
3.950000000000001
 20
0.516440196231795
 30
0
 41
1
 42
1
 43
0
 50
0
 70
    1
 71
    1
 44
1
 45
1
  0
INSERT
  5
166
100
AcDbEntity
  8
0
  6
ByLayer
 62
  256
370
   -1
100
AcDbBlockReference
  2
Pla1
 10
3.350000000000001
 20
0.516440196231795
 30
0
 41
1
 42
1
 43
0
 50
0
 70
    1
 71
    1
 44
1
 45
1
  0
INSERT
  5
167
100
AcDbEntity
  8
0
  6
ByLayer
 62
  256
370
   -1
100
AcDbBlockReference
  2
Pla1
 10
2.750000000000001
 20
0.5164401962317959
 30
0
 41
1
 42
1
 43
0
 50
0
 70
    1
 71
    1
 44
1
 45
1
  0
INSERT
  5
168
100
AcDbEntity
  8
0
  6
ByLayer
 62
  256
370
   -1
100
AcDbBlockReference
  2
Pla1
 10
2.150000000000001
 20
0.5164401962317959
 30
0
 41
1
 42
1
 43
0
 50
0
 70
    1
 71
    1
 44
1
 45
1
  0
INSERT
  5
169
100
AcDbEntity
  8
0
  6
ByLayer
 62
  256
370
   -1
100
AcDbBlockReference
  2
Pla1
 10
1.550000000000002
 20
0.5164401962317959
 30
0
 41
1
 42
1
 43
0
 50
0
 70
    1
 71
    1
 44
1
 45
1
  0
INSERT
  5
16A
100
AcDbEntity
  8
0
  6
ByLayer
 62
  256
370
   -1
100
AcDbBlockReference
  2
Pla1
 10
0.9500000000000015
 20
0.5164401962317959
 30
0
 41
1
 42
1
 43
0
 50
0
 70
    1
 71
    1
 44
1
 45
1
  0
INSERT
  5
16B
100
AcDbEntity
  8
0
  6
ByLayer
 62
  256
370
   -1
100
AcDbBlockReference
  2
Pla1
 10
0.3500000000000014
 20
0.516440196231795
 30
0
 41
1
 42
1
 43
0
 50
0
 70
    1
 71
    1
 44
1
 45
1
  0
INSERT
  5
16C
100
AcDbEntity
  8
0
  6
ByLayer
 62
  256
370
   -1
100
AcDbBlockReference
  2
Pla1
 10
4.440892098500626e-16
 20
0.1164401962317942
 30
0
 41
1
 42
1
 43
0
 50
0
 70
    1
 71
    1
 44
1
 45
1
  0
INSERT
  5
16D
100
AcDbEntity
  8
0
  6
ByLayer
 62
  256
370
   -1
100
AcDbBlockReference
  2
Pla1
 10
1.800000000000001
 20
0.1164401962317942
 30
0
 41
1
 42
1
 43
0
 50
0
 70
    1
 71
    1
 44
1
 45
1
  0
INSERT
  5
16E
100
AcDbEntity
  8
0
  6
ByLayer
 62
  256
370
   -1
100
AcDbBlockReference
  2
Pla1
 10
1.200000000000001
 20
0.1164401962317942
 30
0
 41
1
 42
1
 43
0
 50
0
 70
    1
 71
    1
 44
1
 45
1
  0
INSERT
  5
16F
100
AcDbEntity
  8
0
  6
ByLayer
 62
  256
370
   -1
100
AcDbBlockReference
  2
Pla1
 10
2.400000000000001
 20
0.1164401962317942
 30
0
 41
1
 42
1
 43
0
 50
0
 70
    1
 71
    1
 44
1
 45
1
  0
INSERT
  5
170
100
AcDbEntity
  8
0
  6
ByLayer
 62
  256
370
   -1
100
AcDbBlockReference
  2
Pla1
 10
3.600000000000001
 20
0.1164401962317942
 30
0
 41
1
 42
1
 43
0
 50
0
 70
    1
 71
    1
 44
1
 45
1
  0
INSERT
  5
171
100
AcDbEntity
  8
0
  6
ByLayer
 62
  256
370
   -1
100
AcDbBlockReference
  2
Pla1
 10
4.800000000000001
 20
0.1164401962317934
 30
0
 41
1
 42
1
 43
0
 50
0
 70
    1
 71
    1
 44
1
 45
1
  0
INSERT
  5
172
100
AcDbEntity
  8
0
  6
ByLayer
 62
  256
370
   -1
100
AcDbBlockReference
  2
Pla1
 10
6
 20
0.1164401962317942
 30
0
 41
1
 42
1
 43
0
 50
0
 70
    1
 71
    1
 44
1
 45
1
  0
INSERT
  5
173
100
AcDbEntity
  8
0
  6
ByLayer
 62
  256
370
   -1
100
AcDbBlockReference
  2
Pla1
 10
4.579669976578771e-16
 20
3.316440196231797
 30
0
 41
1
 42
1
 43
0
 50
0
 70
    1
 71
    1
 44
1
 45
1
  0
INSERT
  5
174
100
AcDbEntity
  8
0
  6
ByLayer
 62
  256
370
   -1
100
AcDbBlockReference
  2
Pla1
 10
1.198431747050035
 20
3.317149283716984
 30
0
 41
1
 42
1
 43
0
 50
0
 70
    1
 71
    1
 44
1
 45
1
  0
INSERT
  5
175
100
AcDbEntity
  8
0
  6
ByLayer
 62
  256
370
   -1
100
AcDbBlockReference
  2
Pla1
 10
1.798431747050035
 20
3.317149283716984
 30
0
 41
1
 42
1
 43
0
 50
0
 70
    1
 71
    1
 44
1
 45
1
  0
INSERT
  5
176
100
AcDbEntity
  8
0
  6
ByLayer
 62
  256
370
   -1
100
AcDbBlockReference
  2
Pla1
 10
3.000415934177171
 20
3.316440196231797
 30
0
 41
1
 42
1
 43
0
 50
0
 70
    1
 71
    1
 44
1
 45
1
  0
INSERT
  5
177
100
AcDbEntity
  8
0
  6
ByLayer
 62
  256
370
   -1
100
AcDbBlockReference
  2
Pla1
 10
4.200073792930331
 20
3.316440196231797
 30
0
 41
1
 42
1
 43
0
 50
0
 70
    1
 71
    1
 44
1
 45
1
  0
INSERT
  5
178
100
AcDbEntity
  8
0
  6
ByLayer
 62
  256
370
   -1
100
AcDbBlockReference
  2
Pla1
 10
4.800000000000001
 20
3.316440196231797
 30
0
 41
1
 42
1
 43
0
 50
0
 70
    1
 71
    1
 44
1
 45
1
  0
INSERT
  5
179
100
AcDbEntity
  8
0
  6
ByLayer
 62
  256
370
   -1
100
AcDbBlockReference
  2
Pla1
 10
5.999939708612541
 20
3.316200645955071
 30
0
 41
1
 42
1
 43
0
 50
0
 70
    1
 71
    1
 44
1
 45
1
  0
LINE
  5
17A
100
AcDbEntity
  8
0
  6
ByLayer
 62
  256
370
   -1
100
AcDbLine
 10
6.599939708612542
 20
3.316200645955071
 11
6.949871005095739
 21
3.316200645955071
  0
LINE
  5
17B
100
AcDbEntity
  8
0
  6
ByLayer
 62
  256
370
   -1
100
AcDbLine
 10
6.599939708612542
 20
3.716200645955071
 11
6.95
 21
3.717004904948738
  0
LINE
  5
17C
100
AcDbEntity
  8
0
  6
ByLayer
 62
  256
370
   -1
100
AcDbLine
 10
0.9527292491937294
 20
3.316440196231797
 11
0.6000000000000005
 21
3.316440196231797
  0
LINE
  5
17D
100
AcDbEntity
  8
0
  6
ByLayer
 62
  256
370
   -1
100
AcDbLine
 10
6.6
 20
2.916440196231797
 11
6.953339051104186
 21
2.916440196231797
  0
LINE
  5
17E
100
AcDbEntity
  8
0
  6
ByLayer
 62
  256
370
   -1
100
AcDbLine
 10
6.950000000000001
 20
0.1164401962317938
 11
6.350000000000001
 21
0.1164401962317938
  0
LINE
  5
17F
100
AcDbEntity
  8
0
  6
ByLayer
 62
  256
370
   -1
100
AcDbLine
 10
5.15
 20
0.1164401962317929
 11
4.550000000000001
 21
0.1164401962317929
  0
LINE
  5
180
100
AcDbEntity
  8
0
  6
ByLayer
 62
  256
370
   -1
100
AcDbLine
 10
4.550000000000001
 20
0.116440196231792
 11
3.950000000000001
 21
0.116440196231792
  0
LINE
  5
181
100
AcDbEntity
  8
0
  6
ByLayer
 62
  256
370
   -1
100
AcDbLine
 10
3.950000000000001
 20
0.116440196231792
 11
3.350000000000001
 21
0.116440196231792
  0
LINE
  5
182
100
AcDbEntity
  8
0
  6
ByLayer
 62
  256
370
   -1
100
AcDbLine
 10
3.350000000000001
 20
0.116440196231792
 11
2.750000000000001
 21
0.116440196231792
  0
LINE
  5
183
100
AcDbEntity
  8
0
  6
ByLayer
 62
  256
370
   -1
100
AcDbLine
 10
1.550000000000002
 20
0.1164401962317938
 11
0.9500000000000015
 21
0.1164401962317938
  0
LINE
  5
184
100
AcDbEntity
  8
0
  6
ByLayer
 62
  256
370
   -1
100
AcDbLine
 10
0.9500000000000015
 20
0.1164401962317938
 11
0.3500000000000014
 21
0.1164401962317938
  0
LINE
  5
185
100
AcDbEntity
  8
0
  6
ByLayer
 62
  256
370
   -1
100
AcDbLine
 10
0.3527292491937284
 20
2.916440196231797
 11
0.3527292491937284
 21
3.316440196231797
  0
LINE
  5
186
100
AcDbEntity
  8
0
  6
ByLayer
 62
  256
370
   -1
100
AcDbLine
 10
0.3500000000000014
 20
2.635781281484183e-17
 11
0.3500000000000014
 21
0.116440196231792
  0
LINE
  5
187
100
AcDbEntity
  8
0
  6
ByLayer
 62
  256
370
   -1
100
AcDbLine
 10
0.9500000000000015
 20
0
 11
0.9500000000000015
 21
0.116440196231792
  0
LINE
  5
188
100
AcDbEntity
  8
0
  6
ByLayer
 62
  256
370
   -1
100
AcDbLine
 10
1.550000000000002
 20
0
 11
1.550000000000002
 21
0.1164401962317938
  0
LINE
  5
189
100
AcDbEntity
  8
0
  6
ByLayer
 62
  256
370
   -1
100
AcDbLine
 10
2.150000000000001
 20
0.116440196231792
 11
2.150000000000001
 21
0
  0
LINE
  5
18A
100
AcDbEntity
  8
0
  6
ByLayer
 62
  256
370
   -1
100
AcDbLine
 10
2.750000000000001
 20
0
 11
2.750000000000001
 21
0.116440196231792
  0
LINE
  5
18B
100
AcDbEntity
  8
0
  6
ByLayer
 62
  256
370
   -1
100
AcDbLine
 10
3.350000000000001
 20
0
 11
3.350000000000001
 21
0.116440196231792
  0
LINE
  5
18C
100
AcDbEntity
  8
0
  6
ByLayer
 62
  256
370
   -1
100
AcDbLine
 10
3.950000000000001
 20
0.116440196231792
 11
3.950000000000001
 21
0
  0
LINE
  5
18D
100
AcDbEntity
  8
0
  6
ByLayer
 62
  256
370
   -1
100
AcDbLine
 10
4.550000000000001
 20
0.1164401962317929
 11
4.550000000000001
 21
2.775557561562891e-17
  0
LINE
  5
18E
100
AcDbEntity
  8
0
  6
ByLayer
 62
  256
370
   -1
100
AcDbLine
 10
5.15
 20
0.1164401962317929
 11
5.15
 21
2.775557561562891e-17
  0
LINE
  5
18F
100
AcDbEntity
  8
0
  6
ByLayer
 62
  256
370
   -1
100
AcDbLine
 10
5.75
 20
0.1164401962317938
 11
5.75
 21
0
  0
LINE
  5
190
100
AcDbEntity
  8
0
  6
ByLayer
 62
  256
370
   -1
100
AcDbLine
 10
6.35
 20
0
 11
6.35
 21
0.1164401962317938
  0
LINE
  5
191
100
AcDbEntity
  8
0
  6
ByLayer
 62
  256
370
   -1
100
AcDbLine
 10
5.4
 20
0.1164401962317934
 11
6
 21
0.1164401962317942
  0
DIMENSION
  5
192
100
AcDbEntity
  8
Bemaßung
  6
ByLayer
 62
  256
370
   -1
100
AcDbDimension
  2
*D7
 10
6.95
 20
-0.2835598037682061
 30
0
 11
6.775
 21
-0.1710598037682061
 31
0
 70
   32
 71
    5
  3
Standard
 53
0
210
0
220
0
230
1
100
AcDbAlignedDimension
 13
6.6
 23
0.1164401962317938
 33
0
 14
6.95
 24
0.1164401962317938
 34
0
100
AcDbRotatedDimension
  0
DIMENSION
  5
193
100
AcDbEntity
  8
Bemaßung
  6
ByLayer
 62
  256
370
   -1
100
AcDbDimension
  2
*D8
 10
-2.11651486178561e-16
 20
-0.2835598037682061
 30
0
 11
0.1750000000000006
 21
-0.1710598037682061
 31
0
 70
   32
 71
    5
  3
Standard
 53
0
210
0
220
0
230
1
100
AcDbAlignedDimension
 13
0.3500000000000014
 23
2.635781281484184e-17
 33
0
 14
-1.942890293094024e-16
 24
2.775557561562891e-17
 34
0
100
AcDbRotatedDimension
  0
DIMENSION
  5
194
100
AcDbEntity
  8
Bemaßung
  6
ByLayer
 62
  256
370
   -1
100
AcDbDimension
  2
*D9
 10
7.896575660123225
 20
0.1164401962317937
 30
0
 11
7.784075660123225
 21
0.05822009811589687
 31
0
 70
   32
 71
    5
  3
Standard
 53
0
210
0
220
0
230
1
100
AcDbAlignedDimension
 13
6.95
 23
6.938893903907228e-18
 33
0
 14
6.95
 24
0.1164401962317938
 34
0
 50
90
100
AcDbRotatedDimension
  0
ENDSEC
  0
SECTION
  2
OBJECTS
  0
DICTIONARY
  5
C
330
0
100
AcDbDictionary
281
    1
  3
ACAD_GROUP
350
D
  0
DICTIONARY
  5
D
330
C
100
AcDbDictionary
281
    1
  0
PLOTSETTINGS
  5
195
100
AcDbPlotSettings
  6
1x1
 40
0
 41
0
 42
0
 43
0
  0
ENDSEC
  0
EOF
