999
dxfrw 0.6.3
  0
SECTION
  2
HEADER
  9
$ACADVER
  1
AC1021
  9
$DWGCODEPAGE
  3
ANSI_1252
  9
$INSBASE
 10
0
 20
0
 30
0
  9
$EXTMIN
 10
-185.7949702714732
 20
-81.21322686912157
 30
0
  9
$EXTMAX
 10
873
 20
1036
 30
0
  9
$LIMMIN
 10
0
 20
0
  9
$LIMMAX
 10
420
 20
297
  9
$ORTHOMODE
 70
    0
  9
$REGENMODE
 70
    1
  9
$FILLMODE
 70
    1
  9
$QTEXTMODE
 70
    0
  9
$MIRRTEXT
 70
    0
  9
$LTSCALE
 40
1
  9
$ATTMODE
 70
    0
  9
$TEXTSIZE
 40
2.5
  9
$TRACEWID
 40
15.68
  9
$TEXTSTYLE
  7
STANDARD
  9
$CLAYER
  8
Cotations
  9
$CELTYPE
  6
BYLAYER
  9
$CECOLOR
 62
  256
  9
$CELTSCALE
 40
1
  9
$DISPSILH
 70
    0
  9
$DIMSCALE
 40
1
  9
$DIMASZ
 40
10
  9
$DIMEXO
 40
1
  9
$DIMDLI
 40
3.75
  9
$DIMRND
 40
0
  9
$DIMDLE
 40
0
  9
$DIMEXE
 40
1
  9
$DIMTP
 40
0
  9
$DIMTM
 40
0
  9
$DIMTXT
 40
12
  9
$DIMCEN
 40
2.5
  9
$DIMTSZ
 40
0
  9
$DIMTOL
 70
    0
  9
$DIMLIM
 70
    0
  9
$DIMTIH
 70
    0
  9
$DIMTOH
 70
    0
  9
$DIMSE1
 70
    0
  9
$DIMSE2
 70
    0
  9
$DIMTAD
 70
    1
  9
$DIMZIN
 70
    1
  9
$DIMBLK
  1

  9
$DIMASO
 70
    1
  9
$DIMSHO
 70
    1
  9
$DIMPOST
  1

  9
$DIMAPOST
  1

  9
$DIMALT
 70
    0
  9
$DIMALTD
 70
    3
  9
$DIMALTF
 40
0.03937
  9
$DIMLFAC
 40
1
  9
$DIMTOFL
 70
    1
  9
$DIMTVP
 40
0
  9
$DIMTIX
 70
    0
  9
$DIMSOXD
 70
    0
  9
$DIMSAH
 70
    0
  9
$DIMBLK1
  1

  9
$DIMBLK2
  1

  9
$DIMSTYLE
  2
STANDARD
  9
$DIMCLRD
 70
    1
  9
$DIMCLRE
 70
    1
  9
$DIMCLRT
 70
    1
  9
$DIMTFAC
 40
1
  9
$DIMGAP
 40
5
  9
$DIMJUST
 70
    0
  9
$DIMSD1
 70
    0
  9
$DIMSD2
 70
    0
  9
$DIMTOLJ
 70
    0
  9
$DIMTZIN
 70
    8
  9
$DIMALTZ
 70
    0
  9
$DIMALTTZ
 70
    0
  9
$DIMUPT
 70
    0
  9
$DIMDEC
 70
    4
  9
$DIMTDEC
 70
    2
  9
$DIMALTU
 70
    2
  9
$DIMALTTD
 70
    3
  9
$DIMTXSTY
  7
standard
  9
$DIMAUNIT
 70
    0
  9
$DIMADEC
 70
    2
  9
$DIMALTRND
 40
0
  9
$DIMAZIN
 70
    0
  9
$DIMDSEP
 70
    0
  9
$DIMATFIT
 70
    3
  9
$DIMFRAC
 70
    0
  9
$DIMLDRBLK
  1
STANDARD
  9
$DIMLUNIT
 70
    2
  9
$DIMLWD
 70
   -1
  9
$DIMLWE
 70
   -1
  9
$DIMTMOVE
 70
    0
  9
$DIMFXL
 40
1
  9
$DIMFXLON
 70
    0
  9
$DIMJOGANG
 40
0.7854
  9
$DIMTFILL
 70
    0
  9
$DIMTFILLCLR
 70
    0
  9
$DIMARCSYM
 70
    0
  9
$DIMLTYPE
  6

  9
$DIMLTEX1
  6

  9
$DIMLTEX2
  6

  9
$LUNITS
 70
    2
  9
$LUPREC
 70
    4
  9
$SKETCHINC
 40
1
  9
$FILLETRAD
 40
0
  9
$AUNITS
 70
    0
  9
$AUPREC
 70
    2
  9
$MENU
  1
.
  9
$ELEVATION
 40
0
  9
$PELEVATION
 40
0
  9
$THICKNESS
 40
0
  9
$LIMCHECK
 70
    0
  9
$CHAMFERA
 40
0
  9
$CHAMFERB
 40
0
  9
$CHAMFERC
 40
0
  9
$CHAMFERD
 40
0
  9
$SKPOLY
 70
    0
  9
$USRTIMER
 70
    1
  9
$ANGBASE
 50
0
  9
$ANGDIR
 70
    0
  9
$PDMODE
 70
   96
  9
$PDSIZE
 40
-2
  9
$PLINEWID
 40
0
  9
$SPLFRAME
 70
    0
  9
$SPLINETYPE
 70
    2
  9
$SPLINESEGS
 70
    8
  9
$HANDSEED
  5
20000
  9
$SURFTAB1
 70
    6
  9
$SURFTAB2
 70
    6
  9
$SURFTYPE
 70
    6
  9
$SURFU
 70
    6
  9
$SURFV
 70
    6
  9
$UCSBASE
  2

  9
$UCSNAME
  2

  9
$UCSORG
 10
0
 20
0
 30
0
  9
$UCSXDIR
 10
1
 20
0
 30
0
  9
$UCSYDIR
 10
0
 20
1
 30
0
  9
$UCSORTHOREF
  2

  9
$UCSORTHOVIEW
 70
    0
  9
$UCSORGTOP
 10
0
 20
0
 30
0
  9
$UCSORGBOTTOM
 10
0
 20
0
 30
0
  9
$UCSORGLEFT
 10
0
 20
0
 30
0
  9
$UCSORGRIGHT
 10
0
 20
0
 30
0
  9
$UCSORGFRONT
 10
0
 20
0
 30
0
  9
$UCSORGBACK
 10
0
 20
0
 30
0
  9
$PUCSBASE
  2

  9
$PUCSNAME
  2

  9
$PUCSORG
 10
0
 20
0
 30
0
  9
$PUCSXDIR
 10
1
 20
0
 30
0
  9
$PUCSYDIR
 10
0
 20
1
 30
0
  9
$PUCSORTHOREF
  2

  9
$PUCSORTHOVIEW
 70
    0
  9
$PUCSORGTOP
 10
0
 20
0
 30
0
  9
$PUCSORGBOTTOM
 10
0
 20
0
 30
0
  9
$PUCSORGLEFT
 10
0
 20
0
 30
0
  9
$PUCSORGRIGHT
 10
0
 20
0
 30
0
  9
$PUCSORGFRONT
 10
0
 20
0
 30
0
  9
$PUCSORGBACK
 10
0
 20
0
 30
0
  9
$USERI1
 70
    0
  9
$USERI2
 70
    0
  9
$USERI3
 70
    0
  9
$USERI4
 70
    0
  9
$USERI5
 70
    0
  9
$USERR1
 40
0
  9
$USERR2
 40
0
  9
$USERR3
 40
0
  9
$USERR4
 40
0
  9
$USERR5
 40
0
  9
$WORLDVIEW
 70
    1
  9
$SHADEDGE
 70
    3
  9
$SHADEDIF
 70
   70
  9
$TILEMODE
 70
    1
  9
$MAXACTVP
 70
   64
  9
$PINSBASE
 10
2.21
 20
4.89
 30
0
  9
$PLIMCHECK
 70
    0
  9
$PEXTMIN
 10
0
 20
0
 30
0
  9
$PEXTMAX
 10
0
 20
0
 30
0
  9
$GRIDMODE
 70
    1
  9
$SNAPSTYLE
 70
    0
  9
$GRIDUNIT
 10
0
 20
0
  9
$PLIMMIN
 10
0
 20
0
  9
$PLIMMAX
 10
21
 20
29.7
  9
$UNITMODE
 70
    0
  9
$VISRETAIN
 70
    1
  9
$PLINEGEN
 70
    0
  9
$PSLTSCALE
 70
    1
  9
$TREEDEPTH
 70
 3020
  9
$CMLSTYLE
  2
Standard
  9
$CMLJUST
 70
    0
  9
$CMLSCALE
 40
20
  9
$PROXYGRAPHICS
 70
    1
  9
$MEASUREMENT
 70
    1
  9
$CELWEIGHT
370
   -1
  9
$ENDCAPS
280
    0
  9
$JOINSTYLE
280
    0
  9
$LWDISPLAY
290
    0
  9
$INSUNITS
 70
    5
  9
$HYPERLINKBASE
  1

  9
$STYLESHEET
  1

  9
$XEDIT
290
    1
  9
$CEPSNTYPE
380
    0
  9
$PSTYLEMODE
290
    1
  9
$EXTNAMES
290
    1
  9
$PSVPSCALE
 40
0.02
  9
$OLESTARTUP
290
    0
  9
$SORTENTS
280
  127
  9
$INDEXCTL
280
    0
  9
$HIDETEXT
280
    1
  9
$XCLIPFRAME
290
    0
  9
$HALOGAP
280
    0
  9
$OBSCOLOR
 70
  257
  9
$OBSLTYPE
280
    0
  9
$INTERSECTIONDISPLAY
280
    0
  9
$INTERSECTIONCOLOR
 70
  257
  9
$DIMASSOC
280
    1
  9
$PROJECTNAME
  1

  9
$CAMERADISPLAY
290
    0
  9
$LENSLENGTH
 40
50
  9
$CAMERAHEIGHT
 40
0
  9
$STEPSPERSEC
 40
2
  9
$STEPSIZE
 40
50
  9
$3DDWFPREC
 40
2
  9
$PSOLWIDTH
 40
5
  9
$PSOLHEIGHT
 40
80
  9
$LOFTANG1
 40
1.570796326794897
  9
$LOFTANG2
 40
1.570796326794897
  9
$LOFTMAG1
 40
0
  9
$LOFTMAG2
 40
0
  9
$LOFTPARAM
 70
    7
  9
$LOFTNORMALS
280
    1
  9
$LATITUDE
 40
1
  9
$LONGITUDE
 40
1
  9
$NORTHDIRECTION
 40
0
  9
$TIMEZONE
 70
-8000
  9
$LIGHTGLYPHDISPLAY
280
    1
  9
$TILEMODELIGHTSYNCH
280
    1
  9
$SOLIDHIST
280
    1
  9
$SHOWHIST
280
    1
  9
$DWFFRAME
280
    2
  9
$DGNFRAME
280
    0
  9
$REALWORLDSCALE
290
    1
  9
$INTERFERECOLOR
 62
    1
  9
$CSHADOW
280
    0
  9
$SHADOWPLANELOCATION
 40
0
  0
ENDSEC
  0
SECTION
  2
CLASSES
  0
ENDSEC
  0
SECTION
  2
TABLES
  0
TABLE
  2
VPORT
  5
8
330
0
100
AcDbSymbolTable
 70
    1
  0
VPORT
  5
31
330
2
100
AcDbSymbolTableRecord
100
AcDbViewportTableRecord
  2
*ACTIVE
 70
    0
 10
0
 20
0
 11
1
 21
1
 12
258.6727636808937
 22
537.6449594892118
 13
0
 23
0
 14
10
 24
10
 15
10
 25
10
 16
0
 26
0
 36
1
 17
0
 27
0
 37
0
 40
1623.954570193952
 41
1.366428571428571
 42
50
 43
0
 44
0
 50
0
 51
0
 71
    0
 72
  100
 73
    1
 74
    3
 75
    0
 76
    1
 77
    0
 78
    0
281
    0
 65
    1
110
0
120
0
130
0
111
1
121
0
131
0
112
0
122
1
132
0
 79
    0
146
0
348
10020
 60
    7
 61
    5
292
1
282
    1
141
0
142
0
 63
  250
421
3358443
  0
ENDTAB
  0
TABLE
  2
LTYPE
  5
5
330
0
100
AcDbSymbolTable
 70
    4
  0
LTYPE
  5
14
330
5
100
AcDbSymbolTableRecord
100
AcDbLinetypeTableRecord
  2
ByBlock
 70
    0
  3

 72
   65
 73
    0
 40
0
  0
LTYPE
  5
15
330
5
100
AcDbSymbolTableRecord
100
AcDbLinetypeTableRecord
  2
ByLayer
 70
    0
  3

 72
   65
 73
    0
 40
0
  0
LTYPE
  5
16
330
5
100
AcDbSymbolTableRecord
100
AcDbLinetypeTableRecord
  2
Continuous
 70
    0
  3
Solid line
 72
   65
 73
    0
 40
0
  0
LTYPE
  5
32
330
5
100
AcDbSymbolTableRecord
100
AcDbLinetypeTableRecord
  2
DOT
 70
    0
  3
Dot . . . . . . . . . . . . . . . . . . . . . .
 72
   65
 73
    2
 40
6.35
 49
0
 74
    0
 49
-6.35
 74
    0
  0
LTYPE
  5
33
330
5
100
AcDbSymbolTableRecord
100
AcDbLinetypeTableRecord
  2
DOTTINY
 70
    0
  3
Dot (.15x) .....................................
 72
   65
 73
    2
 40
0.9525
 49
0
 74
    0
 49
-0.9525
 74
    0
  0
LTYPE
  5
34
330
5
100
AcDbSymbolTableRecord
100
AcDbLinetypeTableRecord
  2
DOT2
 70
    0
  3
Dot (.5x) .....................................
 72
   65
 73
    2
 40
3.175
 49
0
 74
    0
 49
-3.175
 74
    0
  0
LTYPE
  5
35
330
5
100
AcDbSymbolTableRecord
100
AcDbLinetypeTableRecord
  2
DOTX2
 70
    0
  3
Dot (2x) .  .  .  .  .  .  .  .  .  .  .  .  .
 72
   65
 73
    2
 40
12.7
 49
0
 74
    0
 49
-12.7
 74
    0
  0
LTYPE
  5
36
330
5
100
AcDbSymbolTableRecord
100
AcDbLinetypeTableRecord
  2
DASHED
 70
    0
  3
Dashed _ _ _ _ _ _ _ _ _ _ _ _ _ _ _ _ _
 72
   65
 73
    2
 40
19.05
 49
12.7
 74
    0
 49
-6.35
 74
    0
  0
LTYPE
  5
37
330
5
100
AcDbSymbolTableRecord
100
AcDbLinetypeTableRecord
  2
DASHEDTINY
 70
    0
  3
Dashed (.15x) _ _ _ _ _ _ _ _ _ _ _ _ _ _ _ _ _
 72
   65
 73
    2
 40
2.8575
 49
1.905
 74
    0
 49
-0.9525
 74
    0
  0
LTYPE
  5
38
330
5
100
AcDbSymbolTableRecord
100
AcDbLinetypeTableRecord
  2
DASHED2
 70
    0
  3
Dashed (.5x) _ _ _ _ _ _ _ _ _ _ _ _ _ _ _ _ _
 72
   65
 73
    2
 40
9.524999999999999
 49
6.35
 74
    0
 49
-3.175
 74
    0
  0
LTYPE
  5
39
330
5
100
AcDbSymbolTableRecord
100
AcDbLinetypeTableRecord
  2
DASHEDX2
 70
    0
  3
Dashed (2x) ____  ____  ____  ____  ____  ___
 72
   65
 73
    2
 40
38.09999999999999
 49
25.4
 74
    0
 49
-12.7
 74
    0
  0
LTYPE
  5
3A
330
5
100
AcDbSymbolTableRecord
100
AcDbLinetypeTableRecord
  2
DASHDOT
 70
    0
  3
Dash dot __ . __ . __ . __ . __ . __ . __ . __
 72
   65
 73
    4
 40
25.4
 49
12.7
 74
    0
 49
-6.35
 74
    0
 49
0
 74
    0
 49
-6.35
 74
    0
  0
LTYPE
  5
3B
330
5
100
AcDbSymbolTableRecord
100
AcDbLinetypeTableRecord
  2
DASHDOTTINY
 70
    0
  3
Dash dot (.15x) _._._._._._._._._._._._._._._.
 72
   65
 73
    4
 40
3.81
 49
1.905
 74
    0
 49
-0.9525
 74
    0
 49
0
 74
    0
 49
-0.9525
 74
    0
  0
LTYPE
  5
3C
330
5
100
AcDbSymbolTableRecord
100
AcDbLinetypeTableRecord
  2
DASHDOT2
 70
    0
  3
Dash dot (.5x) _._._._._._._._._._._._._._._.
 72
   65
 73
    4
 40
12.7
 49
6.35
 74
    0
 49
-3.175
 74
    0
 49
0
 74
    0
 49
-3.175
 74
    0
  0
LTYPE
  5
3D
330
5
100
AcDbSymbolTableRecord
100
AcDbLinetypeTableRecord
  2
DASHDOTX2
 70
    0
  3
Dash dot (2x) ____  .  ____  .  ____  .  ___
 72
   65
 73
    4
 40
50.8
 49
25.4
 74
    0
 49
-12.7
 74
    0
 49
0
 74
    0
 49
-12.7
 74
    0
  0
LTYPE
  5
3E
330
5
100
AcDbSymbolTableRecord
100
AcDbLinetypeTableRecord
  2
DIVIDE
 70
    0
  3
Divide ____ . . ____ . . ____ . . ____ . . ____
 72
   65
 73
    6
 40
31.75
 49
12.7
 74
    0
 49
-6.35
 74
    0
 49
0
 74
    0
 49
-6.35
 74
    0
 49
0
 74
    0
 49
-6.35
 74
    0
  0
LTYPE
  5
3F
330
5
100
AcDbSymbolTableRecord
100
AcDbLinetypeTableRecord
  2
DIVIDETINY
 70
    0
  3
Divide (.15x) __..__..__..__..__..__..__..__.._
 72
   65
 73
    6
 40
4.7625
 49
1.905
 74
    0
 49
-0.9525
 74
    0
 49
0
 74
    0
 49
-0.9525
 74
    0
 49
0
 74
    0
 49
-0.9525
 74
    0
  0
LTYPE
  5
40
330
5
100
AcDbSymbolTableRecord
100
AcDbLinetypeTableRecord
  2
DIVIDE2
 70
    0
  3
Divide (.5x) __..__..__..__..__..__..__..__.._
 72
   65
 73
    6
 40
15.875
 49
6.35
 74
    0
 49
-3.175
 74
    0
 49
0
 74
    0
 49
-3.175
 74
    0
 49
0
 74
    0
 49
-3.175
 74
    0
  0
LTYPE
  5
41
330
5
100
AcDbSymbolTableRecord
100
AcDbLinetypeTableRecord
  2
DIVIDEX2
 70
    0
  3
Divide (2x) ________  .  .  ________  .  .  _
 72
   65
 73
    6
 40
63.5
 49
25.4
 74
    0
 49
-12.7
 74
    0
 49
0
 74
    0
 49
-12.7
 74
    0
 49
0
 74
    0
 49
-12.7
 74
    0
  0
LTYPE
  5
42
330
5
100
AcDbSymbolTableRecord
100
AcDbLinetypeTableRecord
  2
BORDER
 70
    0
  3
Border __ __ . __ __ . __ __ . __ __ . __ __ .
 72
   65
 73
    6
 40
44.45
 49
12.7
 74
    0
 49
-6.35
 74
    0
 49
12.7
 74
    0
 49
-6.35
 74
    0
 49
0
 74
    0
 49
-6.35
 74
    0
  0
LTYPE
  5
43
330
5
100
AcDbSymbolTableRecord
100
AcDbLinetypeTableRecord
  2
BORDERTINY
 70
    0
  3
Border (.15x) __.__.__.__.__.__.__.__.__.__.__.
 72
   65
 73
    6
 40
6.6675
 49
1.905
 74
    0
 49
-0.9525
 74
    0
 49
1.905
 74
    0
 49
-0.9525
 74
    0
 49
0
 74
    0
 49
-0.9525
 74
    0
  0
LTYPE
  5
44
330
5
100
AcDbSymbolTableRecord
100
AcDbLinetypeTableRecord
  2
BORDER2
 70
    0
  3
Border (.5x) __.__.__.__.__.__.__.__.__.__.__.
 72
   65
 73
    6
 40
22.225
 49
6.35
 74
    0
 49
-3.175
 74
    0
 49
6.35
 74
    0
 49
-3.175
 74
    0
 49
0
 74
    0
 49
-3.175
 74
    0
  0
LTYPE
  5
45
330
5
100
AcDbSymbolTableRecord
100
AcDbLinetypeTableRecord
  2
BORDERX2
 70
    0
  3
Border (2x) ____  ____  .  ____  ____  .  ___
 72
   65
 73
    6
 40
88.89999999999999
 49
25.4
 74
    0
 49
-12.7
 74
    0
 49
25.4
 74
    0
 49
-12.7
 74
    0
 49
0
 74
    0
 49
-12.7
 74
    0
  0
LTYPE
  5
46
330
5
100
AcDbSymbolTableRecord
100
AcDbLinetypeTableRecord
  2
CENTER
 70
    0
  3
Center ____ _ ____ _ ____ _ ____ _ ____ _ ____
 72
   65
 73
    4
 40
50.8
 49
31.75
 74
    0
 49
-6.35
 74
    0
 49
6.35
 74
    0
 49
-6.35
 74
    0
  0
LTYPE
  5
47
330
5
100
AcDbSymbolTableRecord
100
AcDbLinetypeTableRecord
  2
CENTERTINY
 70
    0
  3
Center (.15x) ___ _ ___ _ ___ _ ___ _ ___ _ ___
 72
   65
 73
    4
 40
7.619999999999999
 49
4.7625
 74
    0
 49
-0.9525
 74
    0
 49
0.9525
 74
    0
 49
-0.9525
 74
    0
  0
LTYPE
  5
48
330
5
100
AcDbSymbolTableRecord
100
AcDbLinetypeTableRecord
  2
CENTER2
 70
    0
  3
Center (.5x) ___ _ ___ _ ___ _ ___ _ ___ _ ___
 72
   65
 73
    4
 40
28.575
 49
19.05
 74
    0
 49
-3.175
 74
    0
 49
3.175
 74
    0
 49
-3.175
 74
    0
  0
LTYPE
  5
49
330
5
100
AcDbSymbolTableRecord
100
AcDbLinetypeTableRecord
  2
CENTERX2
 70
    0
  3
Center (2x) ________  __  ________  __  _____
 72
   65
 73
    4
 40
101.6
 49
63.5
 74
    0
 49
-12.7
 74
    0
 49
12.7
 74
    0
 49
-12.7
 74
    0
  0
ENDTAB
  0
TABLE
  2
LAYER
  5
2
330
0
100
AcDbSymbolTable
 70
    1
  0
LAYER
  5
10
330
2
100
AcDbSymbolTableRecord
100
AcDbLayerTableRecord
  2
0
 70
    5
 62
    7
  6
CONTINUOUS
290
0
370
   25
390
F
  0
LAYER
  5
4A
330
2
100
AcDbSymbolTableRecord
100
AcDbLayerTableRecord
  2
1er étage - Cloisons grand côté
 70
    5
 62
   40
420
16755200
  6
CONTINUOUS
370
    0
390
F
  0
LAYER
  5
4B
330
2
100
AcDbSymbolTableRecord
100
AcDbLayerTableRecord
  2
1er étage - Cloisons petit côté
 70
    5
 62
   40
420
16755200
  6
CONTINUOUS
370
    0
390
F
  0
LAYER
  5
4C
330
2
100
AcDbSymbolTableRecord
100
AcDbLayerTableRecord
  2
1er étage - Murs
 70
    5
 62
    7
  6
CONTINUOUS
370
    0
390
F
  0
LAYER
  5
4D
330
2
100
AcDbSymbolTableRecord
100
AcDbLayerTableRecord
  2
1er étage - Ouvertures
 70
    5
 62
    7
  6
CONTINUOUS
370
    0
390
F
  0
LAYER
  5
4E
330
2
100
AcDbSymbolTableRecord
100
AcDbLayerTableRecord
  2
Compound
 70
    5
 62
  216
420
8388736
  6
CONTINUOUS
370
   -3
390
F
  0
LAYER
  5
4F
330
2
100
AcDbSymbolTableRecord
100
AcDbLayerTableRecord
  2
Compound - Escaliers
 70
    5
 62
  216
420
8388736
  6
CONTINUOUS
370
   -3
390
F
  0
LAYER
  5
50
330
2
100
AcDbSymbolTableRecord
100
AcDbLayerTableRecord
  2
Cotations
 70
    0
 62
    1
  6
CONTINUOUS
370
    5
390
F
  0
LAYER
  5
51
330
2
100
AcDbSymbolTableRecord
100
AcDbLayerTableRecord
  2
Cuisine - Egouttoir
 70
    5
 62
    7
  6
CONTINUOUS
370
    0
390
F
  0
LAYER
  5
52
330
2
100
AcDbSymbolTableRecord
100
AcDbLayerTableRecord
  2
Cuisine - Evier
 70
    5
 62
    7
  6
CONTINUOUS
290
0
370
    0
390
F
  0
LAYER
  5
53
330
2
100
AcDbSymbolTableRecord
100
AcDbLayerTableRecord
  2
Cuisine - Evier-meuble
 70
    5
 62
    7
  6
CONTINUOUS
370
    0
390
F
  0
LAYER
  5
54
330
2
100
AcDbSymbolTableRecord
100
AcDbLayerTableRecord
  2
Poutres
 70
    1
 62
    6
  6
DASHED2
370
    5
390
F
  0
LAYER
  5
55
330
2
100
AcDbSymbolTableRecord
100
AcDbLayerTableRecord
  2
RDC - Cloisons grand côté
 70
    4
 62
   40
420
16755200
  6
CONTINUOUS
370
    0
390
F
  0
LAYER
  5
56
330
2
100
AcDbSymbolTableRecord
100
AcDbLayerTableRecord
  2
RDC - Cloisons petit côté
 70
    4
 62
   40
420
16755200
  6
CONTINUOUS
370
    0
390
F
  0
LAYER
  5
57
330
2
100
AcDbSymbolTableRecord
100
AcDbLayerTableRecord
  2
RDC - Murs
 70
    4
 62
    7
  6
CONTINUOUS
370
    0
390
F
  0
LAYER
  5
58
330
2
100
AcDbSymbolTableRecord
100
AcDbLayerTableRecord
  2
RDC - Ouvertures
 70
    5
 62
    5
  6
CONTINUOUS
370
    0
390
F
  0
LAYER
  5
59
330
2
100
AcDbSymbolTableRecord
100
AcDbLayerTableRecord
  2
RDC - Ouvertures extérieures
 70
    1
 62
    7
  6
CONTINUOUS
370
    0
390
F
  0
LAYER
  5
5A
330
2
100
AcDbSymbolTableRecord
100
AcDbLayerTableRecord
  2
Z - Constructions
 70
    4
 62
    1
  6
CONTINUOUS
370
    0
390
F
1001
LibreCad
1070
    1
  0
LAYER
  5
5B
330
2
100
AcDbSymbolTableRecord
100
AcDbLayerTableRecord
  2
Z - Dimensions
 70
    1
 62
    2
  6
CONTINUOUS
370
    0
390
F
  0
LAYER
  5
5C
330
2
100
AcDbSymbolTableRecord
100
AcDbLayerTableRecord
  2
Z - Hachures
 70
    1
 62
    9
  6
CONTINUOUS
370
    0
390
F
  0
LAYER
  5
5D
330
2
100
AcDbSymbolTableRecord
100
AcDbLayerTableRecord
  2
Z - Texte
 70
    1
 62
    7
  6
CONTINUOUS
370
    0
390
F
  0
ENDTAB
  0
TABLE
  2
STYLE
  5
3
330
0
100
AcDbSymbolTable
 70
    3
  0
STYLE
  5
5E
330
2
100
AcDbSymbolTableRecord
100
AcDbTextStyleTableRecord
  2
standard
 70
    0
 40
0
 41
1
 50
0
 71
    0
 42
1
  3
standard
  4

  0
ENDTAB
  0
TABLE
  2
VIEW
  5
6
330
0
100
AcDbSymbolTable
 70
    0
  0
ENDTAB
  0
TABLE
  2
UCS
  5
7
330
0
100
AcDbSymbolTable
 70
    0
  0
ENDTAB
  0
TABLE
  2
APPID
  5
9
330
0
100
AcDbSymbolTable
 70
    1
  0
APPID
  5
12
330
9
100
AcDbSymbolTableRecord
100
AcDbRegAppTableRecord
  2
ACAD
 70
    0
  0
APPID
  5
5F
330
9
100
AcDbSymbolTableRecord
100
AcDbRegAppTableRecord
  2
LibreCad
 70
    0
  0
ENDTAB
  0
TABLE
  2
DIMSTYLE
  5
A
330
0
100
AcDbSymbolTable
 70
    1
100
AcDbDimStyleTable
 71
    1
  0
DIMSTYLE
105
60
330
A
100
AcDbSymbolTableRecord
100
AcDbDimStyleTableRecord
  2
Standard
 70
    0
 40
1
 41
10
 42
1
 43
0.38
 44
1
 45
0
 46
0
 47
0
 48
0
 49
1
140
12
141
0.09
142
0
143
25.4
144
1
145
0
146
1
147
5
148
0
 71
    0
 72
    0
 73
    0
 74
    1
 75
    0
 76
    0
 77
    0
 78
    1
 79
    0
170
    0
171
    2
172
    0
173
    0
174
    0
175
    0
176
    1
177
    1
178
    1
179
    2
271
    4
272
    4
273
    2
274
    2
275
    0
276
    0
277
    2
278
    0
279
    0
280
    0
281
    0
282
    0
283
    1
284
    0
285
    0
286
    0
288
    0
289
    3
340
5E
  0
ENDTAB
  0
TABLE
  2
BLOCK_RECORD
  5
1
330
0
100
AcDbSymbolTable
 70
    2
  0
BLOCK_RECORD
  5
1F
330
1
100
AcDbSymbolTableRecord
100
AcDbBlockTableRecord
  2
*Model_Space
 70
    0
280
    1
281
    0
  0
BLOCK_RECORD
  5
1E
330
1
100
AcDbSymbolTableRecord
100
AcDbBlockTableRecord
  2
*Paper_Space
 70
    0
280
    1
281
    0
  0
BLOCK_RECORD
  5
61
330
1
100
AcDbSymbolTableRecord
100
AcDbBlockTableRecord
  2
*D1
 70
    0
280
    1
281
    0
  0
BLOCK_RECORD
  5
64
330
1
100
AcDbSymbolTableRecord
100
AcDbBlockTableRecord
  2
Escaliers_Montée3-Compound
 70
    0
280
    1
281
    0
  0
BLOCK_RECORD
  5
67
330
1
100
AcDbSymbolTableRecord
100
AcDbBlockTableRecord
  2
Evier
 70
    0
280
    1
281
    0
  0
BLOCK_RECORD
  5
6A
330
1
100
AcDbSymbolTableRecord
100
AcDbBlockTableRecord
  2
Cuisine
 70
    0
280
    1
281
    0
  0
BLOCK_RECORD
  5
6D
330
1
100
AcDbSymbolTableRecord
100
AcDbBlockTableRecord
  2
Escaliers_Montée3-Compound-0
 70
    0
280
    1
281
    0
  0
ENDTAB
  0
ENDSEC
  0
SECTION
  2
BLOCKS
  0
BLOCK
  5
20
330
1F
100
AcDbEntity
  8
0
100
AcDbBlockBegin
  2
*Model_Space
 70
    0
 10
0
 20
0
 30
0
  3
*Model_Space
  1

  0
ENDBLK
  5
21
330
1F
100
AcDbEntity
  8
0
100
AcDbBlockEnd
  0
BLOCK
  5
1C
330
1B
100
AcDbEntity
  8
0
100
AcDbBlockBegin
  2
*Paper_Space
 70
    0
 10
0
 20
0
 30
0
  3
*Paper_Space
  1

  0
ENDBLK
  5
1D
330
1F
100
AcDbEntity
  8
0
100
AcDbBlockEnd
  0
BLOCK
  5
62
330
61
100
AcDbEntity
  8
0
100
AcDbBlockBegin
  2
*D1
 70
    1
 10
0
 20
0
  3
*D1
  1

  0
LINE
  5
70
100
AcDbEntity
  8
Cotations
  6
ByBlock
 62
    1
370
   -1
100
AcDbLine
 10
-147.3158788675942
 20
1035.851022273713
 11
-147.3158788675942
 21
-42.91879935512586
  0
MTEXT
  5
71
100
AcDbEntity
  8
Cotations
  6
CONTINUOUS
 62
    1
370
   -2
100
AcDbMText
 10
-158.3158788675942
 20
496.4661114592938
 30
0
 40
12
 41
72.00000000000151
 71
    5
 72
    1
  1
1078.7698
  7
standard
210
0
220
0
230
1
 50
90
 73
    2
 44
1
  0
SOLID
  5
72
100
AcDbEntity
  8
Cotations
  6
ByBlock
 62
    1
370
   -1
100
AcDbTrace
 10
-147.3158788675942
 20
1035.851022273713
 30
0
 11
-145.6507402365028
 21
1025.851022273713
 31
0
 12
-148.9810174986856
 22
1025.851022273713
 32
0
 13
-148.9810174986856
 23
1025.851022273713
 33
0
  0
SOLID
  5
73
100
AcDbEntity
  8
Cotations
  6
ByBlock
 62
    1
370
   -1
100
AcDbTrace
 10
-147.3158788675942
 20
-42.91879935512586
 30
0
 11
-148.9810174986856
 21
-32.91879935512586
 31
0
 12
-145.6507402365028
 22
-32.91879935512586
 32
0
 13
-145.6507402365028
 23
-32.91879935512586
 33
0
  0
LINE
  5
74
100
AcDbEntity
  8
Cotations
  6
ByBlock
 62
    1
370
   -1
100
AcDbLine
 10
-56.67844240664977
 20
1035.851022273713
 11
-148.3158788675942
 21
1035.851022273713
  0
LINE
  5
75
100
AcDbEntity
  8
Cotations
  6
ByBlock
 62
    1
370
   -1
100
AcDbLine
 10
-57.8384099567883
 20
-42.91879935512586
 11
-148.3158788675942
 21
-42.91879935512586
  0
ENDBLK
  5
63
330
61
100
AcDbEntity
  8
0
100
AcDbBlockEnd
  0
BLOCK
  5
65
330
64
100
AcDbEntity
  8
0
100
AcDbBlockBegin
  2
Escaliers_Montée3-Compound
 70
    0
 10
0
 20
0
  3
Escaliers_Montée3-Compound
  1

  0
LINE
  5
76
100
AcDbEntity
  8
Compound - Escaliers
  6
ByLayer
 62
  256
370
   -1
100
AcDbLine
 10
0
 20
0
 11
100.0400000008
 21
0
  0
LINE
  5
77
100
AcDbEntity
  8
Compound - Escaliers
  6
ByLayer
 62
  256
370
   -1
100
AcDbLine
 10
100.0400000008
 20
0
 11
100.0400000008
 21
28.8864257234
  0
LINE
  5
78
100
AcDbEntity
  8
Compound - Escaliers
  6
ByLayer
 62
  256
370
   -1
100
AcDbLine
 10
8.000000000000001e-10
 20
29.742
 11
100.0400000008
 21
28.8864257234
  0
LINE
  5
79
100
AcDbEntity
  8
Compound - Escaliers
  6
ByLayer
 62
  256
370
   -1
100
AcDbLine
 10
0
 20
0
 11
8.000000000000001e-10
 21
29.742
  0
LINE
  5
7A
100
AcDbEntity
  8
Compound - Escaliers
  6
ByLayer
 62
  256
370
   -1
100
AcDbLine
 10
-2.5399e-06
 20
24.7418191845
 11
100.0002054343
 21
23.8865832073
  0
LINE
  5
7B
100
AcDbEntity
  8
Compound - Escaliers
  6
ByLayer
 62
  256
370
   -1
100
AcDbLine
 10
-1.9204e-06
 20
55.4918191845
 11
-2.5399e-06
 21
24.7418191845
  0
LINE
  5
7C
100
AcDbEntity
  8
Compound - Escaliers
  6
ByLayer
 62
  256
370
   -1
100
AcDbLine
 10
100.0002059957
 20
51.7550670194
 11
100.0002054343
 21
23.8865832073
  0
LINE
  5
7D
100
AcDbEntity
  8
Compound - Escaliers
  6
ByLayer
 62
  256
370
   -1
100
AcDbLine
 10
-1.9204e-06
 20
55.4918191845
 11
100.0002059957
 21
51.7550670194
  0
LINE
  5
7E
100
AcDbEntity
  8
Compound - Escaliers
  6
ByLayer
 62
  256
370
   -1
100
AcDbLine
 10
0.0016871325
 20
50.4706951414
 11
100.002550413
 21
46.7515227671
  0
LINE
  5
7F
100
AcDbEntity
  8
Compound - Escaliers
  6
ByLayer
 62
  256
370
   -1
100
AcDbLine
 10
100.002550413
 20
46.7515227671
 11
99.99774772250001
 21
73.3535223336
  0
LINE
  5
80
100
AcDbEntity
  8
Compound - Escaliers
  6
ByLayer
 62
  256
370
   -1
100
AcDbLine
 10
-0.003948448100000001
 20
82.53169464610001
 11
99.99774772250001
 21
73.3535223336
  0
LINE
  5
81
100
AcDbEntity
  8
Compound - Escaliers
  6
ByLayer
 62
  256
370
   -1
100
AcDbLine
 10
0.0016871325
 20
50.4706951414
 11
-0.003948448100000001
 21
82.53169464610001
  0
LINE
  5
82
100
AcDbEntity
  8
Compound - Escaliers
  6
ByLayer
 62
  256
370
   -1
100
AcDbLine
 10
-0.0015132928
 20
77.5104585351
 11
100.0001826744
 21
68.3322840072
  0
LINE
  5
83
100
AcDbEntity
  8
Compound - Escaliers
  6
ByLayer
 62
  256
370
   -1
100
AcDbLine
 10
-0.0051044515
 20
111.3864583447
 11
-0.0015132928
 21
77.5104585351
  0
LINE
  5
84
100
AcDbEntity
  8
Compound - Escaliers
  6
ByLayer
 62
  256
370
   -1
100
AcDbLine
 10
100.0001826744
 20
68.3322840072
 11
99.9980412037
 21
93.2412839151
  0
LINE
  5
85
100
AcDbEntity
  8
Compound - Escaliers
  6
ByLayer
 62
  256
370
   -1
100
AcDbLine
 10
99.9980412037
 20
93.2412839151
 11
-0.0051044515
 21
111.3864583447
  0
LINE
  5
86
100
AcDbEntity
  8
Compound - Escaliers
  6
ByLayer
 62
  256
370
   -1
100
AcDbLine
 10
-0.0046102973
 20
106.3044793278
 11
99.99857952740001
 21
88.15954833090001
  0
LINE
  5
87
100
AcDbEntity
  8
Compound - Escaliers
  6
ByLayer
 62
  256
370
   -1
100
AcDbLine
 10
99.99857952740001
 20
88.15954833090001
 11
99.997038186
 21
110.6615482781
  0
LINE
  5
88
100
AcDbEntity
  8
Compound - Escaliers
  6
ByLayer
 62
  256
370
   -1
100
AcDbLine
 10
99.997038186
 20
110.6615482781
 11
-0.008403924599999999
 21
142.9314791314
  0
LINE
  5
89
100
AcDbEntity
  8
Compound - Escaliers
  6
ByLayer
 62
  256
370
   -1
100
AcDbLine
 10
-0.0046102973
 20
106.3044793278
 11
-0.008403924599999999
 21
142.9314791314
  0
LINE
  5
8A
100
AcDbEntity
  8
Compound - Escaliers
  6
ByLayer
 62
  256
370
   -1
100
AcDbLine
 10
-0.007834707000000002
 20
137.6775474915
 11
99.9975729378
 21
105.4075098282
  0
LINE
  5
8B
100
AcDbEntity
  8
Compound - Escaliers
  6
ByLayer
 62
  256
370
   -1
100
AcDbLine
 10
99.9963077041
 20
117.498509762
 11
99.9975729378
 21
105.4075098282
  0
LINE
  5
8C
100
AcDbEntity
  8
Compound - Escaliers
  6
ByLayer
 62
  256
370
   -1
100
AcDbLine
 10
95.4963077287
 20
117.4980388703
 11
99.9963077041
 21
117.498509762
  0
LINE
  5
8D
100
AcDbEntity
  8
Compound - Escaliers
  6
ByLayer
 62
  256
370
   -1
100
AcDbLine
 10
95.49536594530001
 20
126.498038821
 11
95.4963077287
 21
117.4980388703
  0
LINE
  5
8E
100
AcDbEntity
  8
Compound - Escaliers
  6
ByLayer
 62
  256
370
   -1
100
AcDbLine
 10
96.0781926412
 20
126.4980998094
 11
95.49536594530001
 21
126.498038821
  0
LINE
  5
8F
100
AcDbEntity
  8
Compound - Escaliers
  6
ByLayer
 62
  256
370
   -1
100
AcDbLine
 10
-0.0127423405
 20
184.5765472348
 11
96.0781926412
 21
126.4980998094
  0
LINE
  5
90
100
AcDbEntity
  8
Compound - Escaliers
  6
ByLayer
 62
  256
370
   -1
100
AcDbLine
 10
-0.007834707000000002
 20
137.6775474915
 11
-0.0127423405
 21
184.5765472348
  0
LINE
  5
91
100
AcDbEntity
  8
Compound - Escaliers
  6
ByLayer
 62
  256
370
   -1
100
AcDbLine
 10
-0.0133022511
 20
178.7393370658
 11
95.49361019780001
 21
121.00921949
  0
LINE
  5
92
100
AcDbEntity
  8
Compound - Escaliers
  6
ByLayer
 62
  256
370
   -1
100
AcDbLine
 10
95.4940362289
 20
126.5002194733
 11
95.49361019780001
 21
121.00921949
  0
LINE
  5
93
100
AcDbEntity
  8
Compound - Escaliers
  6
ByLayer
 62
  256
370
   -1
100
AcDbLine
 10
103.5640362042
 20
126.4995933441
 11
95.4940362289
 21
126.5002194733
  0
LINE
  5
94
100
AcDbEntity
  8
Compound - Escaliers
  6
ByLayer
 62
  256
370
   -1
100
AcDbLine
 10
42.9389143598
 20
214.9926350215
 11
103.5640362042
 21
126.4995933441
  0
LINE
  5
95
100
AcDbEntity
  8
Compound - Escaliers
  6
ByLayer
 62
  256
370
   -1
100
AcDbLine
 10
-0.0160855115
 20
214.9893369575
 11
42.9389143598
 21
214.9926350215
  0
LINE
  5
96
100
AcDbEntity
  8
Compound - Escaliers
  6
ByLayer
 62
  256
370
   -1
100
AcDbLine
 10
-0.0133022511
 20
178.7393370658
 11
-0.0160855115
 21
214.9893369575
  0
LINE
  5
97
100
AcDbEntity
  8
Compound - Escaliers
  6
ByLayer
 62
  256
370
   -1
100
AcDbLine
 10
36.8817150076
 20
214.9923757164
 11
97.5041519638
 21
126.497494726
  0
LINE
  5
98
100
AcDbEntity
  8
Compound - Escaliers
  6
ByLayer
 62
  256
370
   -1
100
AcDbLine
 10
106.6281518346
 20
126.4959594094
 11
97.5041519638
 21
126.497494726
  0
LINE
  5
99
100
AcDbEntity
  8
Compound - Escaliers
  6
ByLayer
 62
  256
370
   -1
100
AcDbLine
 10
36.8817150076
 20
214.9923757164
 11
96.18671494360001
 21
214.9951298273
  0
LINE
  5
9A
100
AcDbEntity
  8
Compound - Escaliers
  6
ByLayer
 62
  256
370
   -1
100
AcDbLine
 10
91.15244323980001
 20
214.991678598
 11
101.5938790775
 21
126.4925080559
  0
LINE
  5
9B
100
AcDbEntity
  8
Compound - Escaliers
  6
ByLayer
 62
  256
370
   -1
100
AcDbLine
 10
101.5938790775
 20
126.4925080559
 11
109.4948790775
 21
126.4925159554
  0
LINE
  5
9C
100
AcDbEntity
  8
Compound - Escaliers
  6
ByLayer
 62
  256
370
   -1
100
AcDbLine
 10
109.4948790775
 20
126.4925159554
 11
109.4948823949
 21
123.1745159554
  0
LINE
  5
9D
100
AcDbEntity
  8
Compound - Escaliers
  6
ByLayer
 62
  256
370
   -1
100
AcDbLine
 10
109.4948823949
 20
123.1745159554
 11
145.0544431128
 21
214.9953784952
  0
LINE
  5
9E
100
AcDbEntity
  8
Compound - Escaliers
  6
ByLayer
 62
  256
370
   -1
100
AcDbLine
 10
145.0544431128
 20
214.9953784952
 11
91.15244323980001
 21
214.991678598
  0
LINE
  5
9F
100
AcDbEntity
  8
Compound - Escaliers
  6
ByLayer
 62
  256
370
   -1
100
AcDbLine
 10
139.6899301299
 20
214.9885040529
 11
105.415286991
 21
126.4855249974
  0
LINE
  5
A0
100
AcDbEntity
  8
Compound - Escaliers
  6
ByLayer
 62
  256
370
   -1
100
AcDbLine
 10
105.415286991
 20
126.4855249974
 11
109.492286991
 21
126.4855289694
  0
LINE
  5
A1
100
AcDbEntity
  8
Compound - Escaliers
  6
ByLayer
 62
  256
370
   -1
100
AcDbLine
 10
109.492286991
 20
126.4855289694
 11
109.4921699665
 21
118.8805289703
  0
LINE
  5
A2
100
AcDbEntity
  8
Compound - Escaliers
  6
ByLayer
 62
  256
370
   -1
100
AcDbLine
 10
109.4921699665
 20
118.8805289703
 11
199.9882239436
 21
197.4065633193
  0
LINE
  5
A3
100
AcDbEntity
  8
Compound - Escaliers
  6
ByLayer
 62
  256
370
   -1
100
AcDbLine
 10
199.9882239436
 20
197.4065633193
 11
199.9839301298
 21
214.988562795
  0
LINE
  5
A4
100
AcDbEntity
  8
Compound - Escaliers
  6
ByLayer
 62
  256
370
   -1
100
AcDbLine
 10
199.9839301298
 20
214.988562795
 11
139.6899301299
 21
214.9885040529
  0
LINE
  5
A5
100
AcDbEntity
  8
Compound - Escaliers
  6
ByLayer
 62
  256
370
   -1
100
AcDbLine
 10
200.0042437422
 20
204.0404256828
 11
109.5081918414
 21
125.514388941
  0
LINE
  5
A6
100
AcDbEntity
  8
Compound - Escaliers
  6
ByLayer
 62
  256
370
   -1
100
AcDbLine
 10
109.5081918414
 20
125.514388941
 11
109.5080687199
 21
117.4993889419
  0
LINE
  5
A7
100
AcDbEntity
  8
Compound - Escaliers
  6
ByLayer
 62
  256
370
   -1
100
AcDbLine
 10
109.5080687199
 20
117.4993889419
 11
105.0080687204
 21
117.4994580682
  0
LINE
  5
A8
100
AcDbEntity
  8
Compound - Escaliers
  6
ByLayer
 62
  256
370
   -1
100
AcDbLine
 10
105.0080687204
 20
117.4994580682
 11
105.0079174875
 21
107.6544580694
  0
LINE
  5
A9
100
AcDbEntity
  8
Compound - Escaliers
  6
ByLayer
 62
  256
370
   -1
100
AcDbLine
 10
105.0079174875
 20
107.6544580694
 11
200.0033320361
 21
144.6899414583
  0
LINE
  5
AA
100
AcDbEntity
  8
Compound - Escaliers
  6
ByLayer
 62
  256
370
   -1
100
AcDbLine
 10
200.0033320361
 20
144.6899414583
 11
200.0042437422
 21
204.0404256828
  0
LINE
  5
AB
100
AcDbEntity
  8
Compound - Escaliers
  6
ByLayer
 62
  256
370
   -1
100
AcDbLine
 10
200.0077125317
 20
150.0582047592
 11
104.9884060268
 21
113.0134039593
  0
LINE
  5
AC
100
AcDbEntity
  8
Compound - Escaliers
  6
ByLayer
 62
  256
370
   -1
100
AcDbLine
 10
104.9884060268
 20
113.0134039593
 11
105.0078301956
 21
92.86341332160001
  0
LINE
  5
AD
100
AcDbEntity
  8
Compound - Escaliers
  6
ByLayer
 62
  256
370
   -1
100
AcDbLine
 10
105.0078301956
 20
92.86341332160001
 11
200.0071106442
 21
110.8122047639
  0
LINE
  5
AE
100
AcDbEntity
  8
Compound - Escaliers
  6
ByLayer
 62
  256
370
   -1
100
AcDbLine
 10
200.0071106442
 20
110.8122047639
 11
200.0077125317
 21
150.0582047592
  0
LINE
  5
AF
100
AcDbEntity
  8
Compound - Escaliers
  6
ByLayer
 62
  256
370
   -1
100
AcDbLine
 10
200.0110420449
 20
115.901415339
 11
105.0117630752
 21
97.95261606850001
  0
LINE
  5
B0
100
AcDbEntity
  8
Compound - Escaliers
  6
ByLayer
 62
  256
370
   -1
100
AcDbLine
 10
105.0117630752
 20
97.95261606850001
 11
105.01139805
 21
74.02261607130001
  0
LINE
  5
B1
100
AcDbEntity
  8
Compound - Escaliers
  6
ByLayer
 62
  256
370
   -1
100
AcDbLine
 10
105.01139805
 20
74.02261607130001
 11
200.0109750777
 21
81.1824153391
  0
LINE
  5
B2
100
AcDbEntity
  8
Compound - Escaliers
  6
ByLayer
 62
  256
370
   -1
100
AcDbLine
 10
200.0109750777
 20
81.1824153391
 11
200.0110420449
 21
115.901415339
  0
LINE
  5
B3
100
AcDbEntity
  8
Compound - Escaliers
  6
ByLayer
 62
  256
370
   -1
100
AcDbLine
 10
200.013560111
 20
86.1968250404
 11
105.0139856699
 21
79.03699145180001
  0
LINE
  5
B4
100
AcDbEntity
  8
Compound - Escaliers
  6
ByLayer
 62
  256
370
   -1
100
AcDbLine
 10
105.0139856699
 20
79.03699145180001
 11
105.0169960019
 21
52.4879916224
  0
LINE
  5
B5
100
AcDbEntity
  8
Compound - Escaliers
  6
ByLayer
 62
  256
370
   -1
100
AcDbLine
 10
105.0169960019
 20
52.4879916224
 11
200.016913078
 21
54.12382521570001
  0
LINE
  5
B6
100
AcDbEntity
  8
Compound - Escaliers
  6
ByLayer
 62
  256
370
   -1
100
AcDbLine
 10
200.016913078
 20
54.12382521570001
 11
200.013560111
 21
86.1968250404
  0
LINE
  5
B7
100
AcDbEntity
  8
Compound - Escaliers
  6
ByLayer
 62
  256
370
   -1
100
AcDbLine
 10
200.0187497403
 20
59.1246880672
 11
105.0188342125
 21
57.4887645658
  0
LINE
  5
B8
100
AcDbEntity
  8
Compound - Escaliers
  6
ByLayer
 62
  256
370
   -1
100
AcDbLine
 10
105.0188342125
 20
57.4887645658
 11
105.0220921648
 21
28.993764752
  0
LINE
  5
B9
100
AcDbEntity
  8
Compound - Escaliers
  6
ByLayer
 62
  256
370
   -1
100
AcDbLine
 10
105.0220921648
 20
28.993764752
 11
200.0221941717
 21
28.9986882641
  0
LINE
  5
BA
100
AcDbEntity
  8
Compound - Escaliers
  6
ByLayer
 62
  256
370
   -1
100
AcDbLine
 10
200.0221941717
 20
28.9986882641
 11
200.0187497403
 21
59.1246880672
  0
LINE
  5
BB
100
AcDbEntity
  8
Compound - Escaliers
  6
ByLayer
 62
  256
370
   -1
100
AcDbLine
 10
200.0240144962
 20
33.9989022904
 11
105.0240146333
 21
33.9937990859
  0
LINE
  5
BC
100
AcDbEntity
  8
Compound - Escaliers
  6
ByLayer
 62
  256
370
   -1
100
AcDbLine
 10
105.0240146333
 20
33.9937990859
 11
105.024283223
 21
28.9937990931
  0
LINE
  5
BD
100
AcDbEntity
  8
Compound - Escaliers
  6
ByLayer
 62
  256
370
   -1
100
AcDbLine
 10
105.024283223
 20
28.9937990931
 11
200.024283086
 21
28.9989022977
  0
LINE
  5
BE
100
AcDbEntity
  8
Compound - Escaliers
  6
ByLayer
 62
  256
370
   -1
100
AcDbLine
 10
200.024283086
 20
28.9989022977
 11
200.0240144962
 21
33.9989022904
  0
LINE
  5
BF
100
AcDbEntity
  8
Compound - Escaliers
  6
ByLayer
 62
  256
370
   -1
100
AcDbLine
 10
13
 20
5.0000121033
 11
0
 21
5.0000000016
  0
LINE
  5
C0
100
AcDbEntity
  8
Compound - Escaliers
  6
ByLayer
 62
  256
370
   -1
100
AcDbLine
 10
13
 20
5.0000121033
 11
12.9999785752
 21
28.0150121033
  0
LINE
  5
C1
100
AcDbEntity
  8
Compound - Escaliers
  6
ByLayer
 62
  256
370
   -1
100
AcDbLine
 10
0
 20
5.0000000016
 11
-2.14248e-05
 21
28.0150000016
  0
LINE
  5
C2
100
AcDbEntity
  8
Compound - Escaliers
  6
ByLayer
 62
  256
370
   -1
100
AcDbLine
 10
12.9999785752
 20
28.0150121033
 11
-2.14248e-05
 21
28.0150000016
  0
LINE
  5
C3
100
AcDbEntity
  8
Compound - Escaliers
  6
ByLayer
 62
  256
370
   -1
100
AcDbLine
 10
12.9999785752
 20
28.0150121033
 11
12.9999546045
 21
53.7650121033
  0
LINE
  5
C4
100
AcDbEntity
  8
Compound - Escaliers
  6
ByLayer
 62
  256
370
   -1
100
AcDbLine
 10
-2.14248e-05
 20
28.0150000016
 11
-4.53955e-05
 21
53.76500000160001
  0
LINE
  5
C5
100
AcDbEntity
  8
Compound - Escaliers
  6
ByLayer
 62
  256
370
   -1
100
AcDbLine
 10
12.9999546044
 20
53.7650121033
 11
-4.53956e-05
 21
53.76500000160001
  0
LINE
  5
C6
100
AcDbEntity
  8
Compound - Escaliers
  6
ByLayer
 62
  256
370
   -1
100
AcDbLine
 10
12.9999546044
 20
53.7650121033
 11
12.999929417
 21
80.82201210330001
  0
LINE
  5
C7
100
AcDbEntity
  8
Compound - Escaliers
  6
ByLayer
 62
  256
370
   -1
100
AcDbLine
 10
-4.53956e-05
 20
53.76500000160001
 11
-7.0583e-05
 21
80.8220000016
  0
LINE
  5
C8
100
AcDbEntity
  8
Compound - Escaliers
  6
ByLayer
 62
  256
370
   -1
100
AcDbLine
 10
12.999929417
 20
80.82201210330001
 11
-7.0583e-05
 21
80.8220000016
  0
LINE
  5
C9
100
AcDbEntity
  8
Compound - Escaliers
  6
ByLayer
 62
  256
370
   -1
100
AcDbLine
 10
12.999929417
 20
80.82201210330001
 11
12.9999025567
 21
109.6760121033
  0
LINE
  5
CA
100
AcDbEntity
  8
Compound - Escaliers
  6
ByLayer
 62
  256
370
   -1
100
AcDbLine
 10
-7.0583e-05
 20
80.8220000016
 11
-9.74433e-05
 21
109.6760000016
  0
LINE
  5
CB
100
AcDbEntity
  8
Compound - Escaliers
  6
ByLayer
 62
  256
370
   -1
100
AcDbLine
 10
12.9999025567
 20
109.6760121033
 11
-9.74433e-05
 21
109.6760000016
  0
LINE
  5
CC
100
AcDbEntity
  8
Compound - Escaliers
  6
ByLayer
 62
  256
370
   -1
100
AcDbLine
 10
12.9999025567
 20
109.6760121033
 11
12.9998731913
 21
141.2210121033
  0
LINE
  5
CD
100
AcDbEntity
  8
Compound - Escaliers
  6
ByLayer
 62
  256
370
   -1
100
AcDbLine
 10
-9.74433e-05
 20
109.6760000016
 11
-0.0001268087
 21
141.2210000015
  0
LINE
  5
CE
100
AcDbEntity
  8
Compound - Escaliers
  6
ByLayer
 62
  256
370
   -1
100
AcDbLine
 10
12.9998731913
 20
141.2210121033
 11
-0.0001268087
 21
141.2210000015
  0
LINE
  5
CF
100
AcDbEntity
  8
Compound - Escaliers
  6
ByLayer
 62
  256
370
   -1
100
AcDbLine
 10
12.9998731913
 20
141.2210121033
 11
12.9998344239
 21
182.8660121033
  0
LINE
  5
D0
100
AcDbEntity
  8
Compound - Escaliers
  6
ByLayer
 62
  256
370
   -1
100
AcDbLine
 10
-0.0001268087
 20
141.2210000015
 11
-0.0001655761
 21
182.8660000015
  0
LINE
  5
D1
100
AcDbEntity
  8
Compound - Escaliers
  6
ByLayer
 62
  256
370
   -1
100
AcDbLine
 10
12.9998344238
 20
182.8660121033
 11
-0.0001655762
 21
182.8660000015
  0
LINE
  5
D2
100
AcDbEntity
  8
Compound - Escaliers
  6
ByLayer
 62
  256
370
   -1
100
AcDbLine
 10
12.9998160227
 20
202.6330121033
 11
-0.0001839773
 21
202.6330000015
  0
LINE
  5
D3
100
AcDbEntity
  8
Compound - Escaliers
  6
ByLayer
 62
  256
370
   -1
100
AcDbLine
 10
12.9998344238
 20
182.8660121033
 11
12.9998160227
 21
202.6330121033
  0
LINE
  5
D4
100
AcDbEntity
  8
Compound - Escaliers
  6
ByLayer
 62
  256
370
   -1
100
AcDbLine
 10
-0.0001655762
 20
182.8660000015
 11
-0.0001839773
 21
202.6330000015
  0
LINE
  5
D5
100
AcDbEntity
  8
Compound - Escaliers
  6
ByLayer
 62
  256
370
   -1
100
AcDbLine
 10
197.2308167646
 20
201.9886393149
 11
197.2308043959
 21
214.9885601145
  0
LINE
  5
D6
100
AcDbEntity
  8
Compound - Escaliers
  6
ByLayer
 62
  256
370
   -1
100
AcDbLine
 10
145.0678167646
 20
201.9885896847
 11
145.0678043959
 21
214.9885104842
  0
LINE
  5
D7
100
AcDbEntity
  8
Compound - Escaliers
  6
ByLayer
 62
  256
370
   -1
100
AcDbLine
 10
197.2308167646
 20
201.9886393149
 11
145.0678167646
 21
201.9885896847
  0
LINE
  5
D8
100
AcDbEntity
  8
Compound - Escaliers
  6
ByLayer
 62
  256
370
   -1
100
AcDbLine
 10
197.2308043959
 20
214.9885601145
 11
145.0678043959
 21
214.9885104842
  0
LINE
  5
D9
100
AcDbEntity
  8
Compound - Escaliers
  6
ByLayer
 62
  256
370
   -1
100
AcDbLine
 10
197.2308037837
 20
215.6324317071
 11
197.2308043959
 21
214.9885601145
  0
LINE
  5
DA
100
AcDbEntity
  8
Compound - Escaliers
  6
ByLayer
 62
  256
370
   -1
100
AcDbLine
 10
145.0678043959
 20
214.9885104842
 11
145.0678043337
 21
215.0539601978
  0
LINE
  5
DB
100
AcDbEntity
  8
Compound - Escaliers
  6
ByLayer
 62
  256
370
   -1
100
AcDbLine
 10
-0.000183422
 20
202.184800801
 11
61.83917939880001
 21
202.1848596378
  0
LINE
  5
DC
100
AcDbEntity
  8
Compound - Escaliers
  6
ByLayer
 62
  256
370
   -1
100
AcDbLine
 10
96.2008166402
 20
202.1194426175
 11
61.9347311601
 21
202.1194100151
  0
LINE
  5
DD
100
AcDbEntity
  8
Compound - Escaliers
  6
ByLayer
 62
  256
370
   -1
100
AcDbLine
 10
145.0678167024
 20
202.0540393982
 11
96.2008167024
 21
202.0539929039
  0
LINE
  5
DE
100
AcDbEntity
  8
Compound - Escaliers
  6
ByLayer
 62
  256
370
   -1
100
AcDbLine
 10
145.0678043337
 20
215.0539601978
 11
96.20080433370001
 21
215.0539137035
  0
LINE
  5
DF
100
AcDbEntity
  8
Compound - Escaliers
  6
ByLayer
 62
  256
370
   -1
100
AcDbLine
 10
96.20080433370001
 20
215.0539137035
 11
96.2008042715
 21
215.119363417
  0
LINE
  5
E0
100
AcDbEntity
  8
Compound - Escaliers
  6
ByLayer
 62
  256
370
   -1
100
AcDbLine
 10
96.2008042715
 20
215.119363417
 11
42.9558042715
 21
215.1193127573
  0
LINE
  5
E1
100
AcDbEntity
  8
Compound - Escaliers
  6
ByLayer
 62
  256
370
   -1
100
AcDbLine
 10
42.9558042715
 20
215.1193127573
 11
42.9558042093
 21
215.1847624708
  0
LINE
  5
E2
100
AcDbEntity
  8
Compound - Escaliers
  6
ByLayer
 62
  256
370
   -1
100
AcDbLine
 10
42.9558042093
 20
215.1847624708
 11
-0.0001957907
 21
215.1847216005
  0
LINE
  5
E3
100
AcDbEntity
  8
Compound - Escaliers
  6
ByLayer
 62
  256
370
   -1
100
AcDbLine
 10
-0.0001957907
 20
215.1847216005
 11
-0.0001962163
 21
215.6322440526
  0
LINE
  5
E4
100
AcDbEntity
  8
Compound - Escaliers
  6
ByLayer
 62
  256
370
   -1
100
AcDbLine
 10
-0.0001962163
 20
215.6322440526
 11
197.2308037837
 21
215.6324317071
  0
LINE
  5
E5
100
AcDbEntity
  8
Compound - Escaliers
  6
ByLayer
 62
  256
370
   -1
100
AcDbLine
 10
96.2008167024
 20
202.0539929039
 11
96.20080433370001
 21
215.0539137035
  0
LINE
  5
E6
100
AcDbEntity
  8
Compound - Escaliers
  6
ByLayer
 62
  256
370
   -1
100
AcDbLine
 10
-0.000183422
 20
202.184800801
 11
-0.0001957907
 21
215.1847216005
  0
LINE
  5
E7
100
AcDbEntity
  8
Compound - Escaliers
  6
ByLayer
 62
  256
370
   -1
100
AcDbLine
 10
61.9347311601
 20
202.1194100151
 11
42.9558042715
 21
215.1193127573
  0
LINE
  5
E8
100
AcDbEntity
  8
Compound - Escaliers
  6
ByLayer
 62
  256
370
   -1
100
AcDbLine
 10
105.2728274895
 20
33.4054574183
 11
118.2728076894
 21
33.428146687
  0
LINE
  5
E9
100
AcDbEntity
  8
Compound - Escaliers
  6
ByLayer
 62
  256
370
   -1
100
AcDbLine
 10
105.2403992884
 20
51.9854291193
 11
118.2403794883
 21
52.0081183881
  0
LINE
  5
EA
100
AcDbEntity
  8
Compound - Escaliers
  6
ByLayer
 62
  256
370
   -1
100
AcDbLine
 10
105.2728274895
 20
33.4054574183
 11
105.2403992884
 21
51.9854291193
  0
LINE
  5
EB
100
AcDbEntity
  8
Compound - Escaliers
  6
ByLayer
 62
  256
370
   -1
100
AcDbLine
 10
118.2728076894
 20
33.428146687
 11
118.2403794883
 21
52.0081183881
  0
LINE
  5
EC
100
AcDbEntity
  8
Compound - Escaliers
  6
ByLayer
 62
  256
370
   -1
100
AcDbLine
 10
105.2728274895
 20
33.4054574183
 11
105.2795836556
 21
29.5344633141
  0
LINE
  5
ED
100
AcDbEntity
  8
Compound - Escaliers
  6
ByLayer
 62
  256
370
   -1
100
AcDbLine
 10
105.2795836556
 20
29.5344633141
 11
105.3212603516
 21
5.6554996839
  0
LINE
  5
EE
100
AcDbEntity
  8
Compound - Escaliers
  6
ByLayer
 62
  256
370
   -1
100
AcDbLine
 10
105.1098295281
 20
126.7963151757
 11
105.1168108415
 21
122.796321268
  0
LINE
  5
EF
100
AcDbEntity
  8
Compound - Escaliers
  6
ByLayer
 62
  256
370
   -1
100
AcDbLine
 10
105.1242930642
 20
118.5093277975
 11
105.1168108415
 21
122.796321268
  0
LINE
  5
F0
100
AcDbEntity
  8
Compound - Escaliers
  6
ByLayer
 62
  256
370
   -1
100
AcDbLine
 10
105.1443643404
 20
107.009345313
 11
105.1242930642
 21
118.5093277975
  0
LINE
  5
F1
100
AcDbEntity
  8
Compound - Escaliers
  6
ByLayer
 62
  256
370
   -1
100
AcDbLine
 10
105.1684306733
 20
93.2203663148
 11
105.1443643404
 21
107.009345313
  0
LINE
  5
F2
100
AcDbEntity
  8
Compound - Escaliers
  6
ByLayer
 62
  256
370
   -1
100
AcDbLine
 10
105.2023057515
 20
73.8113958764
 11
105.1684306733
 21
93.2203663148
  0
LINE
  5
F3
100
AcDbEntity
  8
Compound - Escaliers
  6
ByLayer
 62
  256
370
   -1
100
AcDbLine
 10
105.2403992884
 20
51.9854291193
 11
105.2023057515
 21
73.8113958764
  0
LINE
  5
F4
100
AcDbEntity
  8
Compound - Escaliers
  6
ByLayer
 62
  256
370
   -1
100
AcDbLine
 10
118.2403794883
 20
52.0081183881
 11
118.2022859514
 21
73.83408514520001
  0
LINE
  5
F5
100
AcDbEntity
  8
Compound - Escaliers
  6
ByLayer
 62
  256
370
   -1
100
AcDbLine
 10
118.2022859514
 20
73.83408514520001
 11
118.1684108731
 21
93.24305558360001
  0
LINE
  5
F6
100
AcDbEntity
  8
Compound - Escaliers
  6
ByLayer
 62
  256
370
   -1
100
AcDbLine
 10
118.1684108731
 20
93.24305558360001
 11
118.1443445403
 21
107.0320345818
  0
LINE
  5
F7
100
AcDbEntity
  8
Compound - Escaliers
  6
ByLayer
 62
  256
370
   -1
100
AcDbLine
 10
118.1443445403
 20
107.0320345818
 11
118.1242732641
 21
118.5320170663
  0
LINE
  5
F8
100
AcDbEntity
  8
Compound - Escaliers
  6
ByLayer
 62
  256
370
   -1
100
AcDbLine
 10
118.1242732641
 20
118.5320170663
 11
118.1167910414
 21
122.8190105368
  0
LINE
  5
F9
100
AcDbEntity
  8
Compound - Escaliers
  6
ByLayer
 62
  256
370
   -1
100
AcDbLine
 10
118.1098097279
 20
126.8190044444
 11
118.1167910414
 21
122.8190105368
  0
LINE
  5
FA
100
AcDbEntity
  8
Compound - Escaliers
  6
ByLayer
 62
  256
370
   -1
100
AcDbLine
 10
105.1098295281
 20
126.7963151757
 11
118.1098097279
 21
126.8190044444
  0
LINE
  5
FB
100
AcDbEntity
  8
Compound - Escaliers
  6
ByLayer
 62
  256
370
   -1
100
AcDbLine
 10
105.2795836556
 20
29.5344633141
 11
95.27959888650001
 21
29.5170100305
  0
LINE
  5
FC
100
AcDbEntity
  8
Compound - Escaliers
  6
ByLayer
 62
  256
370
   -1
100
AcDbLine
 10
95.23967100940001
 20
52.39397518680001
 11
95.27959888650001
 21
29.5170100305
  0
LINE
  5
FD
100
AcDbEntity
  8
Compound - Escaliers
  6
ByLayer
 62
  256
370
   -1
100
AcDbLine
 10
105.3212603516
 20
5.6554996839
 11
95.32127558250001
 21
5.6380464003
  0
LINE
  5
FE
100
AcDbEntity
  8
Compound - Escaliers
  6
ByLayer
 62
  256
370
   -1
100
AcDbLine
 10
95.27959888650001
 20
29.5170100305
 11
95.32127558250001
 21
5.6380464003
  0
LINE
  5
FF
100
AcDbEntity
  8
Compound - Escaliers
  6
ByLayer
 62
  256
370
   -1
100
AcDbLine
 10
105.1115748564
 20
125.7963166988
 11
102.0485795216
 21
125.790970758
  0
LINE
  5
100
100
AcDbEntity
  8
Compound - Escaliers
  6
ByLayer
 62
  256
370
   -1
100
AcDbLine
 10
102.0485795216
 20
125.790970758
 11
95.64858926940001
 21
125.7798006564
  0
LINE
  5
101
100
AcDbEntity
  8
Compound - Escaliers
  6
ByLayer
 62
  256
370
   -1
100
AcDbLine
 10
105.1098295281
 20
126.7963151757
 11
105.104593543
 21
129.7963106064
  0
LINE
  5
102
100
AcDbEntity
  8
Compound - Escaliers
  6
ByLayer
 62
  256
370
   -1
100
AcDbLine
 10
102.0485795216
 20
125.790970758
 11
102.0415982082
 21
129.7909646656
  0
LINE
  5
103
100
AcDbEntity
  8
Compound - Escaliers
  6
ByLayer
 62
  256
370
   -1
100
AcDbLine
 10
105.104593543
 20
129.7963106064
 11
102.0415982082
 21
129.7909646656
  0
LINE
  5
104
100
AcDbEntity
  8
Compound - Escaliers
  6
ByLayer
 62
  256
370
   -1
100
AcDbLine
 10
105.1168108415
 20
122.796321268
 11
118.1167910414
 21
122.8190105368
  0
LINE
  5
105
100
AcDbEntity
  8
Compound - Escaliers
  6
ByLayer
 62
  256
370
   -1
100
AcDbLine
 10
105.1242930642
 20
118.5093277975
 11
118.1242732641
 21
118.5320170663
  0
LINE
  5
106
100
AcDbEntity
  8
Compound - Escaliers
  6
ByLayer
 62
  256
370
   -1
100
AcDbLine
 10
105.1443643404
 20
107.009345313
 11
118.1443445403
 21
107.0320345818
  0
LINE
  5
107
100
AcDbEntity
  8
Compound - Escaliers
  6
ByLayer
 62
  256
370
   -1
100
AcDbLine
 10
105.1684306733
 20
93.2203663148
 11
118.1684108731
 21
93.24305558360001
  0
LINE
  5
108
100
AcDbEntity
  8
Compound - Escaliers
  6
ByLayer
 62
  256
370
   -1
100
AcDbLine
 10
105.2023057515
 20
73.8113958764
 11
118.2022859514
 21
73.83408514520001
  0
LINE
  5
109
100
AcDbEntity
  8
Compound - Escaliers
  6
ByLayer
 62
  256
370
   -1
100
AcDbLine
 10
105.2396557786
 20
52.41142847050001
 11
95.23967100940001
 21
52.39397518680001
  0
LINE
  5
10A
100
AcDbEntity
  8
Compound - Escaliers
  6
ByLayer
 62
  256
370
   -1
100
AcDbLine
 10
95.2019736621
 20
73.9929422897
 11
95.23967100940001
 21
52.39397518680001
  0
LINE
  5
10B
100
AcDbEntity
  8
Compound - Escaliers
  6
ByLayer
 62
  256
370
   -1
100
AcDbLine
 10
105.2019584312
 20
74.0103955733
 11
95.2019736621
 21
73.9929422897
  0
LINE
  5
10C
100
AcDbEntity
  8
Compound - Escaliers
  6
ByLayer
 62
  256
370
   -1
100
AcDbLine
 10
95.171666035
 20
91.3579158413
 11
95.2019736621
 21
73.9929422897
  0
LINE
  5
10D
100
AcDbEntity
  8
Compound - Escaliers
  6
ByLayer
 62
  256
370
   -1
100
AcDbLine
 10
105.1716508041
 20
91.3753691249
 11
95.171666035
 21
91.3579158413
  0
LINE
  5
10E
100
AcDbEntity
  8
Compound - Escaliers
  6
ByLayer
 62
  256
370
   -1
100
AcDbLine
 10
95.14126066950001
 20
108.7788893076
 11
95.171666035
 21
91.3579158413
  0
LINE
  5
10F
100
AcDbEntity
  8
Compound - Escaliers
  6
ByLayer
 62
  256
370
   -1
100
AcDbLine
 10
105.1412454386
 20
108.7963425912
 11
95.14126066950001
 21
108.7788893076
  0
LINE
  5
110
100
AcDbEntity
  8
Compound - Escaliers
  6
ByLayer
 62
  256
370
   -1
100
AcDbLine
 10
104.9771845723
 20
202.7961994211
 11
94.97719980310001
 21
202.7787461374
  0
LINE
  5
111
100
AcDbEntity
  8
Compound - Escaliers
  6
ByLayer
 62
  256
370
   -1
100
AcDbLine
 10
104.9771845723
 20
202.7961994211
 11
105.104593543
 21
129.7963106064
  0
LINE
  5
112
100
AcDbEntity
  8
Compound - Escaliers
  6
ByLayer
 62
  256
370
   -1
100
AcDbLine
 10
94.97719980310001
 20
202.7787461374
 11
95.14126066950001
 21
108.7788893076
  0
LINE
  5
113
100
AcDbEntity
  8
Compound - Escaliers
  6
ByLayer
 62
  256
370
   -1
100
AcDbLine
 10
95.64858926940001
 20
125.7798006564
 11
95.6416079559
 21
129.7797945641
  0
LINE
  5
114
100
AcDbEntity
  8
Compound - Escaliers
  6
ByLayer
 62
  256
370
   -1
100
AcDbLine
 10
102.0415982082
 20
129.7909646656
 11
95.6416079559
 21
129.7797945641
  0
LINE
  5
115
100
AcDbEntity
  8
Compound - Escaliers
  6
CONTINUOUS
 62
  216
420
8388736
370
   -3
100
AcDbLine
 10
96.1867
 20
214.995
 11
106.628
 21
126.496
  0
ENDBLK
  5
66
330
64
100
AcDbEntity
  8
0
100
AcDbBlockEnd
  0
BLOCK
  5
68
330
67
100
AcDbEntity
  8
0
100
AcDbBlockBegin
  2
Evier
 70
    0
 10
0
 20
0
  3
Evier
  1

  0
LWPOLYLINE
  5
116
100
AcDbEntity
  8
0
  6
ByLayer
 62
  256
370
   -1
100
AcDbPolyline
 90
    8
 70
    1
 43
0
 10
13.8
 20
4.6
 10
31.4
 20
4.599999999999998
 42
0.414213562373095
 10
40.6
 20
13.8
 10
40.6
 20
36.2
 42
0.4142135623730953
 10
31.4
 20
45.4
 10
13.8
 20
45.40000000000001
 42
0.4142135623730948
 10
4.599999999999996
 20
36.20000000000001
 10
4.600000000000003
 20
13.8
 42
0.414213562373095
  0
CIRCLE
  5
117
100
AcDbEntity
  8
Cuisine - Evier-meuble
  6
ByLayer
 62
  256
370
   -1
100
AcDbCircle
 10
29.5
 20
25
 40
5.6
  0
CIRCLE
  5
118
100
AcDbEntity
  8
Cuisine - Evier-meuble
  6
ByLayer
 62
  256
370
   -1
100
AcDbCircle
 10
29.5
 20
25
 40
3.6
  0
LINE
  5
119
100
AcDbEntity
  8
Cuisine - Evier-meuble
  6
CONTINUOUS
 62
    7
370
    0
100
AcDbLine
 10
20.6
 20
25
 11
28.42279726523664
 21
25.06284758040426
  0
LINE
  5
11A
100
AcDbEntity
  8
Cuisine - Evier-meuble
  6
CONTINUOUS
 62
    7
370
    0
100
AcDbLine
 10
30.56779670990637
 20
25.08008029403536
 11
37.65463827222887
 21
25.13701527902846
  0
LINE
  5
11B
100
AcDbEntity
  8
Cuisine - Evier-meuble
  6
CONTINUOUS
 62
    7
370
    0
100
AcDbLine
 10
29.5
 20
26.08416157676777
 11
29.5
 21
33.6
  0
LINE
  5
11C
100
AcDbEntity
  8
Cuisine - Evier-meuble
  6
CONTINUOUS
 62
    7
370
    0
100
AcDbLine
 10
29.5
 20
17.4
 11
29.5
 21
23.93557461805556
  0
LWPOLYLINE
  5
11D
100
AcDbEntity
  8
0
  6
ByLayer
 62
  256
370
   -1
100
AcDbPolyline
 90
    8
 70
    1
 43
0
 10
71.76461069356318
 20
4.599999999999989
 10
54.16461069356318
 20
4.599999999999996
 42
-0.414213562373095
 10
44.96461069356318
 20
13.8
 10
44.96461069356317
 20
36.2
 42
-0.4142135623730951
 10
54.16461069356318
 20
45.39999999999999
 10
71.76461069356318
 20
45.40000000000002
 42
-0.414213562373095
 10
80.96461069356317
 20
36.2
 10
80.96461069356317
 20
13.8
 42
-0.4142135623730945
  0
CIRCLE
  5
11E
100
AcDbEntity
  8
Cuisine - Evier-meuble
  6
ByLayer
 62
  256
370
   -1
100
AcDbCircle
 10
56.06461069356318
 20
25
 40
5.6
  0
CIRCLE
  5
11F
100
AcDbEntity
  8
Cuisine - Evier-meuble
  6
ByLayer
 62
  256
370
   -1
100
AcDbCircle
 10
56.06461069356318
 20
25
 40
3.6
  0
LINE
  5
120
100
AcDbEntity
  8
Cuisine - Evier-meuble
  6
CONTINUOUS
 62
    7
370
    0
100
AcDbLine
 10
64.96461069356317
 20
25
 11
57.14181342832654
 21
25.06284758040426
  0
LINE
  5
121
100
AcDbEntity
  8
Cuisine - Evier-meuble
  6
CONTINUOUS
 62
    7
370
    0
100
AcDbLine
 10
54.99681398365681
 20
25.08008029403536
 11
47.90997242133431
 21
25.13701527902846
  0
LINE
  5
122
100
AcDbEntity
  8
Cuisine - Evier-meuble
  6
CONTINUOUS
 62
    7
370
    0
100
AcDbLine
 10
56.06461069356318
 20
26.08416157676777
 11
56.06461069356318
 21
33.6
  0
LINE
  5
123
100
AcDbEntity
  8
Cuisine - Evier-meuble
  6
CONTINUOUS
 62
    7
370
    0
100
AcDbLine
 10
56.06461069356318
 20
17.4
 11
56.06461069356318
 21
23.93557461805556
  0
LWPOLYLINE
  5
124
100
AcDbEntity
  8
Cuisine - Evier-meuble
  6
ByLayer
 62
  256
370
   -1
100
AcDbPolyline
 90
    8
 70
    1
 43
0
 10
4.6
 20
0
 10
111.4
 20
8.881784197001252e-16
 42
0.4142135623730924
 10
116
 20
4.599999999999985
 10
116
 20
45.4
 42
0.4142135623730961
 10
111.4
 20
50.00000000000001
 10
4.599999999999996
 20
50.00000000000001
 42
0.4142135623730955
 10
-4.440892098500626e-15
 20
45.4
 10
0
 20
4.600000000000012
 42
0.4142135623730957
  0
LINE
  5
125
100
AcDbEntity
  8
Cuisine - Evier-meuble
  6
CONTINUOUS
 62
    7
370
   20
100
AcDbLine
 10
116
 20
4.599999999999994
 11
116
 21
45.40000226566596
  0
LINE
  5
126
100
AcDbEntity
  8
Cuisine - Evier-meuble
  6
CONTINUOUS
 62
    7
370
   25
100
AcDbLine
 10
-8.449783841374405e-16
 20
45.4
 11
-1.234141922057037e-15
 21
4.599999944865822
  0
LINE
  5
127
100
AcDbEntity
  8
Cuisine - Evier-meuble
  6
CONTINUOUS
 62
    7
370
   25
100
AcDbLine
 10
111.4
 20
50
 11
4.599999999999994
 21
50
  0
LWPOLYLINE
  5
128
100
AcDbEntity
  8
Cuisine - Egouttoir
  6
ByLayer
 62
  256
370
   -1
100
AcDbPolyline
 90
    8
 70
    1
 43
0
 10
7.023278929646012
 20
47.70397664360293
 10
109.2941096933626
 20
47.70397664360294
 42
-0.4142135623730961
 10
113.8941096933626
 20
43.10397664360293
 10
113.8941096933626
 20
7.300225093034128
 42
-0.4142135623730955
 10
109.2941096933626
 20
2.700225093034128
 10
7.023278929645995
 20
2.700225093034129
 42
-0.4142135623730948
 10
2.423278929646012
 20
7.300225093034126
 10
2.423278929646012
 20
43.10397664360293
 42
-0.4142135623730975
  0
LWPOLYLINE
  5
129
100
AcDbEntity
  8
Cuisine - Egouttoir
  6
ByLayer
 62
  256
370
   -1
100
AcDbPolyline
 90
    8
 70
    1
 43
0
 10
5.84625773524652
 20
48.74252475630836
 10
110.1249481835269
 20
48.74252475630836
 42
-0.4142135623730959
 10
114.7249481835269
 20
44.14252475630836
 10
114.7249481835269
 20
5.984730816940569
 42
-0.4142135623730987
 10
110.1249481835269
 20
1.384730816940585
 10
5.84625773524652
 20
1.384730816940579
 42
-0.414213562373095
 10
1.246257735246521
 20
5.984730816940581
 10
1.246257735246521
 20
44.14252475630838
 42
-0.4142135623730944
  0
LWPOLYLINE
  5
12A
100
AcDbEntity
  8
Cuisine - Egouttoir
  6
ByLayer
 62
  256
370
   -1
100
AcDbPolyline
 90
    4
 70
    1
 43
0
 10
81.1452258727179
 20
36.83383973061939
 10
112.9247981215042
 20
36.83383973061939
 10
112.9247981215042
 20
12.87799659754738
 10
81.1452258727179
 20
12.87799659754738
  0
ENDBLK
  5
69
330
67
100
AcDbEntity
  8
0
100
AcDbBlockEnd
  0
BLOCK
  5
6B
330
6A
100
AcDbEntity
  8
0
100
AcDbBlockBegin
  2
Cuisine
 70
    0
 10
0
 20
0
  3
Cuisine
  1

  0
ENDBLK
  5
6C
330
6A
100
AcDbEntity
  8
0
100
AcDbBlockEnd
  0
BLOCK
  5
6E
330
6D
100
AcDbEntity
  8
0
100
AcDbBlockBegin
  2
Escaliers_Montée3-Compound-0
 70
    0
 10
0
 20
0
  3
Escaliers_Montée3-Compound-0
  1

  0
LINE
  5
12B
100
AcDbEntity
  8
Compound
  6
ByLayer
 62
  256
370
   -1
100
AcDbLine
 10
0
 20
0
 11
100.0400000008
 21
0
  0
LINE
  5
12C
100
AcDbEntity
  8
Compound
  6
ByLayer
 62
  256
370
   -1
100
AcDbLine
 10
100.0400000008
 20
0
 11
100.0400000008
 21
28.8864257234
  0
LINE
  5
12D
100
AcDbEntity
  8
Compound
  6
ByLayer
 62
  256
370
   -1
100
AcDbLine
 10
8.000000000000001e-10
 20
29.742
 11
100.0400000008
 21
28.8864257234
  0
LINE
  5
12E
100
AcDbEntity
  8
Compound
  6
ByLayer
 62
  256
370
   -1
100
AcDbLine
 10
0
 20
0
 11
8.000000000000001e-10
 21
29.742
  0
LINE
  5
12F
100
AcDbEntity
  8
Compound
  6
ByLayer
 62
  256
370
   -1
100
AcDbLine
 10
-2.5399e-06
 20
24.7418191845
 11
100.0002054343
 21
23.8865832073
  0
LINE
  5
130
100
AcDbEntity
  8
Compound
  6
ByLayer
 62
  256
370
   -1
100
AcDbLine
 10
-1.9204e-06
 20
55.4918191845
 11
-2.5399e-06
 21
24.7418191845
  0
LINE
  5
131
100
AcDbEntity
  8
Compound
  6
ByLayer
 62
  256
370
   -1
100
AcDbLine
 10
100.0002059957
 20
51.7550670194
 11
100.0002054343
 21
23.8865832073
  0
LINE
  5
132
100
AcDbEntity
  8
Compound
  6
ByLayer
 62
  256
370
   -1
100
AcDbLine
 10
-1.9204e-06
 20
55.4918191845
 11
100.0002059957
 21
51.7550670194
  0
LINE
  5
133
100
AcDbEntity
  8
Compound
  6
ByLayer
 62
  256
370
   -1
100
AcDbLine
 10
0.0016871325
 20
50.4706951414
 11
100.002550413
 21
46.7515227671
  0
LINE
  5
134
100
AcDbEntity
  8
Compound
  6
ByLayer
 62
  256
370
   -1
100
AcDbLine
 10
100.002550413
 20
46.7515227671
 11
99.99774772250001
 21
73.3535223336
  0
LINE
  5
135
100
AcDbEntity
  8
Compound
  6
ByLayer
 62
  256
370
   -1
100
AcDbLine
 10
-0.003948448100000001
 20
82.53169464610001
 11
99.99774772250001
 21
73.3535223336
  0
LINE
  5
136
100
AcDbEntity
  8
Compound
  6
ByLayer
 62
  256
370
   -1
100
AcDbLine
 10
0.0016871325
 20
50.4706951414
 11
-0.003948448100000001
 21
82.53169464610001
  0
LINE
  5
137
100
AcDbEntity
  8
Compound
  6
ByLayer
 62
  256
370
   -1
100
AcDbLine
 10
-0.0015132928
 20
77.5104585351
 11
100.0001826744
 21
68.3322840072
  0
LINE
  5
138
100
AcDbEntity
  8
Compound
  6
ByLayer
 62
  256
370
   -1
100
AcDbLine
 10
-0.0051044515
 20
111.3864583447
 11
-0.0015132928
 21
77.5104585351
  0
LINE
  5
139
100
AcDbEntity
  8
Compound
  6
ByLayer
 62
  256
370
   -1
100
AcDbLine
 10
100.0001826744
 20
68.3322840072
 11
99.9980412037
 21
93.2412839151
  0
LINE
  5
13A
100
AcDbEntity
  8
Compound
  6
ByLayer
 62
  256
370
   -1
100
AcDbLine
 10
99.9980412037
 20
93.2412839151
 11
-0.0051044515
 21
111.3864583447
  0
LINE
  5
13B
100
AcDbEntity
  8
Compound
  6
ByLayer
 62
  256
370
   -1
100
AcDbLine
 10
-0.0046102973
 20
106.3044793278
 11
99.99857952740001
 21
88.15954833090001
  0
LINE
  5
13C
100
AcDbEntity
  8
Compound
  6
ByLayer
 62
  256
370
   -1
100
AcDbLine
 10
99.99857952740001
 20
88.15954833090001
 11
99.997038186
 21
110.6615482781
  0
LINE
  5
13D
100
AcDbEntity
  8
Compound
  6
ByLayer
 62
  256
370
   -1
100
AcDbLine
 10
99.997038186
 20
110.6615482781
 11
-0.008403924599999999
 21
142.9314791314
  0
LINE
  5
13E
100
AcDbEntity
  8
Compound
  6
ByLayer
 62
  256
370
   -1
100
AcDbLine
 10
-0.0046102973
 20
106.3044793278
 11
-0.008403924599999999
 21
142.9314791314
  0
LINE
  5
13F
100
AcDbEntity
  8
Compound
  6
ByLayer
 62
  256
370
   -1
100
AcDbLine
 10
-0.007834707000000002
 20
137.6775474915
 11
99.9975729378
 21
105.4075098282
  0
LINE
  5
140
100
AcDbEntity
  8
Compound
  6
ByLayer
 62
  256
370
   -1
100
AcDbLine
 10
99.9963077041
 20
117.498509762
 11
99.9975729378
 21
105.4075098282
  0
LINE
  5
141
100
AcDbEntity
  8
Compound
  6
ByLayer
 62
  256
370
   -1
100
AcDbLine
 10
95.4963077287
 20
117.4980388703
 11
99.9963077041
 21
117.498509762
  0
LINE
  5
142
100
AcDbEntity
  8
Compound
  6
ByLayer
 62
  256
370
   -1
100
AcDbLine
 10
95.49536594530001
 20
126.498038821
 11
95.4963077287
 21
117.4980388703
  0
LINE
  5
143
100
AcDbEntity
  8
Compound
  6
ByLayer
 62
  256
370
   -1
100
AcDbLine
 10
96.0781926412
 20
126.4980998094
 11
95.49536594530001
 21
126.498038821
  0
LINE
  5
144
100
AcDbEntity
  8
Compound
  6
ByLayer
 62
  256
370
   -1
100
AcDbLine
 10
-0.0127423405
 20
184.5765472348
 11
96.0781926412
 21
126.4980998094
  0
LINE
  5
145
100
AcDbEntity
  8
Compound
  6
ByLayer
 62
  256
370
   -1
100
AcDbLine
 10
-0.007834707000000002
 20
137.6775474915
 11
-0.0127423405
 21
184.5765472348
  0
LINE
  5
146
100
AcDbEntity
  8
Compound
  6
ByLayer
 62
  256
370
   -1
100
AcDbLine
 10
-0.0133022511
 20
178.7393370658
 11
95.49361019780001
 21
121.00921949
  0
LINE
  5
147
100
AcDbEntity
  8
Compound
  6
ByLayer
 62
  256
370
   -1
100
AcDbLine
 10
95.4940362289
 20
126.5002194733
 11
95.49361019780001
 21
121.00921949
  0
LINE
  5
148
100
AcDbEntity
  8
Compound
  6
ByLayer
 62
  256
370
   -1
100
AcDbLine
 10
103.5640362042
 20
126.4995933441
 11
95.4940362289
 21
126.5002194733
  0
LINE
  5
149
100
AcDbEntity
  8
Compound
  6
ByLayer
 62
  256
370
   -1
100
AcDbLine
 10
42.9389143598
 20
214.9926350215
 11
103.5640362042
 21
126.4995933441
  0
LINE
  5
14A
100
AcDbEntity
  8
Compound
  6
ByLayer
 62
  256
370
   -1
100
AcDbLine
 10
-0.0160855115
 20
214.9893369575
 11
42.9389143598
 21
214.9926350215
  0
LINE
  5
14B
100
AcDbEntity
  8
Compound
  6
ByLayer
 62
  256
370
   -1
100
AcDbLine
 10
-0.0133022511
 20
178.7393370658
 11
-0.0160855115
 21
214.9893369575
  0
LINE
  5
14C
100
AcDbEntity
  8
Compound
  6
ByLayer
 62
  256
370
   -1
100
AcDbLine
 10
36.8817150076
 20
214.9923757164
 11
97.5041519638
 21
126.497494726
  0
LINE
  5
14D
100
AcDbEntity
  8
Compound
  6
ByLayer
 62
  256
370
   -1
100
AcDbLine
 10
106.6281518346
 20
126.4959594094
 11
97.5041519638
 21
126.497494726
  0
LINE
  5
14E
100
AcDbEntity
  8
Compound
  6
ByLayer
 62
  256
370
   -1
100
AcDbLine
 10
96.18671494360001
 20
214.9951298273
 11
106.6281518346
 21
126.4959594094
  0
LINE
  5
14F
100
AcDbEntity
  8
Compound
  6
ByLayer
 62
  256
370
   -1
100
AcDbLine
 10
36.8817150076
 20
214.9923757164
 11
96.18671494360001
 21
214.9951298273
  0
LINE
  5
150
100
AcDbEntity
  8
Compound
  6
ByLayer
 62
  256
370
   -1
100
AcDbLine
 10
91.15244323980001
 20
214.991678598
 11
101.5938790775
 21
126.4925080559
  0
LINE
  5
151
100
AcDbEntity
  8
Compound
  6
ByLayer
 62
  256
370
   -1
100
AcDbLine
 10
101.5938790775
 20
126.4925080559
 11
109.4948790775
 21
126.4925159554
  0
LINE
  5
152
100
AcDbEntity
  8
Compound
  6
ByLayer
 62
  256
370
   -1
100
AcDbLine
 10
109.4948790775
 20
126.4925159554
 11
109.4948823949
 21
123.1745159554
  0
LINE
  5
153
100
AcDbEntity
  8
Compound
  6
ByLayer
 62
  256
370
   -1
100
AcDbLine
 10
109.4948823949
 20
123.1745159554
 11
145.0544431128
 21
214.9953784952
  0
LINE
  5
154
100
AcDbEntity
  8
Compound
  6
ByLayer
 62
  256
370
   -1
100
AcDbLine
 10
145.0544431128
 20
214.9953784952
 11
91.15244323980001
 21
214.991678598
  0
LINE
  5
155
100
AcDbEntity
  8
Compound
  6
ByLayer
 62
  256
370
   -1
100
AcDbLine
 10
139.6899301299
 20
214.9885040529
 11
105.415286991
 21
126.4855249974
  0
LINE
  5
156
100
AcDbEntity
  8
Compound
  6
ByLayer
 62
  256
370
   -1
100
AcDbLine
 10
105.415286991
 20
126.4855249974
 11
109.492286991
 21
126.4855289694
  0
LINE
  5
157
100
AcDbEntity
  8
Compound
  6
ByLayer
 62
  256
370
   -1
100
AcDbLine
 10
109.492286991
 20
126.4855289694
 11
109.4921699665
 21
118.8805289703
  0
LINE
  5
158
100
AcDbEntity
  8
Compound
  6
ByLayer
 62
  256
370
   -1
100
AcDbLine
 10
109.4921699665
 20
118.8805289703
 11
199.9882239436
 21
197.4065633193
  0
LINE
  5
159
100
AcDbEntity
  8
Compound
  6
ByLayer
 62
  256
370
   -1
100
AcDbLine
 10
199.9882239436
 20
197.4065633193
 11
199.9839301298
 21
214.988562795
  0
LINE
  5
15A
100
AcDbEntity
  8
Compound
  6
ByLayer
 62
  256
370
   -1
100
AcDbLine
 10
199.9839301298
 20
214.988562795
 11
139.6899301299
 21
214.9885040529
  0
LINE
  5
15B
100
AcDbEntity
  8
Compound
  6
ByLayer
 62
  256
370
   -1
100
AcDbLine
 10
200.0042437422
 20
204.0404256828
 11
109.5081918414
 21
125.514388941
  0
LINE
  5
15C
100
AcDbEntity
  8
Compound
  6
ByLayer
 62
  256
370
   -1
100
AcDbLine
 10
109.5081918414
 20
125.514388941
 11
109.5080687199
 21
117.4993889419
  0
LINE
  5
15D
100
AcDbEntity
  8
Compound
  6
ByLayer
 62
  256
370
   -1
100
AcDbLine
 10
109.5080687199
 20
117.4993889419
 11
105.0080687204
 21
117.4994580682
  0
LINE
  5
15E
100
AcDbEntity
  8
Compound
  6
ByLayer
 62
  256
370
   -1
100
AcDbLine
 10
105.0080687204
 20
117.4994580682
 11
105.0079174875
 21
107.6544580694
  0
LINE
  5
15F
100
AcDbEntity
  8
Compound
  6
ByLayer
 62
  256
370
   -1
100
AcDbLine
 10
105.0079174875
 20
107.6544580694
 11
200.0033320361
 21
144.6899414583
  0
LINE
  5
160
100
AcDbEntity
  8
Compound
  6
ByLayer
 62
  256
370
   -1
100
AcDbLine
 10
200.0033320361
 20
144.6899414583
 11
200.0042437422
 21
204.0404256828
  0
LINE
  5
161
100
AcDbEntity
  8
Compound
  6
ByLayer
 62
  256
370
   -1
100
AcDbLine
 10
200.0077125317
 20
150.0582047592
 11
104.9884060268
 21
113.0134039593
  0
LINE
  5
162
100
AcDbEntity
  8
Compound
  6
ByLayer
 62
  256
370
   -1
100
AcDbLine
 10
104.9884060268
 20
113.0134039593
 11
105.0078301956
 21
92.86341332160001
  0
LINE
  5
163
100
AcDbEntity
  8
Compound
  6
ByLayer
 62
  256
370
   -1
100
AcDbLine
 10
105.0078301956
 20
92.86341332160001
 11
200.0071106442
 21
110.8122047639
  0
LINE
  5
164
100
AcDbEntity
  8
Compound
  6
ByLayer
 62
  256
370
   -1
100
AcDbLine
 10
200.0071106442
 20
110.8122047639
 11
200.0077125317
 21
150.0582047592
  0
LINE
  5
165
100
AcDbEntity
  8
Compound
  6
ByLayer
 62
  256
370
   -1
100
AcDbLine
 10
200.0110420449
 20
115.901415339
 11
105.0117630752
 21
97.95261606850001
  0
LINE
  5
166
100
AcDbEntity
  8
Compound
  6
ByLayer
 62
  256
370
   -1
100
AcDbLine
 10
105.0117630752
 20
97.95261606850001
 11
105.01139805
 21
74.02261607130001
  0
LINE
  5
167
100
AcDbEntity
  8
Compound
  6
ByLayer
 62
  256
370
   -1
100
AcDbLine
 10
105.01139805
 20
74.02261607130001
 11
200.0109750777
 21
81.1824153391
  0
LINE
  5
168
100
AcDbEntity
  8
Compound
  6
ByLayer
 62
  256
370
   -1
100
AcDbLine
 10
200.0109750777
 20
81.1824153391
 11
200.0110420449
 21
115.901415339
  0
LINE
  5
169
100
AcDbEntity
  8
Compound
  6
ByLayer
 62
  256
370
   -1
100
AcDbLine
 10
200.013560111
 20
86.1968250404
 11
105.0139856699
 21
79.03699145180001
  0
LINE
  5
16A
100
AcDbEntity
  8
Compound
  6
ByLayer
 62
  256
370
   -1
100
AcDbLine
 10
105.0139856699
 20
79.03699145180001
 11
105.0169960019
 21
52.4879916224
  0
LINE
  5
16B
100
AcDbEntity
  8
Compound
  6
ByLayer
 62
  256
370
   -1
100
AcDbLine
 10
105.0169960019
 20
52.4879916224
 11
200.016913078
 21
54.12382521570001
  0
LINE
  5
16C
100
AcDbEntity
  8
Compound
  6
ByLayer
 62
  256
370
   -1
100
AcDbLine
 10
200.016913078
 20
54.12382521570001
 11
200.013560111
 21
86.1968250404
  0
LINE
  5
16D
100
AcDbEntity
  8
Compound
  6
ByLayer
 62
  256
370
   -1
100
AcDbLine
 10
200.0187497403
 20
59.1246880672
 11
105.0188342125
 21
57.4887645658
  0
LINE
  5
16E
100
AcDbEntity
  8
Compound
  6
ByLayer
 62
  256
370
   -1
100
AcDbLine
 10
105.0188342125
 20
57.4887645658
 11
105.0220921648
 21
28.993764752
  0
LINE
  5
16F
100
AcDbEntity
  8
Compound
  6
ByLayer
 62
  256
370
   -1
100
AcDbLine
 10
105.0220921648
 20
28.993764752
 11
200.0221941717
 21
28.9986882641
  0
LINE
  5
170
100
AcDbEntity
  8
Compound
  6
ByLayer
 62
  256
370
   -1
100
AcDbLine
 10
200.0221941717
 20
28.9986882641
 11
200.0187497403
 21
59.1246880672
  0
LINE
  5
171
100
AcDbEntity
  8
Compound
  6
ByLayer
 62
  256
370
   -1
100
AcDbLine
 10
200.0240144962
 20
33.9989022904
 11
105.0240146333
 21
33.9937990859
  0
LINE
  5
172
100
AcDbEntity
  8
Compound
  6
ByLayer
 62
  256
370
   -1
100
AcDbLine
 10
105.0240146333
 20
33.9937990859
 11
105.024283223
 21
28.9937990931
  0
LINE
  5
173
100
AcDbEntity
  8
Compound
  6
ByLayer
 62
  256
370
   -1
100
AcDbLine
 10
105.024283223
 20
28.9937990931
 11
200.024283086
 21
28.9989022977
  0
LINE
  5
174
100
AcDbEntity
  8
Compound
  6
ByLayer
 62
  256
370
   -1
100
AcDbLine
 10
200.024283086
 20
28.9989022977
 11
200.0240144962
 21
33.9989022904
  0
LINE
  5
175
100
AcDbEntity
  8
Compound
  6
ByLayer
 62
  256
370
   -1
100
AcDbLine
 10
13
 20
5.0000121033
 11
0
 21
5.0000000016
  0
LINE
  5
176
100
AcDbEntity
  8
Compound
  6
ByLayer
 62
  256
370
   -1
100
AcDbLine
 10
13
 20
5.0000121033
 11
12.9999785752
 21
28.0150121033
  0
LINE
  5
177
100
AcDbEntity
  8
Compound
  6
ByLayer
 62
  256
370
   -1
100
AcDbLine
 10
0
 20
5.0000000016
 11
-2.14248e-05
 21
28.0150000016
  0
LINE
  5
178
100
AcDbEntity
  8
Compound
  6
ByLayer
 62
  256
370
   -1
100
AcDbLine
 10
12.9999785752
 20
28.0150121033
 11
-2.14248e-05
 21
28.0150000016
  0
LINE
  5
179
100
AcDbEntity
  8
Compound
  6
ByLayer
 62
  256
370
   -1
100
AcDbLine
 10
12.9999785752
 20
28.0150121033
 11
12.9999546045
 21
53.7650121033
  0
LINE
  5
17A
100
AcDbEntity
  8
Compound
  6
ByLayer
 62
  256
370
   -1
100
AcDbLine
 10
-2.14248e-05
 20
28.0150000016
 11
-4.53955e-05
 21
53.76500000160001
  0
LINE
  5
17B
100
AcDbEntity
  8
Compound
  6
ByLayer
 62
  256
370
   -1
100
AcDbLine
 10
12.9999546044
 20
53.7650121033
 11
-4.53956e-05
 21
53.76500000160001
  0
LINE
  5
17C
100
AcDbEntity
  8
Compound
  6
ByLayer
 62
  256
370
   -1
100
AcDbLine
 10
12.9999546044
 20
53.7650121033
 11
12.999929417
 21
80.82201210330001
  0
LINE
  5
17D
100
AcDbEntity
  8
Compound
  6
ByLayer
 62
  256
370
   -1
100
AcDbLine
 10
-4.53956e-05
 20
53.76500000160001
 11
-7.0583e-05
 21
80.8220000016
  0
LINE
  5
17E
100
AcDbEntity
  8
Compound
  6
ByLayer
 62
  256
370
   -1
100
AcDbLine
 10
12.999929417
 20
80.82201210330001
 11
-7.0583e-05
 21
80.8220000016
  0
LINE
  5
17F
100
AcDbEntity
  8
Compound
  6
ByLayer
 62
  256
370
   -1
100
AcDbLine
 10
12.999929417
 20
80.82201210330001
 11
12.9999025567
 21
109.6760121033
  0
LINE
  5
180
100
AcDbEntity
  8
Compound
  6
ByLayer
 62
  256
370
   -1
100
AcDbLine
 10
-7.0583e-05
 20
80.8220000016
 11
-9.74433e-05
 21
109.6760000016
  0
LINE
  5
181
100
AcDbEntity
  8
Compound
  6
ByLayer
 62
  256
370
   -1
100
AcDbLine
 10
12.9999025567
 20
109.6760121033
 11
-9.74433e-05
 21
109.6760000016
  0
LINE
  5
182
100
AcDbEntity
  8
Compound
  6
ByLayer
 62
  256
370
   -1
100
AcDbLine
 10
12.9999025567
 20
109.6760121033
 11
12.9998731913
 21
141.2210121033
  0
LINE
  5
183
100
AcDbEntity
  8
Compound
  6
ByLayer
 62
  256
370
   -1
100
AcDbLine
 10
-9.74433e-05
 20
109.6760000016
 11
-0.0001268087
 21
141.2210000015
  0
LINE
  5
184
100
AcDbEntity
  8
Compound
  6
ByLayer
 62
  256
370
   -1
100
AcDbLine
 10
12.9998731913
 20
141.2210121033
 11
-0.0001268087
 21
141.2210000015
  0
LINE
  5
185
100
AcDbEntity
  8
Compound
  6
ByLayer
 62
  256
370
   -1
100
AcDbLine
 10
12.9998731913
 20
141.2210121033
 11
12.9998344239
 21
182.8660121033
  0
LINE
  5
186
100
AcDbEntity
  8
Compound
  6
ByLayer
 62
  256
370
   -1
100
AcDbLine
 10
-0.0001268087
 20
141.2210000015
 11
-0.0001655761
 21
182.8660000015
  0
LINE
  5
187
100
AcDbEntity
  8
Compound
  6
ByLayer
 62
  256
370
   -1
100
AcDbLine
 10
12.9998344238
 20
182.8660121033
 11
-0.0001655762
 21
182.8660000015
  0
LINE
  5
188
100
AcDbEntity
  8
Compound
  6
ByLayer
 62
  256
370
   -1
100
AcDbLine
 10
12.9998160227
 20
202.6330121033
 11
-0.0001839773
 21
202.6330000015
  0
LINE
  5
189
100
AcDbEntity
  8
Compound
  6
ByLayer
 62
  256
370
   -1
100
AcDbLine
 10
12.9998344238
 20
182.8660121033
 11
12.9998160227
 21
202.6330121033
  0
LINE
  5
18A
100
AcDbEntity
  8
Compound
  6
ByLayer
 62
  256
370
   -1
100
AcDbLine
 10
-0.0001655762
 20
182.8660000015
 11
-0.0001839773
 21
202.6330000015
  0
LINE
  5
18B
100
AcDbEntity
  8
Compound
  6
ByLayer
 62
  256
370
   -1
100
AcDbLine
 10
197.2308167646
 20
201.9886393149
 11
197.2308043959
 21
214.9885601145
  0
LINE
  5
18C
100
AcDbEntity
  8
Compound
  6
ByLayer
 62
  256
370
   -1
100
AcDbLine
 10
145.0678167646
 20
201.9885896847
 11
145.0678043959
 21
214.9885104842
  0
LINE
  5
18D
100
AcDbEntity
  8
Compound
  6
ByLayer
 62
  256
370
   -1
100
AcDbLine
 10
197.2308167646
 20
201.9886393149
 11
145.0678167646
 21
201.9885896847
  0
LINE
  5
18E
100
AcDbEntity
  8
Compound
  6
ByLayer
 62
  256
370
   -1
100
AcDbLine
 10
197.2308043959
 20
214.9885601145
 11
145.0678043959
 21
214.9885104842
  0
LINE
  5
18F
100
AcDbEntity
  8
Compound
  6
ByLayer
 62
  256
370
   -1
100
AcDbLine
 10
197.2308037837
 20
215.6324317071
 11
197.2308043959
 21
214.9885601145
  0
LINE
  5
190
100
AcDbEntity
  8
Compound
  6
ByLayer
 62
  256
370
   -1
100
AcDbLine
 10
145.0678043959
 20
214.9885104842
 11
145.0678043337
 21
215.0539601978
  0
LINE
  5
191
100
AcDbEntity
  8
Compound
  6
ByLayer
 62
  256
370
   -1
100
AcDbLine
 10
-0.000183422
 20
202.184800801
 11
61.83917939880001
 21
202.1848596378
  0
LINE
  5
192
100
AcDbEntity
  8
Compound
  6
ByLayer
 62
  256
370
   -1
100
AcDbLine
 10
96.2008166402
 20
202.1194426175
 11
61.9347311601
 21
202.1194100151
  0
LINE
  5
193
100
AcDbEntity
  8
Compound
  6
ByLayer
 62
  256
370
   -1
100
AcDbLine
 10
145.0678167024
 20
202.0540393982
 11
96.2008167024
 21
202.0539929039
  0
LINE
  5
194
100
AcDbEntity
  8
Compound
  6
ByLayer
 62
  256
370
   -1
100
AcDbLine
 10
145.0678043337
 20
215.0539601978
 11
96.20080433370001
 21
215.0539137035
  0
LINE
  5
195
100
AcDbEntity
  8
Compound
  6
ByLayer
 62
  256
370
   -1
100
AcDbLine
 10
96.20080433370001
 20
215.0539137035
 11
96.2008042715
 21
215.119363417
  0
LINE
  5
196
100
AcDbEntity
  8
Compound
  6
ByLayer
 62
  256
370
   -1
100
AcDbLine
 10
96.2008042715
 20
215.119363417
 11
42.9558042715
 21
215.1193127573
  0
LINE
  5
197
100
AcDbEntity
  8
Compound
  6
ByLayer
 62
  256
370
   -1
100
AcDbLine
 10
42.9558042715
 20
215.1193127573
 11
42.9558042093
 21
215.1847624708
  0
LINE
  5
198
100
AcDbEntity
  8
Compound
  6
ByLayer
 62
  256
370
   -1
100
AcDbLine
 10
42.9558042093
 20
215.1847624708
 11
-0.0001957907
 21
215.1847216005
  0
LINE
  5
199
100
AcDbEntity
  8
Compound
  6
ByLayer
 62
  256
370
   -1
100
AcDbLine
 10
-0.0001957907
 20
215.1847216005
 11
-0.0001962163
 21
215.6322440526
  0
LINE
  5
19A
100
AcDbEntity
  8
Compound
  6
ByLayer
 62
  256
370
   -1
100
AcDbLine
 10
-0.0001962163
 20
215.6322440526
 11
197.2308037837
 21
215.6324317071
  0
LINE
  5
19B
100
AcDbEntity
  8
Compound
  6
ByLayer
 62
  256
370
   -1
100
AcDbLine
 10
96.2008167024
 20
202.0539929039
 11
96.20080433370001
 21
215.0539137035
  0
LINE
  5
19C
100
AcDbEntity
  8
Compound
  6
ByLayer
 62
  256
370
   -1
100
AcDbLine
 10
-0.000183422
 20
202.184800801
 11
-0.0001957907
 21
215.1847216005
  0
LINE
  5
19D
100
AcDbEntity
  8
Compound
  6
ByLayer
 62
  256
370
   -1
100
AcDbLine
 10
61.9347311601
 20
202.1194100151
 11
42.9558042715
 21
215.1193127573
  0
LINE
  5
19E
100
AcDbEntity
  8
Compound
  6
ByLayer
 62
  256
370
   -1
100
AcDbLine
 10
105.2728274895
 20
33.4054574183
 11
118.2728076894
 21
33.428146687
  0
LINE
  5
19F
100
AcDbEntity
  8
Compound
  6
ByLayer
 62
  256
370
   -1
100
AcDbLine
 10
105.2403992884
 20
51.9854291193
 11
118.2403794883
 21
52.0081183881
  0
LINE
  5
1A0
100
AcDbEntity
  8
Compound
  6
ByLayer
 62
  256
370
   -1
100
AcDbLine
 10
105.2728274895
 20
33.4054574183
 11
105.2403992884
 21
51.9854291193
  0
LINE
  5
1A1
100
AcDbEntity
  8
Compound
  6
ByLayer
 62
  256
370
   -1
100
AcDbLine
 10
118.2728076894
 20
33.428146687
 11
118.2403794883
 21
52.0081183881
  0
LINE
  5
1A2
100
AcDbEntity
  8
Compound
  6
ByLayer
 62
  256
370
   -1
100
AcDbLine
 10
105.2728274895
 20
33.4054574183
 11
105.2795836556
 21
29.5344633141
  0
LINE
  5
1A3
100
AcDbEntity
  8
Compound
  6
ByLayer
 62
  256
370
   -1
100
AcDbLine
 10
105.2795836556
 20
29.5344633141
 11
105.3212603516
 21
5.6554996839
  0
LINE
  5
1A4
100
AcDbEntity
  8
Compound
  6
ByLayer
 62
  256
370
   -1
100
AcDbLine
 10
105.1098295281
 20
126.7963151757
 11
105.1168108415
 21
122.796321268
  0
LINE
  5
1A5
100
AcDbEntity
  8
Compound
  6
ByLayer
 62
  256
370
   -1
100
AcDbLine
 10
105.1242930642
 20
118.5093277975
 11
105.1168108415
 21
122.796321268
  0
LINE
  5
1A6
100
AcDbEntity
  8
Compound
  6
ByLayer
 62
  256
370
   -1
100
AcDbLine
 10
105.1443643404
 20
107.009345313
 11
105.1242930642
 21
118.5093277975
  0
LINE
  5
1A7
100
AcDbEntity
  8
Compound
  6
ByLayer
 62
  256
370
   -1
100
AcDbLine
 10
105.1684306733
 20
93.2203663148
 11
105.1443643404
 21
107.009345313
  0
LINE
  5
1A8
100
AcDbEntity
  8
Compound
  6
ByLayer
 62
  256
370
   -1
100
AcDbLine
 10
105.2023057515
 20
73.8113958764
 11
105.1684306733
 21
93.2203663148
  0
LINE
  5
1A9
100
AcDbEntity
  8
Compound
  6
ByLayer
 62
  256
370
   -1
100
AcDbLine
 10
105.2403992884
 20
51.9854291193
 11
105.2023057515
 21
73.8113958764
  0
LINE
  5
1AA
100
AcDbEntity
  8
Compound
  6
ByLayer
 62
  256
370
   -1
100
AcDbLine
 10
118.2403794883
 20
52.0081183881
 11
118.2022859514
 21
73.83408514520001
  0
LINE
  5
1AB
100
AcDbEntity
  8
Compound
  6
ByLayer
 62
  256
370
   -1
100
AcDbLine
 10
118.2022859514
 20
73.83408514520001
 11
118.1684108731
 21
93.24305558360001
  0
LINE
  5
1AC
100
AcDbEntity
  8
Compound
  6
ByLayer
 62
  256
370
   -1
100
AcDbLine
 10
118.1684108731
 20
93.24305558360001
 11
118.1443445403
 21
107.0320345818
  0
LINE
  5
1AD
100
AcDbEntity
  8
Compound
  6
ByLayer
 62
  256
370
   -1
100
AcDbLine
 10
118.1443445403
 20
107.0320345818
 11
118.1242732641
 21
118.5320170663
  0
LINE
  5
1AE
100
AcDbEntity
  8
Compound
  6
ByLayer
 62
  256
370
   -1
100
AcDbLine
 10
118.1242732641
 20
118.5320170663
 11
118.1167910414
 21
122.8190105368
  0
LINE
  5
1AF
100
AcDbEntity
  8
Compound
  6
ByLayer
 62
  256
370
   -1
100
AcDbLine
 10
118.1098097279
 20
126.8190044444
 11
118.1167910414
 21
122.8190105368
  0
LINE
  5
1B0
100
AcDbEntity
  8
Compound
  6
ByLayer
 62
  256
370
   -1
100
AcDbLine
 10
105.1098295281
 20
126.7963151757
 11
118.1098097279
 21
126.8190044444
  0
LINE
  5
1B1
100
AcDbEntity
  8
Compound
  6
ByLayer
 62
  256
370
   -1
100
AcDbLine
 10
105.2795836556
 20
29.5344633141
 11
95.27959888650001
 21
29.5170100305
  0
LINE
  5
1B2
100
AcDbEntity
  8
Compound
  6
ByLayer
 62
  256
370
   -1
100
AcDbLine
 10
95.23967100940001
 20
52.39397518680001
 11
95.27959888650001
 21
29.5170100305
  0
LINE
  5
1B3
100
AcDbEntity
  8
Compound
  6
ByLayer
 62
  256
370
   -1
100
AcDbLine
 10
105.3212603516
 20
5.6554996839
 11
95.32127558250001
 21
5.6380464003
  0
LINE
  5
1B4
100
AcDbEntity
  8
Compound
  6
ByLayer
 62
  256
370
   -1
100
AcDbLine
 10
95.27959888650001
 20
29.5170100305
 11
95.32127558250001
 21
5.6380464003
  0
LINE
  5
1B5
100
AcDbEntity
  8
Compound
  6
ByLayer
 62
  256
370
   -1
100
AcDbLine
 10
105.1115748564
 20
125.7963166988
 11
102.0485795216
 21
125.790970758
  0
LINE
  5
1B6
100
AcDbEntity
  8
Compound
  6
ByLayer
 62
  256
370
   -1
100
AcDbLine
 10
102.0485795216
 20
125.790970758
 11
95.64858926940001
 21
125.7798006564
  0
LINE
  5
1B7
100
AcDbEntity
  8
Compound
  6
ByLayer
 62
  256
370
   -1
100
AcDbLine
 10
105.1098295281
 20
126.7963151757
 11
105.104593543
 21
129.7963106064
  0
LINE
  5
1B8
100
AcDbEntity
  8
Compound
  6
ByLayer
 62
  256
370
   -1
100
AcDbLine
 10
102.0485795216
 20
125.790970758
 11
102.0415982082
 21
129.7909646656
  0
LINE
  5
1B9
100
AcDbEntity
  8
Compound
  6
ByLayer
 62
  256
370
   -1
100
AcDbLine
 10
105.104593543
 20
129.7963106064
 11
102.0415982082
 21
129.7909646656
  0
LINE
  5
1BA
100
AcDbEntity
  8
Compound
  6
ByLayer
 62
  256
370
   -1
100
AcDbLine
 10
105.1168108415
 20
122.796321268
 11
118.1167910414
 21
122.8190105368
  0
LINE
  5
1BB
100
AcDbEntity
  8
Compound
  6
ByLayer
 62
  256
370
   -1
100
AcDbLine
 10
105.1242930642
 20
118.5093277975
 11
118.1242732641
 21
118.5320170663
  0
LINE
  5
1BC
100
AcDbEntity
  8
Compound
  6
ByLayer
 62
  256
370
   -1
100
AcDbLine
 10
105.1443643404
 20
107.009345313
 11
118.1443445403
 21
107.0320345818
  0
LINE
  5
1BD
100
AcDbEntity
  8
Compound
  6
ByLayer
 62
  256
370
   -1
100
AcDbLine
 10
105.1684306733
 20
93.2203663148
 11
118.1684108731
 21
93.24305558360001
  0
LINE
  5
1BE
100
AcDbEntity
  8
Compound
  6
ByLayer
 62
  256
370
   -1
100
AcDbLine
 10
105.2023057515
 20
73.8113958764
 11
118.2022859514
 21
73.83408514520001
  0
LINE
  5
1BF
100
AcDbEntity
  8
Compound
  6
ByLayer
 62
  256
370
   -1
100
AcDbLine
 10
105.2396557786
 20
52.41142847050001
 11
95.23967100940001
 21
52.39397518680001
  0
LINE
  5
1C0
100
AcDbEntity
  8
Compound
  6
ByLayer
 62
  256
370
   -1
100
AcDbLine
 10
95.2019736621
 20
73.9929422897
 11
95.23967100940001
 21
52.39397518680001
  0
LINE
  5
1C1
100
AcDbEntity
  8
Compound
  6
ByLayer
 62
  256
370
   -1
100
AcDbLine
 10
105.2019584312
 20
74.0103955733
 11
95.2019736621
 21
73.9929422897
  0
LINE
  5
1C2
100
AcDbEntity
  8
Compound
  6
ByLayer
 62
  256
370
   -1
100
AcDbLine
 10
95.171666035
 20
91.3579158413
 11
95.2019736621
 21
73.9929422897
  0
LINE
  5
1C3
100
AcDbEntity
  8
Compound
  6
ByLayer
 62
  256
370
   -1
100
AcDbLine
 10
105.1716508041
 20
91.3753691249
 11
95.171666035
 21
91.3579158413
  0
LINE
  5
1C4
100
AcDbEntity
  8
Compound
  6
ByLayer
 62
  256
370
   -1
100
AcDbLine
 10
95.14126066950001
 20
108.7788893076
 11
95.171666035
 21
91.3579158413
  0
LINE
  5
1C5
100
AcDbEntity
  8
Compound
  6
ByLayer
 62
  256
370
   -1
100
AcDbLine
 10
105.1412454386
 20
108.7963425912
 11
95.14126066950001
 21
108.7788893076
  0
LINE
  5
1C6
100
AcDbEntity
  8
Compound
  6
ByLayer
 62
  256
370
   -1
100
AcDbLine
 10
104.9771845723
 20
202.7961994211
 11
94.97719980310001
 21
202.7787461374
  0
LINE
  5
1C7
100
AcDbEntity
  8
Compound
  6
ByLayer
 62
  256
370
   -1
100
AcDbLine
 10
104.9771845723
 20
202.7961994211
 11
105.104593543
 21
129.7963106064
  0
LINE
  5
1C8
100
AcDbEntity
  8
Compound
  6
ByLayer
 62
  256
370
   -1
100
AcDbLine
 10
94.97719980310001
 20
202.7787461374
 11
95.14126066950001
 21
108.7788893076
  0
LINE
  5
1C9
100
AcDbEntity
  8
Compound
  6
ByLayer
 62
  256
370
   -1
100
AcDbLine
 10
95.64858926940001
 20
125.7798006564
 11
95.6416079559
 21
129.7797945641
  0
LINE
  5
1CA
100
AcDbEntity
  8
Compound
  6
ByLayer
 62
  256
370
   -1
100
AcDbLine
 10
102.0415982082
 20
129.7909646656
 11
95.6416079559
 21
129.7797945641
  0
ENDBLK
  5
6F
330
6D
100
AcDbEntity
  8
0
100
AcDbBlockEnd
  0
ENDSEC
  0
SECTION
  2
ENTITIES
  0
HATCH
  5
1CB
100
AcDbEntity
  8
RDC - Murs
  6
ByLayer
 62
  256
370
   -1
100
AcDbHatch
 10
0
 20
0
 30
0
210
0
220
0
230
1
  2
angle45
 70
    0
 71
    0
 91
    1
 92
    0
 93
    8
 72
    1
 10
315
 20
0
 11
315.5923694779116
 21
147.5
 72
    1
 10
315.5923694779116
 20
147.5
 11
345.5923694779116
 21
147.5
 72
    1
 10
345.5923694779116
 20
147.5
 11
345
 21
0
 72
    1
 10
345
 20
0
 11
353
 21
0
 72
    1
 10
353
 20
0
 11
353
 21
-40
 72
    1
 10
353
 20
-40
 11
207
 21
-40
 72
    1
 10
207
 20
-40
 11
207
 21
0
 72
    1
 10
207
 20
0
 11
315
 21
0
 97
    0
 75
    0
 76
    1
 52
0
 41
0.5
 77
    0
 78
    0
 98
    0
  0
HATCH
  5
1CC
100
AcDbEntity
  8
RDC - Murs
  6
ByLayer
 62
  256
370
   -1
100
AcDbHatch
 10
0
 20
0
 30
0
210
0
220
0
230
1
  2
angle45
 70
    0
 71
    0
 91
    1
 92
    0
 93
   16
 72
    1
 10
841
 20
996
 11
833
 21
0
 72
    1
 10
833
 20
0
 11
693
 21
0
 72
    1
 10
693
 20
0
 11
693
 21
-40
 72
    1
 10
693
 20
-40
 11
873
 21
-40
 72
    1
 10
873
 20
-40
 11
871
 21
1036
 72
    1
 10
871
 20
1036
 11
701
 21
1036
 72
    1
 10
701
 20
1036
 11
701
 21
996
 72
    1
 10
701
 20
996
 11
841
 21
996
 72
    1
 10
464
 20
1036
 11
463.9999999999999
 21
996
 72
    1
 10
463.9999999999999
 20
996
 11
611
 21
996
 72
    1
 10
611
 20
996
 11
611
 21
1036
 72
    1
 10
611
 20
1036
 11
464
 21
1036
 72
    1
 10
453
 20
-7.175991754593269e-06
 11
453
 21
-40
 72
    1
 10
452.9999999999999
 20
-40
 11
593
 21
-40
 72
    1
 10
593
 20
-40
 11
593
 21
0
 72
    1
 10
593
 20
0
 11
453
 21
-7.17599e-06
 97
    0
 75
    0
 76
    1
 52
0
 41
0.5
 77
    0
 78
    0
 98
    0
  0
HATCH
  5
1CD
100
AcDbEntity
  8
RDC - Murs
  6
ByLayer
 62
  256
370
   -1
100
AcDbHatch
 10
0
 20
0
 30
0
210
0
220
0
230
1
  2
angle45
 70
    0
 71
    0
 91
    1
 92
    0
 93
   12
 72
    1
 10
318.2590763052209
 20
811.5100000000001
 11
319
 21
996
 72
    1
 10
319
 20
996
 11
207
 21
996
 72
    1
 10
207
 20
996
 11
207
 21
1036
 72
    1
 10
207
 20
1036
 11
358
 21
1036
 72
    1
 10
358
 20
1036
 11
358
 21
996
 72
    1
 10
358
 20
996
 11
345
 21
996
 72
    1
 10
345
 20
996
 11
345
 21
811.51
 72
    1
 10
345
 20
811.51
 11
318.2590763052209
 21
811.5100000000001
 72
    1
 10
345
 20
247.5
 11
345
 21
711.1319999999999
 72
    1
 10
345
 20
711.1319999999999
 11
315.994
 21
711.1319999999999
 72
    1
 10
315.994
 20
711.1319999999999
 11
315.994
 21
247.5
 72
    1
 10
315.994
 20
247.5
 11
345
 21
247.5
 97
    0
 75
    0
 76
    1
 52
0
 41
0.5
 77
    0
 78
    0
 98
    0
  0
HATCH
  5
1CE
100
AcDbEntity
  8
RDC - Murs
  6
ByLayer
 62
  256
370
   -1
100
AcDbHatch
 10
0
 20
0
 30
0
210
0
220
0
230
1
  2
angle45
 70
    0
 71
    0
 91
    1
 92
    0
 93
    8
 72
    1
 10
-44
 20
-40
 11
-44
 21
1036
 72
    1
 10
-44
 20
1036
 11
117
 21
1036
 72
    1
 10
117
 20
1036
 11
117
 21
996
 72
    1
 10
117
 20
996
 11
-4
 21
996
 72
    1
 10
-4
 20
996
 11
0
 21
0
 72
    1
 10
0
 20
0
 11
107
 21
0
 72
    1
 10
107
 20
0
 11
107
 21
-40
 72
    1
 10
107
 20
-40
 11
-44
 21
-40
 97
    0
 75
    0
 76
    1
 52
0
 41
0.5
 77
    0
 78
    0
 98
    0
  0
HATCH
  5
1CF
100
AcDbEntity
  8
RDC - Murs
  6
ByLayer
 62
  256
370
   -1
100
AcDbHatch
 10
0
 20
0
 30
0
210
0
220
0
230
1
  2
angle45
 70
    0
 71
    0
 91
    1
 92
    0
 93
    8
 72
    1
 10
841
 20
996
 11
833
 21
0
 72
    1
 10
833
 20
0
 11
693
 21
0
 72
    1
 10
693
 20
0
 11
693
 21
-40
 72
    1
 10
693
 20
-40
 11
873
 21
-40
 72
    1
 10
873
 20
-40
 11
871
 21
1036
 72
    1
 10
871
 20
1036
 11
701
 21
1036
 72
    1
 10
701
 20
1036
 11
701
 21
996
 72
    1
 10
701
 20
996
 11
841
 21
996
 97
    0
 75
    0
 76
    1
 52
0
 41
1
 77
    0
 78
    0
 98
    0
  0
HATCH
  5
1D0
100
AcDbEntity
  8
RDC - Murs
  6
ByLayer
 62
  256
370
   -1
100
AcDbHatch
 10
0
 20
0
 30
0
210
0
220
0
230
1
  2
angle45
 70
    0
 71
    0
 91
    1
 92
    0
 93
    4
 72
    1
 10
464
 20
1036
 11
463.9999999999999
 21
996
 72
    1
 10
463.9999999999999
 20
996
 11
611
 21
996
 72
    1
 10
611
 20
996
 11
611
 21
1036
 72
    1
 10
611
 20
1036
 11
464
 21
1036
 97
    0
 75
    0
 76
    1
 52
0
 41
1
 77
    0
 78
    0
 98
    0
  0
HATCH
  5
1D1
100
AcDbEntity
  8
RDC - Murs
  6
ByLayer
 62
  256
370
   -1
100
AcDbHatch
 10
0
 20
0
 30
0
210
0
220
0
230
1
  2
angle45
 70
    0
 71
    0
 91
    1
 92
    0
 93
    8
 72
    1
 10
318.2590763052209
 20
811.5100000000001
 11
319
 21
996
 72
    1
 10
319
 20
996
 11
207
 21
996
 72
    1
 10
207
 20
996
 11
207
 21
1036
 72
    1
 10
207
 20
1036
 11
358
 21
1036
 72
    1
 10
358
 20
1036
 11
358
 21
996
 72
    1
 10
358
 20
996
 11
345
 21
996
 72
    1
 10
345
 20
996
 11
345
 21
811.51
 72
    1
 10
345
 20
811.51
 11
318.2590763052209
 21
811.5100000000001
 97
    0
 75
    0
 76
    1
 52
0
 41
1
 77
    0
 78
    0
 98
    0
  0
HATCH
  5
1D2
100
AcDbEntity
  8
RDC - Murs
  6
ByLayer
 62
  256
370
   -1
100
AcDbHatch
 10
0
 20
0
 30
0
210
0
220
0
230
1
  2
angle45
 70
    0
 71
    0
 91
    1
 92
    0
 93
    4
 72
    1
 10
345
 20
247.5
 11
345
 21
711.1319999999999
 72
    1
 10
345
 20
711.1319999999999
 11
315.994
 21
711.1319999999999
 72
    1
 10
315.994
 20
711.1319999999999
 11
315.994
 21
247.5
 72
    1
 10
315.994
 20
247.5
 11
345
 21
247.5
 97
    0
 75
    0
 76
    1
 52
0
 41
1
 77
    0
 78
    0
 98
    0
  0
HATCH
  5
1D3
100
AcDbEntity
  8
Z - Dimensions
  6
ByLayer
 62
  256
370
   -1
100
AcDbHatch
 10
0
 20
0
 30
0
210
0
220
0
230
1
  2
angle45
 70
    0
 71
    0
 91
    1
 92
    0
 93
    4
 72
    1
 10
453
 20
-7.175991754593269e-06
 11
453
 21
-40
 72
    1
 10
452.9999999999999
 20
-40
 11
593
 21
-40
 72
    1
 10
593
 20
-40
 11
593
 21
0
 72
    1
 10
593
 20
0
 11
453
 21
-7.17599e-06
 97
    0
 75
    0
 76
    1
 52
0
 41
1
 77
    0
 78
    0
 98
    0
  0
HATCH
  5
1D4
100
AcDbEntity
  8
Z - Dimensions
  6
ByLayer
 62
  256
370
   -1
100
AcDbHatch
 10
0
 20
0
 30
0
210
0
220
0
230
1
  2
angle45
 70
    0
 71
    0
 91
    1
 92
    0
 93
    4
 72
    1
 10
453
 20
-7.175991754593269e-06
 11
453
 21
-40
 72
    1
 10
452.9999999999999
 20
-40
 11
593
 21
-40
 72
    1
 10
593
 20
-40
 11
593
 21
0
 72
    1
 10
593
 20
0
 11
453
 21
-7.17599e-06
 97
    0
 75
    0
 76
    1
 52
0
 41
1
 77
    0
 78
    0
 98
    0
  0
HATCH
  5
1D5
100
AcDbEntity
  8
RDC - Cloisons petit côté
  6
ByLayer
 62
  256
370
   -1
100
AcDbHatch
 10
0
 20
0
 30
0
210
0
220
0
230
1
  2
box
 70
    0
 71
    0
 91
    1
 92
    0
 93
   18
 72
    1
 10
-2.26707
 20
564.5
 11
190.75
 21
564.4
 72
    1
 10
190.75
 20
564.4
 11
190.75
 21
554.4
 72
    1
 10
190.75
 20
554.4
 11
131.564
 21
554.288
 72
    1
 10
131.564
 20
554.288
 11
131.486
 21
456.664
 72
    1
 10
131.486
 20
456.664
 11
188.513
 21
456.538
 72
    1
 10
188.513
 20
456.538
 11
188.513
 21
362
 72
    1
 10
188.513
 20
362
 11
316.5
 21
362
 72
    1
 10
316.5
 20
362
 11
316.414
 21
352
 72
    1
 10
316.414
 20
352
 11
188.513
 21
352
 72
    1
 10
188.513
 20
352
 11
188.513
 21
295
 72
    1
 10
188.513
 20
295
 11
157.514
 21
295
 72
    1
 10
157.514
 20
295
 11
157.514
 21
305
 72
    1
 10
157.514
 20
305
 11
178.513
 21
305.048
 72
    1
 10
178.513
 20
305.048
 11
178.513
 21
445.038
 72
    1
 10
178.513
 20
445.038
 11
120.616
 21
445.038
 72
    1
 10
120.616
 20
445.038
 11
120.418
 21
554.638
 72
    1
 10
120.418
 20
554.638
 11
-2.23
 21
554.5
 72
    1
 10
-2.23
 20
554.5
 11
-2.26707
 21
564.5
 97
    0
 75
    0
 76
    1
 52
0.1745329251994329
 41
1
 77
    0
 78
    0
 98
    0
  0
HATCH
  5
1D6
100
AcDbEntity
  8
RDC - Cloisons petit côté
  6
ByLayer
 62
  256
370
   -1
100
AcDbHatch
 10
0
 20
0
 30
0
210
0
220
0
230
1
  2
box
 70
    0
 71
    0
 91
    1
 92
    0
 93
    6
 72
    1
 10
275.75
 20
564.4
 11
317.267
 21
564.5
 72
    1
 10
317.267
 20
564.5
 11
317.267
 21
564.4829999999982
 72
    1
 10
317.267
 20
564.4829999999982
 11
317.267
 21
554.5
 72
    1
 10
317.267
 20
554.5
 11
275.75
 21
554.4
 72
    1
 10
275.75
 20
554.4
 11
275.75
 21
564.4
 72
    1
 10
275.75
 20
564.4
 11
317.2670682737528
 21
564.5000001644477
 97
    0
 75
    0
 76
    1
 52
0.1745329251994329
 41
1
 77
    0
 78
    0
 98
    0
  0
HATCH
  5
1D7
100
AcDbEntity
  8
RDC - Cloisons petit côté
  6
ByLayer
 62
  256
370
   -1
100
AcDbHatch
 10
0
 20
0
 30
0
210
0
220
0
230
1
  2
box
 70
    0
 71
    0
 91
    1
 92
    0
 93
    4
 72
    1
 10
72.514
 20
305
 11
72.514
 21
295.0000001810018
 72
    1
 10
72.514
 20
295
 11
-1.22
 21
295
 72
    1
 10
-1.22
 20
295
 11
-1.3
 21
305.048
 72
    1
 10
-1.3
 20
305.048
 11
72.514
 21
305
 97
    0
 75
    0
 76
    1
 52
0.1745329251994329
 41
1
 77
    0
 78
    0
 98
    0
  0
HATCH
  5
1D8
100
AcDbEntity
  8
RDC - Cloisons petit côté
  6
ByLayer
 62
  256
370
   -1
100
AcDbHatch
 10
0
 20
0
 30
0
210
0
220
0
230
1
  2
box
 70
    0
 71
    0
 91
    1
 92
    0
 93
    8
 72
    1
 10
345
 20
300
 11
463
 21
300
 72
    1
 10
463
 20
300
 11
463
 21
247.5
 72
    1
 10
463
 20
247.5
 11
473
 21
247.5
 72
    1
 10
473
 20
247.5
 11
473
 21
300
 72
    1
 10
473
 20
300
 11
593
 21
300
 72
    1
 10
593
 20
300
 11
593
 21
310
 72
    1
 10
593
 20
310
 11
345
 21
310
 72
    1
 10
345
 20
310
 11
345
 21
300
 97
    0
 75
    0
 76
    1
 52
0.1745329251994329
 41
1
 77
    0
 78
    0
 98
    0
  0
HATCH
  5
1D9
100
AcDbEntity
  8
RDC - Cloisons petit côté
  6
ByLayer
 62
  256
370
   -1
100
AcDbHatch
 10
0
 20
0
 30
0
210
0
220
0
230
1
  2
box
 70
    0
 71
    0
 91
    1
 92
    0
 93
    4
 72
    1
 10
473
 20
0
 11
473
 21
147.5
 72
    1
 10
473
 20
147.5
 11
463
 21
147.5
 72
    1
 10
463
 20
147.5
 11
463
 21
0
 72
    1
 10
463
 20
0
 11
473
 21
0
 97
    0
 75
    0
 76
    1
 52
0.1745329251994329
 41
1
 77
    0
 78
    0
 98
    0
  0
LINE
  5
1DA
100
AcDbEntity
  8
RDC - Murs
  6
ByLayer
 62
  256
370
   -1
100
AcDbLine
 10
841
 20
996
 11
833
 21
0
  0
LINE
  5
1DB
100
AcDbEntity
  8
RDC - Murs
  6
ByLayer
 62
  256
370
   -1
100
AcDbLine
 10
-44
 20
-40
 11
-44
 21
1036
  0
LINE
  5
1DC
100
AcDbEntity
  8
RDC - Murs
  6
ByLayer
 62
  256
370
   -1
100
AcDbLine
 10
871
 20
1036
 11
873
 21
-40
  0
LINE
  5
1DD
100
AcDbEntity
  8
RDC - Murs
  6
CONTINUOUS
 62
    7
370
    0
100
AcDbLine
 10
315
 20
0
 11
315.5923694779116
 21
147.5
  0
LINE
  5
1DE
100
AcDbEntity
  8
RDC - Murs
  6
ByLayer
 62
  256
370
   -1
100
AcDbLine
 10
345
 20
0
 11
345.5923694779116
 21
147.5
  0
LINE
  5
1DF
100
AcDbEntity
  8
RDC - Murs
  6
CONTINUOUS
 62
    7
370
    0
100
AcDbLine
 10
318.2590763052209
 20
811.5100000000001
 11
319
 21
996
  0
LINE
  5
1E0
100
AcDbEntity
  8
RDC - Murs
  6
CONTINUOUS
 62
    7
370
    0
100
AcDbLine
 10
345
 20
811.51
 11
345
 21
996
  0
LINE
  5
1E1
100
AcDbEntity
  8
RDC - Murs
  6
ByLayer
 62
  256
370
   -1
100
AcDbLine
 10
318.2590763052209
 20
811.5100000000001
 11
345
 21
811.51
  0
LINE
  5
1E2
100
AcDbEntity
  8
RDC - Cloisons petit côté
  6
ByLayer
 62
  256
370
   -1
100
AcDbLine
 10
72.514
 20
305
 11
72.514
 21
295.0000001810018
  0
LINE
  5
1E3
100
AcDbEntity
  8
RDC - Cloisons petit côté
  6
ByLayer
 62
  256
370
   -1
100
AcDbLine
 10
275.75
 20
564.4
 11
317.267
 21
564.5
  0
LINE
  5
1E4
100
AcDbEntity
  8
RDC - Cloisons petit côté
  6
ByLayer
 62
  256
370
   -1
100
AcDbLine
 10
317.267
 20
554.5
 11
275.75
 21
554.4
  0
LINE
  5
1E5
100
AcDbEntity
  8
RDC - Cloisons petit côté
  6
ByLayer
 62
  256
370
   -1
100
AcDbLine
 10
275.75
 20
554.4
 11
275.75
 21
564.4
  0
LINE
  5
1E6
100
AcDbEntity
  8
RDC - Cloisons petit côté
  6
ByLayer
 62
  256
370
   -1
100
AcDbLine
 10
275.75
 20
564.4
 11
317.2670682737528
 21
564.5000001644477
  0
LINE
  5
1E7
100
AcDbEntity
  8
RDC - Murs
  6
CONTINUOUS
 62
    7
370
    0
100
AcDbLine
 10
207
 20
996
 11
207
 21
1036
  0
LWPOLYLINE
  5
1E8
100
AcDbEntity
  8
RDC - Ouvertures
  6
ByLayer
 62
  256
370
   -1
100
AcDbPolyline
 90
    4
 70
    1
 43
0
 10
190.75
 20
564.4
 10
196.5699209649398
 20
564.4
 10
196.5699209649398
 20
554.3095869716032
 10
190.75
 20
554.3095869716032
  0
LWPOLYLINE
  5
1E9
100
AcDbEntity
  8
RDC - Ouvertures
  6
ByLayer
 62
  256
370
   -1
100
AcDbPolyline
 90
    4
 70
    1
 43
0
 10
206.1982240753405
 20
560.9702527032833
 10
275.75
 20
560.9702527032833
 10
275.75
 20
557.3831904438358
 10
206.1982240753405
 20
557.3831904438358
  0
LWPOLYLINE
  5
1EA
100
AcDbEntity
  8
RDC - Ouvertures
  6
ByLayer
 62
  256
370
   -1
100
AcDbPolyline
 90
    4
 70
    1
 43
0
 10
271.9761035191098
 20
557.3831904438358
 10
275.75
 20
557.3831904438358
 10
275.75
 20
554.456306637243
 10
271.9761035191098
 20
554.456306637243
  0
LWPOLYLINE
  5
1EB
100
AcDbEntity
  8
RDC - Ouvertures
  6
ByLayer
 62
  256
370
   -1
100
AcDbPolyline
 90
    4
 70
    1
 43
0
 10
275.75
 20
560.9566014563696
 10
271.9761035191098
 20
560.9566014563696
 10
271.9761035191098
 20
564.4422667941622
 10
275.75
 20
564.4422667941622
  0
LINE
  5
1EC
100
AcDbEntity
  8
RDC - Ouvertures
  6
DASHEDTINY
 62
    5
370
    0
100
AcDbLine
 10
275.75
 20
557.383
 11
206.198
 21
557.383
  0
LWPOLYLINE
  5
1ED
100
AcDbEntity
  8
RDC - Ouvertures
  6
ByLayer
 62
  256
370
   -1
100
AcDbPolyline
 90
    4
 70
    1
 43
0
 10
72.65067545709792
 20
305.048813854035
 10
78.47059642203772
 20
305.048813854035
 10
78.47059642203772
 20
294.9584008256382
 10
72.65067545709792
 20
294.9584008256382
  0
LWPOLYLINE
  5
1EE
100
AcDbEntity
  8
RDC - Ouvertures
  6
ByLayer
 62
  256
370
   -1
100
AcDbPolyline
 90
    4
 70
    1
 43
0
 10
87.78788013151855
 20
301.578210607497
 10
157.339656056178
 20
301.578210607497
 10
157.339656056178
 20
297.9911483480495
 10
87.78788013151855
 20
297.9911483480495
  0
LWPOLYLINE
  5
1EF
100
AcDbEntity
  8
RDC - Ouvertures
  6
ByLayer
 62
  256
370
   -1
100
AcDbPolyline
 90
    4
 70
    1
 43
0
 10
153.5657595752878
 20
297.9911483480495
 10
157.339656056178
 20
297.9911483480495
 10
157.339656056178
 20
295.0642645414566
 10
153.5657595752878
 20
295.0642645414566
  0
LWPOLYLINE
  5
1F0
100
AcDbEntity
  8
RDC - Ouvertures
  6
ByLayer
 62
  256
370
   -1
100
AcDbPolyline
 90
    4
 70
    1
 43
0
 10
157.339656056178
 20
301.5645593605833
 10
153.5657595752878
 20
301.5645593605833
 10
153.5657595752878
 20
305.0502246983758
 10
157.339656056178
 20
305.0502246983758
  0
LINE
  5
1F1
100
AcDbEntity
  8
RDC - Ouvertures
  6
DASHEDTINY
 62
    5
370
    0
100
AcDbLine
 10
157.339656056178
 20
297.9909579042137
 11
87.78765605617799
 21
297.9909579042137
  0
LINE
  5
1F2
100
AcDbEntity
  8
RDC - Cloisons petit côté
  6
ByLayer
 62
  256
370
   -1
100
AcDbLine
 10
463
 20
247.5
 11
473
 21
247.5
  0
LINE
  5
1F3
100
AcDbEntity
  8
RDC - Murs
  6
ByLayer
 62
  256
370
   -1
100
AcDbLine
 10
117
 20
1036
 11
117
 21
996
  0
LINE
  5
1F4
100
AcDbEntity
  8
RDC - Murs
  6
ByLayer
 62
  256
370
   -1
100
AcDbLine
 10
358
 20
1036
 11
358
 21
996
  0
LINE
  5
1F5
100
AcDbEntity
  8
RDC - Murs
  6
ByLayer
 62
  256
370
   -1
100
AcDbLine
 10
464
 20
1036
 11
463.9999999999999
 21
996
  0
LINE
  5
1F6
100
AcDbEntity
  8
RDC - Murs
  6
ByLayer
 62
  256
370
   -1
100
AcDbLine
 10
611
 20
1036
 11
611
 21
996
  0
LINE
  5
1F7
100
AcDbEntity
  8
RDC - Murs
  6
ByLayer
 62
  256
370
   -1
100
AcDbLine
 10
701
 20
1036
 11
701
 21
996
  0
LINE
  5
1F8
100
AcDbEntity
  8
RDC - Murs
  6
ByLayer
 62
  256
370
   -1
100
AcDbLine
 10
107
 20
0
 11
107
 21
-40
  0
LINE
  5
1F9
100
AcDbEntity
  8
RDC - Murs
  6
ByLayer
 62
  256
370
   -1
100
AcDbLine
 10
207
 20
0
 11
207
 21
-40
  0
LINE
  5
1FA
100
AcDbEntity
  8
RDC - Murs
  6
ByLayer
 62
  256
370
   -1
100
AcDbLine
 10
353
 20
0
 11
353
 21
-40
  0
LINE
  5
1FB
100
AcDbEntity
  8
RDC - Murs
  6
ByLayer
 62
  256
370
   -1
100
AcDbLine
 10
453
 20
-7.175991754593269e-06
 11
453
 21
-40
  0
LINE
  5
1FC
100
AcDbEntity
  8
RDC - Murs
  6
ByLayer
 62
  256
370
   -1
100
AcDbLine
 10
593
 20
0
 11
593
 21
-40
  0
LINE
  5
1FD
100
AcDbEntity
  8
RDC - Murs
  6
ByLayer
 62
  256
370
   -1
100
AcDbLine
 10
693
 20
0
 11
693
 21
-40
  0
LINE
  5
1FE
100
AcDbEntity
  8
RDC - Murs
  6
CONTINUOUS
 62
    7
370
    0
100
AcDbLine
 10
0
 20
0
 11
107
 21
0
  0
LINE
  5
1FF
100
AcDbEntity
  8
RDC - Murs
  6
CONTINUOUS
 62
    7
370
    0
100
AcDbLine
 10
-44
 20
-40
 11
107
 21
-40
  0
LINE
  5
200
100
AcDbEntity
  8
RDC - Murs
  6
CONTINUOUS
 62
    7
370
    0
100
AcDbLine
 10
207
 20
-40
 11
353
 21
-40
  0
LINE
  5
201
100
AcDbEntity
  8
RDC - Murs
  6
CONTINUOUS
 62
    7
370
    0
100
AcDbLine
 10
693
 20
0
 11
833
 21
0
  0
LINE
  5
202
100
AcDbEntity
  8
RDC - Murs
  6
CONTINUOUS
 62
    7
370
    0
100
AcDbLine
 10
452.9999999999999
 20
-40
 11
593
 21
-40
  0
LINE
  5
203
100
AcDbEntity
  8
RDC - Murs
  6
CONTINUOUS
 62
    7
370
    0
100
AcDbLine
 10
693
 20
-40
 11
873
 21
-40
  0
LINE
  5
204
100
AcDbEntity
  8
RDC - Murs
  6
CONTINUOUS
 62
    7
370
    0
100
AcDbLine
 10
-4
 20
996
 11
117
 21
996
  0
LINE
  5
205
100
AcDbEntity
  8
RDC - Murs
  6
CONTINUOUS
 62
    7
370
    0
100
AcDbLine
 10
-44
 20
1036
 11
117
 21
1036
  0
LINE
  5
206
100
AcDbEntity
  8
RDC - Murs
  6
CONTINUOUS
 62
    7
370
    0
100
AcDbLine
 10
207
 20
1036
 11
358
 21
1036
  0
LINE
  5
207
100
AcDbEntity
  8
RDC - Murs
  6
CONTINUOUS
 62
    7
370
    0
100
AcDbLine
 10
463.9999999999999
 20
996
 11
611
 21
996
  0
LINE
  5
208
100
AcDbEntity
  8
RDC - Murs
  6
CONTINUOUS
 62
    7
370
    0
100
AcDbLine
 10
701
 20
996
 11
841
 21
996
  0
LINE
  5
209
100
AcDbEntity
  8
RDC - Murs
  6
CONTINUOUS
 62
    7
370
    0
100
AcDbLine
 10
464
 20
1036
 11
611
 21
1036
  0
LINE
  5
20A
100
AcDbEntity
  8
RDC - Murs
  6
CONTINUOUS
 62
    7
370
    0
100
AcDbLine
 10
701
 20
1036
 11
871
 21
1036
  0
LINE
  5
20B
100
AcDbEntity
  8
RDC - Murs
  6
CONTINUOUS
 62
    7
370
    0
100
AcDbLine
 10
207
 20
996
 11
319
 21
996
  0
LINE
  5
20C
100
AcDbEntity
  8
RDC - Murs
  6
CONTINUOUS
 62
    7
370
    0
100
AcDbLine
 10
345
 20
996
 11
358
 21
996
  0
LINE
  5
20D
100
AcDbEntity
  8
RDC - Murs
  6
CONTINUOUS
 62
    7
370
    0
100
AcDbLine
 10
207
 20
0
 11
315
 21
0
  0
LINE
  5
20E
100
AcDbEntity
  8
RDC - Murs
  6
CONTINUOUS
 62
    7
370
    0
100
AcDbLine
 10
345
 20
0
 11
353
 21
0
  0
LINE
  5
20F
100
AcDbEntity
  8
RDC - Cloisons petit côté
  6
CONTINUOUS
 62
    1
370
    0
100
AcDbLine
 10
317.267
 20
564.5
 11
317.267
 21
564.4829999999982
  0
LINE
  5
210
100
AcDbEntity
  8
RDC - Cloisons petit côté
  6
CONTINUOUS
 62
  256
370
    0
100
AcDbLine
 10
-1.3
 20
305.048
 11
72.514
 21
305
  0
LINE
  5
211
100
AcDbEntity
  8
RDC - Cloisons petit côté
  6
ByLayer
 62
  256
370
   -1
100
AcDbLine
 10
-1.3
 20
305.048
 11
-1.22
 21
295
  0
LINE
  5
212
100
AcDbEntity
  8
RDC - Cloisons petit côté
  6
ByLayer
 62
  256
370
   -1
100
AcDbLine
 10
317.267
 20
564.4829999999982
 11
317.267
 21
554.5
  0
LINE
  5
213
100
AcDbEntity
  8
RDC - Cloisons petit côté
  6
ByLayer
 62
  256
370
   -1
100
AcDbLine
 10
345
 20
310
 11
345
 21
300
  0
LINE
  5
214
100
AcDbEntity
  8
RDC - Cloisons petit côté
  6
CONTINUOUS
 62
  256
370
   25
100
AcDbLine
 10
-2.26707
 20
564.5
 11
190.75
 21
564.4
  0
LINE
  5
215
100
AcDbEntity
  8
RDC - Cloisons petit côté
  6
CONTINUOUS
 62
  256
370
   25
100
AcDbLine
 10
120.418
 20
554.638
 11
-2.23
 21
554.5
  0
LINE
  5
216
100
AcDbEntity
  8
RDC - Cloisons petit côté
  6
CONTINUOUS
 62
  256
370
   25
100
AcDbLine
 10
120.616
 20
445.038
 11
120.418
 21
554.638
  0
LINE
  5
217
100
AcDbEntity
  8
RDC - Cloisons petit côté
  6
CONTINUOUS
 62
  256
370
   25
100
AcDbLine
 10
131.564
 20
554.288
 11
131.486
 21
456.664
  0
LINE
  5
218
100
AcDbEntity
  8
RDC - Cloisons petit côté
  6
CONTINUOUS
 62
  256
370
   25
100
AcDbLine
 10
190.75
 20
554.4
 11
131.564
 21
554.288
  0
LINE
  5
219
100
AcDbEntity
  8
RDC - Cloisons petit côté
  6
CONTINUOUS
 62
  256
370
   25
100
AcDbLine
 10
190.75
 20
564.4
 11
190.75
 21
554.4
  0
LINE
  5
21A
100
AcDbEntity
  8
RDC - Cloisons petit côté
  6
CONTINUOUS
 62
  256
370
   25
100
AcDbLine
 10
-2.23
 20
554.5
 11
-2.26707
 21
564.5
  0
LINE
  5
21B
100
AcDbEntity
  8
RDC - Cloisons petit côté
  6
CONTINUOUS
 62
  256
370
   25
100
AcDbLine
 10
131.486
 20
456.664
 11
188.513
 21
456.538
  0
LINE
  5
21C
100
AcDbEntity
  8
RDC - Cloisons petit côté
  6
CONTINUOUS
 62
  256
370
   25
100
AcDbLine
 10
178.513
 20
445.038
 11
120.616
 21
445.038
  0
LINE
  5
21D
100
AcDbEntity
  8
RDC - Cloisons petit côté
  6
CONTINUOUS
 62
  256
370
   25
100
AcDbLine
 10
178.513
 20
305.048
 11
178.513
 21
445.038
  0
LINE
  5
21E
100
AcDbEntity
  8
RDC - Cloisons petit côté
  6
CONTINUOUS
 62
  256
370
   25
100
AcDbLine
 10
188.513
 20
456.538
 11
188.513
 21
362
  0
LINE
  5
21F
100
AcDbEntity
  8
RDC - Cloisons petit côté
  6
CONTINUOUS
 62
  256
370
    0
100
AcDbLine
 10
316.414
 20
352
 11
188.513
 21
352
  0
LINE
  5
220
100
AcDbEntity
  8
RDC - Cloisons petit côté
  6
CONTINUOUS
 62
  256
370
   25
100
AcDbLine
 10
157.514
 20
305
 11
178.513
 21
305.048
  0
LINE
  5
221
100
AcDbEntity
  8
RDC - Cloisons petit côté
  6
CONTINUOUS
 62
  256
370
   25
100
AcDbLine
 10
157.514
 20
295
 11
157.514
 21
305
  0
LINE
  5
222
100
AcDbEntity
  8
RDC - Cloisons petit côté
  6
CONTINUOUS
 62
  256
370
   25
100
AcDbLine
 10
188.513
 20
295
 11
157.514
 21
295
  0
LINE
  5
223
100
AcDbEntity
  8
RDC - Cloisons petit côté
  6
CONTINUOUS
 62
  256
370
   25
100
AcDbLine
 10
188.513
 20
352
 11
188.513
 21
295
  0
LINE
  5
224
100
AcDbEntity
  8
RDC - Cloisons petit côté
  6
CONTINUOUS
 62
  256
370
   25
100
AcDbLine
 10
188.513
 20
362
 11
316.5
 21
362
  0
LINE
  5
225
100
AcDbEntity
  8
RDC - Cloisons petit côté
  6
CONTINUOUS
 62
  256
370
   25
100
AcDbLine
 10
316.5
 20
362
 11
316.414
 21
352
  0
ARC
  5
226
100
AcDbEntity
  8
RDC - Ouvertures
  6
CONTINUOUS
 62
    5
370
    0
100
AcDbCircle
 10
334.6947517967991
 20
237.0577543270917
 40
92.10819157052701
100
AcDbArc
 50
173.4904195035949
 51
258.0291178978443
  0
LINE
  5
227
100
AcDbEntity
  8
RDC - Ouvertures
  6
ByLayer
 62
  256
370
   -1
100
AcDbLine
 10
463
 20
247.5
 11
554.062777028176
 21
247.5
  0
ARC
  5
228
100
AcDbEntity
  8
RDC - Ouvertures
  6
CONTINUOUS
 62
    5
370
    0
100
AcDbCircle
 10
477.5476616443553
 20
226.6694082788394
 40
79.29991446182719
100
AcDbArc
 50
266.7124195168642
 51
15.22921101392297
  0
LINE
  5
229
100
AcDbEntity
  8
RDC - Ouvertures
  6
ByLayer
 62
  256
370
   -1
100
AcDbLine
 10
345.9490992837312
 20
711.1175929721142
 11
203.5935015375062
 21
711.1175929721142
  0
ARC
  5
22A
100
AcDbEntity
  8
RDC - Ouvertures
  6
CONTINUOUS
 62
    5
370
    0
100
AcDbCircle
 10
331.1395213477645
 20
680.4645639793761
 40
131.1777243127381
100
AcDbArc
 50
87.42661483401088
 51
166.4864352099188
  0
INSERT
  5
22B
100
AcDbEntity
  8
Cuisine - Evier
  6
ByLayer
 62
  256
370
   -1
100
AcDbBlockReference
  2
Evier
 10
698.9271572815984
 20
1.837347942380648
 30
0
 41
-1
 42
1
 43
0
 50
0
 70
    1
 71
    1
 44
0
 45
0
  0
LWPOLYLINE
  5
22C
100
AcDbEntity
  8
Poutres
  6
ByLayer
 62
  256
370
   -1
100
AcDbPolyline
 90
    4
 70
    1
 43
0
 10
325
 20
491
 10
858
 20
491
 10
858
 20
505
 10
325
 20
505
  0
LINE
  5
22D
100
AcDbEntity
  8
Poutres
  6
DASHED2
 62
    6
370
    0
100
AcDbLine
 10
858
 20
505
 11
325
 21
505
  0
LINE
  5
22E
100
AcDbEntity
  8
Poutres
  6
DASHED2
 62
    6
370
    5
100
AcDbLine
 10
325
 20
491
 11
858
 21
491
  0
LWPOLYLINE
  5
22F
100
AcDbEntity
  8
Poutres
  6
ByLayer
 62
  256
370
   -1
100
AcDbPolyline
 90
    4
 70
    1
 43
0
 10
325
 20
291
 10
858
 20
291
 10
858
 20
305
 10
325
 20
305
  0
LWPOLYLINE
  5
230
100
AcDbEntity
  8
Poutres
  6
ByLayer
 62
  256
370
   -1
100
AcDbPolyline
 90
    4
 70
    1
 43
0
 10
325
 20
91
 10
858
 20
91
 10
858
 20
105
 10
325
 20
105
  0
LWPOLYLINE
  5
231
100
AcDbEntity
  8
Poutres
  6
ByLayer
 62
  256
370
   -1
100
AcDbPolyline
 90
    4
 70
    1
 43
0
 10
325
 20
691
 10
858
 20
691
 10
858
 20
705
 10
325
 20
705
  0
LWPOLYLINE
  5
232
100
AcDbEntity
  8
Poutres
  6
ByLayer
 62
  256
370
   -1
100
AcDbPolyline
 90
    4
 70
    1
 43
0
 10
325
 20
891
 10
858
 20
891
 10
858
 20
905
 10
325
 20
905
  0
LINE
  5
233
100
AcDbEntity
  8
RDC - Murs
  6
CONTINUOUS
 62
    7
370
    0
100
AcDbLine
 10
453
 20
-7.17599e-06
 11
593
 21
0
  0
LINE
  5
234
100
AcDbEntity
  8
RDC - Ouvertures
  6
ByLayer
 62
  256
370
   -1
100
AcDbLine
 10
207
 20
0
 11
315
 21
0
  0
LINE
  5
235
100
AcDbEntity
  8
RDC - Ouvertures
  6
ByLayer
 62
  256
370
   -1
100
AcDbLine
 10
315
 20
0
 11
315.5923694779116
 21
147.5
  0
LINE
  5
236
100
AcDbEntity
  8
RDC - Murs
  6
ByLayer
 62
  256
370
   -1
100
AcDbLine
 10
315.5923694779116
 20
147.5
 11
345.5923694779116
 21
147.5
  0
INSERT
  5
237
100
AcDbEntity
  8
Compound - Escaliers
  6
ByLayer
 62
  256
370
   -1
100
AcDbBlockReference
  2
Escaliers_Montée3-Compound-0
 10
545.3611797041614
 20
528.7343144692784
 30
0
 41
1
 42
1
 43
0
 50
180.241
 70
    1
 71
    1
 44
0
 45
0
  0
LWPOLYLINE
  5
238
100
AcDbEntity
  8
RDC - Ouvertures extérieures
  6
ByLayer
 62
  256
370
   -1
100
AcDbPolyline
 90
    4
 70
    1
 43
0
 10
117.0164862653433
 20
1021.513105391936
 10
206.9899182920389
 20
1021.513105391936
 10
206.9899182920389
 20
1008.756947732196
 10
117.0164862653433
 20
1008.756947732196
  0
LWPOLYLINE
  5
239
100
AcDbEntity
  8
RDC - Ouvertures extérieures
  6
ByLayer
 62
  256
370
   -1
100
AcDbPolyline
 90
    4
 70
    1
 43
0
 10
611.2750750547148
 20
1021.683187494065
 10
701.4185891835402
 20
1021.683187494065
 10
701.4185891835402
 20
1009.267194038586
 10
611.2750750547148
 20
1009.267194038586
  0
LINE
  5
23A
100
AcDbEntity
  8
RDC - Ouvertures extérieures
  6
CONTINUOUS
 62
  256
370
    0
100
AcDbLine
 10
358
 20
890
 11
358
 21
1036
  0
ARC
  5
23B
100
AcDbEntity
  8
RDC - Ouvertures extérieures
  6
CONTINUOUS
 62
    5
370
    0
100
AcDbCircle
 10
358
 20
996
 40
106
100
AcDbArc
 50
270
 51
0
  0
LWPOLYLINE
  5
23C
100
AcDbEntity
  8
RDC - Ouvertures extérieures
  6
ByLayer
 62
  256
370
   -1
100
AcDbPolyline
 90
    4
 70
    1
 43
0
 10
107.4465000659359
 20
-14.21250000872167
 10
207.218250127162
 20
-14.21250000872167
 10
207.218250127162
 20
-25.29825001552458
 10
107.4465000659359
 20
-25.29825001552458
  0
LINE
  5
23D
100
AcDbEntity
  8
RDC - Ouvertures extérieures
  6
CONTINUOUS
 62
  256
370
    0
100
AcDbLine
 10
353
 20
0
 11
353
 21
100
  0
ARC
  5
23E
100
AcDbEntity
  8
RDC - Ouvertures extérieures
  6
CONTINUOUS
 62
    5
370
    0
100
AcDbCircle
 10
353
 20
0
 40
100
100
AcDbArc
 50
360
 51
90
  0
LWPOLYLINE
  5
23F
100
AcDbEntity
  8
RDC - Ouvertures extérieures
  6
ByLayer
 62
  256
370
   -1
100
AcDbPolyline
 90
    4
 70
    1
 43
0
 10
593.2463722289497
 20
-13.94673237464847
 10
693.254648281307
 20
-13.94673237464847
 10
693.254648281307
 20
-27.04305423864765
 10
593.2463722289497
 20
-27.04305423864765
  0
LINE
  5
240
100
AcDbEntity
  8
RDC - Cloisons grand côté
  6
CONTINUOUS
 62
  256
370
    0
100
AcDbLine
 10
473
 20
0
 11
473
 21
147.5
  0
LINE
  5
241
100
AcDbEntity
  8
RDC - Cloisons grand côté
  6
CONTINUOUS
 62
  256
370
    0
100
AcDbLine
 10
473
 20
147.5
 11
463
 21
147.5
  0
LINE
  5
242
100
AcDbEntity
  8
RDC - Cloisons grand côté
  6
CONTINUOUS
 62
  256
370
    0
100
AcDbLine
 10
463
 20
147.5
 11
463
 21
0
  0
LINE
  5
243
100
AcDbEntity
  8
RDC - Cloisons grand côté
  6
CONTINUOUS
 62
  256
370
    0
100
AcDbLine
 10
463
 20
300
 11
463
 21
247.5
  0
LINE
  5
244
100
AcDbEntity
  8
RDC - Cloisons grand côté
  6
CONTINUOUS
 62
  256
370
    0
100
AcDbLine
 10
473
 20
247.5
 11
473
 21
300
  0
LINE
  5
245
100
AcDbEntity
  8
RDC - Cloisons grand côté
  6
CONTINUOUS
 62
  256
370
    0
100
AcDbLine
 10
345
 20
300
 11
463
 21
300
  0
LINE
  5
246
100
AcDbEntity
  8
RDC - Cloisons grand côté
  6
CONTINUOUS
 62
  256
370
    0
100
AcDbLine
 10
547.317
 20
310
 11
345
 21
310
  0
LINE
  5
247
100
AcDbEntity
  8
RDC - Cloisons grand côté
  6
CONTINUOUS
 62
  256
370
    0
100
AcDbLine
 10
473
 20
300
 11
547.317
 21
300
  0
LINE
  5
248
100
AcDbEntity
  8
RDC - Cloisons grand côté
  6
CONTINUOUS
 62
  256
370
    0
100
AcDbLine
 10
547.317
 20
310.003
 11
547.317
 21
299.94
  0
LINE
  5
249
100
AcDbEntity
  8
RDC - Cloisons petit côté
  6
CONTINUOUS
 62
  256
370
    0
100
AcDbLine
 10
72.514
 20
295
 11
-1.22
 21
295
  0
LINE
  5
24A
100
AcDbEntity
  8
RDC - Murs
  6
CONTINUOUS
 62
    7
370
    0
100
AcDbLine
 10
315.994
 20
711.1319999999999
 11
315.994
 21
247.5
  0
LINE
  5
24B
100
AcDbEntity
  8
RDC - Murs
  6
CONTINUOUS
 62
    5
370
    0
100
AcDbLine
 10
315.994
 20
711.1319999999999
 11
315.994
 21
247.5
  0
LINE
  5
24C
100
AcDbEntity
  8
RDC - Murs
  6
CONTINUOUS
 62
  256
370
    0
100
AcDbLine
 10
345
 20
247.5
 11
345
 21
711.1319999999999
  0
LINE
  5
24D
100
AcDbEntity
  8
RDC - Ouvertures
  6
ByLayer
 62
  256
370
   -1
100
AcDbLine
 10
242.9848407143571
 20
248.0705699386111
 11
345.5470467368124
 21
248.3531104510696
  0
MTEXT
  5
24E
100
AcDbEntity
  8
0
  6
CONTINUOUS
 62
    0
370
   -2
100
AcDbMText
 10
46.41101684191464
 20
980.1788912799868
 30
0
 40
20
 41
0
 71
    5
 72
    1
  1
120.5223
  7
standard
210
0
220
0
230
1
 50
359.909
 73
    2
 44
1
  0
LWPOLYLINE
  5
24F
100
AcDbEntity
  8
1er étage - Murs
  6
ByLayer
 62
  256
370
   -1
100
AcDbPolyline
 90
   10
 70
    0
 43
0
 10
-44.33029099538174
 20
1038.351816007211
 10
127.28
 20
1038.287046435117
 10
127.28
 20
995.025086166997
 10
-6.498431786547661
 20
995.3902253916265
 10
-9.13660402838417
 20
-11.49564545638462
 10
116.68
 20
-11.3327
 10
116.68
 20
-39.6645
 10
-44.00340341189277
 20
-39.95711344298309
 10
-44.33029099538174
 20
1038.351816007211
 10
-44.33029099538174
 20
1038.351816007211
  0
LWPOLYLINE
  5
250
100
AcDbEntity
  8
1er étage - Murs
  6
ByLayer
 62
  256
370
   -1
100
AcDbPolyline
 90
    5
 70
    0
 43
0
 10
440.7637068736163
 20
-9.684453872532082
 10
440.703179036913
 20
-39.82731655078818
 10
642.42
 20
-39.898
 10
642.42
 20
-9.778165909110211
 10
440.7637068736163
 20
-9.684453872532082
  0
LWPOLYLINE
  5
251
100
AcDbEntity
  8
1er étage - Murs
  6
ByLayer
 62
  256
370
   -1
100
AcDbPolyline
 90
    9
 70
    0
 43
0
 10
187.28
 20
1038.29
 10
570.45
 20
1038.351816007211
 10
570.45
 20
996.5135128371332
 10
343.6781417703212
 20
996.2393026095278
 10
344.3632715703476
 20
600.27
 10
317.788
 20
600.27
 10
318.705698053294
 20
994.2600633417921
 10
187.4547102701997
 20
994.7144683824548
 10
187.28
 20
1038.29
  0
LWPOLYLINE
  5
252
100
AcDbEntity
  8
1er étage - Murs
  6
ByLayer
 62
  256
370
   -1
100
AcDbPolyline
 90
    9
 70
    0
 43
0
 10
176.68
 20
-10.46081652035499
 10
176.6025854944347
 20
-40.0358506158668
 10
380.9807080633735
 20
-39.78960977251176
 10
380.7300000000001
 20
-9.792798103021315
 10
345.4188421735003
 20
-9.794772499095078
 10
344.4999621012686
 20
521.27
 10
317.316
 20
521.27
 10
314.8450565391723
 20
-9.691363224173417
 10
176.68
 20
-10.3883
  0
LWPOLYLINE
  5
253
100
AcDbEntity
  8
1er étage - Murs
  6
ByLayer
 62
  256
370
   -1
100
AcDbPolyline
 90
    9
 70
    0
 43
0
 10
707.2040019785902
 20
1038.334706021994
 10
871.7385010821166
 20
1038.347672725368
 10
873.1009323763967
 20
-40.14598973801552
 10
702.4368825928532
 20
-39.82849206190958
 10
702.4475198206161
 20
-9.831160700425333
 10
841.3279894885104
 20
-9.781063865891351
 10
848.5672719809428
 20
996.8100563098371
 10
707.1636490086465
 20
996.7330183575549
 10
707.1910352752169
 20
1038.321739318621
  0
LWPOLYLINE
  5
254
100
AcDbEntity
  8
1er étage - Cloisons petit côté
  6
ByLayer
 62
  256
370
   -1
100
AcDbPolyline
 90
   15
 70
    0
 43
0
 10
209.83
 20
505.703
 10
219.83
 20
505.703
 10
219.83
 20
615.4829999999999
 10
209.83
 20
615.4829999999999
 10
209.83
 20
537.803
 10
-7.697369969313561
 20
537.803
 10
-7.723571272939111
 20
527.803
 10
43
 20
527.803
 10
43
 20
408.17
 10
-7.99142
 20
408.34
 10
-8.00498
 20
401.34
 10
50.0041
 20
401.25
 10
50
 20
527.803
 10
209.83
 20
527.803
 10
209.83
 20
505.703
  0
LWPOLYLINE
  5
255
100
AcDbEntity
  8
1er étage - Cloisons petit côté
  6
ByLayer
 62
  256
370
   -1
100
AcDbPolyline
 90
    4
 70
    1
 43
0
 10
76.13590935172974
 20
615.5122460671485
 10
132.0331592555313
 20
615.5122460671485
 10
132.0331592555313
 20
606.8385348751792
 10
76.13590935172974
 20
606.8385348751792
  0
LWPOLYLINE
  5
256
100
AcDbEntity
  8
1er étage - Cloisons petit côté
  6
ByLayer
 62
  256
370
   -1
100
AcDbPolyline
 90
    8
 70
    0
 43
0
 10
-8.270950567371564
 20
318.89
 10
-8.296580000000001
 20
308.89
 10
219.8701601552963
 20
309.0664522112001
 10
219.8701601552963
 20
396.0956817778933
 10
208.8897196450251
 20
396.030630707154
 10
208.8452756645468
 20
319.2539245827467
 10
-8.270950567371559
 20
318.8900000000019
 10
-8.296580000000001
 20
308.89
  0
LINE
  5
257
100
AcDbEntity
  8
1er étage - Cloisons grand côté
  6
CONTINUOUS
 62
  256
370
    0
100
AcDbLine
 10
344.682
 20
630.72
 11
846
 21
630.72
  0
LINE
  5
258
100
AcDbEntity
  8
1er étage - Cloisons grand côté
  6
CONTINUOUS
 62
  256
370
    0
100
AcDbLine
 10
344.682
 20
640.72
 11
846
 21
640.72
  0
LINE
  5
259
100
AcDbEntity
  8
1er étage - Cloisons grand côté
  6
ByLayer
 62
  256
370
   -1
100
AcDbLine
 10
618
 20
592
 11
664.7
 21
547.1130000000001
  0
LINE
  5
25A
100
AcDbEntity
  8
1er étage - Cloisons grand côté
  6
ByLayer
 62
  256
370
   -1
100
AcDbLine
 10
628
 20
592
 11
674.7
 21
547.1130000000001
  0
LINE
  5
25B
100
AcDbEntity
  8
1er étage - Cloisons grand côté
  6
CONTINUOUS
 62
  256
370
    0
100
AcDbLine
 10
674.7
 20
411
 11
845
 21
411
  0
LINE
  5
25C
100
AcDbEntity
  8
1er étage - Cloisons grand côté
  6
CONTINUOUS
 62
  256
370
    0
100
AcDbLine
 10
674.7
 20
421
 11
845
 21
421
  0
LINE
  5
25D
100
AcDbEntity
  8
1er étage - Cloisons grand côté
  6
CONTINUOUS
 62
  256
370
    0
100
AcDbLine
 10
344.4914864003648
 20
301.7504033218269
 11
843.5684864003648
 21
301.7504033218269
  0
LINE
  5
25E
100
AcDbEntity
  8
1er étage - Cloisons grand côté
  6
CONTINUOUS
 62
  256
370
    0
100
AcDbLine
 10
344.3564864003648
 20
311.7504033218269
 11
843.1244864003648
 21
311.7504033218269
  0
LINE
  5
25F
100
AcDbEntity
  8
1er étage - Cloisons grand côté
  6
CONTINUOUS
 62
  256
370
    0
100
AcDbLine
 10
650
 20
311.75
 11
650
 21
301.75
  0
LINE
  5
260
100
AcDbEntity
  8
1er étage - Cloisons grand côté
  6
CONTINUOUS
 62
  256
370
    0
100
AcDbLine
 10
560
 20
311.75
 11
560
 21
301.75
  0
LINE
  5
261
100
AcDbEntity
  8
1er étage - Cloisons grand côté
  6
CONTINUOUS
 62
  256
370
    0
100
AcDbLine
 10
664.7
 20
407.145
 11
674.7
 21
407.145
  0
LINE
  5
262
100
AcDbEntity
  8
1er étage - Cloisons grand côté
  6
CONTINUOUS
 62
  256
370
    0
100
AcDbLine
 10
664.7
 20
317.145
 11
674.7
 21
317.145
  0
LINE
  5
263
100
AcDbEntity
  8
1er étage - Cloisons grand côté
  6
CONTINUOUS
 62
    7
370
    0
100
AcDbLine
 10
605
 20
630.72
 11
605
 21
640.72
  0
LINE
  5
264
100
AcDbEntity
  8
1er étage - Cloisons grand côté
  6
CONTINUOUS
 62
  256
370
    0
100
AcDbLine
 10
628.052691927147
 20
630.72
 11
628
 21
592
  0
LINE
  5
265
100
AcDbEntity
  8
1er étage - Cloisons grand côté
  6
CONTINUOUS
 62
  256
370
    0
100
AcDbLine
 10
618.0049499787179
 20
630.72
 11
618
 21
592
  0
LINE
  5
266
100
AcDbEntity
  8
1er étage - Cloisons grand côté
  6
CONTINUOUS
 62
  256
370
    0
100
AcDbLine
 10
520
 20
640.72
 11
520
 21
630.72
  0
LINE
  5
267
100
AcDbEntity
  8
1er étage - Cloisons grand côté
  6
CONTINUOUS
 62
  256
370
    0
100
AcDbLine
 10
664.7
 20
311.75
 11
664.7
 21
547.1130000000001
  0
LINE
  5
268
100
AcDbEntity
  8
1er étage - Cloisons grand côté
  6
CONTINUOUS
 62
  256
370
    0
100
AcDbLine
 10
674.7
 20
311.75
 11
674.7
 21
547.1130000000001
  0
LINE
  5
269
100
AcDbEntity
  8
1er étage - Cloisons grand côté
  6
CONTINUOUS
 62
  256
370
    0
100
AcDbLine
 10
672
 20
640.72
 11
672
 21
630.72
  0
LINE
  5
26A
100
AcDbEntity
  8
1er étage - Cloisons grand côté
  6
CONTINUOUS
 62
  256
370
    0
100
AcDbLine
 10
762
 20
640.72
 11
762
 21
630.72
  0
LINE
  5
26B
100
AcDbEntity
  8
1er étage - Cloisons grand côté
  6
CONTINUOUS
 62
  256
370
    0
100
AcDbLine
 10
804
 20
421
 11
804
 21
505
  0
LINE
  5
26C
100
AcDbEntity
  8
1er étage - Cloisons grand côté
  6
CONTINUOUS
 62
  256
370
    0
100
AcDbLine
 10
814
 20
421
 11
814
 21
495
  0
LINE
  5
26D
100
AcDbEntity
  8
1er étage - Cloisons grand côté
  6
ByLayer
 62
  256
370
   -1
100
AcDbLine
 10
814.0664353272568
 20
495.8061236041877
 11
845.2313916680914
 21
495.8061236041877
  0
LINE
  5
26E
100
AcDbEntity
  8
1er étage - Cloisons grand côté
  6
ByLayer
 62
  256
370
   -1
100
AcDbLine
 10
804.1503128551731
 20
505.7222460762715
 11
845.7035879762859
 21
506.194442384466
  0
LINE
  5
26F
100
AcDbEntity
  8
Z - Constructions
  6
CONTINUOUS
 62
  256
370
    0
100
AcDbLine
 10
0
 20
978.11
 11
625.383
 21
978.11
  0
LINE
  5
270
100
AcDbEntity
  8
RDC - Murs
  6
CONTINUOUS
 62
  256
370
    0
100
AcDbLine
 10
-4
 20
996
 11
0
 21
0
  0
LINE
  5
271
100
AcDbEntity
  8
Z - Constructions
  6
CONTINUOUS
 62
  256
370
    0
100
AcDbLine
 10
0
 20
0
 11
0
 21
790
  0
MTEXT
  5
272
100
AcDbEntity
  8
0
  6
CONTINUOUS
 62
    1
370
   -2
100
AcDbMText
 10
-185.787618222614
 20
496.3273642413168
 30
0
 40
80
 41
0
 71
    6
 72
    1
  1
5381.5557
  7
standard
210
0
220
0
230
1
 50
90
 73
    2
 44
1
  0
MTEXT
  5
273
100
AcDbEntity
  8
0
  6
CONTINUOUS
 62
    7
370
   -3
100
AcDbMText
 10
-196.0345159734057
 20
498
 30
0
 40
35
 41
0
 71
    5
 72
    1
  1
1076.0000
  7
standard
210
0
220
0
230
1
 50
0
 73
    2
 44
1
  0
MTEXT
  5
274
100
AcDbEntity
  8
0
  6
CONTINUOUS
 62
    7
370
   -3
100
AcDbMText
 10
-196.0345159734057
 20
498
 30
0
 40
5
 41
0
 71
    5
 72
    1
  1
1076.0000
  7
standard
210
0
220
0
230
1
 50
0
 73
    2
 44
1
  0
MTEXT
  5
275
100
AcDbEntity
  8
0
  6
CONTINUOUS
 62
    7
370
   -3
100
AcDbMText
 10
-196.0345159734057
 20
498
 30
0
 40
60
 41
0
 71
    5
 72
    1
  1
1076.0000
  7
standard
210
0
220
0
230
1
 50
0
 73
    2
 44
1
  0
MTEXT
  5
276
100
AcDbEntity
  8
0
  6
CONTINUOUS
 62
    7
370
   -3
100
AcDbMText
 10
-196.0345159734057
 20
498
 30
0
 40
60
 41
0
 71
    5
 72
    1
  1
1076.0000
  7
standard
210
0
220
0
230
1
 50
0
 73
    2
 44
1
  0
MTEXT
  5
277
100
AcDbEntity
  8
0
  6
CONTINUOUS
 62
  176
420
  128
370
  211
100
AcDbMText
 10
-196.0345159734057
 20
498
 30
0
 40
60
 41
0
 71
    5
 72
    1
  1
1076.0000
  7
standard
210
0
220
0
230
1
 50
0
 73
    2
 44
1
  0
MTEXT
  5
278
100
AcDbEntity
  8
0
  6
CONTINUOUS
 62
  176
420
  128
370
  211
100
AcDbMText
 10
-196.0345159734057
 20
498
 30
0
 40
12
 41
0
 71
    5
 72
    1
  1
1076.0000
  7
standard
210
0
220
0
230
1
 50
0
 73
    2
 44
1
  0
MTEXT
  5
279
100
AcDbEntity
  8
0
  6
CONTINUOUS
 62
  176
420
  128
370
   -3
100
AcDbMText
 10
-196.0345159734057
 20
498
 30
0
 40
12
 41
0
 71
    5
 72
    1
  1
1076.0000
  7
standard
210
0
220
0
230
1
 50
0
 73
    2
 44
1
  0
MTEXT
  5
27A
100
AcDbEntity
  8
0
  6
CONTINUOUS
 62
  176
420
  128
370
   -3
100
AcDbMText
 10
-207.0345159734057
 20
498
 30
0
 40
20
 41
0
 71
    5
 72
    1
  1
1076.0000
  7
standard
210
0
220
0
230
1
 50
90
 73
    2
 44
1
  0
DIMENSION
  5
27B
100
AcDbEntity
  8
Cotations
  6
ByLayer
 62
  256
370
   -1
100
AcDbDimension
  2
*D1
 10
-147.3158788675942
 20
-42.91879935512585
 30
0
 11
-158.3158788675942
 21
496.4661114592938
 31
0
 70
   32
 71
    5
  3
Standard
 53
0
210
0
220
0
230
1
100
AcDbAlignedDimension
 13
-55.67844240664977
 23
1035.851022273713
 33
0
 14
-56.8384099567883
 24
-42.91879935512586
 34
0
 50
90
100
AcDbRotatedDimension
  0
LINE
  5
27C
100
AcDbEntity
  8
Cotations
  6
ByLayer
 62
    1
370
   -3
100
AcDbLine
 10
-147.316
 20
1035.85
 11
-147.316
 21
-42.9188
  0
LINE
  5
27D
100
AcDbEntity
  8
Cotations
  6
ByLayer
 62
    1
370
   -1
100
AcDbLine
 10
-147.316
 20
1035.85
 11
-147.316
 21
-42.9188
  0
ENDSEC
  0
SECTION
  2
OBJECTS
  0
DICTIONARY
  5
C
330
0
100
AcDbDictionary
281
    1
  3
ACAD_GROUP
350
D
  0
DICTIONARY
  5
D
330
C
100
AcDbDictionary
281
    1
  0
PLOTSETTINGS
  5
27E
100
AcDbPlotSettings
  6
1x1
 40
0
 41
0
 42
0
 43
0
  0
ENDSEC
  0
EOF
